  0
SECTION
  2
HEADER
  9
$ACADVER
  1
AC1015
  9
$DWGCODEPAGE
  3
ANSI_932
  9
$HANDSEED
  5
106AB90
  0
ENDSEC
  0
SECTION
  2
CLASSES
  0
CLASS
  1
IMAGEDEF
  2
AcDbRasterImageDef
  3
ISM
  90
0
  91
4
  280
0
  281
0
  0
CLASS
  1
IMAGE
  2
AcDbRasterImage
  3
ISM
  90
127
  91
5
  280
0
  281
1
  0
CLASS
  1
IMAGEDEF_REACTOR
  2
AcDbRasterImageDefReactor
  3
ISM
  90
1
  91
4
  280
0
  281
0
  0
ENDSEC
  0
SECTION
  2
TABLES
  0
TABLE
  2
VPORT
  5
2
  330
0
  100
AcDbSymbolTable
  70
    0
  0
ENDTAB
  0
TABLE
  2
LTYPE
  5
3
  330
0
  100
AcDbSymbolTable
  70
    4
  0
LTYPE
  5
4
  330
3
  100
AcDbSymbolTableRecord
  100
AcDbLinetypeTableRecord
  2
ByBlock
  70
    0
  3

  72
65
  73
    0
  40
0
  0
LTYPE
  5
5
  330
3
  100
AcDbSymbolTableRecord
  100
AcDbLinetypeTableRecord
  2
ByLayer
  70
    0
  3

  72
65
  73
    0
  40
0
  0
LTYPE
  5
6
  330
3
  100
AcDbSymbolTableRecord
  100
AcDbLinetypeTableRecord
  2
CONTINUOUS
  70
    0
  3
Solid Line
  72
65
  73
    0
  40
0
  0
LTYPE
  5
7
  330
3
  100
AcDbSymbolTableRecord
  100
AcDbLinetypeTableRecord
  2
DASH
  70
    0
  3
Hidden
  72
65
  73
2
  40
2.5
  49
1.5
  74
0
  49
-1
  74
0
  0
LTYPE
  5
8
  330
3
  100
AcDbSymbolTableRecord
  100
AcDbLinetypeTableRecord
  2
LONGDASHDASH
  70
    0
  3
__ . __
  72
65
  73
    4
  40
7
  49
4
  74
    0
  49
-1
  74
    0
  49
1
  74
    0
  49
-1
  74
    0
  0
ENDTAB
  0
TABLE
  2
LAYER
  5
9
  330
0
  100
AcDbSymbolTable
  70
    40
  0
LAYER
  5
a
  330
9
  100
AcDbSymbolTableRecord
  100
AcDbLayerTableRecord
  2
0
  70
    0
  62
    0
  6
CONTINUOUS
  390
0
  0
LAYER
  5
c
  330
9
  100
AcDbSymbolTableRecord
  100
AcDbLayerTableRecord
  2
1
  70
    0
  62
    4
  6
CONTINUOUS
  370
50
  390
0
  0
LAYER
  5
d
  330
9
  100
AcDbSymbolTableRecord
  100
AcDbLayerTableRecord
  2
2
  70
    0
  62
    7
  6
CONTINUOUS
  370
25
  390
0
  0
LAYER
  5
f
  330
9
  100
AcDbSymbolTableRecord
  100
AcDbLayerTableRecord
  2
4
  70
    0
  62
    2
  6
LONGDASHDASH
  370
25
  390
0
  0
LAYER
  5
13
  330
9
  100
AcDbSymbolTableRecord
  100
AcDbLayerTableRecord
  2
SK1
  70
    0
  62
    4
  6
CONTINUOUS
  370
50
  390
0
  0
LAYER
  5
14
  330
9
  100
AcDbSymbolTableRecord
  100
AcDbLayerTableRecord
  2
SK2
  70
    0
  62
    7
  6
CONTINUOUS
  370
25
  390
0
  0
LAYER
  5
16
  330
9
  100
AcDbSymbolTableRecord
  100
AcDbLayerTableRecord
  2
SK4
  70
    0
  62
    2
  6
LONGDASHDASH
  370
25
  390
0
  0
LAYER
  5
21
  330
9
  100
AcDbSymbolTableRecord
  100
AcDbLayerTableRecord
  2
NOCUT
  70
    0
  62
    7
  6
CONTINUOUS
  370
25
  390
0
  0
LAYER
  5
22
  330
9
  100
AcDbSymbolTableRecord
  100
AcDbLayerTableRecord
  2
CUT
  70
    0
  62
    1
  6
CONTINUOUS
  370
25
  390
0
  0
LAYER
  5
26
  330
9
  100
AcDbSymbolTableRecord
  100
AcDbLayerTableRecord
  2
INFTOTAL
  70
    0
  62
    9
  6
CONTINUOUS
  370
18
  390
0
  0
ENDTAB
  0
TABLE
  2
STYLE
  5
27
  330
0
  100
AcDbSymbolTable
  70
    1
  0
STYLE
  5
28
  330
27
  100
AcDbSymbolTableRecord
  100
AcDbTextStyleTableRecord
  2
Monospac821 BT
  70
    0
  40
    3.5
  41
1
  50
0
  71
0
  42
3
  3

  4

  1001
ACAD
  1000
Monospac821 BT
  1071
256
  0
ENDTAB
  0
TABLE
  2
VIEW
  5
29
  330
0
  100
AcDbSymbolTable
  70
    0
  0
ENDTAB
  0
TABLE
  2
UCS
  5
2a
  330
0
  100
AcDbSymbolTable
  70
    0
  0
ENDTAB
  0
TABLE
  2
APPID
  5
2b
  330
0
  100
AcDbSymbolTable
  70
    1
  0
APPID
  5
2c
  330
2b
  100
AcDbSymbolTableRecord
  100
AcDbRegAppTableRecord
  2
ACAD
  70
    0
  0
ENDTAB
  0
TABLE
  2
DIMSTYLE
  5
2d
  330
0
  100
AcDbSymbolTable
  70
    1
  100
AcDbDimStyleTable
  0
DIMSTYLE
  105
2e
  330
2d
  100
AcDbSymbolTableRecord
  100
AcDbDimStyleTableRecord
  2
STANDARD
  70
    0
  41
    3
  42
0.5
  44
1
  73
0
  77
1
  78
1
  140
3.5
  141
2.5
  143
0.03937
  147
0.8
  172
1
  174
1
  178
0
  179
1
  271
2
  279
1
  284
1
  340
28
  0
ENDTAB
  0
TABLE
  2
BLOCK_RECORD
  5
2f
  330
0
  100
AcDbSymbolTable
  70
    2
  0
BLOCK_RECORD
  5
30
  330
2f
  100
AcDbSymbolTableRecord
  100
AcDbBlockTableRecord
  2
*Model_Space
  0
BLOCK_RECORD
  5
31
  330
2f
  100
AcDbSymbolTableRecord
  100
AcDbBlockTableRecord
  2
*Paper_Space
  0
BLOCK_RECORD
  5
225
  330
2f
  100
AcDbSymbolTableRecord
  100
AcDbBlockTableRecord
  2
*D224
  340
0
  0
BLOCK_RECORD
  5
233
  330
2f
  100
AcDbSymbolTableRecord
  100
AcDbBlockTableRecord
  2
*D232
  340
0
  0
BLOCK_RECORD
  5
241
  330
2f
  100
AcDbSymbolTableRecord
  100
AcDbBlockTableRecord
  2
*D240
  340
0
  0
BLOCK_RECORD
  5
24f
  330
2f
  100
AcDbSymbolTableRecord
  100
AcDbBlockTableRecord
  2
*D24e
  340
0
  0
BLOCK_RECORD
  5
25d
  330
2f
  100
AcDbSymbolTableRecord
  100
AcDbBlockTableRecord
  2
*D25c
  340
0
  0
BLOCK_RECORD
  5
267
  330
2f
  100
AcDbSymbolTableRecord
  100
AcDbBlockTableRecord
  2
*D266
  340
0
  0
BLOCK_RECORD
  5
275
  330
2f
  100
AcDbSymbolTableRecord
  100
AcDbBlockTableRecord
  2
*D274
  340
0
  0
BLOCK_RECORD
  5
283
  330
2f
  100
AcDbSymbolTableRecord
  100
AcDbBlockTableRecord
  2
*D282
  340
0
  0
BLOCK_RECORD
  5
291
  330
2f
  100
AcDbSymbolTableRecord
  100
AcDbBlockTableRecord
  2
*D290
  340
0
  0
ENDTAB
  0
ENDSEC
  0
SECTION
  2
BLOCKS
  0
BLOCK
  5
32
  330
30
  100
AcDbEntity
  8
0
  100
AcDbBlockBegin
  2
*Model_Space
  70
    0
  10
0
  20
0
  30
0
  3
*Model_Space
  1

  0
ENDBLK
  5
33
  330
30
  100
AcDbEntity
  8
0
  100
AcDbBlockEnd
  0
BLOCK
  5
34
  330
31
  100
AcDbEntity
  8
0
  100
AcDbBlockBegin
  2
*Paper_Space
  70
    0
  10
0
  20
0
  30
0
  3
*Paper_Space
  1

  0
ENDBLK
  5
35
  330
31
  100
AcDbEntity
  8
0
  100
AcDbBlockEnd
  0
BLOCK
  5
223
  330
225
  100
AcDbEntity
  8
SK2
  100
AcDbBlockBegin
  2
*D224
  70
1
  10
0
  20
0
  30
0
  3
*D224
  1

  0
LINE
  5
226
  330
225
  100
AcDbEntity
  8
SK2
  100
AcDbLine
  10
0
  20
2.3
  30
0
  11
0
  21
15
  31
0
  0
LINE
  5
227
  330
225
  100
AcDbEntity
  8
SK2
  100
AcDbLine
  10
80
  20
1.5
  30
0
  11
80
  21
15
  31
0
  0
LINE
  5
228
  330
225
  100
AcDbEntity
  8
SK2
  100
AcDbLine
  10
0
  20
13
  30
0
  11
80
  21
13
  31
0
  0
SOLID
  5
229
  330
225
  100
AcDbEntity
  8
SK2
  100
AcDbTrace
  10
0
  20
13
  30
0
  11
2.478612
  21
13.326315
  31
0
  12
2.478612
  22
12.673685
  32
0
  13
2.478612
  23
12.673685
  33
0
  0
SOLID
  5
22a
  330
225
  100
AcDbEntity
  8
SK2
  100
AcDbTrace
  10
80
  20
13
  30
0
  11
77.521388
  21
12.673685
  31
0
  12
77.521388
  22
13.326315
  32
0
  13
77.521388
  23
13.326315
  33
0
  0
MTEXT
  5
22b
  330
225
  100
AcDbEntity
  8
SK2
  100
AcDbMText
  10
40
  20
13
  30
0
  11
1
  21
0
  31
0
  40
2
  41
0
  71
8
  72
1
  1
80
  0
POINT
  5
22c
  330
225
  100
AcDbEntity
  8
SK2
  62
0
  100
AcDbPoint
  10
0
  20
2.3
  30
0
  0
POINT
  5
22d
  330
225
  100
AcDbEntity
  8
SK2
  62
0
  100
AcDbPoint
  10
80
  20
1.5
  30
0
  0
POINT
  5
22e
  330
225
  100
AcDbEntity
  8
SK2
  62
0
  100
AcDbPoint
  10
80
  20
13
  30
0
  0
ENDBLK
  5
22f
  330
225
  100
AcDbEntity
  8
SK2
  100
AcDbBlockEnd
  0
BLOCK
  5
231
  330
233
  100
AcDbEntity
  8
SK2
  100
AcDbBlockBegin
  2
*D232
  70
1
  10
0
  20
0
  30
0
  3
*D232
  1

  0
LINE
  5
234
  330
233
  100
AcDbEntity
  8
SK2
  100
AcDbLine
  10
0
  20
2.3
  30
0
  11
0
  21
9.094716
  31
0
  0
LINE
  5
235
  330
233
  100
AcDbEntity
  8
SK2
  100
AcDbLine
  10
55.9
  20
3
  30
0
  11
55.9
  21
9.094716
  31
0
  0
LINE
  5
236
  330
233
  100
AcDbEntity
  8
SK2
  100
AcDbLine
  10
0
  20
7.094716
  30
0
  11
55.9
  21
7.094716
  31
0
  0
SOLID
  5
237
  330
233
  100
AcDbEntity
  8
SK2
  100
AcDbTrace
  10
0
  20
7.094716
  30
0
  11
2.478612
  21
7.421031
  31
0
  12
2.478612
  22
6.7684
  32
0
  13
2.478612
  23
6.7684
  33
0
  0
SOLID
  5
238
  330
233
  100
AcDbEntity
  8
SK2
  100
AcDbTrace
  10
55.9
  20
7.094716
  30
0
  11
53.421388
  21
6.7684
  31
0
  12
53.421388
  22
7.421031
  32
0
  13
53.421388
  23
7.421031
  33
0
  0
MTEXT
  5
239
  330
233
  100
AcDbEntity
  8
SK2
  100
AcDbMText
  10
27.95
  20
7.094716
  30
0
  11
1
  21
0
  31
0
  40
2
  41
0
  71
8
  72
1
  1
55.9
  0
POINT
  5
23a
  330
233
  100
AcDbEntity
  8
SK2
  62
0
  100
AcDbPoint
  10
0
  20
2.3
  30
0
  0
POINT
  5
23b
  330
233
  100
AcDbEntity
  8
SK2
  62
0
  100
AcDbPoint
  10
55.9
  20
3
  30
0
  0
POINT
  5
23c
  330
233
  100
AcDbEntity
  8
SK2
  62
0
  100
AcDbPoint
  10
55.9
  20
7.094716
  30
0
  0
ENDBLK
  5
23d
  330
233
  100
AcDbEntity
  8
SK2
  100
AcDbBlockEnd
  0
BLOCK
  5
23f
  330
241
  100
AcDbEntity
  8
SK2
  100
AcDbBlockBegin
  2
*D240
  70
1
  10
0
  20
0
  30
0
  3
*D240
  1

  0
LINE
  5
242
  330
241
  100
AcDbEntity
  8
SK2
  100
AcDbLine
  10
0.7
  20
-3
  30
0
  11
-12
  21
-3
  31
0
  0
LINE
  5
243
  330
241
  100
AcDbEntity
  8
SK2
  100
AcDbLine
  10
0.7
  20
3
  30
0
  11
-12
  21
3
  31
0
  0
LINE
  5
244
  330
241
  100
AcDbEntity
  8
SK2
  100
AcDbLine
  10
-10
  20
-3
  30
0
  11
-10
  21
3
  31
0
  0
SOLID
  5
245
  330
241
  100
AcDbEntity
  8
SK2
  100
AcDbTrace
  10
-10
  20
-3
  30
0
  11
-10.326315
  21
-0.521388
  31
0
  12
-9.673685
  22
-0.521388
  32
0
  13
-9.673685
  23
-0.521388
  33
0
  0
SOLID
  5
246
  330
241
  100
AcDbEntity
  8
SK2
  100
AcDbTrace
  10
-10
  20
3
  30
0
  11
-9.673685
  21
0.521388
  31
0
  12
-10.326315
  22
0.521388
  32
0
  13
-10.326315
  23
0.521388
  33
0
  0
MTEXT
  5
247
  330
241
  100
AcDbEntity
  8
SK2
  100
AcDbMText
  10
-10
  20
0
  30
0
  11
0
  21
1
  31
0
  40
2
  41
0
  71
8
  72
1
  1
ﾘ6
  0
POINT
  5
248
  330
241
  100
AcDbEntity
  8
SK2
  62
0
  100
AcDbPoint
  10
0.7
  20
-3
  30
0
  0
POINT
  5
249
  330
241
  100
AcDbEntity
  8
SK2
  62
0
  100
AcDbPoint
  10
0.7
  20
3
  30
0
  0
POINT
  5
24a
  330
241
  100
AcDbEntity
  8
SK2
  62
0
  100
AcDbPoint
  10
-10
  20
3
  30
0
  0
ENDBLK
  5
24b
  330
241
  100
AcDbEntity
  8
SK2
  100
AcDbBlockEnd
  0
BLOCK
  5
24d
  330
24f
  100
AcDbEntity
  8
2
  100
AcDbBlockBegin
  2
*D24e
  70
1
  10
0
  20
0
  30
0
  3
*D24e
  1

  0
LINE
  5
250
  330
24f
  100
AcDbEntity
  8
2
  100
AcDbLine
  10
79.5
  20
-2
  30
0
  11
92
  21
-2
  31
0
  0
LINE
  5
251
  330
24f
  100
AcDbEntity
  8
2
  100
AcDbLine
  10
79.5
  20
2
  30
0
  11
92
  21
2
  31
0
  0
LINE
  5
252
  330
24f
  100
AcDbEntity
  8
2
  100
AcDbLine
  10
90
  20
-4.158416
  30
0
  11
90
  21
2
  31
0
  0
SOLID
  5
253
  330
24f
  100
AcDbEntity
  8
2
  100
AcDbTrace
  10
90
  20
-2
  30
0
  11
89.673685
  21
0.478612
  31
0
  12
90.326315
  22
0.478612
  32
0
  13
90.326315
  23
0.478612
  33
0
  0
SOLID
  5
254
  330
24f
  100
AcDbEntity
  8
2
  100
AcDbTrace
  10
90
  20
2
  30
0
  11
90.326315
  21
-0.478612
  31
0
  12
89.673685
  22
-0.478612
  32
0
  13
89.673685
  23
-0.478612
  33
0
  0
MTEXT
  5
255
  330
24f
  100
AcDbEntity
  8
2
  100
AcDbMText
  10
90
  20
0
  30
0
  11
0
  21
1
  31
0
  40
2
  41
0
  71
8
  72
1
  1
ﾘ4
  0
POINT
  5
256
  330
24f
  100
AcDbEntity
  8
2
  62
0
  100
AcDbPoint
  10
79.5
  20
-2
  30
0
  0
POINT
  5
257
  330
24f
  100
AcDbEntity
  8
2
  62
0
  100
AcDbPoint
  10
79.5
  20
2
  30
0
  0
POINT
  5
258
  330
24f
  100
AcDbEntity
  8
2
  62
0
  100
AcDbPoint
  10
90
  20
2
  30
0
  0
ENDBLK
  5
259
  330
24f
  100
AcDbEntity
  8
2
  100
AcDbBlockEnd
  0
BLOCK
  5
25b
  330
25d
  100
AcDbEntity
  8
2
  100
AcDbBlockBegin
  2
*D25c
  70
1
  10
0
  20
0
  30
0
  3
*D25c
  1

  0
LINE
  5
25e
  330
25d
  100
AcDbEntity
  8
2
  100
AcDbLine
  10
79.88851
  20
1.814738
  30
0
  11
87.658702
  21
8.109507
  31
0
  0
MTEXT
  5
25f
  330
25d
  100
AcDbEntity
  8
2
  100
AcDbMText
  10
83.773606
  20
4.962123
  30
0
  11
0.777019
  21
0.629477
  31
0
  40
2
  41
0
  71
8
  72
1
  1
R0.5
  0
SOLID
  5
260
  330
25d
  100
AcDbEntity
  8
2
  100
AcDbTrace
  10
79.88851
  20
1.814738
  30
0
  11
81.609031
  21
3.628521
  31
0
  12
82.019847
  22
3.121414
  32
0
  13
82.019847
  23
3.121414
  33
0
  0
POINT
  5
261
  330
25d
  100
AcDbEntity
  8
2
  62
0
  100
AcDbPoint
  10
79.88851
  20
1.814738
  30
0
  0
POINT
  5
262
  330
25d
  100
AcDbEntity
  8
2
  62
0
  100
AcDbPoint
  10
79.5
  20
1.5
  30
0
  0
ENDBLK
  5
263
  330
25d
  100
AcDbEntity
  8
2
  100
AcDbBlockEnd
  0
BLOCK
  5
265
  330
267
  100
AcDbEntity
  8
2
  100
AcDbBlockBegin
  2
*D266
  70
1
  10
0
  20
0
  30
0
  3
*D266
  1

  0
LINE
  5
268
  330
267
  100
AcDbEntity
  8
2
  100
AcDbLine
  10
74
  20
-1.9
  30
0
  11
72
  21
-1.9
  31
0
  0
LINE
  5
269
  330
267
  100
AcDbEntity
  8
2
  100
AcDbLine
  10
74
  20
1.9
  30
0
  11
72
  21
1.9
  31
0
  0
LINE
  5
26a
  330
267
  100
AcDbEntity
  8
2
  100
AcDbLine
  10
74
  20
-1.9
  30
0
  11
74
  21
8.576733
  31
0
  0
SOLID
  5
26b
  330
267
  100
AcDbEntity
  8
2
  100
AcDbTrace
  10
74
  20
-1.9
  30
0
  11
73.673685
  21
0.578612
  31
0
  12
74.326315
  22
0.578612
  32
0
  13
74.326315
  23
0.578612
  33
0
  0
SOLID
  5
26c
  330
267
  100
AcDbEntity
  8
2
  100
AcDbTrace
  10
74
  20
1.9
  30
0
  11
74.326315
  21
-0.578612
  31
0
  12
73.673685
  22
-0.578612
  32
0
  13
73.673685
  23
-0.578612
  33
0
  0
MTEXT
  5
26d
  330
267
  100
AcDbEntity
  8
2
  100
AcDbMText
  10
74
  20
1.9
  30
0
  11
0
  21
1
  31
0
  40
2
  41
0
  71
8
  72
1
  1
ﾘ3.8
  0
POINT
  5
26e
  330
267
  100
AcDbEntity
  8
2
  62
0
  100
AcDbPoint
  10
72
  20
-1.9
  30
0
  0
POINT
  5
26f
  330
267
  100
AcDbEntity
  8
2
  62
0
  100
AcDbPoint
  10
72
  20
1.9
  30
0
  0
POINT
  5
270
  330
267
  100
AcDbEntity
  8
2
  62
0
  100
AcDbPoint
  10
74
  20
8.576733
  30
0
  0
ENDBLK
  5
271
  330
267
  100
AcDbEntity
  8
2
  100
AcDbBlockEnd
  0
BLOCK
  5
273
  330
275
  100
AcDbEntity
  8
2
  100
AcDbBlockBegin
  2
*D274
  70
1
  10
0
  20
0
  30
0
  3
*D274
  1

  0
LINE
  5
276
  330
275
  100
AcDbEntity
  8
2
  100
AcDbLine
  10
74
  20
1.9
  30
0
  11
74
  21
10
  31
0
  0
LINE
  5
277
  330
275
  100
AcDbEntity
  8
2
  100
AcDbLine
  10
60.58
  20
1.9
  30
0
  11
60.58
  21
10
  31
0
  0
LINE
  5
278
  330
275
  100
AcDbEntity
  8
2
  100
AcDbLine
  10
74
  20
8
  30
0
  11
60.58
  21
8
  31
0
  0
SOLID
  5
279
  330
275
  100
AcDbEntity
  8
2
  100
AcDbTrace
  10
74
  20
8
  30
0
  11
76.478612
  21
8.326315
  31
0
  12
76.478612
  22
7.673685
  32
0
  13
76.478612
  23
7.673685
  33
0
  0
SOLID
  5
27a
  330
275
  100
AcDbEntity
  8
2
  100
AcDbTrace
  10
60.58
  20
8
  30
0
  11
58.101388
  21
7.673685
  31
0
  12
58.101388
  22
8.326315
  32
0
  13
58.101388
  23
8.326315
  33
0
  0
MTEXT
  5
27b
  330
275
  100
AcDbEntity
  8
2
  100
AcDbMText
  10
67.25507
  20
8
  30
0
  11
1
  21
-0
  31
0
  40
2
  41
0
  71
8
  72
1
  1
13.42
  0
POINT
  5
27c
  330
275
  100
AcDbEntity
  8
2
  62
0
  100
AcDbPoint
  10
74
  20
1.9
  30
0
  0
POINT
  5
27d
  330
275
  100
AcDbEntity
  8
2
  62
0
  100
AcDbPoint
  10
60.58
  20
1.9
  30
0
  0
POINT
  5
27e
  330
275
  100
AcDbEntity
  8
2
  62
0
  100
AcDbPoint
  10
60.58
  20
8
  30
0
  0
ENDBLK
  5
27f
  330
275
  100
AcDbEntity
  8
2
  100
AcDbBlockEnd
  0
BLOCK
  5
281
  330
283
  100
AcDbEntity
  8
2
  100
AcDbBlockBegin
  2
*D282
  70
1
  10
0
  20
0
  30
0
  3
*D282
  1

  0
LINE
  5
284
  330
283
  100
AcDbEntity
  8
2
  100
AcDbLine
  10
80
  20
1.5
  30
0
  11
80
  21
15
  31
0
  0
LINE
  5
285
  330
283
  100
AcDbEntity
  8
2
  100
AcDbLine
  10
55.9
  20
3
  30
0
  11
55.9
  21
10
  31
0
  0
LINE
  5
286
  330
283
  100
AcDbEntity
  8
2
  100
AcDbLine
  10
80
  20
8
  30
0
  11
55.9
  21
8
  31
0
  0
SOLID
  5
287
  330
283
  100
AcDbEntity
  8
2
  100
AcDbTrace
  10
80
  20
8
  30
0
  11
82.478612
  21
8.326315
  31
0
  12
82.478612
  22
7.673685
  32
0
  13
82.478612
  23
7.673685
  33
0
  0
SOLID
  5
288
  330
283
  100
AcDbEntity
  8
2
  100
AcDbTrace
  10
55.9
  20
8
  30
0
  11
53.421388
  21
7.673685
  31
0
  12
53.421388
  22
8.326315
  32
0
  13
53.421388
  23
8.326315
  33
0
  0
MTEXT
  5
289
  330
283
  100
AcDbEntity
  8
2
  100
AcDbMText
  10
67.95
  20
8
  30
0
  11
1
  21
-0
  31
0
  40
2
  41
0
  71
8
  72
1
  1
24.1
  0
POINT
  5
28a
  330
283
  100
AcDbEntity
  8
2
  62
0
  100
AcDbPoint
  10
80
  20
15
  30
0
  0
POINT
  5
28b
  330
283
  100
AcDbEntity
  8
2
  62
0
  100
AcDbPoint
  10
55.9
  20
3
  30
0
  0
POINT
  5
28c
  330
283
  100
AcDbEntity
  8
2
  62
0
  100
AcDbPoint
  10
55.9
  20
8
  30
0
  0
ENDBLK
  5
28d
  330
283
  100
AcDbEntity
  8
2
  100
AcDbBlockEnd
  0
BLOCK
  5
28f
  330
291
  100
AcDbEntity
  8
2
  100
AcDbBlockBegin
  2
*D290
  70
1
  10
0
  20
0
  30
0
  3
*D290
  1

  0
LINE
  5
292
  330
291
  100
AcDbEntity
  8
2
  100
AcDbLine
  10
80
  20
-7.848884
  30
0
  11
80
  21
0
  31
0
  0
LINE
  5
293
  330
291
  100
AcDbEntity
  8
2
  100
AcDbLine
  10
74
  20
-7.848884
  30
0
  11
74
  21
-1.9
  31
0
  0
LINE
  5
294
  330
291
  100
AcDbEntity
  8
2
  100
AcDbLine
  10
80
  20
-5.848884
  30
0
  11
74
  21
-5.848884
  31
0
  0
SOLID
  5
295
  330
291
  100
AcDbEntity
  8
2
  100
AcDbTrace
  10
80
  20
-5.848884
  30
0
  11
82.478612
  21
-5.522569
  31
0
  12
82.478612
  22
-6.1752
  32
0
  13
82.478612
  23
-6.1752
  33
0
  0
SOLID
  5
296
  330
291
  100
AcDbEntity
  8
2
  100
AcDbTrace
  10
74
  20
-5.848884
  30
0
  11
71.521388
  21
-6.1752
  31
0
  12
71.521388
  22
-5.522569
  32
0
  13
71.521388
  23
-5.522569
  33
0
  0
MTEXT
  5
297
  330
291
  100
AcDbEntity
  8
2
  100
AcDbMText
  10
77
  20
-5.848884
  30
0
  11
1
  21
-0
  31
0
  40
2
  41
0
  71
8
  72
1
  1
6
  0
POINT
  5
298
  330
291
  100
AcDbEntity
  8
2
  62
0
  100
AcDbPoint
  10
80
  20
0
  30
0
  0
POINT
  5
299
  330
291
  100
AcDbEntity
  8
2
  62
0
  100
AcDbPoint
  10
74
  20
-1.9
  30
0
  0
POINT
  5
29a
  330
291
  100
AcDbEntity
  8
2
  62
0
  100
AcDbPoint
  10
74
  20
-5.848884
  30
0
  0
ENDBLK
  5
29b
  330
291
  100
AcDbEntity
  8
2
  100
AcDbBlockEnd
  0
ENDSEC
  0
SECTION
  2
ENTITIES
  0
DIMENSION
  5
230
  100
AcDbEntity
  8
SK2
  100
AcDbDimension
  2
*D224
  10
80
  20
13
  30
0
  11
40
  21
13
  31
0
  70
160
  1
<>
  71
5
  3
STANDARD
  42
80
  100
AcDbAlignedDimension
  13
0
  23
2.3
  33
0
  14
80
  24
1.5
  34
0
  50
0
  100
AcDbRotatedDimension
  0
DIMENSION
  5
23e
  100
AcDbEntity
  8
SK2
  100
AcDbDimension
  2
*D232
  10
55.9
  20
7.094716
  30
0
  11
27.95
  21
7.094716
  31
0
  70
160
  1
<>
  71
5
  3
STANDARD
  42
55.9
  100
AcDbAlignedDimension
  13
0
  23
2.3
  33
0
  14
55.9
  24
3
  34
0
  50
0
  100
AcDbRotatedDimension
  0
DIMENSION
  5
24c
  100
AcDbEntity
  8
SK2
  100
AcDbDimension
  2
*D240
  10
-10
  20
3
  30
0
  11
-10
  21
0
  31
0
  70
160
  1
%%c<>
  71
5
  3
STANDARD
  42
6
  100
AcDbAlignedDimension
  13
0.7
  23
-3
  33
0
  14
0.7
  24
3
  34
0
  50
-90
  100
AcDbRotatedDimension
  0
DIMENSION
  5
25a
  100
AcDbEntity
  8
2
  100
AcDbDimension
  2
*D24e
  10
90
  20
2
  30
0
  11
90
  21
0
  31
0
  70
160
  1
%%c<>
  71
5
  3
STANDARD
  42
4
  100
AcDbAlignedDimension
  13
79.5
  23
-2
  33
0
  14
79.5
  24
2
  34
0
  50
-90
  100
AcDbRotatedDimension
  0
DIMENSION
  5
264
  100
AcDbEntity
  8
2
  100
AcDbDimension
  2
*D25c
  10
79.5
  20
1.5
  30
0
  11
83.773606
  21
4.962123
  31
0
  70
164
  1
R0.5
  71
5
  3
STANDARD
  100
AcDbRadialDimension
  15
79.88851
  25
1.814738
  35
0
  50
39.011537
  0
DIMENSION
  5
272
  100
AcDbEntity
  8
2
  100
AcDbDimension
  2
*D266
  10
74
  20
8.576733
  30
0
  11
74
  21
1.9
  31
0
  70
160
  1
%%c<>
  71
5
  3
STANDARD
  42
3.8
  100
AcDbAlignedDimension
  13
72
  23
-1.9
  33
0
  14
72
  24
1.9
  34
0
  50
-90
  100
AcDbRotatedDimension
  0
DIMENSION
  5
280
  100
AcDbEntity
  8
2
  100
AcDbDimension
  2
*D274
  10
60.58
  20
8
  30
0
  11
67.25507
  21
8
  31
0
  70
160
  1
<>
  71
5
  3
STANDARD
  42
13.42
  100
AcDbAlignedDimension
  13
74
  23
1.9
  33
0
  14
60.58
  24
1.9
  34
0
  50
0
  100
AcDbRotatedDimension
  0
DIMENSION
  5
28e
  100
AcDbEntity
  8
2
  100
AcDbDimension
  2
*D282
  10
55.9
  20
8
  30
0
  11
67.95
  21
8
  31
0
  70
160
  1
<>
  71
5
  3
STANDARD
  42
24.1
  100
AcDbAlignedDimension
  13
80
  23
15
  33
0
  14
55.9
  24
3
  34
0
  50
0
  100
AcDbRotatedDimension
  0
DIMENSION
  5
29c
  100
AcDbEntity
  8
2
  100
AcDbDimension
  2
*D290
  10
74
  20
-5.848884
  30
0
  11
77
  21
-5.848884
  31
0
  70
160
  1
<>
  71
5
  3
STANDARD
  42
6
  100
AcDbAlignedDimension
  13
80
  23
0
  33
0
  14
74
  24
-1.9
  34
0
  50
0
  100
AcDbRotatedDimension
  0
ARC
  5
36
  100
AcDbEntity
  8
1
  100
AcDbCircle
  10
61.451557
  20
-11.861947
  30
0
  40
10
  100
AcDbArc
  50
95
  51
105
  0
LINE
  5
37
  100
AcDbEntity
  8
1
  100
AcDbLine
  10
60.58
  20
-1.9
  30
0
  11
74
  21
-1.9
  31
0
  0
LINE
  5
38
  100
AcDbEntity
  8
1
  100
AcDbLine
  10
74
  20
-1.9
  30
0
  11
74
  21
-2
  31
0
  0
LINE
  5
39
  100
AcDbEntity
  8
1
  100
AcDbLine
  10
74
  20
-2
  30
0
  11
79.5
  21
-2
  31
0
  0
ARC
  5
3a
  100
AcDbEntity
  8
1
  100
AcDbCircle
  10
79.5
  20
-1.5
  30
0
  40
0.5
  100
AcDbArc
  50
270
  51
0
  0
LINE
  5
3b
  100
AcDbEntity
  8
1
  100
AcDbLine
  10
80
  20
-1.5
  30
0
  11
80
  21
0
  31
0
  0
LINE
  5
3c
  100
AcDbEntity
  8
1
  100
AcDbLine
  10
80
  20
0
  30
0
  11
80
  21
1.5
  31
0
  0
ARC
  5
3d
  100
AcDbEntity
  8
1
  100
AcDbCircle
  10
79.5
  20
1.5
  30
0
  40
0.5
  100
AcDbArc
  50
0
  51
90
  0
LINE
  5
3e
  100
AcDbEntity
  8
1
  100
AcDbLine
  10
79.5
  20
2
  30
0
  11
74
  21
2
  31
0
  0
LINE
  5
3f
  100
AcDbEntity
  8
1
  100
AcDbLine
  10
74
  20
2
  30
0
  11
74
  21
1.9
  31
0
  0
LINE
  5
40
  100
AcDbEntity
  8
1
  100
AcDbLine
  10
74
  20
1.9
  30
0
  11
60.58
  21
1.9
  31
0
  0
ARC
  5
41
  100
AcDbEntity
  8
1
  100
AcDbCircle
  10
61.451557
  20
11.861947
  30
0
  40
10
  100
AcDbArc
  50
255
  51
265
  0
LINE
  5
42
  100
AcDbEntity
  8
1
  100
AcDbLine
  10
58.863367
  20
2.202689
  30
0
  11
55.9
  21
2.996721
  31
0
  0
LINE
  5
43
  100
AcDbEntity
  8
1
  100
AcDbLine
  10
55.9
  20
2.996721
  30
0
  11
55.9
  21
-2.996721
  31
0
  0
LINE
  5
44
  100
AcDbEntity
  8
1
  100
AcDbLine
  10
55.9
  20
-2.996721
  30
0
  11
58.863367
  21
-2.202689
  31
0
  0
LINE
  5
45
  100
AcDbEntity
  8
1
  100
AcDbLine
  10
80
  20
0.485124
  30
0
  11
79.9
  21
0.649594
  31
0
  0
LINE
  5
46
  100
AcDbEntity
  8
1
  100
AcDbLine
  10
79.9
  20
0.649594
  30
0
  11
79.8
  21
0.768764
  31
0
  0
LINE
  5
47
  100
AcDbEntity
  8
1
  100
AcDbLine
  10
79.8
  20
0.768764
  30
0
  11
79.7
  21
0.878354
  31
0
  0
LINE
  5
48
  100
AcDbEntity
  8
1
  100
AcDbLine
  10
79.7
  20
0.878354
  30
0
  11
79.6
  21
0.979038
  31
0
  0
LINE
  5
49
  100
AcDbEntity
  8
1
  100
AcDbLine
  10
79.6
  20
0.979038
  30
0
  11
79.5
  21
1.069411
  31
0
  0
LINE
  5
4a
  100
AcDbEntity
  8
1
  100
AcDbLine
  10
79.5
  20
1.069411
  30
0
  11
79.4
  21
1.152543
  31
0
  0
LINE
  5
4b
  100
AcDbEntity
  8
1
  100
AcDbLine
  10
79.4
  20
1.152543
  30
0
  11
79.3
  21
1.232795
  31
0
  0
LINE
  5
4c
  100
AcDbEntity
  8
1
  100
AcDbLine
  10
79.3
  20
1.232795
  30
0
  11
79.2
  21
1.309965
  31
0
  0
LINE
  5
4d
  100
AcDbEntity
  8
1
  100
AcDbLine
  10
79.2
  20
1.309965
  30
0
  11
79.1
  21
1.383861
  31
0
  0
LINE
  5
4e
  100
AcDbEntity
  8
1
  100
AcDbLine
  10
79.1
  20
1.383861
  30
0
  11
79
  21
1.454297
  31
0
  0
LINE
  5
4f
  100
AcDbEntity
  8
1
  100
AcDbLine
  10
79
  20
1.454297
  30
0
  11
78.9
  21
1.521099
  31
0
  0
LINE
  5
50
  100
AcDbEntity
  8
1
  100
AcDbLine
  10
78.9
  20
1.521099
  30
0
  11
78.8
  21
1.584099
  31
0
  0
LINE
  5
51
  100
AcDbEntity
  8
1
  100
AcDbLine
  10
78.8
  20
1.584099
  30
0
  11
78.7
  21
1.64314
  31
0
  0
LINE
  5
52
  100
AcDbEntity
  8
1
  100
AcDbLine
  10
78.7
  20
1.64314
  30
0
  11
78.6
  21
1.698073
  31
0
  0
LINE
  5
53
  100
AcDbEntity
  8
1
  100
AcDbLine
  10
78.6
  20
1.698073
  30
0
  11
78.5
  21
1.748763
  31
0
  0
LINE
  5
54
  100
AcDbEntity
  8
1
  100
AcDbLine
  10
78.5
  20
1.748763
  30
0
  11
78.4
  21
1.795081
  31
0
  0
LINE
  5
55
  100
AcDbEntity
  8
1
  100
AcDbLine
  10
78.4
  20
1.795081
  30
0
  11
78.3
  21
1.836912
  31
0
  0
LINE
  5
56
  100
AcDbEntity
  8
1
  100
AcDbLine
  10
78.3
  20
1.836912
  30
0
  11
78.2
  21
1.874152
  31
0
  0
LINE
  5
57
  100
AcDbEntity
  8
1
  100
AcDbLine
  10
78.2
  20
1.874152
  30
0
  11
78.1
  21
1.906708
  31
0
  0
LINE
  5
58
  100
AcDbEntity
  8
1
  100
AcDbLine
  10
78.1
  20
1.906708
  30
0
  11
78
  21
1.934498
  31
0
  0
LINE
  5
59
  100
AcDbEntity
  8
1
  100
AcDbLine
  10
78
  20
1.934498
  30
0
  11
77.9
  21
1.957453
  31
0
  0
LINE
  5
5a
  100
AcDbEntity
  8
1
  100
AcDbLine
  10
77.9
  20
1.957453
  30
0
  11
77.8
  21
1.975515
  31
0
  0
LINE
  5
5b
  100
AcDbEntity
  8
1
  100
AcDbLine
  10
77.8
  20
1.975515
  30
0
  11
77.7
  21
1.988639
  31
0
  0
LINE
  5
5c
  100
AcDbEntity
  8
1
  100
AcDbLine
  10
77.7
  20
1.988639
  30
0
  11
77.6
  21
1.996793
  31
0
  0
LINE
  5
5d
  100
AcDbEntity
  8
1
  100
AcDbLine
  10
77.6
  20
1.996793
  30
0
  11
77.5
  21
1.999956
  31
0
  0
LINE
  5
5e
  100
AcDbEntity
  8
1
  100
AcDbLine
  10
77.5
  20
1.999956
  30
0
  11
77.486722
  21
2
  31
0
  0
LINE
  5
5f
  100
AcDbEntity
  8
1
  100
AcDbLine
  10
80
  20
0.265615
  30
0
  11
79.9
  21
0.312315
  31
0
  0
LINE
  5
60
  100
AcDbEntity
  8
1
  100
AcDbLine
  10
79.9
  20
0.312315
  30
0
  11
79.8
  21
0.395773
  31
0
  0
LINE
  5
61
  100
AcDbEntity
  8
1
  100
AcDbLine
  10
79.8
  20
0.395773
  30
0
  11
79.7
  21
0.487807
  31
0
  0
LINE
  5
62
  100
AcDbEntity
  8
1
  100
AcDbLine
  10
79.7
  20
0.487807
  30
0
  11
79.6
  21
0.582807
  31
0
  0
LINE
  5
63
  100
AcDbEntity
  8
1
  100
AcDbLine
  10
79.6
  20
0.582807
  30
0
  11
79.5
  21
0.677054
  31
0
  0
LINE
  5
64
  100
AcDbEntity
  8
1
  100
AcDbLine
  10
79.5
  20
0.677054
  30
0
  11
79.4
  21
0.768942
  31
0
  0
LINE
  5
65
  100
AcDbEntity
  8
1
  100
AcDbLine
  10
79.4
  20
0.768942
  30
0
  11
79.3
  21
0.858907
  31
0
  0
LINE
  5
66
  100
AcDbEntity
  8
1
  100
AcDbLine
  10
79.3
  20
0.858907
  30
0
  11
79.2
  21
0.946726
  31
0
  0
LINE
  5
67
  100
AcDbEntity
  8
1
  100
AcDbLine
  10
79.2
  20
0.946726
  30
0
  11
79.1
  21
1.032178
  31
0
  0
LINE
  5
68
  100
AcDbEntity
  8
1
  100
AcDbLine
  10
79.1
  20
1.032178
  30
0
  11
79
  21
1.115051
  31
0
  0
LINE
  5
69
  100
AcDbEntity
  8
1
  100
AcDbLine
  10
79
  20
1.115051
  30
0
  11
78.9
  21
1.195136
  31
0
  0
LINE
  5
6a
  100
AcDbEntity
  8
1
  100
AcDbLine
  10
78.9
  20
1.195136
  30
0
  11
78.8
  21
1.272235
  31
0
  0
LINE
  5
6b
  100
AcDbEntity
  8
1
  100
AcDbLine
  10
78.8
  20
1.272235
  30
0
  11
78.7
  21
1.346153
  31
0
  0
LINE
  5
6c
  100
AcDbEntity
  8
1
  100
AcDbLine
  10
78.7
  20
1.346153
  30
0
  11
78.6
  21
1.416706
  31
0
  0
LINE
  5
6d
  100
AcDbEntity
  8
1
  100
AcDbLine
  10
78.6
  20
1.416706
  30
0
  11
78.5
  21
1.483719
  31
0
  0
LINE
  5
6e
  100
AcDbEntity
  8
1
  100
AcDbLine
  10
78.5
  20
1.483719
  30
0
  11
78.4
  21
1.547023
  31
0
  0
LINE
  5
6f
  100
AcDbEntity
  8
1
  100
AcDbLine
  10
78.4
  20
1.547023
  30
0
  11
78.3
  21
1.60646
  31
0
  0
LINE
  5
70
  100
AcDbEntity
  8
1
  100
AcDbLine
  10
78.3
  20
1.60646
  30
0
  11
78.2
  21
1.661882
  31
0
  0
LINE
  5
71
  100
AcDbEntity
  8
1
  100
AcDbLine
  10
78.2
  20
1.661882
  30
0
  11
78.1
  21
1.713151
  31
0
  0
LINE
  5
72
  100
AcDbEntity
  8
1
  100
AcDbLine
  10
78.1
  20
1.713151
  30
0
  11
78
  21
1.760137
  31
0
  0
LINE
  5
73
  100
AcDbEntity
  8
1
  100
AcDbLine
  10
78
  20
1.760137
  30
0
  11
77.9
  21
1.802724
  31
0
  0
LINE
  5
74
  100
AcDbEntity
  8
1
  100
AcDbLine
  10
77.9
  20
1.802724
  30
0
  11
77.8
  21
1.840804
  31
0
  0
LINE
  5
75
  100
AcDbEntity
  8
1
  100
AcDbLine
  10
77.8
  20
1.840804
  30
0
  11
77.7
  21
1.874284
  31
0
  0
LINE
  5
76
  100
AcDbEntity
  8
1
  100
AcDbLine
  10
77.7
  20
1.874284
  30
0
  11
77.6
  21
1.903079
  31
0
  0
LINE
  5
77
  100
AcDbEntity
  8
1
  100
AcDbLine
  10
77.6
  20
1.903079
  30
0
  11
77.5
  21
1.927118
  31
0
  0
LINE
  5
78
  100
AcDbEntity
  8
1
  100
AcDbLine
  10
77.5
  20
1.927118
  30
0
  11
77.4
  21
1.946339
  31
0
  0
LINE
  5
79
  100
AcDbEntity
  8
1
  100
AcDbLine
  10
77.4
  20
1.946339
  30
0
  11
77.3
  21
1.960696
  31
0
  0
LINE
  5
7a
  100
AcDbEntity
  8
1
  100
AcDbLine
  10
77.3
  20
1.960696
  30
0
  11
77.2
  21
1.970152
  31
0
  0
LINE
  5
7b
  100
AcDbEntity
  8
1
  100
AcDbLine
  10
77.2
  20
1.970152
  30
0
  11
77.1
  21
1.974684
  31
0
  0
LINE
  5
7c
  100
AcDbEntity
  8
1
  100
AcDbLine
  10
77.1
  20
1.974684
  30
0
  11
77.058181
  21
2
  31
0
  0
LINE
  5
7d
  100
AcDbEntity
  8
1
  100
AcDbLine
  10
76.858406
  20
2
  30
0
  11
76.9
  21
1.999568
  31
0
  0
LINE
  5
7e
  100
AcDbEntity
  8
1
  100
AcDbLine
  10
76.9
  20
1.999568
  30
0
  11
77
  21
1.99499
  31
0
  0
LINE
  5
7f
  100
AcDbEntity
  8
1
  100
AcDbLine
  10
77
  20
1.99499
  30
0
  11
77.1
  21
1.985426
  31
0
  0
LINE
  5
80
  100
AcDbEntity
  8
1
  100
AcDbLine
  10
77.1
  20
1.985426
  30
0
  11
77.2
  21
1.970899
  31
0
  0
LINE
  5
81
  100
AcDbEntity
  8
1
  100
AcDbLine
  10
77.2
  20
1.970899
  30
0
  11
77.3
  21
1.951447
  31
0
  0
LINE
  5
82
  100
AcDbEntity
  8
1
  100
AcDbLine
  10
77.3
  20
1.951447
  30
0
  11
77.4
  21
1.927116
  31
0
  0
LINE
  5
83
  100
AcDbEntity
  8
1
  100
AcDbLine
  10
77.4
  20
1.927116
  30
0
  11
77.5
  21
1.897969
  31
0
  0
LINE
  5
84
  100
AcDbEntity
  8
1
  100
AcDbLine
  10
77.5
  20
1.897969
  30
0
  11
77.6
  21
1.864078
  31
0
  0
LINE
  5
85
  100
AcDbEntity
  8
1
  100
AcDbLine
  10
77.6
  20
1.864078
  30
0
  11
77.7
  21
1.825528
  31
0
  0
LINE
  5
86
  100
AcDbEntity
  8
1
  100
AcDbLine
  10
77.7
  20
1.825528
  30
0
  11
77.8
  21
1.782415
  31
0
  0
LINE
  5
87
  100
AcDbEntity
  8
1
  100
AcDbLine
  10
77.8
  20
1.782415
  30
0
  11
77.9
  21
1.734846
  31
0
  0
LINE
  5
88
  100
AcDbEntity
  8
1
  100
AcDbLine
  10
77.9
  20
1.734846
  30
0
  11
78
  21
1.682942
  31
0
  0
LINE
  5
89
  100
AcDbEntity
  8
1
  100
AcDbLine
  10
78
  20
1.682942
  30
0
  11
78.1
  21
1.626831
  31
0
  0
LINE
  5
8a
  100
AcDbEntity
  8
1
  100
AcDbLine
  10
78.1
  20
1.626831
  30
0
  11
78.2
  21
1.566654
  31
0
  0
LINE
  5
8b
  100
AcDbEntity
  8
1
  100
AcDbLine
  10
78.2
  20
1.566654
  30
0
  11
78.3
  21
1.502561
  31
0
  0
LINE
  5
8c
  100
AcDbEntity
  8
1
  100
AcDbLine
  10
78.3
  20
1.502561
  30
0
  11
78.4
  21
1.434712
  31
0
  0
LINE
  5
8d
  100
AcDbEntity
  8
1
  100
AcDbLine
  10
78.4
  20
1.434712
  30
0
  11
78.5
  21
1.363278
  31
0
  0
LINE
  5
8e
  100
AcDbEntity
  8
1
  100
AcDbLine
  10
78.5
  20
1.363278
  30
0
  11
78.6
  21
1.288435
  31
0
  0
LINE
  5
8f
  100
AcDbEntity
  8
1
  100
AcDbLine
  10
78.6
  20
1.288435
  30
0
  11
78.7
  21
1.210373
  31
0
  0
LINE
  5
90
  100
AcDbEntity
  8
1
  100
AcDbLine
  10
78.7
  20
1.210373
  30
0
  11
78.8
  21
1.129285
  31
0
  0
LINE
  5
91
  100
AcDbEntity
  8
1
  100
AcDbLine
  10
78.8
  20
1.129285
  30
0
  11
78.9
  21
1.045374
  31
0
  0
LINE
  5
92
  100
AcDbEntity
  8
1
  100
AcDbLine
  10
78.9
  20
1.045374
  30
0
  11
79
  21
0.958851
  31
0
  0
LINE
  5
93
  100
AcDbEntity
  8
1
  100
AcDbLine
  10
79
  20
0.958851
  30
0
  11
79.1
  21
0.869931
  31
0
  0
LINE
  5
94
  100
AcDbEntity
  8
1
  100
AcDbLine
  10
79.1
  20
0.869931
  30
0
  11
79.2
  21
0.778837
  31
0
  0
LINE
  5
95
  100
AcDbEntity
  8
1
  100
AcDbLine
  10
79.2
  20
0.778837
  30
0
  11
79.3
  21
0.685796
  31
0
  0
LINE
  5
96
  100
AcDbEntity
  8
1
  100
AcDbLine
  10
79.3
  20
0.685796
  30
0
  11
79.4
  21
0.59104
  31
0
  0
LINE
  5
97
  100
AcDbEntity
  8
1
  100
AcDbLine
  10
79.4
  20
0.59104
  30
0
  11
79.5
  21
0.494808
  31
0
  0
LINE
  5
98
  100
AcDbEntity
  8
1
  100
AcDbLine
  10
79.5
  20
0.494808
  30
0
  11
79.6
  21
0.396723
  31
0
  0
LINE
  5
99
  100
AcDbEntity
  8
1
  100
AcDbLine
  10
79.6
  20
0.396723
  30
0
  11
79.7
  21
0.298439
  31
0
  0
LINE
  5
9a
  100
AcDbEntity
  8
1
  100
AcDbLine
  10
79.7
  20
0.298439
  30
0
  11
79.8
  21
0.203669
  31
0
  0
LINE
  5
9b
  100
AcDbEntity
  8
1
  100
AcDbLine
  10
79.8
  20
0.203669
  30
0
  11
79.9
  21
0.118055
  31
0
  0
LINE
  5
9c
  100
AcDbEntity
  8
1
  100
AcDbLine
  10
79.9
  20
0.118055
  30
0
  11
80
  21
0.070503
  31
0
  0
LINE
  5
9d
  100
AcDbEntity
  8
1
  100
AcDbLine
  10
79.5
  20
-2
  30
0
  11
79.5
  21
2
  31
0
  0
LINE
  5
9e
  100
AcDbEntity
  8
1
  100
AcDbLine
  10
79.5
  20
2
  30
0
  11
79.5
  21
-2
  31
0
  0
LINE
  5
9f
  100
AcDbEntity
  8
1
  100
AcDbLine
  10
80
  20
-1.419385
  30
0
  11
79.995297
  21
-1.431582
  31
0
  0
LINE
  5
a0
  100
AcDbEntity
  8
1
  100
AcDbLine
  10
79.995297
  20
-1.431582
  30
0
  11
79.9
  21
-1.678698
  31
0
  0
LINE
  5
a1
  100
AcDbEntity
  8
1
  100
AcDbLine
  10
79.9
  20
-1.678698
  30
0
  11
79.8
  21
-1.737528
  31
0
  0
LINE
  5
a2
  100
AcDbEntity
  8
1
  100
AcDbLine
  10
79.8
  20
-1.737528
  30
0
  11
79.7
  21
-1.750219
  31
0
  0
LINE
  5
a3
  100
AcDbEntity
  8
1
  100
AcDbLine
  10
79.7
  20
-1.750219
  30
0
  11
79.6
  21
-1.732391
  31
0
  0
LINE
  5
a4
  100
AcDbEntity
  8
1
  100
AcDbLine
  10
79.6
  20
-1.732391
  30
0
  11
79.5
  21
-1.690077
  31
0
  0
LINE
  5
a5
  100
AcDbEntity
  8
1
  100
AcDbLine
  10
79.5
  20
-1.690077
  30
0
  11
79.4
  21
-1.634516
  31
0
  0
LINE
  5
a6
  100
AcDbEntity
  8
1
  100
AcDbLine
  10
79.4
  20
-1.634516
  30
0
  11
79.3
  21
-1.574871
  31
0
  0
LINE
  5
a7
  100
AcDbEntity
  8
1
  100
AcDbLine
  10
79.3
  20
-1.574871
  30
0
  11
79.2
  21
-1.511288
  31
0
  0
LINE
  5
a8
  100
AcDbEntity
  8
1
  100
AcDbLine
  10
79.2
  20
-1.511288
  30
0
  11
79.1
  21
-1.443929
  31
0
  0
LINE
  5
a9
  100
AcDbEntity
  8
1
  100
AcDbLine
  10
79.1
  20
-1.443929
  30
0
  11
79
  21
-1.37296
  31
0
  0
LINE
  5
aa
  100
AcDbEntity
  8
1
  100
AcDbLine
  10
79
  20
-1.37296
  30
0
  11
78.9
  21
-1.29856
  31
0
  0
LINE
  5
ab
  100
AcDbEntity
  8
1
  100
AcDbLine
  10
78.9
  20
-1.29856
  30
0
  11
78.8
  21
-1.220913
  31
0
  0
LINE
  5
ac
  100
AcDbEntity
  8
1
  100
AcDbLine
  10
78.8
  20
-1.220913
  30
0
  11
78.7
  21
-1.140216
  31
0
  0
LINE
  5
ad
  100
AcDbEntity
  8
1
  100
AcDbLine
  10
78.7
  20
-1.140216
  30
0
  11
78.6
  21
-1.056668
  31
0
  0
LINE
  5
ae
  100
AcDbEntity
  8
1
  100
AcDbLine
  10
78.6
  20
-1.056668
  30
0
  11
78.5
  21
-0.970479
  31
0
  0
LINE
  5
af
  100
AcDbEntity
  8
1
  100
AcDbLine
  10
78.5
  20
-0.970479
  30
0
  11
78.4
  21
-0.881864
  31
0
  0
LINE
  5
b0
  100
AcDbEntity
  8
1
  100
AcDbLine
  10
78.4
  20
-0.881864
  30
0
  11
78.3
  21
-0.791046
  31
0
  0
LINE
  5
b1
  100
AcDbEntity
  8
1
  100
AcDbLine
  10
78.3
  20
-0.791046
  30
0
  11
78.2
  21
-0.69825
  31
0
  0
LINE
  5
b2
  100
AcDbEntity
  8
1
  100
AcDbLine
  10
78.2
  20
-0.69825
  30
0
  11
78.1
  21
-0.603709
  31
0
  0
LINE
  5
b3
  100
AcDbEntity
  8
1
  100
AcDbLine
  10
78.1
  20
-0.603709
  30
0
  11
78
  21
-0.507658
  31
0
  0
LINE
  5
b4
  100
AcDbEntity
  8
1
  100
AcDbLine
  10
78
  20
-0.507658
  30
0
  11
77.9
  21
-0.410339
  31
0
  0
LINE
  5
b5
  100
AcDbEntity
  8
1
  100
AcDbLine
  10
77.9
  20
-0.410339
  30
0
  11
77.8
  21
-0.311995
  31
0
  0
LINE
  5
b6
  100
AcDbEntity
  8
1
  100
AcDbLine
  10
77.8
  20
-0.311995
  30
0
  11
77.7
  21
-0.21287
  31
0
  0
LINE
  5
b7
  100
AcDbEntity
  8
1
  100
AcDbLine
  10
77.7
  20
-0.21287
  30
0
  11
77.6
  21
-0.113214
  31
0
  0
LINE
  5
b8
  100
AcDbEntity
  8
1
  100
AcDbLine
  10
77.6
  20
-0.113214
  30
0
  11
77.5
  21
-0.013274
  31
0
  0
LINE
  5
b9
  100
AcDbEntity
  8
1
  100
AcDbLine
  10
77.5
  20
-0.013274
  30
0
  11
77.4
  21
0.086699
  31
0
  0
LINE
  5
ba
  100
AcDbEntity
  8
1
  100
AcDbLine
  10
77.4
  20
0.086699
  30
0
  11
77.3
  21
0.186455
  31
0
  0
LINE
  5
bb
  100
AcDbEntity
  8
1
  100
AcDbLine
  10
77.3
  20
0.186455
  30
0
  11
77.2
  21
0.285745
  31
0
  0
LINE
  5
bc
  100
AcDbEntity
  8
1
  100
AcDbLine
  10
77.2
  20
0.285745
  30
0
  11
77.1
  21
0.38432
  31
0
  0
LINE
  5
bd
  100
AcDbEntity
  8
1
  100
AcDbLine
  10
77.1
  20
0.38432
  30
0
  11
77
  21
0.481936
  31
0
  0
LINE
  5
be
  100
AcDbEntity
  8
1
  100
AcDbLine
  10
77
  20
0.481936
  30
0
  11
76.9
  21
0.578346
  31
0
  0
LINE
  5
bf
  100
AcDbEntity
  8
1
  100
AcDbLine
  10
76.9
  20
0.578346
  30
0
  11
76.8
  21
0.673311
  31
0
  0
LINE
  5
c0
  100
AcDbEntity
  8
1
  100
AcDbLine
  10
76.8
  20
0.673311
  30
0
  11
76.7
  21
0.766593
  31
0
  0
LINE
  5
c1
  100
AcDbEntity
  8
1
  100
AcDbLine
  10
76.7
  20
0.766593
  30
0
  11
76.6
  21
0.857959
  31
0
  0
LINE
  5
c2
  100
AcDbEntity
  8
1
  100
AcDbLine
  10
76.6
  20
0.857959
  30
0
  11
76.5
  21
0.947181
  31
0
  0
LINE
  5
c3
  100
AcDbEntity
  8
1
  100
AcDbLine
  10
76.5
  20
0.947181
  30
0
  11
76.4
  21
1.034035
  31
0
  0
LINE
  5
c4
  100
AcDbEntity
  8
1
  100
AcDbLine
  10
76.4
  20
1.034035
  30
0
  11
76.3
  21
1.118305
  31
0
  0
LINE
  5
c5
  100
AcDbEntity
  8
1
  100
AcDbLine
  10
76.3
  20
1.118305
  30
0
  11
76.2
  21
1.199779
  31
0
  0
LINE
  5
c6
  100
AcDbEntity
  8
1
  100
AcDbLine
  10
76.2
  20
1.199779
  30
0
  11
76.1
  21
1.278254
  31
0
  0
LINE
  5
c7
  100
AcDbEntity
  8
1
  100
AcDbLine
  10
76.1
  20
1.278254
  30
0
  11
76
  21
1.353535
  31
0
  0
LINE
  5
c8
  100
AcDbEntity
  8
1
  100
AcDbLine
  10
76
  20
1.353535
  30
0
  11
75.9
  21
1.425432
  31
0
  0
LINE
  5
c9
  100
AcDbEntity
  8
1
  100
AcDbLine
  10
75.9
  20
1.425432
  30
0
  11
75.8
  21
1.493767
  31
0
  0
LINE
  5
ca
  100
AcDbEntity
  8
1
  100
AcDbLine
  10
75.8
  20
1.493767
  30
0
  11
75.7
  21
1.558368
  31
0
  0
LINE
  5
cb
  100
AcDbEntity
  8
1
  100
AcDbLine
  10
75.7
  20
1.558368
  30
0
  11
75.6
  21
1.619074
  31
0
  0
LINE
  5
cc
  100
AcDbEntity
  8
1
  100
AcDbLine
  10
75.6
  20
1.619074
  30
0
  11
75.5
  21
1.675733
  31
0
  0
LINE
  5
cd
  100
AcDbEntity
  8
1
  100
AcDbLine
  10
75.5
  20
1.675733
  30
0
  11
75.4
  21
1.728203
  31
0
  0
LINE
  5
ce
  100
AcDbEntity
  8
1
  100
AcDbLine
  10
75.4
  20
1.728203
  30
0
  11
75.3
  21
1.776354
  31
0
  0
LINE
  5
cf
  100
AcDbEntity
  8
1
  100
AcDbLine
  10
75.3
  20
1.776354
  30
0
  11
75.2
  21
1.820065
  31
0
  0
LINE
  5
d0
  100
AcDbEntity
  8
1
  100
AcDbLine
  10
75.2
  20
1.820065
  30
0
  11
75.1
  21
1.859227
  31
0
  0
LINE
  5
d1
  100
AcDbEntity
  8
1
  100
AcDbLine
  10
75.1
  20
1.859227
  30
0
  11
75
  21
1.893742
  31
0
  0
LINE
  5
d2
  100
AcDbEntity
  8
1
  100
AcDbLine
  10
75
  20
1.893742
  30
0
  11
74.9
  21
1.923523
  31
0
  0
LINE
  5
d3
  100
AcDbEntity
  8
1
  100
AcDbLine
  10
74.9
  20
1.923523
  30
0
  11
74.8
  21
1.948497
  31
0
  0
LINE
  5
d4
  100
AcDbEntity
  8
1
  100
AcDbLine
  10
74.8
  20
1.948497
  30
0
  11
74.7
  21
1.9686
  31
0
  0
LINE
  5
d5
  100
AcDbEntity
  8
1
  100
AcDbLine
  10
74.7
  20
1.9686
  30
0
  11
74.6
  21
1.983783
  31
0
  0
LINE
  5
d6
  100
AcDbEntity
  8
1
  100
AcDbLine
  10
74.6
  20
1.983783
  30
0
  11
74.5
  21
1.994007
  31
0
  0
LINE
  5
d7
  100
AcDbEntity
  8
1
  100
AcDbLine
  10
74.5
  20
1.994007
  30
0
  11
74.4
  21
1.999247
  31
0
  0
LINE
  5
d8
  100
AcDbEntity
  8
1
  100
AcDbLine
  10
74.4
  20
1.999247
  30
0
  11
74.345134
  21
2
  31
0
  0
LINE
  5
d9
  100
AcDbEntity
  8
1
  100
AcDbLine
  10
74
  20
2
  30
0
  11
74
  21
-2
  31
0
  0
LINE
  5
da
  100
AcDbEntity
  8
1
  100
AcDbLine
  10
74
  20
-1.9
  30
0
  11
74
  21
1.9
  31
0
  0
LINE
  5
db
  100
AcDbEntity
  8
1
  100
AcDbLine
  10
74
  20
1.874853
  30
0
  11
74
  21
1.973398
  31
0
  0
LINE
  5
dc
  100
AcDbEntity
  8
1
  100
AcDbLine
  10
74
  20
1.973398
  30
0
  11
74.1
  21
1.966816
  31
0
  0
LINE
  5
dd
  100
AcDbEntity
  8
1
  100
AcDbLine
  10
74.1
  20
1.966816
  30
0
  11
74.2
  21
1.955318
  31
0
  0
LINE
  5
de
  100
AcDbEntity
  8
1
  100
AcDbLine
  10
74.2
  20
1.955318
  30
0
  11
74.3
  21
1.938933
  31
0
  0
LINE
  5
df
  100
AcDbEntity
  8
1
  100
AcDbLine
  10
74.3
  20
1.938933
  30
0
  11
74.4
  21
1.917701
  31
0
  0
LINE
  5
e0
  100
AcDbEntity
  8
1
  100
AcDbLine
  10
74.4
  20
1.917701
  30
0
  11
74.5
  21
1.891677
  31
0
  0
LINE
  5
e1
  100
AcDbEntity
  8
1
  100
AcDbLine
  10
74.5
  20
1.891677
  30
0
  11
74.6
  21
1.860924
  31
0
  0
LINE
  5
e2
  100
AcDbEntity
  8
1
  100
AcDbLine
  10
74.6
  20
1.860924
  30
0
  11
74.7
  21
1.825519
  31
0
  0
LINE
  5
e3
  100
AcDbEntity
  8
1
  100
AcDbLine
  10
74.7
  20
1.825519
  30
0
  11
74.8
  21
1.785552
  31
0
  0
LINE
  5
e4
  100
AcDbEntity
  8
1
  100
AcDbLine
  10
74.8
  20
1.785552
  30
0
  11
74.9
  21
1.741122
  31
0
  0
LINE
  5
e5
  100
AcDbEntity
  8
1
  100
AcDbLine
  10
74.9
  20
1.741122
  30
0
  11
75
  21
1.69234
  31
0
  0
LINE
  5
e6
  100
AcDbEntity
  8
1
  100
AcDbLine
  10
75
  20
1.69234
  30
0
  11
75.1
  21
1.639328
  31
0
  0
LINE
  5
e7
  100
AcDbEntity
  8
1
  100
AcDbLine
  10
75.1
  20
1.639328
  30
0
  11
75.2
  21
1.582218
  31
0
  0
LINE
  5
e8
  100
AcDbEntity
  8
1
  100
AcDbLine
  10
75.2
  20
1.582218
  30
0
  11
75.3
  21
1.521154
  31
0
  0
LINE
  5
e9
  100
AcDbEntity
  8
1
  100
AcDbLine
  10
75.3
  20
1.521154
  30
0
  11
75.4
  21
1.456288
  31
0
  0
LINE
  5
ea
  100
AcDbEntity
  8
1
  100
AcDbLine
  10
75.4
  20
1.456288
  30
0
  11
75.5
  21
1.387782
  31
0
  0
LINE
  5
eb
  100
AcDbEntity
  8
1
  100
AcDbLine
  10
75.5
  20
1.387782
  30
0
  11
75.6
  21
1.315807
  31
0
  0
LINE
  5
ec
  100
AcDbEntity
  8
1
  100
AcDbLine
  10
75.6
  20
1.315807
  30
0
  11
75.7
  21
1.240543
  31
0
  0
LINE
  5
ed
  100
AcDbEntity
  8
1
  100
AcDbLine
  10
75.7
  20
1.240543
  30
0
  11
75.8
  21
1.162178
  31
0
  0
LINE
  5
ee
  100
AcDbEntity
  8
1
  100
AcDbLine
  10
75.8
  20
1.162178
  30
0
  11
75.9
  21
1.080909
  31
0
  0
LINE
  5
ef
  100
AcDbEntity
  8
1
  100
AcDbLine
  10
75.9
  20
1.080909
  30
0
  11
76
  21
0.996938
  31
0
  0
LINE
  5
f0
  100
AcDbEntity
  8
1
  100
AcDbLine
  10
76
  20
0.996938
  30
0
  11
76.1
  21
0.910475
  31
0
  0
LINE
  5
f1
  100
AcDbEntity
  8
1
  100
AcDbLine
  10
76.1
  20
0.910475
  30
0
  11
76.2
  21
0.821736
  31
0
  0
LINE
  5
f2
  100
AcDbEntity
  8
1
  100
AcDbLine
  10
76.2
  20
0.821736
  30
0
  11
76.3
  21
0.730944
  31
0
  0
LINE
  5
f3
  100
AcDbEntity
  8
1
  100
AcDbLine
  10
76.3
  20
0.730944
  30
0
  11
76.4
  21
0.638324
  31
0
  0
LINE
  5
f4
  100
AcDbEntity
  8
1
  100
AcDbLine
  10
76.4
  20
0.638324
  30
0
  11
76.5
  21
0.544109
  31
0
  0
LINE
  5
f5
  100
AcDbEntity
  8
1
  100
AcDbLine
  10
76.5
  20
0.544109
  30
0
  11
76.6
  21
0.448534
  31
0
  0
LINE
  5
f6
  100
AcDbEntity
  8
1
  100
AcDbLine
  10
76.6
  20
0.448534
  30
0
  11
76.7
  21
0.351838
  31
0
  0
LINE
  5
f7
  100
AcDbEntity
  8
1
  100
AcDbLine
  10
76.7
  20
0.351838
  30
0
  11
76.8
  21
0.254263
  31
0
  0
LINE
  5
f8
  100
AcDbEntity
  8
1
  100
AcDbLine
  10
76.8
  20
0.254263
  30
0
  11
76.9
  21
0.156052
  31
0
  0
LINE
  5
f9
  100
AcDbEntity
  8
1
  100
AcDbLine
  10
76.9
  20
0.156052
  30
0
  11
77
  21
0.05745
  31
0
  0
LINE
  5
fa
  100
AcDbEntity
  8
1
  100
AcDbLine
  10
77
  20
0.05745
  30
0
  11
77.1
  21
-0.041294
  31
0
  0
LINE
  5
fb
  100
AcDbEntity
  8
1
  100
AcDbLine
  10
77.1
  20
-0.041294
  30
0
  11
77.2
  21
-0.139936
  31
0
  0
LINE
  5
fc
  100
AcDbEntity
  8
1
  100
AcDbLine
  10
77.2
  20
-0.139936
  30
0
  11
77.3
  21
-0.238227
  31
0
  0
LINE
  5
fd
  100
AcDbEntity
  8
1
  100
AcDbLine
  10
77.3
  20
-0.238227
  30
0
  11
77.4
  21
-0.335924
  31
0
  0
LINE
  5
fe
  100
AcDbEntity
  8
1
  100
AcDbLine
  10
77.4
  20
-0.335924
  30
0
  11
77.5
  21
-0.43278
  31
0
  0
LINE
  5
ff
  100
AcDbEntity
  8
1
  100
AcDbLine
  10
77.5
  20
-0.43278
  30
0
  11
77.6
  21
-0.528555
  31
0
  0
LINE
  5
100
  100
AcDbEntity
  8
1
  100
AcDbLine
  10
77.6
  20
-0.528555
  30
0
  11
77.7
  21
-0.623009
  31
0
  0
LINE
  5
101
  100
AcDbEntity
  8
1
  100
AcDbLine
  10
77.7
  20
-0.623009
  30
0
  11
77.8
  21
-0.715905
  31
0
  0
LINE
  5
102
  100
AcDbEntity
  8
1
  100
AcDbLine
  10
77.8
  20
-0.715905
  30
0
  11
77.9
  21
-0.807013
  31
0
  0
LINE
  5
103
  100
AcDbEntity
  8
1
  100
AcDbLine
  10
77.9
  20
-0.807013
  30
0
  11
78
  21
-0.896103
  31
0
  0
LINE
  5
104
  100
AcDbEntity
  8
1
  100
AcDbLine
  10
78
  20
-0.896103
  30
0
  11
78.1
  21
-0.982953
  31
0
  0
LINE
  5
105
  100
AcDbEntity
  8
1
  100
AcDbLine
  10
78.1
  20
-0.982953
  30
0
  11
78.2
  21
-1.067346
  31
0
  0
LINE
  5
106
  100
AcDbEntity
  8
1
  100
AcDbLine
  10
78.2
  20
-1.067346
  30
0
  11
78.3
  21
-1.149072
  31
0
  0
LINE
  5
107
  100
AcDbEntity
  8
1
  100
AcDbLine
  10
78.3
  20
-1.149072
  30
0
  11
78.4
  21
-1.227925
  31
0
  0
LINE
  5
108
  100
AcDbEntity
  8
1
  100
AcDbLine
  10
78.4
  20
-1.227925
  30
0
  11
78.5
  21
-1.30371
  31
0
  0
LINE
  5
109
  100
AcDbEntity
  8
1
  100
AcDbLine
  10
78.5
  20
-1.30371
  30
0
  11
78.6
  21
-1.376236
  31
0
  0
LINE
  5
10a
  100
AcDbEntity
  8
1
  100
AcDbLine
  10
78.6
  20
-1.376236
  30
0
  11
78.7
  21
-1.445321
  31
0
  0
LINE
  5
10b
  100
AcDbEntity
  8
1
  100
AcDbLine
  10
78.7
  20
-1.445321
  30
0
  11
78.8
  21
-1.510795
  31
0
  0
LINE
  5
10c
  100
AcDbEntity
  8
1
  100
AcDbLine
  10
78.8
  20
-1.510795
  30
0
  11
78.9
  21
-1.572492
  31
0
  0
LINE
  5
10d
  100
AcDbEntity
  8
1
  100
AcDbLine
  10
78.9
  20
-1.572492
  30
0
  11
79
  21
-1.630259
  31
0
  0
LINE
  5
10e
  100
AcDbEntity
  8
1
  100
AcDbLine
  10
79
  20
-1.630259
  30
0
  11
79.1
  21
-1.683951
  31
0
  0
LINE
  5
10f
  100
AcDbEntity
  8
1
  100
AcDbLine
  10
79.1
  20
-1.683951
  30
0
  11
79.2
  21
-1.733433
  31
0
  0
LINE
  5
110
  100
AcDbEntity
  8
1
  100
AcDbLine
  10
79.2
  20
-1.733433
  30
0
  11
79.3
  21
-1.778584
  31
0
  0
LINE
  5
111
  100
AcDbEntity
  8
1
  100
AcDbLine
  10
79.3
  20
-1.778584
  30
0
  11
79.4
  21
-1.819288
  31
0
  0
LINE
  5
112
  100
AcDbEntity
  8
1
  100
AcDbLine
  10
79.4
  20
-1.819288
  30
0
  11
79.5
  21
-1.855446
  31
0
  0
LINE
  5
113
  100
AcDbEntity
  8
1
  100
AcDbLine
  10
79.5
  20
-1.855446
  30
0
  11
79.6
  21
-1.87665
  31
0
  0
LINE
  5
114
  100
AcDbEntity
  8
1
  100
AcDbLine
  10
79.6
  20
-1.87665
  30
0
  11
79.7
  21
-1.871042
  31
0
  0
LINE
  5
115
  100
AcDbEntity
  8
1
  100
AcDbLine
  10
79.7
  20
-1.871042
  30
0
  11
79.8
  21
-1.83341
  31
0
  0
LINE
  5
116
  100
AcDbEntity
  8
1
  100
AcDbLine
  10
79.8
  20
-1.83341
  30
0
  11
79.9
  21
-1.748552
  31
0
  0
LINE
  5
117
  100
AcDbEntity
  8
1
  100
AcDbLine
  10
79.9
  20
-1.748552
  30
0
  11
79.998339
  21
-1.459279
  31
0
  0
LINE
  5
118
  100
AcDbEntity
  8
1
  100
AcDbLine
  10
79.998339
  20
-1.459279
  30
0
  11
80
  21
-1.454393
  31
0
  0
LINE
  5
119
  100
AcDbEntity
  8
1
  100
AcDbLine
  10
80
  20
-1.498342
  30
0
  11
79.999997
  21
-1.49835
  31
0
  0
LINE
  5
11a
  100
AcDbEntity
  8
1
  100
AcDbLine
  10
79.999997
  20
-1.49835
  30
0
  11
79.9
  21
-1.796124
  31
0
  0
LINE
  5
11b
  100
AcDbEntity
  8
1
  100
AcDbLine
  10
79.9
  20
-1.796124
  30
0
  11
79.8
  21
-1.889052
  31
0
  0
LINE
  5
11c
  100
AcDbEntity
  8
1
  100
AcDbLine
  10
79.8
  20
-1.889052
  30
0
  11
79.7
  21
-1.935383
  31
0
  0
LINE
  5
11d
  100
AcDbEntity
  8
1
  100
AcDbLine
  10
79.7
  20
-1.935383
  30
0
  11
79.6
  21
-1.94995
  31
0
  0
LINE
  5
11e
  100
AcDbEntity
  8
1
  100
AcDbLine
  10
79.6
  20
-1.94995
  30
0
  11
79.5
  21
-1.937825
  31
0
  0
LINE
  5
11f
  100
AcDbEntity
  8
1
  100
AcDbLine
  10
79.5
  20
-1.937825
  30
0
  11
79.4
  21
-1.910673
  31
0
  0
LINE
  5
120
  100
AcDbEntity
  8
1
  100
AcDbLine
  10
79.4
  20
-1.910673
  30
0
  11
79.3
  21
-1.878745
  31
0
  0
LINE
  5
121
  100
AcDbEntity
  8
1
  100
AcDbLine
  10
79.3
  20
-1.878745
  30
0
  11
79.2
  21
-1.842122
  31
0
  0
LINE
  5
122
  100
AcDbEntity
  8
1
  100
AcDbLine
  10
79.2
  20
-1.842122
  30
0
  11
79.1
  21
-1.800894
  31
0
  0
LINE
  5
123
  100
AcDbEntity
  8
1
  100
AcDbLine
  10
79.1
  20
-1.800894
  30
0
  11
79
  21
-1.755165
  31
0
  0
LINE
  5
124
  100
AcDbEntity
  8
1
  100
AcDbLine
  10
79
  20
-1.755165
  30
0
  11
78.9
  21
-1.705049
  31
0
  0
LINE
  5
125
  100
AcDbEntity
  8
1
  100
AcDbLine
  10
78.9
  20
-1.705049
  30
0
  11
78.8
  21
-1.650671
  31
0
  0
LINE
  5
126
  100
AcDbEntity
  8
1
  100
AcDbLine
  10
78.8
  20
-1.650671
  30
0
  11
78.7
  21
-1.592168
  31
0
  0
LINE
  5
127
  100
AcDbEntity
  8
1
  100
AcDbLine
  10
78.7
  20
-1.592168
  30
0
  11
78.6
  21
-1.529684
  31
0
  0
LINE
  5
128
  100
AcDbEntity
  8
1
  100
AcDbLine
  10
78.6
  20
-1.529684
  30
0
  11
78.5
  21
-1.463378
  31
0
  0
LINE
  5
129
  100
AcDbEntity
  8
1
  100
AcDbLine
  10
78.5
  20
-1.463378
  30
0
  11
78.4
  21
-1.393413
  31
0
  0
LINE
  5
12a
  100
AcDbEntity
  8
1
  100
AcDbLine
  10
78.4
  20
-1.393413
  30
0
  11
78.3
  21
-1.319966
  31
0
  0
LINE
  5
12b
  100
AcDbEntity
  8
1
  100
AcDbLine
  10
78.3
  20
-1.319966
  30
0
  11
78.2
  21
-1.24322
  31
0
  0
LINE
  5
12c
  100
AcDbEntity
  8
1
  100
AcDbLine
  10
78.2
  20
-1.24322
  30
0
  11
78.1
  21
-1.163366
  31
0
  0
LINE
  5
12d
  100
AcDbEntity
  8
1
  100
AcDbLine
  10
78.1
  20
-1.163366
  30
0
  11
78
  21
-1.080605
  31
0
  0
LINE
  5
12e
  100
AcDbEntity
  8
1
  100
AcDbLine
  10
78
  20
-1.080605
  30
0
  11
77.9
  21
-0.995142
  31
0
  0
LINE
  5
12f
  100
AcDbEntity
  8
1
  100
AcDbLine
  10
77.9
  20
-0.995142
  30
0
  11
77.8
  21
-0.907192
  31
0
  0
LINE
  5
130
  100
AcDbEntity
  8
1
  100
AcDbLine
  10
77.8
  20
-0.907192
  30
0
  11
77.7
  21
-0.816975
  31
0
  0
LINE
  5
131
  100
AcDbEntity
  8
1
  100
AcDbLine
  10
77.7
  20
-0.816975
  30
0
  11
77.6
  21
-0.724716
  31
0
  0
LINE
  5
132
  100
AcDbEntity
  8
1
  100
AcDbLine
  10
77.6
  20
-0.724716
  30
0
  11
77.5
  21
-0.630645
  31
0
  0
LINE
  5
133
  100
AcDbEntity
  8
1
  100
AcDbLine
  10
77.5
  20
-0.630645
  30
0
  11
77.4
  21
-0.534998
  31
0
  0
LINE
  5
134
  100
AcDbEntity
  8
1
  100
AcDbLine
  10
77.4
  20
-0.534998
  30
0
  11
77.3
  21
-0.438013
  31
0
  0
LINE
  5
135
  100
AcDbEntity
  8
1
  100
AcDbLine
  10
77.3
  20
-0.438013
  30
0
  11
77.2
  21
-0.339934
  31
0
  0
LINE
  5
136
  100
AcDbEntity
  8
1
  100
AcDbLine
  10
77.2
  20
-0.339934
  30
0
  11
77.1
  21
-0.241006
  31
0
  0
LINE
  5
137
  100
AcDbEntity
  8
1
  100
AcDbLine
  10
77.1
  20
-0.241006
  30
0
  11
77
  21
-0.141474
  31
0
  0
LINE
  5
138
  100
AcDbEntity
  8
1
  100
AcDbLine
  10
77
  20
-0.141474
  30
0
  11
76.9
  21
-0.04159
  31
0
  0
LINE
  5
139
  100
AcDbEntity
  8
1
  100
AcDbLine
  10
76.9
  20
-0.04159
  30
0
  11
76.8
  21
0.058399
  31
0
  0
LINE
  5
13a
  100
AcDbEntity
  8
1
  100
AcDbLine
  10
76.8
  20
0.058399
  30
0
  11
76.7
  21
0.158242
  31
0
  0
LINE
  5
13b
  100
AcDbEntity
  8
1
  100
AcDbLine
  10
76.7
  20
0.158242
  30
0
  11
76.6
  21
0.257689
  31
0
  0
LINE
  5
13c
  100
AcDbEntity
  8
1
  100
AcDbLine
  10
76.6
  20
0.257689
  30
0
  11
76.5
  21
0.356492
  31
0
  0
LINE
  5
13d
  100
AcDbEntity
  8
1
  100
AcDbLine
  10
76.5
  20
0.356492
  30
0
  11
76.4
  21
0.454404
  31
0
  0
LINE
  5
13e
  100
AcDbEntity
  8
1
  100
AcDbLine
  10
76.4
  20
0.454404
  30
0
  11
76.3
  21
0.55118
  31
0
  0
LINE
  5
13f
  100
AcDbEntity
  8
1
  100
AcDbLine
  10
76.3
  20
0.55118
  30
0
  11
76.2
  21
0.646579
  31
0
  0
LINE
  5
140
  100
AcDbEntity
  8
1
  100
AcDbLine
  10
76.2
  20
0.646579
  30
0
  11
76.1
  21
0.740362
  31
0
  0
LINE
  5
141
  100
AcDbEntity
  8
1
  100
AcDbLine
  10
76.1
  20
0.740362
  30
0
  11
76
  21
0.832294
  31
0
  0
LINE
  5
142
  100
AcDbEntity
  8
1
  100
AcDbLine
  10
76
  20
0.832294
  30
0
  11
75.9
  21
0.922145
  31
0
  0
LINE
  5
143
  100
AcDbEntity
  8
1
  100
AcDbLine
  10
75.9
  20
0.922145
  30
0
  11
75.8
  21
1.009692
  31
0
  0
LINE
  5
144
  100
AcDbEntity
  8
1
  100
AcDbLine
  10
75.8
  20
1.009692
  30
0
  11
75.7
  21
1.094715
  31
0
  0
LINE
  5
145
  100
AcDbEntity
  8
1
  100
AcDbLine
  10
75.7
  20
1.094715
  30
0
  11
75.6
  21
1.177002
  31
0
  0
LINE
  5
146
  100
AcDbEntity
  8
1
  100
AcDbLine
  10
75.6
  20
1.177002
  30
0
  11
75.5
  21
1.256347
  31
0
  0
LINE
  5
147
  100
AcDbEntity
  8
1
  100
AcDbLine
  10
75.5
  20
1.256347
  30
0
  11
75.4
  21
1.332552
  31
0
  0
LINE
  5
148
  100
AcDbEntity
  8
1
  100
AcDbLine
  10
75.4
  20
1.332552
  30
0
  11
75.3
  21
1.405426
  31
0
  0
LINE
  5
149
  100
AcDbEntity
  8
1
  100
AcDbLine
  10
75.3
  20
1.405426
  30
0
  11
75.2
  21
1.474787
  31
0
  0
LINE
  5
14a
  100
AcDbEntity
  8
1
  100
AcDbLine
  10
75.2
  20
1.474787
  30
0
  11
75.1
  21
1.540463
  31
0
  0
LINE
  5
14b
  100
AcDbEntity
  8
1
  100
AcDbLine
  10
75.1
  20
1.540463
  30
0
  11
75
  21
1.602287
  31
0
  0
LINE
  5
14c
  100
AcDbEntity
  8
1
  100
AcDbLine
  10
75
  20
1.602287
  30
0
  11
74.9
  21
1.660107
  31
0
  0
LINE
  5
14d
  100
AcDbEntity
  8
1
  100
AcDbLine
  10
74.9
  20
1.660107
  30
0
  11
74.8
  21
1.713778
  31
0
  0
LINE
  5
14e
  100
AcDbEntity
  8
1
  100
AcDbLine
  10
74.8
  20
1.713778
  30
0
  11
74.7
  21
1.763164
  31
0
  0
LINE
  5
14f
  100
AcDbEntity
  8
1
  100
AcDbLine
  10
74.7
  20
1.763164
  30
0
  11
74.6
  21
1.808144
  31
0
  0
LINE
  5
150
  100
AcDbEntity
  8
1
  100
AcDbLine
  10
74.6
  20
1.808144
  30
0
  11
74.5
  21
1.848605
  31
0
  0
LINE
  5
151
  100
AcDbEntity
  8
1
  100
AcDbLine
  10
74.5
  20
1.848605
  30
0
  11
74.4
  21
1.884445
  31
0
  0
LINE
  5
152
  100
AcDbEntity
  8
1
  100
AcDbLine
  10
74.4
  20
1.884445
  30
0
  11
74.3
  21
1.915574
  31
0
  0
LINE
  5
153
  100
AcDbEntity
  8
1
  100
AcDbLine
  10
74.3
  20
1.915574
  30
0
  11
74.2
  21
1.941916
  31
0
  0
LINE
  5
154
  100
AcDbEntity
  8
1
  100
AcDbLine
  10
74.2
  20
1.941916
  30
0
  11
74.1
  21
1.963404
  31
0
  0
LINE
  5
155
  100
AcDbEntity
  8
1
  100
AcDbLine
  10
74.1
  20
1.963404
  30
0
  11
74
  21
1.979985
  31
0
  0
LINE
  5
156
  100
AcDbEntity
  8
1
  100
AcDbLine
  10
74
  20
1.979985
  30
0
  11
74
  21
1.882919
  31
0
  0
LINE
  5
157
  100
AcDbEntity
  8
1
  100
AcDbLine
  10
74
  20
1.882919
  30
0
  11
73.9
  21
1.89327
  31
0
  0
LINE
  5
158
  100
AcDbEntity
  8
1
  100
AcDbLine
  10
73.9
  20
1.89327
  30
0
  11
73.8
  21
1.898889
  31
0
  0
LINE
  5
159
  100
AcDbEntity
  8
1
  100
AcDbLine
  10
73.8
  20
1.898889
  30
0
  11
73.731608
  21
1.9
  31
0
  0
LINE
  5
15a
  100
AcDbEntity
  8
1
  100
AcDbLine
  10
73.3
  20
1.9
  30
0
  11
73.3
  21
1.614073
  31
0
  0
LINE
  5
15b
  100
AcDbEntity
  8
1
  100
AcDbLine
  10
73.3
  20
1.614073
  30
0
  11
73.4
  21
1.17886
  31
0
  0
LINE
  5
15c
  100
AcDbEntity
  8
1
  100
AcDbLine
  10
73.4
  20
1.17886
  30
0
  11
73.5
  21
0.894277
  31
0
  0
LINE
  5
15d
  100
AcDbEntity
  8
1
  100
AcDbLine
  10
73.5
  20
0.894277
  30
0
  11
73.6
  21
0.725916
  31
0
  0
LINE
  5
15e
  100
AcDbEntity
  8
1
  100
AcDbLine
  10
73.6
  20
0.725916
  30
0
  11
73.7
  21
0.612084
  31
0
  0
LINE
  5
15f
  100
AcDbEntity
  8
1
  100
AcDbLine
  10
73.7
  20
0.612084
  30
0
  11
73.8
  21
0.516358
  31
0
  0
LINE
  5
160
  100
AcDbEntity
  8
1
  100
AcDbLine
  10
73.8
  20
0.516358
  30
0
  11
73.9
  21
0.42384
  31
0
  0
LINE
  5
161
  100
AcDbEntity
  8
1
  100
AcDbLine
  10
73.9
  20
0.42384
  30
0
  11
74
  21
0.330735
  31
0
  0
LINE
  5
162
  100
AcDbEntity
  8
1
  100
AcDbLine
  10
74
  20
0.330735
  30
0
  11
74
  21
0.343423
  31
0
  0
LINE
  5
163
  100
AcDbEntity
  8
1
  100
AcDbLine
  10
74
  20
0.343423
  30
0
  11
74.1
  21
0.24452
  31
0
  0
LINE
  5
164
  100
AcDbEntity
  8
1
  100
AcDbLine
  10
74.1
  20
0.24452
  30
0
  11
74.2
  21
0.145006
  31
0
  0
LINE
  5
165
  100
AcDbEntity
  8
1
  100
AcDbLine
  10
74.2
  20
0.145006
  30
0
  11
74.3
  21
0.045129
  31
0
  0
LINE
  5
166
  100
AcDbEntity
  8
1
  100
AcDbLine
  10
74.3
  20
0.045129
  30
0
  11
74.4
  21
-0.05486
  31
0
  0
LINE
  5
167
  100
AcDbEntity
  8
1
  100
AcDbLine
  10
74.4
  20
-0.05486
  30
0
  11
74.5
  21
-0.154712
  31
0
  0
LINE
  5
168
  100
AcDbEntity
  8
1
  100
AcDbLine
  10
74.5
  20
-0.154712
  30
0
  11
74.6
  21
-0.254178
  31
0
  0
LINE
  5
169
  100
AcDbEntity
  8
1
  100
AcDbLine
  10
74.6
  20
-0.254178
  30
0
  11
74.7
  21
-0.353008
  31
0
  0
LINE
  5
16a
  100
AcDbEntity
  8
1
  100
AcDbLine
  10
74.7
  20
-0.353008
  30
0
  11
74.8
  21
-0.450956
  31
0
  0
LINE
  5
16b
  100
AcDbEntity
  8
1
  100
AcDbLine
  10
74.8
  20
-0.450956
  30
0
  11
74.9
  21
-0.547776
  31
0
  0
LINE
  5
16c
  100
AcDbEntity
  8
1
  100
AcDbLine
  10
74.9
  20
-0.547776
  30
0
  11
75
  21
-0.643228
  31
0
  0
LINE
  5
16d
  100
AcDbEntity
  8
1
  100
AcDbLine
  10
75
  20
-0.643228
  30
0
  11
75.1
  21
-0.737071
  31
0
  0
LINE
  5
16e
  100
AcDbEntity
  8
1
  100
AcDbLine
  10
75.1
  20
-0.737071
  30
0
  11
75.2
  21
-0.829073
  31
0
  0
LINE
  5
16f
  100
AcDbEntity
  8
1
  100
AcDbLine
  10
75.2
  20
-0.829073
  30
0
  11
75.3
  21
-0.919002
  31
0
  0
LINE
  5
170
  100
AcDbEntity
  8
1
  100
AcDbLine
  10
75.3
  20
-0.919002
  30
0
  11
75.4
  21
-1.006634
  31
0
  0
LINE
  5
171
  100
AcDbEntity
  8
1
  100
AcDbLine
  10
75.4
  20
-1.006634
  30
0
  11
75.5
  21
-1.091751
  31
0
  0
LINE
  5
172
  100
AcDbEntity
  8
1
  100
AcDbLine
  10
75.5
  20
-1.091751
  30
0
  11
75.6
  21
-1.174138
  31
0
  0
LINE
  5
173
  100
AcDbEntity
  8
1
  100
AcDbLine
  10
75.6
  20
-1.174138
  30
0
  11
75.7
  21
-1.25359
  31
0
  0
LINE
  5
174
  100
AcDbEntity
  8
1
  100
AcDbLine
  10
75.7
  20
-1.25359
  30
0
  11
75.8
  21
-1.32991
  31
0
  0
LINE
  5
175
  100
AcDbEntity
  8
1
  100
AcDbLine
  10
75.8
  20
-1.32991
  30
0
  11
75.9
  21
-1.402905
  31
0
  0
LINE
  5
176
  100
AcDbEntity
  8
1
  100
AcDbLine
  10
75.9
  20
-1.402905
  30
0
  11
76
  21
-1.472394
  31
0
  0
LINE
  5
177
  100
AcDbEntity
  8
1
  100
AcDbLine
  10
76
  20
-1.472394
  30
0
  11
76.1
  21
-1.538202
  31
0
  0
LINE
  5
178
  100
AcDbEntity
  8
1
  100
AcDbLine
  10
76.1
  20
-1.538202
  30
0
  11
76.2
  21
-1.600166
  31
0
  0
LINE
  5
179
  100
AcDbEntity
  8
1
  100
AcDbLine
  10
76.2
  20
-1.600166
  30
0
  11
76.3
  21
-1.65813
  31
0
  0
LINE
  5
17a
  100
AcDbEntity
  8
1
  100
AcDbLine
  10
76.3
  20
-1.65813
  30
0
  11
76.4
  21
-1.71195
  31
0
  0
LINE
  5
17b
  100
AcDbEntity
  8
1
  100
AcDbLine
  10
76.4
  20
-1.71195
  30
0
  11
76.5
  21
-1.76149
  31
0
  0
LINE
  5
17c
  100
AcDbEntity
  8
1
  100
AcDbLine
  10
76.5
  20
-1.76149
  30
0
  11
76.6
  21
-1.806628
  31
0
  0
LINE
  5
17d
  100
AcDbEntity
  8
1
  100
AcDbLine
  10
76.6
  20
-1.806628
  30
0
  11
76.7
  21
-1.847251
  31
0
  0
LINE
  5
17e
  100
AcDbEntity
  8
1
  100
AcDbLine
  10
76.7
  20
-1.847251
  30
0
  11
76.8
  21
-1.883256
  31
0
  0
LINE
  5
17f
  100
AcDbEntity
  8
1
  100
AcDbLine
  10
76.8
  20
-1.883256
  30
0
  11
76.9
  21
-1.914554
  31
0
  0
LINE
  5
180
  100
AcDbEntity
  8
1
  100
AcDbLine
  10
76.9
  20
-1.914554
  30
0
  11
77
  21
-1.941066
  31
0
  0
LINE
  5
181
  100
AcDbEntity
  8
1
  100
AcDbLine
  10
77
  20
-1.941066
  30
0
  11
77.1
  21
-1.962727
  31
0
  0
LINE
  5
182
  100
AcDbEntity
  8
1
  100
AcDbLine
  10
77.1
  20
-1.962727
  30
0
  11
77.2
  21
-1.979482
  31
0
  0
LINE
  5
183
  100
AcDbEntity
  8
1
  100
AcDbLine
  10
77.2
  20
-1.979482
  30
0
  11
77.3
  21
-1.99129
  31
0
  0
LINE
  5
184
  100
AcDbEntity
  8
1
  100
AcDbLine
  10
77.3
  20
-1.99129
  30
0
  11
77.4
  21
-1.99812
  31
0
  0
LINE
  5
185
  100
AcDbEntity
  8
1
  100
AcDbLine
  10
77.4
  20
-1.99812
  30
0
  11
77.486722
  21
-2
  31
0
  0
LINE
  5
186
  100
AcDbEntity
  8
1
  100
AcDbLine
  10
77.058181
  20
-2
  30
0
  11
77
  21
-1.97428
  31
0
  0
LINE
  5
187
  100
AcDbEntity
  8
1
  100
AcDbLine
  10
77
  20
-1.97428
  30
0
  11
76.9
  21
-1.968941
  31
0
  0
LINE
  5
188
  100
AcDbEntity
  8
1
  100
AcDbLine
  10
76.9
  20
-1.968941
  30
0
  11
76.8
  21
-1.958681
  31
0
  0
LINE
  5
189
  100
AcDbEntity
  8
1
  100
AcDbLine
  10
76.8
  20
-1.958681
  30
0
  11
76.7
  21
-1.943526
  31
0
  0
LINE
  5
18a
  100
AcDbEntity
  8
1
  100
AcDbLine
  10
76.7
  20
-1.943526
  30
0
  11
76.6
  21
-1.923512
  31
0
  0
LINE
  5
18b
  100
AcDbEntity
  8
1
  100
AcDbLine
  10
76.6
  20
-1.923512
  30
0
  11
76.5
  21
-1.898691
  31
0
  0
LINE
  5
18c
  100
AcDbEntity
  8
1
  100
AcDbLine
  10
76.5
  20
-1.898691
  30
0
  11
76.4
  21
-1.869124
  31
0
  0
LINE
  5
18d
  100
AcDbEntity
  8
1
  100
AcDbLine
  10
76.4
  20
-1.869124
  30
0
  11
76.3
  21
-1.834885
  31
0
  0
LINE
  5
18e
  100
AcDbEntity
  8
1
  100
AcDbLine
  10
76.3
  20
-1.834885
  30
0
  11
76.2
  21
-1.79606
  31
0
  0
LINE
  5
18f
  100
AcDbEntity
  8
1
  100
AcDbLine
  10
76.2
  20
-1.79606
  30
0
  11
76.1
  21
-1.752746
  31
0
  0
LINE
  5
190
  100
AcDbEntity
  8
1
  100
AcDbLine
  10
76.1
  20
-1.752746
  30
0
  11
76
  21
-1.70505
  31
0
  0
LINE
  5
191
  100
AcDbEntity
  8
1
  100
AcDbLine
  10
76
  20
-1.70505
  30
0
  11
75.9
  21
-1.653093
  31
0
  0
LINE
  5
192
  100
AcDbEntity
  8
1
  100
AcDbLine
  10
75.9
  20
-1.653093
  30
0
  11
75.8
  21
-1.597005
  31
0
  0
LINE
  5
193
  100
AcDbEntity
  8
1
  100
AcDbLine
  10
75.8
  20
-1.597005
  30
0
  11
75.7
  21
-1.536924
  31
0
  0
LINE
  5
194
  100
AcDbEntity
  8
1
  100
AcDbLine
  10
75.7
  20
-1.536924
  30
0
  11
75.6
  21
-1.473002
  31
0
  0
LINE
  5
195
  100
AcDbEntity
  8
1
  100
AcDbLine
  10
75.6
  20
-1.473002
  30
0
  11
75.5
  21
-1.405398
  31
0
  0
LINE
  5
196
  100
AcDbEntity
  8
1
  100
AcDbLine
  10
75.5
  20
-1.405398
  30
0
  11
75.4
  21
-1.334282
  31
0
  0
LINE
  5
197
  100
AcDbEntity
  8
1
  100
AcDbLine
  10
75.4
  20
-1.334282
  30
0
  11
75.3
  21
-1.25983
  31
0
  0
LINE
  5
198
  100
AcDbEntity
  8
1
  100
AcDbLine
  10
75.3
  20
-1.25983
  30
0
  11
75.2
  21
-1.18223
  31
0
  0
LINE
  5
199
  100
AcDbEntity
  8
1
  100
AcDbLine
  10
75.2
  20
-1.18223
  30
0
  11
75.1
  21
-1.101674
  31
0
  0
LINE
  5
19a
  100
AcDbEntity
  8
1
  100
AcDbLine
  10
75.1
  20
-1.101674
  30
0
  11
75
  21
-1.018365
  31
0
  0
LINE
  5
19b
  100
AcDbEntity
  8
1
  100
AcDbLine
  10
75
  20
-1.018365
  30
0
  11
74.9
  21
-0.932511
  31
0
  0
LINE
  5
19c
  100
AcDbEntity
  8
1
  100
AcDbLine
  10
74.9
  20
-0.932511
  30
0
  11
74.8
  21
-0.844325
  31
0
  0
LINE
  5
19d
  100
AcDbEntity
  8
1
  100
AcDbLine
  10
74.8
  20
-0.844325
  30
0
  11
74.7
  21
-0.75403
  31
0
  0
LINE
  5
19e
  100
AcDbEntity
  8
1
  100
AcDbLine
  10
74.7
  20
-0.75403
  30
0
  11
74.6
  21
-0.66185
  31
0
  0
LINE
  5
19f
  100
AcDbEntity
  8
1
  100
AcDbLine
  10
74.6
  20
-0.66185
  30
0
  11
74.5
  21
-0.568015
  31
0
  0
LINE
  5
1a0
  100
AcDbEntity
  8
1
  100
AcDbLine
  10
74.5
  20
-0.568015
  30
0
  11
74.4
  21
-0.472761
  31
0
  0
LINE
  5
1a1
  100
AcDbEntity
  8
1
  100
AcDbLine
  10
74.4
  20
-0.472761
  30
0
  11
74.3
  21
-0.376325
  31
0
  0
LINE
  5
1a2
  100
AcDbEntity
  8
1
  100
AcDbLine
  10
74.3
  20
-0.376325
  30
0
  11
74.2
  21
-0.278948
  31
0
  0
LINE
  5
1a3
  100
AcDbEntity
  8
1
  100
AcDbLine
  10
74.2
  20
-0.278948
  30
0
  11
74.1
  21
-0.180874
  31
0
  0
LINE
  5
1a4
  100
AcDbEntity
  8
1
  100
AcDbLine
  10
74.1
  20
-0.180874
  30
0
  11
74
  21
-0.082349
  31
0
  0
LINE
  5
1a5
  100
AcDbEntity
  8
1
  100
AcDbLine
  10
74
  20
-0.082349
  30
0
  11
74
  21
-0.054363
  31
0
  0
LINE
  5
1a6
  100
AcDbEntity
  8
1
  100
AcDbLine
  10
73.731608
  20
-1.9
  30
0
  11
73.7
  21
-1.899763
  31
0
  0
LINE
  5
1a7
  100
AcDbEntity
  8
1
  100
AcDbLine
  10
73.7
  20
-1.899763
  30
0
  11
73.6
  21
-1.89592
  31
0
  0
LINE
  5
1a8
  100
AcDbEntity
  8
1
  100
AcDbLine
  10
73.6
  20
-1.89592
  30
0
  11
73.5
  21
-1.888089
  31
0
  0
LINE
  5
1a9
  100
AcDbEntity
  8
1
  100
AcDbLine
  10
73.5
  20
-1.888089
  30
0
  11
73.4
  21
-1.883439
  31
0
  0
LINE
  5
1aa
  100
AcDbEntity
  8
1
  100
AcDbLine
  10
73.4
  20
-1.883439
  30
0
  11
73.3
  21
-1.899997
  31
0
  0
LINE
  5
1ab
  100
AcDbEntity
  8
1
  100
AcDbLine
  10
73.3
  20
-1.899997
  30
0
  11
73.3
  21
-1.9
  31
0
  0
LINE
  5
1ac
  100
AcDbEntity
  8
1
  100
AcDbLine
  10
74.345134
  20
-2
  30
0
  11
74.3
  21
-1.999491
  31
0
  0
LINE
  5
1ad
  100
AcDbEntity
  8
1
  100
AcDbLine
  10
74.3
  20
-1.999491
  30
0
  11
74.2
  21
-1.994736
  31
0
  0
LINE
  5
1ae
  100
AcDbEntity
  8
1
  100
AcDbLine
  10
74.2
  20
-1.994736
  30
0
  11
74.1
  21
-1.984996
  31
0
  0
LINE
  5
1af
  100
AcDbEntity
  8
1
  100
AcDbLine
  10
74.1
  20
-1.984996
  30
0
  11
74
  21
-1.970295
  31
0
  0
LINE
  5
1b0
  100
AcDbEntity
  8
1
  100
AcDbLine
  10
74
  20
-1.970295
  30
0
  11
74
  21
-1.870993
  31
0
  0
LINE
  5
1b1
  100
AcDbEntity
  8
1
  100
AcDbLine
  10
74
  20
-1.870993
  30
0
  11
73.9
  21
-1.852123
  31
0
  0
LINE
  5
1b2
  100
AcDbEntity
  8
1
  100
AcDbLine
  10
73.9
  20
-1.852123
  30
0
  11
73.8
  21
-1.82849
  31
0
  0
LINE
  5
1b3
  100
AcDbEntity
  8
1
  100
AcDbLine
  10
73.8
  20
-1.82849
  30
0
  11
73.7
  21
-1.798709
  31
0
  0
LINE
  5
1b4
  100
AcDbEntity
  8
1
  100
AcDbLine
  10
73.7
  20
-1.798709
  30
0
  11
73.6
  21
-1.755861
  31
0
  0
LINE
  5
1b5
  100
AcDbEntity
  8
1
  100
AcDbLine
  10
73.6
  20
-1.755861
  30
0
  11
73.5
  21
-1.676386
  31
0
  0
LINE
  5
1b6
  100
AcDbEntity
  8
1
  100
AcDbLine
  10
73.5
  20
-1.676386
  30
0
  11
73.4
  21
-1.490063
  31
0
  0
LINE
  5
1b7
  100
AcDbEntity
  8
1
  100
AcDbLine
  10
73.4
  20
-1.490063
  30
0
  11
73.3
  21
-1.002381
  31
0
  0
LINE
  5
1b8
  100
AcDbEntity
  8
1
  100
AcDbLine
  10
73.3
  20
-1.002381
  30
0
  11
73.3
  21
0.003153
  31
0
  0
LINE
  5
1b9
  100
AcDbEntity
  8
1
  100
AcDbLine
  10
73.3
  20
0.003153
  30
0
  11
73.4
  21
0.250316
  31
0
  0
LINE
  5
1ba
  100
AcDbEntity
  8
1
  100
AcDbLine
  10
73.4
  20
0.250316
  30
0
  11
73.5
  21
0.212414
  31
0
  0
LINE
  5
1bb
  100
AcDbEntity
  8
1
  100
AcDbLine
  10
73.5
  20
0.212414
  30
0
  11
73.6
  21
0.124453
  31
0
  0
LINE
  5
1bc
  100
AcDbEntity
  8
1
  100
AcDbLine
  10
73.6
  20
0.124453
  30
0
  11
73.7
  21
0.030019
  31
0
  0
LINE
  5
1bd
  100
AcDbEntity
  8
1
  100
AcDbLine
  10
73.7
  20
0.030019
  30
0
  11
73.8
  21
-0.064952
  31
0
  0
LINE
  5
1be
  100
AcDbEntity
  8
1
  100
AcDbLine
  10
73.8
  20
-0.064952
  30
0
  11
73.9
  21
-0.159776
  31
0
  0
LINE
  5
1bf
  100
AcDbEntity
  8
1
  100
AcDbLine
  10
73.9
  20
-0.159776
  30
0
  11
74
  21
-0.2542
  31
0
  0
LINE
  5
1c0
  100
AcDbEntity
  8
1
  100
AcDbLine
  10
74
  20
-0.2542
  30
0
  11
74
  21
-0.28224
  31
0
  0
LINE
  5
1c1
  100
AcDbEntity
  8
1
  100
AcDbLine
  10
74
  20
-0.28224
  30
0
  11
74.1
  21
-0.380845
  31
0
  0
LINE
  5
1c2
  100
AcDbEntity
  8
1
  100
AcDbLine
  10
74.1
  20
-0.380845
  30
0
  11
74.2
  21
-0.478499
  31
0
  0
LINE
  5
1c3
  100
AcDbEntity
  8
1
  100
AcDbLine
  10
74.2
  20
-0.478499
  30
0
  11
74.3
  21
-0.574956
  31
0
  0
LINE
  5
1c4
  100
AcDbEntity
  8
1
  100
AcDbLine
  10
74.3
  20
-0.574956
  30
0
  11
74.4
  21
-0.669976
  31
0
  0
LINE
  5
1c5
  100
AcDbEntity
  8
1
  100
AcDbLine
  10
74.4
  20
-0.669976
  30
0
  11
74.5
  21
-0.763322
  31
0
  0
LINE
  5
1c6
  100
AcDbEntity
  8
1
  100
AcDbLine
  10
74.5
  20
-0.763322
  30
0
  11
74.6
  21
-0.85476
  31
0
  0
LINE
  5
1c7
  100
AcDbEntity
  8
1
  100
AcDbLine
  10
74.6
  20
-0.85476
  30
0
  11
74.7
  21
-0.944061
  31
0
  0
LINE
  5
1c8
  100
AcDbEntity
  8
1
  100
AcDbLine
  10
74.7
  20
-0.944061
  30
0
  11
74.8
  21
-1.031003
  31
0
  0
LINE
  5
1c9
  100
AcDbEntity
  8
1
  100
AcDbLine
  10
74.8
  20
-1.031003
  30
0
  11
74.9
  21
-1.115367
  31
0
  0
LINE
  5
1ca
  100
AcDbEntity
  8
1
  100
AcDbLine
  10
74.9
  20
-1.115367
  30
0
  11
75
  21
-1.196944
  31
0
  0
LINE
  5
1cb
  100
AcDbEntity
  8
1
  100
AcDbLine
  10
75
  20
-1.196944
  30
0
  11
75.1
  21
-1.275529
  31
0
  0
LINE
  5
1cc
  100
AcDbEntity
  8
1
  100
AcDbLine
  10
75.1
  20
-1.275529
  30
0
  11
75.2
  21
-1.350926
  31
0
  0
LINE
  5
1cd
  100
AcDbEntity
  8
1
  100
AcDbLine
  10
75.2
  20
-1.350926
  30
0
  11
75.3
  21
-1.422947
  31
0
  0
LINE
  5
1ce
  100
AcDbEntity
  8
1
  100
AcDbLine
  10
75.3
  20
-1.422947
  30
0
  11
75.4
  21
-1.49141
  31
0
  0
LINE
  5
1cf
  100
AcDbEntity
  8
1
  100
AcDbLine
  10
75.4
  20
-1.49141
  30
0
  11
75.5
  21
-1.556146
  31
0
  0
LINE
  5
1d0
  100
AcDbEntity
  8
1
  100
AcDbLine
  10
75.5
  20
-1.556146
  30
0
  11
75.6
  21
-1.616993
  31
0
  0
LINE
  5
1d1
  100
AcDbEntity
  8
1
  100
AcDbLine
  10
75.6
  20
-1.616993
  30
0
  11
75.7
  21
-1.673798
  31
0
  0
LINE
  5
1d2
  100
AcDbEntity
  8
1
  100
AcDbLine
  10
75.7
  20
-1.673798
  30
0
  11
75.8
  21
-1.726419
  31
0
  0
LINE
  5
1d3
  100
AcDbEntity
  8
1
  100
AcDbLine
  10
75.8
  20
-1.726419
  30
0
  11
75.9
  21
-1.774725
  31
0
  0
LINE
  5
1d4
  100
AcDbEntity
  8
1
  100
AcDbLine
  10
75.9
  20
-1.774725
  30
0
  11
76
  21
-1.818595
  31
0
  0
LINE
  5
1d5
  100
AcDbEntity
  8
1
  100
AcDbLine
  10
76
  20
-1.818595
  30
0
  11
76.1
  21
-1.857919
  31
0
  0
LINE
  5
1d6
  100
AcDbEntity
  8
1
  100
AcDbLine
  10
76.1
  20
-1.857919
  30
0
  11
76.2
  21
-1.8926
  31
0
  0
LINE
  5
1d7
  100
AcDbEntity
  8
1
  100
AcDbLine
  10
76.2
  20
-1.8926
  30
0
  11
76.3
  21
-1.92255
  31
0
  0
LINE
  5
1d8
  100
AcDbEntity
  8
1
  100
AcDbLine
  10
76.3
  20
-1.92255
  30
0
  11
76.4
  21
-1.947695
  31
0
  0
LINE
  5
1d9
  100
AcDbEntity
  8
1
  100
AcDbLine
  10
76.4
  20
-1.947695
  30
0
  11
76.5
  21
-1.967972
  31
0
  0
LINE
  5
1da
  100
AcDbEntity
  8
1
  100
AcDbLine
  10
76.5
  20
-1.967972
  30
0
  11
76.6
  21
-1.98333
  31
0
  0
LINE
  5
1db
  100
AcDbEntity
  8
1
  100
AcDbLine
  10
76.6
  20
-1.98333
  30
0
  11
76.7
  21
-1.99373
  31
0
  0
LINE
  5
1dc
  100
AcDbEntity
  8
1
  100
AcDbLine
  10
76.7
  20
-1.99373
  30
0
  11
76.8
  21
-1.999147
  31
0
  0
LINE
  5
1dd
  100
AcDbEntity
  8
1
  100
AcDbLine
  10
76.8
  20
-1.999147
  30
0
  11
76.858406
  21
-2
  31
0
  0
LINE
  5
1de
  100
AcDbEntity
  8
1
  100
AcDbLine
  10
60.58
  20
-1.9
  30
0
  11
60.58
  21
1.9
  31
0
  0
LINE
  5
1df
  100
AcDbEntity
  8
1
  100
AcDbLine
  10
58.863367
  20
2.202689
  30
0
  11
58.863367
  21
-2.202689
  31
0
  0
LINE
  5
1e0
  100
AcDbEntity
  8
SK1
  100
AcDbLine
  10
55.9
  20
2.996721
  30
0
  11
55.887761
  21
3
  31
0
  0
LINE
  5
1e1
  100
AcDbEntity
  8
SK1
  100
AcDbLine
  10
55.887761
  20
3
  30
0
  11
55.9
  21
3
  31
0
  0
LINE
  5
1e2
  100
AcDbEntity
  8
SK1
  100
AcDbLine
  10
55.9
  20
3
  30
0
  11
0.7
  21
3
  31
0
  0
LINE
  5
1e3
  100
AcDbEntity
  8
SK1
  100
AcDbLine
  10
0.7
  20
3
  30
0
  11
0
  21
2.3
  31
0
  0
LINE
  5
1e4
  100
AcDbEntity
  8
SK1
  100
AcDbLine
  10
55.9
  20
-2.996721
  30
0
  11
55.887761
  21
-3
  31
0
  0
LINE
  5
1e5
  100
AcDbEntity
  8
SK1
  100
AcDbLine
  10
55.887761
  20
-3
  30
0
  11
55.9
  21
-3
  31
0
  0
LINE
  5
1e6
  100
AcDbEntity
  8
SK1
  100
AcDbLine
  10
55.9
  20
-3
  30
0
  11
0.7
  21
-3
  31
0
  0
LINE
  5
1e7
  100
AcDbEntity
  8
SK1
  100
AcDbLine
  10
0.7
  20
-3
  30
0
  11
0
  21
-2.3
  31
0
  0
LINE
  5
1e8
  100
AcDbEntity
  8
SK1
  100
AcDbLine
  10
55.887761
  20
3
  30
0
  11
55.887761
  21
-3
  31
0
  0
LINE
  5
1e9
  100
AcDbEntity
  8
SK1
  100
AcDbLine
  10
0.7
  20
3
  30
0
  11
0.7
  21
-3
  31
0
  0
LINE
  5
1ea
  100
AcDbEntity
  8
SK1
  100
AcDbLine
  10
0
  20
2.3
  30
0
  11
0
  21
-2.3
  31
0
  0
LINE
  5
1eb
  100
AcDbEntity
  8
SK1
  100
AcDbLine
  10
56.9401
  20
1.40688
  30
0
  11
57.3069
  21
1.0401
  31
0
  0
LINE
  5
1ec
  100
AcDbEntity
  8
SK1
  100
AcDbLine
  10
56.4328
  20
1.66666
  30
0
  11
57.5667
  21
0.532833
  31
0
  0
LINE
  5
1ed
  100
AcDbEntity
  8
SK1
  100
AcDbLine
  10
56.1154
  20
1.73657
  30
0
  11
57.6366
  21
0.215434
  31
0
  0
LINE
  5
1ee
  100
AcDbEntity
  8
SK1
  100
AcDbLine
  10
55.9
  20
1.70452
  30
0
  11
57.6045
  21
0
  31
0
  0
LINE
  5
1ef
  100
AcDbEntity
  8
SK1
  100
AcDbLine
  10
55.9
  20
1.45703
  30
0
  11
57.357
  21
0
  31
0
  0
LINE
  5
1f0
  100
AcDbEntity
  8
SK1
  100
AcDbLine
  10
55.9
  20
1.20954
  30
0
  11
57.1095
  21
0
  31
0
  0
LINE
  5
1f1
  100
AcDbEntity
  8
SK1
  100
AcDbLine
  10
55.9
  20
0.962054
  30
0
  11
56.8621
  21
0
  31
0
  0
LINE
  5
1f2
  100
AcDbEntity
  8
SK1
  100
AcDbLine
  10
55.9
  20
0.714566
  30
0
  11
56.6146
  21
0
  31
0
  0
LINE
  5
1f3
  100
AcDbEntity
  8
SK1
  100
AcDbLine
  10
55.9
  20
0.467079
  30
0
  11
56.3671
  21
0
  31
0
  0
LINE
  5
1f4
  100
AcDbEntity
  8
SK1
  100
AcDbLine
  10
55.9
  20
0.219592
  30
0
  11
56.1196
  21
0
  31
0
  0
LINE
  5
1f5
  100
AcDbEntity
  8
SK1
  100
AcDbLine
  10
55.9
  20
1.70452
  30
0
  11
55.9441
  21
1.74861
  31
0
  0
LINE
  5
1f6
  100
AcDbEntity
  8
SK1
  100
AcDbLine
  10
55.9
  20
1.45703
  30
0
  11
56.171
  21
1.72802
  31
0
  0
LINE
  5
1f7
  100
AcDbEntity
  8
SK1
  100
AcDbLine
  10
55.9
  20
1.20954
  30
0
  11
56.3742
  21
1.6837
  31
0
  0
LINE
  5
1f8
  100
AcDbEntity
  8
SK1
  100
AcDbLine
  10
55.9
  20
0.962054
  30
0
  11
56.5588
  21
1.62082
  31
0
  0
LINE
  5
1f9
  100
AcDbEntity
  8
SK1
  100
AcDbLine
  10
55.9
  20
0.714566
  30
0
  11
56.7271
  21
1.54167
  31
0
  0
LINE
  5
1fa
  100
AcDbEntity
  8
SK1
  100
AcDbLine
  10
55.9
  20
0.467079
  30
0
  11
56.881
  21
1.44812
  31
0
  0
LINE
  5
1fb
  100
AcDbEntity
  8
SK1
  100
AcDbLine
  10
55.9
  20
0.219592
  30
0
  11
57.0226
  21
1.34216
  31
0
  0
LINE
  5
1fc
  100
AcDbEntity
  8
SK1
  100
AcDbLine
  10
55.9279
  20
0
  30
0
  11
57.1508
  21
1.22288
  31
0
  0
LINE
  5
1fd
  100
AcDbEntity
  8
SK1
  100
AcDbLine
  10
56.1754
  20
0
  30
0
  11
57.267
  21
1.09157
  31
0
  0
LINE
  5
1fe
  100
AcDbEntity
  8
SK1
  100
AcDbLine
  10
56.4229
  20
0
  30
0
  11
57.3707
  21
0.947822
  31
0
  0
LINE
  5
1ff
  100
AcDbEntity
  8
SK1
  100
AcDbLine
  10
56.6704
  20
0
  30
0
  11
57.4605
  21
0.790145
  31
0
  0
LINE
  5
200
  100
AcDbEntity
  8
SK1
  100
AcDbLine
  10
56.9178
  20
0
  30
0
  11
57.5364
  21
0.618517
  31
0
  0
LINE
  5
201
  100
AcDbEntity
  8
SK1
  100
AcDbLine
  10
57.1653
  20
0
  30
0
  11
57.596
  21
0.430696
  31
0
  0
LINE
  5
202
  100
AcDbEntity
  8
SK1
  100
AcDbLine
  10
57.4128
  20
0
  30
0
  11
57.6356
  21
0.222827
  31
0
  0
LINE
  5
203
  100
AcDbEntity
  8
SK1
  100
AcDbLine
  10
55.9
  20
0
  30
0
  11
55.9
  21
1.75
  31
0
  0
LINE
  5
204
  100
AcDbEntity
  8
SK1
  100
AcDbLine
  10
55.9
  20
0
  30
0
  11
57.65
  21
0
  31
0
  0
ARC
  5
205
  100
AcDbEntity
  8
SK1
  100
AcDbCircle
  10
55.9
  20
0
  30
0
  40
1.75
  100
AcDbArc
  50
0
  51
90
  0
ARC
  5
206
  100
AcDbEntity
  8
SK1
  100
AcDbCircle
  10
55.9
  20
0
  30
0
  40
1.75
  100
AcDbArc
  50
90
  51
180
  0
LINE
  5
207
  100
AcDbEntity
  8
SK1
  100
AcDbLine
  10
55.8721
  20
0
  30
0
  11
55.9
  21
-0.027896
  31
0
  0
LINE
  5
208
  100
AcDbEntity
  8
SK1
  100
AcDbLine
  10
55.6246
  20
0
  30
0
  11
55.9
  21
-0.275383
  31
0
  0
LINE
  5
209
  100
AcDbEntity
  8
SK1
  100
AcDbLine
  10
55.3771
  20
0
  30
0
  11
55.9
  21
-0.522871
  31
0
  0
LINE
  5
20a
  100
AcDbEntity
  8
SK1
  100
AcDbLine
  10
55.1296
  20
0
  30
0
  11
55.9
  21
-0.770358
  31
0
  0
LINE
  5
20b
  100
AcDbEntity
  8
SK1
  100
AcDbLine
  10
54.8822
  20
0
  30
0
  11
55.9
  21
-1.01785
  31
0
  0
LINE
  5
20c
  100
AcDbEntity
  8
SK1
  100
AcDbLine
  10
54.6347
  20
0
  30
0
  11
55.9
  21
-1.26533
  31
0
  0
LINE
  5
20d
  100
AcDbEntity
  8
SK1
  100
AcDbLine
  10
54.3872
  20
0
  30
0
  11
55.9
  21
-1.51282
  31
0
  0
LINE
  5
20e
  100
AcDbEntity
  8
SK1
  100
AcDbLine
  10
54.1503
  20
-0.010642
  30
0
  11
55.8894
  21
-1.74967
  31
0
  0
LINE
  5
20f
  100
AcDbEntity
  8
SK1
  100
AcDbLine
  10
54.1736
  20
-0.281429
  30
0
  11
55.6186
  21
-1.72637
  31
0
  0
LINE
  5
210
  100
AcDbEntity
  8
SK1
  100
AcDbLine
  10
54.2639
  20
-0.619147
  30
0
  11
55.2809
  21
-1.63613
  31
0
  0
LINE
  5
211
  100
AcDbEntity
  8
SK1
  100
AcDbLine
  10
54.1514
  20
-0.044098
  30
0
  11
54.1955
  21
0
  31
0
  0
LINE
  5
212
  100
AcDbEntity
  8
SK1
  100
AcDbLine
  10
54.172
  20
-0.270991
  30
0
  11
54.443
  21
0
  31
0
  0
LINE
  5
213
  100
AcDbEntity
  8
SK1
  100
AcDbLine
  10
54.2163
  20
-0.474162
  30
0
  11
54.6905
  21
0
  31
0
  0
LINE
  5
214
  100
AcDbEntity
  8
SK1
  100
AcDbLine
  10
54.2792
  20
-0.658762
  30
0
  11
54.9379
  21
0
  31
0
  0
LINE
  5
215
  100
AcDbEntity
  8
SK1
  100
AcDbLine
  10
54.3583
  20
-0.827105
  30
0
  11
55.1854
  21
0
  31
0
  0
LINE
  5
216
  100
AcDbEntity
  8
SK1
  100
AcDbLine
  10
54.4519
  20
-0.981039
  30
0
  11
55.4329
  21
0
  31
0
  0
LINE
  5
217
  100
AcDbEntity
  8
SK1
  100
AcDbLine
  10
54.5578
  20
-1.12257
  30
0
  11
55.6804
  21
0
  31
0
  0
LINE
  5
218
  100
AcDbEntity
  8
SK1
  100
AcDbLine
  10
54.6771
  20
-1.25077
  30
0
  11
55.9
  21
-0.027896
  31
0
  0
LINE
  5
219
  100
AcDbEntity
  8
SK1
  100
AcDbLine
  10
54.8084
  20
-1.36695
  30
0
  11
55.9
  21
-0.275383
  31
0
  0
LINE
  5
21a
  100
AcDbEntity
  8
SK1
  100
AcDbLine
  10
54.9522
  20
-1.47069
  30
0
  11
55.9
  21
-0.522871
  31
0
  0
LINE
  5
21b
  100
AcDbEntity
  8
SK1
  100
AcDbLine
  10
55.1099
  20
-1.5605
  30
0
  11
55.9
  21
-0.770358
  31
0
  0
LINE
  5
21c
  100
AcDbEntity
  8
SK1
  100
AcDbLine
  10
55.2815
  20
-1.63636
  30
0
  11
55.9
  21
-1.01785
  31
0
  0
LINE
  5
21d
  100
AcDbEntity
  8
SK1
  100
AcDbLine
  10
55.4693
  20
-1.69603
  30
0
  11
55.9
  21
-1.26533
  31
0
  0
LINE
  5
21e
  100
AcDbEntity
  8
SK1
  100
AcDbLine
  10
55.6772
  20
-1.73565
  30
0
  11
55.9
  21
-1.51282
  31
0
  0
LINE
  5
21f
  100
AcDbEntity
  8
SK1
  100
AcDbLine
  10
55.9
  20
0
  30
0
  11
54.15
  21
0
  31
0
  0
LINE
  5
220
  100
AcDbEntity
  8
SK1
  100
AcDbLine
  10
55.9
  20
-1.75
  30
0
  11
55.9
  21
0
  31
0
  0
ARC
  5
221
  100
AcDbEntity
  8
SK1
  100
AcDbCircle
  10
55.9
  20
0
  30
0
  40
1.75
  100
AcDbArc
  50
180
  51
270
  0
ARC
  5
222
  100
AcDbEntity
  8
SK1
  100
AcDbCircle
  10
55.9
  20
0
  30
0
  40
1.75
  100
AcDbArc
  50
270
  51
0
  0
LINE
  5
29d
  100
AcDbEntity
  8
NOCUT
  100
AcDbLine
  10
74
  20
0
  30
0
  11
74
  21
1.9
  31
0
  0
LINE
  5
29e
  100
AcDbEntity
  8
NOCUT
  100
AcDbLine
  10
74
  20
1.9
  30
0
  11
60.58
  21
1.9
  31
0
  0
ARC
  5
29f
  100
AcDbEntity
  8
NOCUT
  100
AcDbCircle
  10
61.451557
  20
11.861947
  30
0
  40
10
  100
AcDbArc
  50
255
  51
265
  0
LINE
  5
2a0
  100
AcDbEntity
  8
NOCUT
  100
AcDbLine
  10
58.863367
  20
2.202689
  30
0
  11
55.9
  21
2.996721
  31
0
  0
LINE
  5
2a1
  100
AcDbEntity
  8
NOCUT
  100
AcDbLine
  10
55.9
  20
2.996721
  30
0
  11
55.9
  21
0
  31
0
  0
LINE
  5
2a2
  100
AcDbEntity
  8
NOCUT
  100
AcDbLine
  10
55.9
  20
0
  30
0
  11
74
  21
0
  31
0
  0
LINE
  5
2a3
  100
AcDbEntity
  8
CUT
  100
AcDbLine
  10
80
  20
0
  30
0
  11
80
  21
1.5
  31
0
  0
ARC
  5
2a4
  100
AcDbEntity
  8
CUT
  100
AcDbCircle
  10
79.5
  20
1.5
  30
0
  40
0.5
  100
AcDbArc
  50
0
  51
90
  0
LINE
  5
2a5
  100
AcDbEntity
  8
CUT
  100
AcDbLine
  10
79.5
  20
2
  30
0
  11
74
  21
2
  31
0
  0
LINE
  5
2a6
  100
AcDbEntity
  8
CUT
  100
AcDbLine
  10
74
  20
2
  30
0
  11
74
  21
0
  31
0
  0
LINE
  5
2a7
  100
AcDbEntity
  8
CUT
  100
AcDbLine
  10
74
  20
0
  30
0
  11
80
  21
0
  31
0
  0
LINE
  5
2a8
  100
AcDbEntity
  8
4
  100
AcDbLine
  10
55.9
  20
0
  30
0
  11
80
  21
0
  31
0
  0
LINE
  5
2a9
  100
AcDbEntity
  8
SK4
  100
AcDbLine
  10
-1
  20
0
  30
0
  11
81
  21
0
  31
0
  0
LINE
  5
2aa
  100
AcDbEntity
  8
INFTOTAL
  100
AcDbLine
  10
-17.2
  20
20.2
  30
0
  11
97.2
  21
20.2
  31
0
  0
LINE
  5
2ab
  100
AcDbEntity
  8
INFTOTAL
  100
AcDbLine
  10
97.2
  20
20.2
  30
0
  11
97.2
  21
-17.061947
  31
0
  0
LINE
  5
2ac
  100
AcDbEntity
  8
INFTOTAL
  100
AcDbLine
  10
97.2
  20
-17.061947
  30
0
  11
-17.2
  21
-17.061947
  31
0
  0
LINE
  5
2ad
  100
AcDbEntity
  8
INFTOTAL
  100
AcDbLine
  10
-17.2
  20
-17.061947
  30
0
  11
-17.2
  21
20.2
  31
0
  0
ENDSEC
  0
SECTION
  2
OBJECTS
  0
DICTIONARY
  5
2ae
  330
0
100
AcDbDictionary
281
    1
  3
ACAD_GROUP
  350
2af
  0
DICTIONARY
  5
2af
102
{ACAD_REACTORS
  330
2ae
102
}
  330
2ae
100
AcDbDictionary
281
    1
  0
ENDSEC
  0
EOF
