  0
SECTION
  2
HEADER
  9
$ACADVER
  1
AC1015
  9
$DWGCODEPAGE
  3
ANSI_932
  9
$HANDSEED
  5
106AB90
  0
ENDSEC
  0
SECTION
  2
CLASSES
  0
CLASS
  1
IMAGEDEF
  2
AcDbRasterImageDef
  3
ISM
  90
0
  91
4
  280
0
  281
0
  0
CLASS
  1
IMAGE
  2
AcDbRasterImage
  3
ISM
  90
127
  91
5
  280
0
  281
1
  0
CLASS
  1
IMAGEDEF_REACTOR
  2
AcDbRasterImageDefReactor
  3
ISM
  90
1
  91
4
  280
0
  281
0
  0
ENDSEC
  0
SECTION
  2
TABLES
  0
TABLE
  2
VPORT
  5
2
  330
0
  100
AcDbSymbolTable
  70
    0
  0
ENDTAB
  0
TABLE
  2
LTYPE
  5
3
  330
0
  100
AcDbSymbolTable
  70
    4
  0
LTYPE
  5
4
  330
3
  100
AcDbSymbolTableRecord
  100
AcDbLinetypeTableRecord
  2
ByBlock
  70
    0
  3

  72
65
  73
    0
  40
0
  0
LTYPE
  5
5
  330
3
  100
AcDbSymbolTableRecord
  100
AcDbLinetypeTableRecord
  2
ByLayer
  70
    0
  3

  72
65
  73
    0
  40
0
  0
LTYPE
  5
6
  330
3
  100
AcDbSymbolTableRecord
  100
AcDbLinetypeTableRecord
  2
CONTINUOUS
  70
    0
  3
Solid Line
  72
65
  73
    0
  40
0
  0
LTYPE
  5
7
  330
3
  100
AcDbSymbolTableRecord
  100
AcDbLinetypeTableRecord
  2
DASH
  70
    0
  3
Hidden
  72
65
  73
2
  40
2.5
  49
1.5
  74
0
  49
-1
  74
0
  0
LTYPE
  5
8
  330
3
  100
AcDbSymbolTableRecord
  100
AcDbLinetypeTableRecord
  2
LONGDASHDASH
  70
    0
  3
__ . __
  72
65
  73
    4
  40
7
  49
4
  74
    0
  49
-1
  74
    0
  49
1
  74
    0
  49
-1
  74
    0
  0
ENDTAB
  0
TABLE
  2
LAYER
  5
9
  330
0
  100
AcDbSymbolTable
  70
    40
  0
LAYER
  5
a
  330
9
  100
AcDbSymbolTableRecord
  100
AcDbLayerTableRecord
  2
0
  70
    0
  62
    0
  6
CONTINUOUS
  390
0
  0
LAYER
  5
c
  330
9
  100
AcDbSymbolTableRecord
  100
AcDbLayerTableRecord
  2
1
  70
    0
  62
    4
  6
CONTINUOUS
  370
50
  390
0
  0
LAYER
  5
d
  330
9
  100
AcDbSymbolTableRecord
  100
AcDbLayerTableRecord
  2
2
  70
    0
  62
    7
  6
CONTINUOUS
  370
25
  390
0
  0
LAYER
  5
f
  330
9
  100
AcDbSymbolTableRecord
  100
AcDbLayerTableRecord
  2
4
  70
    0
  62
    2
  6
LONGDASHDASH
  370
25
  390
0
  0
LAYER
  5
13
  330
9
  100
AcDbSymbolTableRecord
  100
AcDbLayerTableRecord
  2
SK1
  70
    0
  62
    4
  6
CONTINUOUS
  370
50
  390
0
  0
LAYER
  5
14
  330
9
  100
AcDbSymbolTableRecord
  100
AcDbLayerTableRecord
  2
SK2
  70
    0
  62
    7
  6
CONTINUOUS
  370
25
  390
0
  0
LAYER
  5
16
  330
9
  100
AcDbSymbolTableRecord
  100
AcDbLayerTableRecord
  2
SK4
  70
    0
  62
    2
  6
LONGDASHDASH
  370
25
  390
0
  0
LAYER
  5
21
  330
9
  100
AcDbSymbolTableRecord
  100
AcDbLayerTableRecord
  2
NOCUT
  70
    0
  62
    7
  6
CONTINUOUS
  370
25
  390
0
  0
LAYER
  5
22
  330
9
  100
AcDbSymbolTableRecord
  100
AcDbLayerTableRecord
  2
CUT
  70
    0
  62
    1
  6
CONTINUOUS
  370
25
  390
0
  0
LAYER
  5
26
  330
9
  100
AcDbSymbolTableRecord
  100
AcDbLayerTableRecord
  2
INFTOTAL
  70
    0
  62
    9
  6
CONTINUOUS
  370
18
  390
0
  0
ENDTAB
  0
TABLE
  2
STYLE
  5
27
  330
0
  100
AcDbSymbolTable
  70
    1
  0
STYLE
  5
28
  330
27
  100
AcDbSymbolTableRecord
  100
AcDbTextStyleTableRecord
  2
Monospac821 BT
  70
    0
  40
    3.5
  41
1
  50
0
  71
0
  42
3
  3

  4

  1001
ACAD
  1000
Monospac821 BT
  1071
256
  0
ENDTAB
  0
TABLE
  2
VIEW
  5
29
  330
0
  100
AcDbSymbolTable
  70
    0
  0
ENDTAB
  0
TABLE
  2
UCS
  5
2a
  330
0
  100
AcDbSymbolTable
  70
    0
  0
ENDTAB
  0
TABLE
  2
APPID
  5
2b
  330
0
  100
AcDbSymbolTable
  70
    1
  0
APPID
  5
2c
  330
2b
  100
AcDbSymbolTableRecord
  100
AcDbRegAppTableRecord
  2
ACAD
  70
    0
  0
ENDTAB
  0
TABLE
  2
DIMSTYLE
  5
2d
  330
0
  100
AcDbSymbolTable
  70
    1
  100
AcDbDimStyleTable
  0
DIMSTYLE
  105
2e
  330
2d
  100
AcDbSymbolTableRecord
  100
AcDbDimStyleTableRecord
  2
STANDARD
  70
    0
  41
    3
  42
0.5
  44
1
  73
0
  77
1
  78
1
  140
3.5
  141
2.5
  143
0.03937
  147
0.8
  172
1
  174
1
  178
0
  179
1
  271
2
  279
1
  284
1
  340
28
  0
ENDTAB
  0
TABLE
  2
BLOCK_RECORD
  5
2f
  330
0
  100
AcDbSymbolTable
  70
    2
  0
BLOCK_RECORD
  5
30
  330
2f
  100
AcDbSymbolTableRecord
  100
AcDbBlockTableRecord
  2
*Model_Space
  0
BLOCK_RECORD
  5
31
  330
2f
  100
AcDbSymbolTableRecord
  100
AcDbBlockTableRecord
  2
*Paper_Space
  0
BLOCK_RECORD
  5
287
  330
2f
  100
AcDbSymbolTableRecord
  100
AcDbBlockTableRecord
  2
*D286
  340
0
  0
BLOCK_RECORD
  5
295
  330
2f
  100
AcDbSymbolTableRecord
  100
AcDbBlockTableRecord
  2
*D294
  340
0
  0
BLOCK_RECORD
  5
2a3
  330
2f
  100
AcDbSymbolTableRecord
  100
AcDbBlockTableRecord
  2
*D2a2
  340
0
  0
BLOCK_RECORD
  5
2b1
  330
2f
  100
AcDbSymbolTableRecord
  100
AcDbBlockTableRecord
  2
*D2b0
  340
0
  0
BLOCK_RECORD
  5
2bf
  330
2f
  100
AcDbSymbolTableRecord
  100
AcDbBlockTableRecord
  2
*D2be
  340
0
  0
BLOCK_RECORD
  5
2c9
  330
2f
  100
AcDbSymbolTableRecord
  100
AcDbBlockTableRecord
  2
*D2c8
  340
0
  0
BLOCK_RECORD
  5
2d7
  330
2f
  100
AcDbSymbolTableRecord
  100
AcDbBlockTableRecord
  2
*D2d6
  340
0
  0
BLOCK_RECORD
  5
2e5
  330
2f
  100
AcDbSymbolTableRecord
  100
AcDbBlockTableRecord
  2
*D2e4
  340
0
  0
BLOCK_RECORD
  5
2f3
  330
2f
  100
AcDbSymbolTableRecord
  100
AcDbBlockTableRecord
  2
*D2f2
  340
0
  0
ENDTAB
  0
ENDSEC
  0
SECTION
  2
BLOCKS
  0
BLOCK
  5
32
  330
30
  100
AcDbEntity
  8
0
  100
AcDbBlockBegin
  2
*Model_Space
  70
    0
  10
0
  20
0
  30
0
  3
*Model_Space
  1

  0
ENDBLK
  5
33
  330
30
  100
AcDbEntity
  8
0
  100
AcDbBlockEnd
  0
BLOCK
  5
34
  330
31
  100
AcDbEntity
  8
0
  100
AcDbBlockBegin
  2
*Paper_Space
  70
    0
  10
0
  20
0
  30
0
  3
*Paper_Space
  1

  0
ENDBLK
  5
35
  330
31
  100
AcDbEntity
  8
0
  100
AcDbBlockEnd
  0
BLOCK
  5
285
  330
287
  100
AcDbEntity
  8
SK2
  100
AcDbBlockBegin
  2
*D286
  70
1
  10
0
  20
0
  30
0
  3
*D286
  1

  0
LINE
  5
288
  330
287
  100
AcDbEntity
  8
SK2
  100
AcDbLine
  10
0
  20
2.3
  30
0
  11
0
  21
15
  31
0
  0
LINE
  5
289
  330
287
  100
AcDbEntity
  8
SK2
  100
AcDbLine
  10
80
  20
2
  30
0
  11
80
  21
15
  31
0
  0
LINE
  5
28a
  330
287
  100
AcDbEntity
  8
SK2
  100
AcDbLine
  10
0
  20
13
  30
0
  11
80
  21
13
  31
0
  0
SOLID
  5
28b
  330
287
  100
AcDbEntity
  8
SK2
  100
AcDbTrace
  10
0
  20
13
  30
0
  11
2.478612
  21
13.326315
  31
0
  12
2.478612
  22
12.673685
  32
0
  13
2.478612
  23
12.673685
  33
0
  0
SOLID
  5
28c
  330
287
  100
AcDbEntity
  8
SK2
  100
AcDbTrace
  10
80
  20
13
  30
0
  11
77.521388
  21
12.673685
  31
0
  12
77.521388
  22
13.326315
  32
0
  13
77.521388
  23
13.326315
  33
0
  0
MTEXT
  5
28d
  330
287
  100
AcDbEntity
  8
SK2
  100
AcDbMText
  10
40
  20
13
  30
0
  11
1
  21
0
  31
0
  40
2
  41
0
  71
8
  72
1
  1
80
  0
POINT
  5
28e
  330
287
  100
AcDbEntity
  8
SK2
  62
0
  100
AcDbPoint
  10
0
  20
2.3
  30
0
  0
POINT
  5
28f
  330
287
  100
AcDbEntity
  8
SK2
  62
0
  100
AcDbPoint
  10
80
  20
2
  30
0
  0
POINT
  5
290
  330
287
  100
AcDbEntity
  8
SK2
  62
0
  100
AcDbPoint
  10
80
  20
13
  30
0
  0
ENDBLK
  5
291
  330
287
  100
AcDbEntity
  8
SK2
  100
AcDbBlockEnd
  0
BLOCK
  5
293
  330
295
  100
AcDbEntity
  8
SK2
  100
AcDbBlockBegin
  2
*D294
  70
1
  10
0
  20
0
  30
0
  3
*D294
  1

  0
LINE
  5
296
  330
295
  100
AcDbEntity
  8
SK2
  100
AcDbLine
  10
0
  20
2.3
  30
0
  11
0
  21
9.094716
  31
0
  0
LINE
  5
297
  330
295
  100
AcDbEntity
  8
SK2
  100
AcDbLine
  10
62.9
  20
3
  30
0
  11
62.9
  21
9.094716
  31
0
  0
LINE
  5
298
  330
295
  100
AcDbEntity
  8
SK2
  100
AcDbLine
  10
0
  20
7.094716
  30
0
  11
62.9
  21
7.094716
  31
0
  0
SOLID
  5
299
  330
295
  100
AcDbEntity
  8
SK2
  100
AcDbTrace
  10
0
  20
7.094716
  30
0
  11
2.478612
  21
7.421031
  31
0
  12
2.478612
  22
6.7684
  32
0
  13
2.478612
  23
6.7684
  33
0
  0
SOLID
  5
29a
  330
295
  100
AcDbEntity
  8
SK2
  100
AcDbTrace
  10
62.9
  20
7.094716
  30
0
  11
60.421388
  21
6.7684
  31
0
  12
60.421388
  22
7.421031
  32
0
  13
60.421388
  23
7.421031
  33
0
  0
MTEXT
  5
29b
  330
295
  100
AcDbEntity
  8
SK2
  100
AcDbMText
  10
31.45
  20
7.094716
  30
0
  11
1
  21
0
  31
0
  40
2
  41
0
  71
8
  72
1
  1
62.9
  0
POINT
  5
29c
  330
295
  100
AcDbEntity
  8
SK2
  62
0
  100
AcDbPoint
  10
0
  20
2.3
  30
0
  0
POINT
  5
29d
  330
295
  100
AcDbEntity
  8
SK2
  62
0
  100
AcDbPoint
  10
62.9
  20
3
  30
0
  0
POINT
  5
29e
  330
295
  100
AcDbEntity
  8
SK2
  62
0
  100
AcDbPoint
  10
62.9
  20
7.094716
  30
0
  0
ENDBLK
  5
29f
  330
295
  100
AcDbEntity
  8
SK2
  100
AcDbBlockEnd
  0
BLOCK
  5
2a1
  330
2a3
  100
AcDbEntity
  8
SK2
  100
AcDbBlockBegin
  2
*D2a2
  70
1
  10
0
  20
0
  30
0
  3
*D2a2
  1

  0
LINE
  5
2a4
  330
2a3
  100
AcDbEntity
  8
SK2
  100
AcDbLine
  10
0.7
  20
-3
  30
0
  11
-12
  21
-3
  31
0
  0
LINE
  5
2a5
  330
2a3
  100
AcDbEntity
  8
SK2
  100
AcDbLine
  10
0.7
  20
3
  30
0
  11
-12
  21
3
  31
0
  0
LINE
  5
2a6
  330
2a3
  100
AcDbEntity
  8
SK2
  100
AcDbLine
  10
-10
  20
-3
  30
0
  11
-10
  21
3
  31
0
  0
SOLID
  5
2a7
  330
2a3
  100
AcDbEntity
  8
SK2
  100
AcDbTrace
  10
-10
  20
-3
  30
0
  11
-10.326315
  21
-0.521388
  31
0
  12
-9.673685
  22
-0.521388
  32
0
  13
-9.673685
  23
-0.521388
  33
0
  0
SOLID
  5
2a8
  330
2a3
  100
AcDbEntity
  8
SK2
  100
AcDbTrace
  10
-10
  20
3
  30
0
  11
-9.673685
  21
0.521388
  31
0
  12
-10.326315
  22
0.521388
  32
0
  13
-10.326315
  23
0.521388
  33
0
  0
MTEXT
  5
2a9
  330
2a3
  100
AcDbEntity
  8
SK2
  100
AcDbMText
  10
-10
  20
0
  30
0
  11
0
  21
1
  31
0
  40
2
  41
0
  71
8
  72
1
  1
ﾘ6
  0
POINT
  5
2aa
  330
2a3
  100
AcDbEntity
  8
SK2
  62
0
  100
AcDbPoint
  10
0.7
  20
-3
  30
0
  0
POINT
  5
2ab
  330
2a3
  100
AcDbEntity
  8
SK2
  62
0
  100
AcDbPoint
  10
0.7
  20
3
  30
0
  0
POINT
  5
2ac
  330
2a3
  100
AcDbEntity
  8
SK2
  62
0
  100
AcDbPoint
  10
-10
  20
3
  30
0
  0
ENDBLK
  5
2ad
  330
2a3
  100
AcDbEntity
  8
SK2
  100
AcDbBlockEnd
  0
BLOCK
  5
2af
  330
2b1
  100
AcDbEntity
  8
2
  100
AcDbBlockBegin
  2
*D2b0
  70
1
  10
0
  20
0
  30
0
  3
*D2b0
  1

  0
LINE
  5
2b2
  330
2b1
  100
AcDbEntity
  8
2
  100
AcDbLine
  10
79.5
  20
-2.5
  30
0
  11
92
  21
-2.5
  31
0
  0
LINE
  5
2b3
  330
2b1
  100
AcDbEntity
  8
2
  100
AcDbLine
  10
79.5
  20
2.5
  30
0
  11
92
  21
2.5
  31
0
  0
LINE
  5
2b4
  330
2b1
  100
AcDbEntity
  8
2
  100
AcDbLine
  10
90
  20
-2.5
  30
0
  11
90
  21
2.5
  31
0
  0
SOLID
  5
2b5
  330
2b1
  100
AcDbEntity
  8
2
  100
AcDbTrace
  10
90
  20
-2.5
  30
0
  11
89.673685
  21
-0.021388
  31
0
  12
90.326315
  22
-0.021388
  32
0
  13
90.326315
  23
-0.021388
  33
0
  0
SOLID
  5
2b6
  330
2b1
  100
AcDbEntity
  8
2
  100
AcDbTrace
  10
90
  20
2.5
  30
0
  11
90.326315
  21
0.021388
  31
0
  12
89.673685
  22
0.021388
  32
0
  13
89.673685
  23
0.021388
  33
0
  0
MTEXT
  5
2b7
  330
2b1
  100
AcDbEntity
  8
2
  100
AcDbMText
  10
90
  20
0
  30
0
  11
0
  21
1
  31
0
  40
2
  41
0
  71
8
  72
1
  1
ﾘ5
  0
POINT
  5
2b8
  330
2b1
  100
AcDbEntity
  8
2
  62
0
  100
AcDbPoint
  10
79.5
  20
-2.5
  30
0
  0
POINT
  5
2b9
  330
2b1
  100
AcDbEntity
  8
2
  62
0
  100
AcDbPoint
  10
79.5
  20
2.5
  30
0
  0
POINT
  5
2ba
  330
2b1
  100
AcDbEntity
  8
2
  62
0
  100
AcDbPoint
  10
90
  20
2.5
  30
0
  0
ENDBLK
  5
2bb
  330
2b1
  100
AcDbEntity
  8
2
  100
AcDbBlockEnd
  0
BLOCK
  5
2bd
  330
2bf
  100
AcDbEntity
  8
2
  100
AcDbBlockBegin
  2
*D2be
  70
1
  10
0
  20
0
  30
0
  3
*D2be
  1

  0
LINE
  5
2c0
  330
2bf
  100
AcDbEntity
  8
2
  100
AcDbLine
  10
79.88851
  20
2.314738
  30
0
  11
87.658702
  21
8.609507
  31
0
  0
MTEXT
  5
2c1
  330
2bf
  100
AcDbEntity
  8
2
  100
AcDbMText
  10
83.773606
  20
5.462123
  30
0
  11
0.777019
  21
0.629477
  31
0
  40
2
  41
0
  71
8
  72
1
  1
R0.5
  0
SOLID
  5
2c2
  330
2bf
  100
AcDbEntity
  8
2
  100
AcDbTrace
  10
79.88851
  20
2.314738
  30
0
  11
81.609031
  21
4.128521
  31
0
  12
82.019847
  22
3.621414
  32
0
  13
82.019847
  23
3.621414
  33
0
  0
POINT
  5
2c3
  330
2bf
  100
AcDbEntity
  8
2
  62
0
  100
AcDbPoint
  10
79.88851
  20
2.314738
  30
0
  0
POINT
  5
2c4
  330
2bf
  100
AcDbEntity
  8
2
  62
0
  100
AcDbPoint
  10
79.5
  20
2
  30
0
  0
ENDBLK
  5
2c5
  330
2bf
  100
AcDbEntity
  8
2
  100
AcDbBlockEnd
  0
BLOCK
  5
2c7
  330
2c9
  100
AcDbEntity
  8
2
  100
AcDbBlockBegin
  2
*D2c8
  70
1
  10
0
  20
0
  30
0
  3
*D2c8
  1

  0
LINE
  5
2ca
  330
2c9
  100
AcDbEntity
  8
2
  100
AcDbLine
  10
72.5
  20
-2.4
  30
0
  11
70.5
  21
-2.4
  31
0
  0
LINE
  5
2cb
  330
2c9
  100
AcDbEntity
  8
2
  100
AcDbLine
  10
72.5
  20
2.4
  30
0
  11
70.5
  21
2.4
  31
0
  0
LINE
  5
2cc
  330
2c9
  100
AcDbEntity
  8
2
  100
AcDbLine
  10
72.5
  20
-2.4
  30
0
  11
72.5
  21
9.096535
  31
0
  0
SOLID
  5
2cd
  330
2c9
  100
AcDbEntity
  8
2
  100
AcDbTrace
  10
72.5
  20
-2.4
  30
0
  11
72.173685
  21
0.078612
  31
0
  12
72.826315
  22
0.078612
  32
0
  13
72.826315
  23
0.078612
  33
0
  0
SOLID
  5
2ce
  330
2c9
  100
AcDbEntity
  8
2
  100
AcDbTrace
  10
72.5
  20
2.4
  30
0
  11
72.826315
  21
-0.078612
  31
0
  12
72.173685
  22
-0.078612
  32
0
  13
72.173685
  23
-0.078612
  33
0
  0
MTEXT
  5
2cf
  330
2c9
  100
AcDbEntity
  8
2
  100
AcDbMText
  10
72.5
  20
2.4
  30
0
  11
0
  21
1
  31
0
  40
2
  41
0
  71
8
  72
1
  1
ﾘ4.8
  0
POINT
  5
2d0
  330
2c9
  100
AcDbEntity
  8
2
  62
0
  100
AcDbPoint
  10
70.5
  20
-2.4
  30
0
  0
POINT
  5
2d1
  330
2c9
  100
AcDbEntity
  8
2
  62
0
  100
AcDbPoint
  10
70.5
  20
2.4
  30
0
  0
POINT
  5
2d2
  330
2c9
  100
AcDbEntity
  8
2
  62
0
  100
AcDbPoint
  10
72.5
  20
9.096535
  30
0
  0
ENDBLK
  5
2d3
  330
2c9
  100
AcDbEntity
  8
2
  100
AcDbBlockEnd
  0
BLOCK
  5
2d5
  330
2d7
  100
AcDbEntity
  8
2
  100
AcDbBlockBegin
  2
*D2d6
  70
1
  10
0
  20
0
  30
0
  3
*D2d6
  1

  0
LINE
  5
2d8
  330
2d7
  100
AcDbEntity
  8
2
  100
AcDbLine
  10
72.5
  20
2.4
  30
0
  11
72.5
  21
10
  31
0
  0
LINE
  5
2d9
  330
2d7
  100
AcDbEntity
  8
2
  100
AcDbLine
  10
65.58
  20
2.4
  30
0
  11
65.58
  21
10
  31
0
  0
LINE
  5
2da
  330
2d7
  100
AcDbEntity
  8
2
  100
AcDbLine
  10
72.5
  20
8
  30
0
  11
62.506188
  21
8
  31
0
  0
SOLID
  5
2db
  330
2d7
  100
AcDbEntity
  8
2
  100
AcDbTrace
  10
72.5
  20
8
  30
0
  11
74.978612
  21
8.326315
  31
0
  12
74.978612
  22
7.673685
  32
0
  13
74.978612
  23
7.673685
  33
0
  0
SOLID
  5
2dc
  330
2d7
  100
AcDbEntity
  8
2
  100
AcDbTrace
  10
65.58
  20
8
  30
0
  11
63.101388
  21
7.673685
  31
0
  12
63.101388
  22
8.326315
  32
0
  13
63.101388
  23
8.326315
  33
0
  0
MTEXT
  5
2dd
  330
2d7
  100
AcDbEntity
  8
2
  100
AcDbMText
  10
65.75507
  20
8
  30
0
  11
1
  21
-0
  31
0
  40
2
  41
0
  71
8
  72
1
  1
6.92
  0
POINT
  5
2de
  330
2d7
  100
AcDbEntity
  8
2
  62
0
  100
AcDbPoint
  10
72.5
  20
2.4
  30
0
  0
POINT
  5
2df
  330
2d7
  100
AcDbEntity
  8
2
  62
0
  100
AcDbPoint
  10
65.58
  20
2.4
  30
0
  0
POINT
  5
2e0
  330
2d7
  100
AcDbEntity
  8
2
  62
0
  100
AcDbPoint
  10
62.506188
  20
8
  30
0
  0
ENDBLK
  5
2e1
  330
2d7
  100
AcDbEntity
  8
2
  100
AcDbBlockEnd
  0
BLOCK
  5
2e3
  330
2e5
  100
AcDbEntity
  8
2
  100
AcDbBlockBegin
  2
*D2e4
  70
1
  10
0
  20
0
  30
0
  3
*D2e4
  1

  0
LINE
  5
2e6
  330
2e5
  100
AcDbEntity
  8
2
  100
AcDbLine
  10
80
  20
2
  30
0
  11
80
  21
15
  31
0
  0
LINE
  5
2e7
  330
2e5
  100
AcDbEntity
  8
2
  100
AcDbLine
  10
62.9
  20
3
  30
0
  11
62.9
  21
10
  31
0
  0
LINE
  5
2e8
  330
2e5
  100
AcDbEntity
  8
2
  100
AcDbLine
  10
80
  20
8
  30
0
  11
62.9
  21
8
  31
0
  0
SOLID
  5
2e9
  330
2e5
  100
AcDbEntity
  8
2
  100
AcDbTrace
  10
80
  20
8
  30
0
  11
82.478612
  21
8.326315
  31
0
  12
82.478612
  22
7.673685
  32
0
  13
82.478612
  23
7.673685
  33
0
  0
SOLID
  5
2ea
  330
2e5
  100
AcDbEntity
  8
2
  100
AcDbTrace
  10
62.9
  20
8
  30
0
  11
60.421388
  21
7.673685
  31
0
  12
60.421388
  22
8.326315
  32
0
  13
60.421388
  23
8.326315
  33
0
  0
MTEXT
  5
2eb
  330
2e5
  100
AcDbEntity
  8
2
  100
AcDbMText
  10
71.45
  20
8
  30
0
  11
1
  21
-0
  31
0
  40
2
  41
0
  71
8
  72
1
  1
17.1
  0
POINT
  5
2ec
  330
2e5
  100
AcDbEntity
  8
2
  62
0
  100
AcDbPoint
  10
80
  20
15
  30
0
  0
POINT
  5
2ed
  330
2e5
  100
AcDbEntity
  8
2
  62
0
  100
AcDbPoint
  10
62.9
  20
3
  30
0
  0
POINT
  5
2ee
  330
2e5
  100
AcDbEntity
  8
2
  62
0
  100
AcDbPoint
  10
62.9
  20
8
  30
0
  0
ENDBLK
  5
2ef
  330
2e5
  100
AcDbEntity
  8
2
  100
AcDbBlockEnd
  0
BLOCK
  5
2f1
  330
2f3
  100
AcDbEntity
  8
2
  100
AcDbBlockBegin
  2
*D2f2
  70
1
  10
0
  20
0
  30
0
  3
*D2f2
  1

  0
LINE
  5
2f4
  330
2f3
  100
AcDbEntity
  8
2
  100
AcDbLine
  10
80
  20
-7.848884
  30
0
  11
80
  21
0
  31
0
  0
LINE
  5
2f5
  330
2f3
  100
AcDbEntity
  8
2
  100
AcDbLine
  10
72.5
  20
-7.848884
  30
0
  11
72.5
  21
-2.4
  31
0
  0
LINE
  5
2f6
  330
2f3
  100
AcDbEntity
  8
2
  100
AcDbLine
  10
80
  20
-5.848884
  30
0
  11
72.5
  21
-5.848884
  31
0
  0
SOLID
  5
2f7
  330
2f3
  100
AcDbEntity
  8
2
  100
AcDbTrace
  10
80
  20
-5.848884
  30
0
  11
82.478612
  21
-5.522569
  31
0
  12
82.478612
  22
-6.1752
  32
0
  13
82.478612
  23
-6.1752
  33
0
  0
SOLID
  5
2f8
  330
2f3
  100
AcDbEntity
  8
2
  100
AcDbTrace
  10
72.5
  20
-5.848884
  30
0
  11
70.021388
  21
-6.1752
  31
0
  12
70.021388
  22
-5.522569
  32
0
  13
70.021388
  23
-5.522569
  33
0
  0
MTEXT
  5
2f9
  330
2f3
  100
AcDbEntity
  8
2
  100
AcDbMText
  10
76.25
  20
-5.848884
  30
0
  11
1
  21
-0
  31
0
  40
2
  41
0
  71
8
  72
1
  1
7.5
  0
POINT
  5
2fa
  330
2f3
  100
AcDbEntity
  8
2
  62
0
  100
AcDbPoint
  10
80
  20
0
  30
0
  0
POINT
  5
2fb
  330
2f3
  100
AcDbEntity
  8
2
  62
0
  100
AcDbPoint
  10
72.5
  20
-2.4
  30
0
  0
POINT
  5
2fc
  330
2f3
  100
AcDbEntity
  8
2
  62
0
  100
AcDbPoint
  10
72.5
  20
-5.848884
  30
0
  0
ENDBLK
  5
2fd
  330
2f3
  100
AcDbEntity
  8
2
  100
AcDbBlockEnd
  0
ENDSEC
  0
SECTION
  2
ENTITIES
  0
DIMENSION
  5
292
  100
AcDbEntity
  8
SK2
  100
AcDbDimension
  2
*D286
  10
80
  20
13
  30
0
  11
40
  21
13
  31
0
  70
160
  1
<>
  71
5
  3
STANDARD
  42
80
  100
AcDbAlignedDimension
  13
0
  23
2.3
  33
0
  14
80
  24
2
  34
0
  50
0
  100
AcDbRotatedDimension
  0
DIMENSION
  5
2a0
  100
AcDbEntity
  8
SK2
  100
AcDbDimension
  2
*D294
  10
62.9
  20
7.094716
  30
0
  11
31.45
  21
7.094716
  31
0
  70
160
  1
<>
  71
5
  3
STANDARD
  42
62.9
  100
AcDbAlignedDimension
  13
0
  23
2.3
  33
0
  14
62.9
  24
3
  34
0
  50
0
  100
AcDbRotatedDimension
  0
DIMENSION
  5
2ae
  100
AcDbEntity
  8
SK2
  100
AcDbDimension
  2
*D2a2
  10
-10
  20
3
  30
0
  11
-10
  21
0
  31
0
  70
160
  1
%%c<>
  71
5
  3
STANDARD
  42
6
  100
AcDbAlignedDimension
  13
0.7
  23
-3
  33
0
  14
0.7
  24
3
  34
0
  50
-90
  100
AcDbRotatedDimension
  0
DIMENSION
  5
2bc
  100
AcDbEntity
  8
2
  100
AcDbDimension
  2
*D2b0
  10
90
  20
2.5
  30
0
  11
90
  21
0
  31
0
  70
160
  1
%%c<>
  71
5
  3
STANDARD
  42
5
  100
AcDbAlignedDimension
  13
79.5
  23
-2.5
  33
0
  14
79.5
  24
2.5
  34
0
  50
-90
  100
AcDbRotatedDimension
  0
DIMENSION
  5
2c6
  100
AcDbEntity
  8
2
  100
AcDbDimension
  2
*D2be
  10
79.5
  20
2
  30
0
  11
83.773606
  21
5.462123
  31
0
  70
164
  1
R0.5
  71
5
  3
STANDARD
  100
AcDbRadialDimension
  15
79.88851
  25
2.314738
  35
0
  50
39.011537
  0
DIMENSION
  5
2d4
  100
AcDbEntity
  8
2
  100
AcDbDimension
  2
*D2c8
  10
72.5
  20
9.096535
  30
0
  11
72.5
  21
2.4
  31
0
  70
160
  1
%%c<>
  71
5
  3
STANDARD
  42
4.8
  100
AcDbAlignedDimension
  13
70.5
  23
-2.4
  33
0
  14
70.5
  24
2.4
  34
0
  50
-90
  100
AcDbRotatedDimension
  0
DIMENSION
  5
2e2
  100
AcDbEntity
  8
2
  100
AcDbDimension
  2
*D2d6
  10
62.506188
  20
8
  30
0
  11
65.75507
  21
8
  31
0
  70
160
  1
<>
  71
5
  3
STANDARD
  42
6.92
  100
AcDbAlignedDimension
  13
72.5
  23
2.4
  33
0
  14
65.58
  24
2.4
  34
0
  50
0
  100
AcDbRotatedDimension
  0
DIMENSION
  5
2f0
  100
AcDbEntity
  8
2
  100
AcDbDimension
  2
*D2e4
  10
62.9
  20
8
  30
0
  11
71.45
  21
8
  31
0
  70
160
  1
<>
  71
5
  3
STANDARD
  42
17.1
  100
AcDbAlignedDimension
  13
80
  23
15
  33
0
  14
62.9
  24
3
  34
0
  50
0
  100
AcDbRotatedDimension
  0
DIMENSION
  5
2fe
  100
AcDbEntity
  8
2
  100
AcDbDimension
  2
*D2f2
  10
72.5
  20
-5.848884
  30
0
  11
76.25
  21
-5.848884
  31
0
  70
160
  1
<>
  71
5
  3
STANDARD
  42
7.5
  100
AcDbAlignedDimension
  13
80
  23
0
  33
0
  14
72.5
  24
-2.4
  34
0
  50
0
  100
AcDbRotatedDimension
  0
ARC
  5
36
  100
AcDbEntity
  8
1
  100
AcDbCircle
  10
66.451557
  20
-12.361947
  30
0
  40
10
  100
AcDbArc
  50
95
  51
105
  0
LINE
  5
37
  100
AcDbEntity
  8
1
  100
AcDbLine
  10
65.58
  20
-2.4
  30
0
  11
72.5
  21
-2.4
  31
0
  0
LINE
  5
38
  100
AcDbEntity
  8
1
  100
AcDbLine
  10
72.5
  20
-2.4
  30
0
  11
72.5
  21
-2.5
  31
0
  0
LINE
  5
39
  100
AcDbEntity
  8
1
  100
AcDbLine
  10
72.5
  20
-2.5
  30
0
  11
79.5
  21
-2.5
  31
0
  0
ARC
  5
3a
  100
AcDbEntity
  8
1
  100
AcDbCircle
  10
79.5
  20
-2
  30
0
  40
0.5
  100
AcDbArc
  50
270
  51
0
  0
LINE
  5
3b
  100
AcDbEntity
  8
1
  100
AcDbLine
  10
80
  20
-2
  30
0
  11
80
  21
0
  31
0
  0
LINE
  5
3c
  100
AcDbEntity
  8
1
  100
AcDbLine
  10
80
  20
0
  30
0
  11
80
  21
2
  31
0
  0
ARC
  5
3d
  100
AcDbEntity
  8
1
  100
AcDbCircle
  10
79.5
  20
2
  30
0
  40
0.5
  100
AcDbArc
  50
0
  51
90
  0
LINE
  5
3e
  100
AcDbEntity
  8
1
  100
AcDbLine
  10
79.5
  20
2.5
  30
0
  11
72.5
  21
2.5
  31
0
  0
LINE
  5
3f
  100
AcDbEntity
  8
1
  100
AcDbLine
  10
72.5
  20
2.5
  30
0
  11
72.5
  21
2.4
  31
0
  0
LINE
  5
40
  100
AcDbEntity
  8
1
  100
AcDbLine
  10
72.5
  20
2.4
  30
0
  11
65.58
  21
2.4
  31
0
  0
ARC
  5
41
  100
AcDbEntity
  8
1
  100
AcDbCircle
  10
66.451557
  20
12.361947
  30
0
  40
10
  100
AcDbArc
  50
255
  51
265
  0
LINE
  5
42
  100
AcDbEntity
  8
1
  100
AcDbLine
  10
63.863367
  20
2.702689
  30
0
  11
62.9
  21
2.960822
  31
0
  0
LINE
  5
43
  100
AcDbEntity
  8
1
  100
AcDbLine
  10
62.9
  20
2.960822
  30
0
  11
62.9
  21
-2.960822
  31
0
  0
LINE
  5
44
  100
AcDbEntity
  8
1
  100
AcDbLine
  10
62.9
  20
-2.960822
  30
0
  11
63.863367
  21
-2.702689
  31
0
  0
LINE
  5
45
  100
AcDbEntity
  8
1
  100
AcDbLine
  10
79.5
  20
2.5
  30
0
  11
79.5
  21
-2.5
  31
0
  0
LINE
  5
46
  100
AcDbEntity
  8
1
  100
AcDbLine
  10
79.5
  20
-2.5
  30
0
  11
79.5
  21
2.5
  31
0
  0
LINE
  5
47
  100
AcDbEntity
  8
1
  100
AcDbLine
  10
80
  20
0.639644
  30
0
  11
79.9
  21
0.806177
  31
0
  0
LINE
  5
48
  100
AcDbEntity
  8
1
  100
AcDbLine
  10
79.9
  20
0.806177
  30
0
  11
79.8
  21
0.925878
  31
0
  0
LINE
  5
49
  100
AcDbEntity
  8
1
  100
AcDbLine
  10
79.8
  20
0.925878
  30
0
  11
79.7
  21
1.035784
  31
0
  0
LINE
  5
4a
  100
AcDbEntity
  8
1
  100
AcDbLine
  10
79.7
  20
1.035784
  30
0
  11
79.6
  21
1.137273
  31
0
  0
LINE
  5
4b
  100
AcDbEntity
  8
1
  100
AcDbLine
  10
79.6
  20
1.137273
  30
0
  11
79.5
  21
1.229507
  31
0
  0
LINE
  5
4c
  100
AcDbEntity
  8
1
  100
AcDbLine
  10
79.5
  20
1.229507
  30
0
  11
79.4
  21
1.315571
  31
0
  0
LINE
  5
4d
  100
AcDbEntity
  8
1
  100
AcDbLine
  10
79.4
  20
1.315571
  30
0
  11
79.3
  21
1.399531
  31
0
  0
LINE
  5
4e
  100
AcDbEntity
  8
1
  100
AcDbLine
  10
79.3
  20
1.399531
  30
0
  11
79.2
  21
1.481251
  31
0
  0
LINE
  5
4f
  100
AcDbEntity
  8
1
  100
AcDbLine
  10
79.2
  20
1.481251
  30
0
  11
79.1
  21
1.560602
  31
0
  0
LINE
  5
50
  100
AcDbEntity
  8
1
  100
AcDbLine
  10
79.1
  20
1.560602
  30
0
  11
79
  21
1.637456
  31
0
  0
LINE
  5
51
  100
AcDbEntity
  8
1
  100
AcDbLine
  10
79
  20
1.637456
  30
0
  11
78.9
  21
1.71169
  31
0
  0
LINE
  5
52
  100
AcDbEntity
  8
1
  100
AcDbLine
  10
78.9
  20
1.71169
  30
0
  11
78.8
  21
1.783186
  31
0
  0
LINE
  5
53
  100
AcDbEntity
  8
1
  100
AcDbLine
  10
78.8
  20
1.783186
  30
0
  11
78.7
  21
1.85183
  31
0
  0
LINE
  5
54
  100
AcDbEntity
  8
1
  100
AcDbLine
  10
78.7
  20
1.85183
  30
0
  11
78.6
  21
1.917511
  31
0
  0
LINE
  5
55
  100
AcDbEntity
  8
1
  100
AcDbLine
  10
78.6
  20
1.917511
  30
0
  11
78.5
  21
1.980124
  31
0
  0
LINE
  5
56
  100
AcDbEntity
  8
1
  100
AcDbLine
  10
78.5
  20
1.980124
  30
0
  11
78.4
  21
2.03957
  31
0
  0
LINE
  5
57
  100
AcDbEntity
  8
1
  100
AcDbLine
  10
78.4
  20
2.03957
  30
0
  11
78.3
  21
2.095752
  31
0
  0
LINE
  5
58
  100
AcDbEntity
  8
1
  100
AcDbLine
  10
78.3
  20
2.095752
  30
0
  11
78.2
  21
2.148582
  31
0
  0
LINE
  5
59
  100
AcDbEntity
  8
1
  100
AcDbLine
  10
78.2
  20
2.148582
  30
0
  11
78.1
  21
2.197975
  31
0
  0
LINE
  5
5a
  100
AcDbEntity
  8
1
  100
AcDbLine
  10
78.1
  20
2.197975
  30
0
  11
78
  21
2.243851
  31
0
  0
LINE
  5
5b
  100
AcDbEntity
  8
1
  100
AcDbLine
  10
78
  20
2.243851
  30
0
  11
77.9
  21
2.286138
  31
0
  0
LINE
  5
5c
  100
AcDbEntity
  8
1
  100
AcDbLine
  10
77.9
  20
2.286138
  30
0
  11
77.8
  21
2.324767
  31
0
  0
LINE
  5
5d
  100
AcDbEntity
  8
1
  100
AcDbLine
  10
77.8
  20
2.324767
  30
0
  11
77.7
  21
2.359677
  31
0
  0
LINE
  5
5e
  100
AcDbEntity
  8
1
  100
AcDbLine
  10
77.7
  20
2.359677
  30
0
  11
77.6
  21
2.390812
  31
0
  0
LINE
  5
5f
  100
AcDbEntity
  8
1
  100
AcDbLine
  10
77.6
  20
2.390812
  30
0
  11
77.5
  21
2.418123
  31
0
  0
LINE
  5
60
  100
AcDbEntity
  8
1
  100
AcDbLine
  10
77.5
  20
2.418123
  30
0
  11
77.4
  21
2.441565
  31
0
  0
LINE
  5
61
  100
AcDbEntity
  8
1
  100
AcDbLine
  10
77.4
  20
2.441565
  30
0
  11
77.3
  21
2.4611
  31
0
  0
LINE
  5
62
  100
AcDbEntity
  8
1
  100
AcDbLine
  10
77.3
  20
2.4611
  30
0
  11
77.2
  21
2.476699
  31
0
  0
LINE
  5
63
  100
AcDbEntity
  8
1
  100
AcDbLine
  10
77.2
  20
2.476699
  30
0
  11
77.1
  21
2.488336
  31
0
  0
LINE
  5
64
  100
AcDbEntity
  8
1
  100
AcDbLine
  10
77.1
  20
2.488336
  30
0
  11
77
  21
2.495991
  31
0
  0
LINE
  5
65
  100
AcDbEntity
  8
1
  100
AcDbLine
  10
77
  20
2.495991
  30
0
  11
76.9
  21
2.499654
  31
0
  0
LINE
  5
66
  100
AcDbEntity
  8
1
  100
AcDbLine
  10
76.9
  20
2.499654
  30
0
  11
76.858406
  21
2.5
  31
0
  0
LINE
  5
67
  100
AcDbEntity
  8
1
  100
AcDbLine
  10
80
  20
0.314965
  30
0
  11
79.9
  21
0.363678
  31
0
  0
LINE
  5
68
  100
AcDbEntity
  8
1
  100
AcDbLine
  10
79.9
  20
0.363678
  30
0
  11
79.8
  21
0.447379
  31
0
  0
LINE
  5
69
  100
AcDbEntity
  8
1
  100
AcDbLine
  10
79.8
  20
0.447379
  30
0
  11
79.7
  21
0.539168
  31
0
  0
LINE
  5
6a
  100
AcDbEntity
  8
1
  100
AcDbLine
  10
79.7
  20
0.539168
  30
0
  11
79.6
  21
0.634182
  31
0
  0
LINE
  5
6b
  100
AcDbEntity
  8
1
  100
AcDbLine
  10
79.6
  20
0.634182
  30
0
  11
79.5
  21
0.729343
  31
0
  0
LINE
  5
6c
  100
AcDbEntity
  8
1
  100
AcDbLine
  10
79.5
  20
0.729343
  30
0
  11
79.4
  21
0.823083
  31
0
  0
LINE
  5
6d
  100
AcDbEntity
  8
1
  100
AcDbLine
  10
79.4
  20
0.823083
  30
0
  11
79.3
  21
0.915506
  31
0
  0
LINE
  5
6e
  100
AcDbEntity
  8
1
  100
AcDbLine
  10
79.3
  20
0.915506
  30
0
  11
79.2
  21
1.006464
  31
0
  0
LINE
  5
6f
  100
AcDbEntity
  8
1
  100
AcDbLine
  10
79.2
  20
1.006464
  30
0
  11
79.1
  21
1.095812
  31
0
  0
LINE
  5
70
  100
AcDbEntity
  8
1
  100
AcDbLine
  10
79.1
  20
1.095812
  30
0
  11
79
  21
1.183407
  31
0
  0
LINE
  5
71
  100
AcDbEntity
  8
1
  100
AcDbLine
  10
79
  20
1.183407
  30
0
  11
78.9
  21
1.269109
  31
0
  0
LINE
  5
72
  100
AcDbEntity
  8
1
  100
AcDbLine
  10
78.9
  20
1.269109
  30
0
  11
78.8
  21
1.352781
  31
0
  0
LINE
  5
73
  100
AcDbEntity
  8
1
  100
AcDbLine
  10
78.8
  20
1.352781
  30
0
  11
78.7
  21
1.434289
  31
0
  0
LINE
  5
74
  100
AcDbEntity
  8
1
  100
AcDbLine
  10
78.7
  20
1.434289
  30
0
  11
78.6
  21
1.513501
  31
0
  0
LINE
  5
75
  100
AcDbEntity
  8
1
  100
AcDbLine
  10
78.6
  20
1.513501
  30
0
  11
78.5
  21
1.590293
  31
0
  0
LINE
  5
76
  100
AcDbEntity
  8
1
  100
AcDbLine
  10
78.5
  20
1.590293
  30
0
  11
78.4
  21
1.664541
  31
0
  0
LINE
  5
77
  100
AcDbEntity
  8
1
  100
AcDbLine
  10
78.4
  20
1.664541
  30
0
  11
78.3
  21
1.736125
  31
0
  0
LINE
  5
78
  100
AcDbEntity
  8
1
  100
AcDbLine
  10
78.3
  20
1.736125
  30
0
  11
78.2
  21
1.804932
  31
0
  0
LINE
  5
79
  100
AcDbEntity
  8
1
  100
AcDbLine
  10
78.2
  20
1.804932
  30
0
  11
78.1
  21
1.870852
  31
0
  0
LINE
  5
7a
  100
AcDbEntity
  8
1
  100
AcDbLine
  10
78.1
  20
1.870852
  30
0
  11
78
  21
1.933779
  31
0
  0
LINE
  5
7b
  100
AcDbEntity
  8
1
  100
AcDbLine
  10
78
  20
1.933779
  30
0
  11
77.9
  21
1.993612
  31
0
  0
LINE
  5
7c
  100
AcDbEntity
  8
1
  100
AcDbLine
  10
77.9
  20
1.993612
  30
0
  11
77.8
  21
2.050256
  31
0
  0
LINE
  5
7d
  100
AcDbEntity
  8
1
  100
AcDbLine
  10
77.8
  20
2.050256
  30
0
  11
77.7
  21
2.103619
  31
0
  0
LINE
  5
7e
  100
AcDbEntity
  8
1
  100
AcDbLine
  10
77.7
  20
2.103619
  30
0
  11
77.6
  21
2.153618
  31
0
  0
LINE
  5
7f
  100
AcDbEntity
  8
1
  100
AcDbLine
  10
77.6
  20
2.153618
  30
0
  11
77.5
  21
2.200171
  31
0
  0
LINE
  5
80
  100
AcDbEntity
  8
1
  100
AcDbLine
  10
77.5
  20
2.200171
  30
0
  11
77.4
  21
2.243204
  31
0
  0
LINE
  5
81
  100
AcDbEntity
  8
1
  100
AcDbLine
  10
77.4
  20
2.243204
  30
0
  11
77.3
  21
2.282649
  31
0
  0
LINE
  5
82
  100
AcDbEntity
  8
1
  100
AcDbLine
  10
77.3
  20
2.282649
  30
0
  11
77.2
  21
2.318442
  31
0
  0
LINE
  5
83
  100
AcDbEntity
  8
1
  100
AcDbLine
  10
77.2
  20
2.318442
  30
0
  11
77.1
  21
2.350526
  31
0
  0
LINE
  5
84
  100
AcDbEntity
  8
1
  100
AcDbLine
  10
77.1
  20
2.350526
  30
0
  11
77
  21
2.378849
  31
0
  0
LINE
  5
85
  100
AcDbEntity
  8
1
  100
AcDbLine
  10
77
  20
2.378849
  30
0
  11
76.9
  21
2.403367
  31
0
  0
LINE
  5
86
  100
AcDbEntity
  8
1
  100
AcDbLine
  10
76.9
  20
2.403367
  30
0
  11
76.8
  21
2.42404
  31
0
  0
LINE
  5
87
  100
AcDbEntity
  8
1
  100
AcDbLine
  10
76.8
  20
2.42404
  30
0
  11
76.7
  21
2.440835
  31
0
  0
LINE
  5
88
  100
AcDbEntity
  8
1
  100
AcDbLine
  10
76.7
  20
2.440835
  30
0
  11
76.6
  21
2.453725
  31
0
  0
LINE
  5
89
  100
AcDbEntity
  8
1
  100
AcDbLine
  10
76.6
  20
2.453725
  30
0
  11
76.5
  21
2.46269
  31
0
  0
LINE
  5
8a
  100
AcDbEntity
  8
1
  100
AcDbLine
  10
76.5
  20
2.46269
  30
0
  11
76.4
  21
2.467715
  31
0
  0
LINE
  5
8b
  100
AcDbEntity
  8
1
  100
AcDbLine
  10
76.4
  20
2.467715
  30
0
  11
76.322731
  21
2.5
  31
0
  0
LINE
  5
8c
  100
AcDbEntity
  8
1
  100
AcDbLine
  10
76.073007
  20
2.5
  30
0
  11
76.1
  21
2.499854
  31
0
  0
LINE
  5
8d
  100
AcDbEntity
  8
1
  100
AcDbLine
  10
76.1
  20
2.499854
  30
0
  11
76.2
  21
2.496775
  31
0
  0
LINE
  5
8e
  100
AcDbEntity
  8
1
  100
AcDbLine
  10
76.2
  20
2.496775
  30
0
  11
76.3
  21
2.489702
  31
0
  0
LINE
  5
8f
  100
AcDbEntity
  8
1
  100
AcDbLine
  10
76.3
  20
2.489702
  30
0
  11
76.4
  21
2.478646
  31
0
  0
LINE
  5
90
  100
AcDbEntity
  8
1
  100
AcDbLine
  10
76.4
  20
2.478646
  30
0
  11
76.5
  21
2.463624
  31
0
  0
LINE
  5
91
  100
AcDbEntity
  8
1
  100
AcDbLine
  10
76.5
  20
2.463624
  30
0
  11
76.6
  21
2.444662
  31
0
  0
LINE
  5
92
  100
AcDbEntity
  8
1
  100
AcDbLine
  10
76.6
  20
2.444662
  30
0
  11
76.7
  21
2.421788
  31
0
  0
LINE
  5
93
  100
AcDbEntity
  8
1
  100
AcDbLine
  10
76.7
  20
2.421788
  30
0
  11
76.8
  21
2.39504
  31
0
  0
LINE
  5
94
  100
AcDbEntity
  8
1
  100
AcDbLine
  10
76.8
  20
2.39504
  30
0
  11
76.9
  21
2.36446
  31
0
  0
LINE
  5
95
  100
AcDbEntity
  8
1
  100
AcDbLine
  10
76.9
  20
2.36446
  30
0
  11
77
  21
2.330098
  31
0
  0
LINE
  5
96
  100
AcDbEntity
  8
1
  100
AcDbLine
  10
77
  20
2.330098
  30
0
  11
77.1
  21
2.292008
  31
0
  0
LINE
  5
97
  100
AcDbEntity
  8
1
  100
AcDbLine
  10
77.1
  20
2.292008
  30
0
  11
77.2
  21
2.250251
  31
0
  0
LINE
  5
98
  100
AcDbEntity
  8
1
  100
AcDbLine
  10
77.2
  20
2.250251
  30
0
  11
77.3
  21
2.204895
  31
0
  0
LINE
  5
99
  100
AcDbEntity
  8
1
  100
AcDbLine
  10
77.3
  20
2.204895
  30
0
  11
77.4
  21
2.156011
  31
0
  0
LINE
  5
9a
  100
AcDbEntity
  8
1
  100
AcDbLine
  10
77.4
  20
2.156011
  30
0
  11
77.5
  21
2.103677
  31
0
  0
LINE
  5
9b
  100
AcDbEntity
  8
1
  100
AcDbLine
  10
77.5
  20
2.103677
  30
0
  11
77.6
  21
2.047979
  31
0
  0
LINE
  5
9c
  100
AcDbEntity
  8
1
  100
AcDbLine
  10
77.6
  20
2.047979
  30
0
  11
77.7
  21
1.989004
  31
0
  0
LINE
  5
9d
  100
AcDbEntity
  8
1
  100
AcDbLine
  10
77.7
  20
1.989004
  30
0
  11
77.8
  21
1.926847
  31
0
  0
LINE
  5
9e
  100
AcDbEntity
  8
1
  100
AcDbLine
  10
77.8
  20
1.926847
  30
0
  11
77.9
  21
1.861608
  31
0
  0
LINE
  5
9f
  100
AcDbEntity
  8
1
  100
AcDbLine
  10
77.9
  20
1.861608
  30
0
  11
78
  21
1.79339
  31
0
  0
LINE
  5
a0
  100
AcDbEntity
  8
1
  100
AcDbLine
  10
78
  20
1.79339
  30
0
  11
78.1
  21
1.722304
  31
0
  0
LINE
  5
a1
  100
AcDbEntity
  8
1
  100
AcDbLine
  10
78.1
  20
1.722304
  30
0
  11
78.2
  21
1.648462
  31
0
  0
LINE
  5
a2
  100
AcDbEntity
  8
1
  100
AcDbLine
  10
78.2
  20
1.648462
  30
0
  11
78.3
  21
1.571983
  31
0
  0
LINE
  5
a3
  100
AcDbEntity
  8
1
  100
AcDbLine
  10
78.3
  20
1.571983
  30
0
  11
78.4
  21
1.492989
  31
0
  0
LINE
  5
a4
  100
AcDbEntity
  8
1
  100
AcDbLine
  10
78.4
  20
1.492989
  30
0
  11
78.5
  21
1.411606
  31
0
  0
LINE
  5
a5
  100
AcDbEntity
  8
1
  100
AcDbLine
  10
78.5
  20
1.411606
  30
0
  11
78.6
  21
1.327965
  31
0
  0
LINE
  5
a6
  100
AcDbEntity
  8
1
  100
AcDbLine
  10
78.6
  20
1.327965
  30
0
  11
78.7
  21
1.2422
  31
0
  0
LINE
  5
a7
  100
AcDbEntity
  8
1
  100
AcDbLine
  10
78.7
  20
1.2422
  30
0
  11
78.8
  21
1.154448
  31
0
  0
LINE
  5
a8
  100
AcDbEntity
  8
1
  100
AcDbLine
  10
78.8
  20
1.154448
  30
0
  11
78.9
  21
1.064849
  31
0
  0
LINE
  5
a9
  100
AcDbEntity
  8
1
  100
AcDbLine
  10
78.9
  20
1.064849
  30
0
  11
79
  21
0.973546
  31
0
  0
LINE
  5
aa
  100
AcDbEntity
  8
1
  100
AcDbLine
  10
79
  20
0.973546
  30
0
  11
79.1
  21
0.880686
  31
0
  0
LINE
  5
ab
  100
AcDbEntity
  8
1
  100
AcDbLine
  10
79.1
  20
0.880686
  30
0
  11
79.2
  21
0.786416
  31
0
  0
LINE
  5
ac
  100
AcDbEntity
  8
1
  100
AcDbLine
  10
79.2
  20
0.786416
  30
0
  11
79.3
  21
0.690889
  31
0
  0
LINE
  5
ad
  100
AcDbEntity
  8
1
  100
AcDbLine
  10
79.3
  20
0.690889
  30
0
  11
79.4
  21
0.594257
  31
0
  0
LINE
  5
ae
  100
AcDbEntity
  8
1
  100
AcDbLine
  10
79.4
  20
0.594257
  30
0
  11
79.5
  21
0.496673
  31
0
  0
LINE
  5
af
  100
AcDbEntity
  8
1
  100
AcDbLine
  10
79.5
  20
0.496673
  30
0
  11
79.6
  21
0.398088
  31
0
  0
LINE
  5
b0
  100
AcDbEntity
  8
1
  100
AcDbLine
  10
79.6
  20
0.398088
  30
0
  11
79.7
  21
0.300108
  31
0
  0
LINE
  5
b1
  100
AcDbEntity
  8
1
  100
AcDbLine
  10
79.7
  20
0.300108
  30
0
  11
79.8
  21
0.205807
  31
0
  0
LINE
  5
b2
  100
AcDbEntity
  8
1
  100
AcDbLine
  10
79.8
  20
0.205807
  30
0
  11
79.9
  21
0.120078
  31
0
  0
LINE
  5
b3
  100
AcDbEntity
  8
1
  100
AcDbLine
  10
79.9
  20
0.120078
  30
0
  11
80
  21
0.070445
  31
0
  0
LINE
  5
b4
  100
AcDbEntity
  8
1
  100
AcDbLine
  10
80
  20
-1.894955
  30
0
  11
79.99258
  21
-1.914182
  31
0
  0
LINE
  5
b5
  100
AcDbEntity
  8
1
  100
AcDbLine
  10
79.99258
  20
-1.914182
  30
0
  11
79.9
  21
-2.154084
  31
0
  0
LINE
  5
b6
  100
AcDbEntity
  8
1
  100
AcDbLine
  10
79.9
  20
-2.154084
  30
0
  11
79.8
  21
-2.214215
  31
0
  0
LINE
  5
b7
  100
AcDbEntity
  8
1
  100
AcDbLine
  10
79.8
  20
-2.214215
  30
0
  11
79.7
  21
-2.22939
  31
0
  0
LINE
  5
b8
  100
AcDbEntity
  8
1
  100
AcDbLine
  10
79.7
  20
-2.22939
  30
0
  11
79.6
  21
-2.214995
  31
0
  0
LINE
  5
b9
  100
AcDbEntity
  8
1
  100
AcDbLine
  10
79.6
  20
-2.214995
  30
0
  11
79.5
  21
-2.176766
  31
0
  0
LINE
  5
ba
  100
AcDbEntity
  8
1
  100
AcDbLine
  10
79.5
  20
-2.176766
  30
0
  11
79.4
  21
-2.125858
  31
0
  0
LINE
  5
bb
  100
AcDbEntity
  8
1
  100
AcDbLine
  10
79.4
  20
-2.125858
  30
0
  11
79.3
  21
-2.071549
  31
0
  0
LINE
  5
bc
  100
AcDbEntity
  8
1
  100
AcDbLine
  10
79.3
  20
-2.071549
  30
0
  11
79.2
  21
-2.013925
  31
0
  0
LINE
  5
bd
  100
AcDbEntity
  8
1
  100
AcDbLine
  10
79.2
  20
-2.013925
  30
0
  11
79.1
  21
-1.95308
  31
0
  0
LINE
  5
be
  100
AcDbEntity
  8
1
  100
AcDbLine
  10
79.1
  20
-1.95308
  30
0
  11
79
  21
-1.88911
  31
0
  0
LINE
  5
bf
  100
AcDbEntity
  8
1
  100
AcDbLine
  10
79
  20
-1.88911
  30
0
  11
78.9
  21
-1.822119
  31
0
  0
LINE
  5
c0
  100
AcDbEntity
  8
1
  100
AcDbLine
  10
78.9
  20
-1.822119
  30
0
  11
78.8
  21
-1.752212
  31
0
  0
LINE
  5
c1
  100
AcDbEntity
  8
1
  100
AcDbLine
  10
78.8
  20
-1.752212
  30
0
  11
78.7
  21
-1.679502
  31
0
  0
LINE
  5
c2
  100
AcDbEntity
  8
1
  100
AcDbLine
  10
78.7
  20
-1.679502
  30
0
  11
78.6
  21
-1.604105
  31
0
  0
LINE
  5
c3
  100
AcDbEntity
  8
1
  100
AcDbLine
  10
78.6
  20
-1.604105
  30
0
  11
78.5
  21
-1.526142
  31
0
  0
LINE
  5
c4
  100
AcDbEntity
  8
1
  100
AcDbLine
  10
78.5
  20
-1.526142
  30
0
  11
78.4
  21
-1.445737
  31
0
  0
LINE
  5
c5
  100
AcDbEntity
  8
1
  100
AcDbLine
  10
78.4
  20
-1.445737
  30
0
  11
78.3
  21
-1.36302
  31
0
  0
LINE
  5
c6
  100
AcDbEntity
  8
1
  100
AcDbLine
  10
78.3
  20
-1.36302
  30
0
  11
78.2
  21
-1.278122
  31
0
  0
LINE
  5
c7
  100
AcDbEntity
  8
1
  100
AcDbLine
  10
78.2
  20
-1.278122
  30
0
  11
78.1
  21
-1.191179
  31
0
  0
LINE
  5
c8
  100
AcDbEntity
  8
1
  100
AcDbLine
  10
78.1
  20
-1.191179
  30
0
  11
78
  21
-1.102331
  31
0
  0
LINE
  5
c9
  100
AcDbEntity
  8
1
  100
AcDbLine
  10
78
  20
-1.102331
  30
0
  11
77.9
  21
-1.011719
  31
0
  0
LINE
  5
ca
  100
AcDbEntity
  8
1
  100
AcDbLine
  10
77.9
  20
-1.011719
  30
0
  11
77.8
  21
-0.919488
  31
0
  0
LINE
  5
cb
  100
AcDbEntity
  8
1
  100
AcDbLine
  10
77.8
  20
-0.919488
  30
0
  11
77.7
  21
-0.825787
  31
0
  0
LINE
  5
cc
  100
AcDbEntity
  8
1
  100
AcDbLine
  10
77.7
  20
-0.825787
  30
0
  11
77.6
  21
-0.730765
  31
0
  0
LINE
  5
cd
  100
AcDbEntity
  8
1
  100
AcDbLine
  10
77.6
  20
-0.730765
  30
0
  11
77.5
  21
-0.634573
  31
0
  0
LINE
  5
ce
  100
AcDbEntity
  8
1
  100
AcDbLine
  10
77.5
  20
-0.634573
  30
0
  11
77.4
  21
-0.537366
  31
0
  0
LINE
  5
cf
  100
AcDbEntity
  8
1
  100
AcDbLine
  10
77.4
  20
-0.537366
  30
0
  11
77.3
  21
-0.4393
  31
0
  0
LINE
  5
d0
  100
AcDbEntity
  8
1
  100
AcDbLine
  10
77.3
  20
-0.4393
  30
0
  11
77.2
  21
-0.340531
  31
0
  0
LINE
  5
d1
  100
AcDbEntity
  8
1
  100
AcDbLine
  10
77.2
  20
-0.340531
  30
0
  11
77.1
  21
-0.241217
  31
0
  0
LINE
  5
d2
  100
AcDbEntity
  8
1
  100
AcDbLine
  10
77.1
  20
-0.241217
  30
0
  11
77
  21
-0.141517
  31
0
  0
LINE
  5
d3
  100
AcDbEntity
  8
1
  100
AcDbLine
  10
77
  20
-0.141517
  30
0
  11
76.9
  21
-0.041591
  31
0
  0
LINE
  5
d4
  100
AcDbEntity
  8
1
  100
AcDbLine
  10
76.9
  20
-0.041591
  30
0
  11
76.8
  21
0.058402
  31
0
  0
LINE
  5
d5
  100
AcDbEntity
  8
1
  100
AcDbLine
  10
76.8
  20
0.058402
  30
0
  11
76.7
  21
0.158301
  31
0
  0
LINE
  5
d6
  100
AcDbEntity
  8
1
  100
AcDbLine
  10
76.7
  20
0.158301
  30
0
  11
76.6
  21
0.257947
  31
0
  0
LINE
  5
d7
  100
AcDbEntity
  8
1
  100
AcDbLine
  10
76.6
  20
0.257947
  30
0
  11
76.5
  21
0.357181
  31
0
  0
LINE
  5
d8
  100
AcDbEntity
  8
1
  100
AcDbLine
  10
76.5
  20
0.357181
  30
0
  11
76.4
  21
0.455843
  31
0
  0
LINE
  5
d9
  100
AcDbEntity
  8
1
  100
AcDbLine
  10
76.4
  20
0.455843
  30
0
  11
76.3
  21
0.553776
  31
0
  0
LINE
  5
da
  100
AcDbEntity
  8
1
  100
AcDbLine
  10
76.3
  20
0.553776
  30
0
  11
76.2
  21
0.650823
  31
0
  0
LINE
  5
db
  100
AcDbEntity
  8
1
  100
AcDbLine
  10
76.2
  20
0.650823
  30
0
  11
76.1
  21
0.746828
  31
0
  0
LINE
  5
dc
  100
AcDbEntity
  8
1
  100
AcDbLine
  10
76.1
  20
0.746828
  30
0
  11
76
  21
0.841639
  31
0
  0
LINE
  5
dd
  100
AcDbEntity
  8
1
  100
AcDbLine
  10
76
  20
0.841639
  30
0
  11
75.9
  21
0.935104
  31
0
  0
LINE
  5
de
  100
AcDbEntity
  8
1
  100
AcDbLine
  10
75.9
  20
0.935104
  30
0
  11
75.8
  21
1.027072
  31
0
  0
LINE
  5
df
  100
AcDbEntity
  8
1
  100
AcDbLine
  10
75.8
  20
1.027072
  30
0
  11
75.7
  21
1.117397
  31
0
  0
LINE
  5
e0
  100
AcDbEntity
  8
1
  100
AcDbLine
  10
75.7
  20
1.117397
  30
0
  11
75.6
  21
1.205935
  31
0
  0
LINE
  5
e1
  100
AcDbEntity
  8
1
  100
AcDbLine
  10
75.6
  20
1.205935
  30
0
  11
75.5
  21
1.292544
  31
0
  0
LINE
  5
e2
  100
AcDbEntity
  8
1
  100
AcDbLine
  10
75.5
  20
1.292544
  30
0
  11
75.4
  21
1.377085
  31
0
  0
LINE
  5
e3
  100
AcDbEntity
  8
1
  100
AcDbLine
  10
75.4
  20
1.377085
  30
0
  11
75.3
  21
1.459422
  31
0
  0
LINE
  5
e4
  100
AcDbEntity
  8
1
  100
AcDbLine
  10
75.3
  20
1.459422
  30
0
  11
75.2
  21
1.539425
  31
0
  0
LINE
  5
e5
  100
AcDbEntity
  8
1
  100
AcDbLine
  10
75.2
  20
1.539425
  30
0
  11
75.1
  21
1.616965
  31
0
  0
LINE
  5
e6
  100
AcDbEntity
  8
1
  100
AcDbLine
  10
75.1
  20
1.616965
  30
0
  11
75
  21
1.691919
  31
0
  0
LINE
  5
e7
  100
AcDbEntity
  8
1
  100
AcDbLine
  10
75
  20
1.691919
  30
0
  11
74.9
  21
1.764165
  31
0
  0
LINE
  5
e8
  100
AcDbEntity
  8
1
  100
AcDbLine
  10
74.9
  20
1.764165
  30
0
  11
74.8
  21
1.83359
  31
0
  0
LINE
  5
e9
  100
AcDbEntity
  8
1
  100
AcDbLine
  10
74.8
  20
1.83359
  30
0
  11
74.7
  21
1.900081
  31
0
  0
LINE
  5
ea
  100
AcDbEntity
  8
1
  100
AcDbLine
  10
74.7
  20
1.900081
  30
0
  11
74.6
  21
1.963532
  31
0
  0
LINE
  5
eb
  100
AcDbEntity
  8
1
  100
AcDbLine
  10
74.6
  20
1.963532
  30
0
  11
74.5
  21
2.023842
  31
0
  0
LINE
  5
ec
  100
AcDbEntity
  8
1
  100
AcDbLine
  10
74.5
  20
2.023842
  30
0
  11
74.4
  21
2.080915
  31
0
  0
LINE
  5
ed
  100
AcDbEntity
  8
1
  100
AcDbLine
  10
74.4
  20
2.080915
  30
0
  11
74.3
  21
2.134658
  31
0
  0
LINE
  5
ee
  100
AcDbEntity
  8
1
  100
AcDbLine
  10
74.3
  20
2.134658
  30
0
  11
74.2
  21
2.184986
  31
0
  0
LINE
  5
ef
  100
AcDbEntity
  8
1
  100
AcDbLine
  10
74.2
  20
2.184986
  30
0
  11
74.1
  21
2.231819
  31
0
  0
LINE
  5
f0
  100
AcDbEntity
  8
1
  100
AcDbLine
  10
74.1
  20
2.231819
  30
0
  11
74
  21
2.275082
  31
0
  0
LINE
  5
f1
  100
AcDbEntity
  8
1
  100
AcDbLine
  10
74
  20
2.275082
  30
0
  11
73.9
  21
2.314705
  31
0
  0
LINE
  5
f2
  100
AcDbEntity
  8
1
  100
AcDbLine
  10
73.9
  20
2.314705
  30
0
  11
73.8
  21
2.350624
  31
0
  0
LINE
  5
f3
  100
AcDbEntity
  8
1
  100
AcDbLine
  10
73.8
  20
2.350624
  30
0
  11
73.7
  21
2.382783
  31
0
  0
LINE
  5
f4
  100
AcDbEntity
  8
1
  100
AcDbLine
  10
73.7
  20
2.382783
  30
0
  11
73.6
  21
2.411131
  31
0
  0
LINE
  5
f5
  100
AcDbEntity
  8
1
  100
AcDbLine
  10
73.6
  20
2.411131
  30
0
  11
73.5
  21
2.435621
  31
0
  0
LINE
  5
f6
  100
AcDbEntity
  8
1
  100
AcDbLine
  10
73.5
  20
2.435621
  30
0
  11
73.4
  21
2.456214
  31
0
  0
LINE
  5
f7
  100
AcDbEntity
  8
1
  100
AcDbLine
  10
73.4
  20
2.456214
  30
0
  11
73.3
  21
2.472878
  31
0
  0
LINE
  5
f8
  100
AcDbEntity
  8
1
  100
AcDbLine
  10
73.3
  20
2.472878
  30
0
  11
73.2
  21
2.485586
  31
0
  0
LINE
  5
f9
  100
AcDbEntity
  8
1
  100
AcDbLine
  10
73.2
  20
2.485586
  30
0
  11
73.1
  21
2.494318
  31
0
  0
LINE
  5
fa
  100
AcDbEntity
  8
1
  100
AcDbLine
  10
73.1
  20
2.494318
  30
0
  11
73
  21
2.499059
  31
0
  0
LINE
  5
fb
  100
AcDbEntity
  8
1
  100
AcDbLine
  10
73
  20
2.499059
  30
0
  11
72.931419
  21
2.5
  31
0
  0
LINE
  5
fc
  100
AcDbEntity
  8
1
  100
AcDbLine
  10
72.5
  20
2.5
  30
0
  11
72.5
  21
-2.5
  31
0
  0
LINE
  5
fd
  100
AcDbEntity
  8
1
  100
AcDbLine
  10
72.5
  20
-2.4
  30
0
  11
72.5
  21
2.4
  31
0
  0
LINE
  5
fe
  100
AcDbEntity
  8
1
  100
AcDbLine
  10
72.5
  20
2.368228
  30
0
  11
72.5
  21
2.466748
  31
0
  0
LINE
  5
ff
  100
AcDbEntity
  8
1
  100
AcDbLine
  10
72.5
  20
2.466748
  30
0
  11
72.6
  21
2.460658
  31
0
  0
LINE
  5
100
  100
AcDbEntity
  8
1
  100
AcDbLine
  10
72.6
  20
2.460658
  30
0
  11
72.7
  21
2.450632
  31
0
  0
LINE
  5
101
  100
AcDbEntity
  8
1
  100
AcDbLine
  10
72.7
  20
2.450632
  30
0
  11
72.8
  21
2.436686
  31
0
  0
LINE
  5
102
  100
AcDbEntity
  8
1
  100
AcDbLine
  10
72.8
  20
2.436686
  30
0
  11
72.9
  21
2.418841
  31
0
  0
LINE
  5
103
  100
AcDbEntity
  8
1
  100
AcDbLine
  10
72.9
  20
2.418841
  30
0
  11
73
  21
2.397127
  31
0
  0
LINE
  5
104
  100
AcDbEntity
  8
1
  100
AcDbLine
  10
73
  20
2.397127
  30
0
  11
73.1
  21
2.371578
  31
0
  0
LINE
  5
105
  100
AcDbEntity
  8
1
  100
AcDbLine
  10
73.1
  20
2.371578
  30
0
  11
73.2
  21
2.342234
  31
0
  0
LINE
  5
106
  100
AcDbEntity
  8
1
  100
AcDbLine
  10
73.2
  20
2.342234
  30
0
  11
73.3
  21
2.309144
  31
0
  0
LINE
  5
107
  100
AcDbEntity
  8
1
  100
AcDbLine
  10
73.3
  20
2.309144
  30
0
  11
73.4
  21
2.27236
  31
0
  0
LINE
  5
108
  100
AcDbEntity
  8
1
  100
AcDbLine
  10
73.4
  20
2.27236
  30
0
  11
73.5
  21
2.23194
  31
0
  0
LINE
  5
109
  100
AcDbEntity
  8
1
  100
AcDbLine
  10
73.5
  20
2.23194
  30
0
  11
73.6
  21
2.18795
  31
0
  0
LINE
  5
10a
  100
AcDbEntity
  8
1
  100
AcDbLine
  10
73.6
  20
2.18795
  30
0
  11
73.7
  21
2.140459
  31
0
  0
LINE
  5
10b
  100
AcDbEntity
  8
1
  100
AcDbLine
  10
73.7
  20
2.140459
  30
0
  11
73.8
  21
2.089544
  31
0
  0
LINE
  5
10c
  100
AcDbEntity
  8
1
  100
AcDbLine
  10
73.8
  20
2.089544
  30
0
  11
73.9
  21
2.035287
  31
0
  0
LINE
  5
10d
  100
AcDbEntity
  8
1
  100
AcDbLine
  10
73.9
  20
2.035287
  30
0
  11
74
  21
1.977773
  31
0
  0
LINE
  5
10e
  100
AcDbEntity
  8
1
  100
AcDbLine
  10
74
  20
1.977773
  30
0
  11
74.1
  21
1.917095
  31
0
  0
LINE
  5
10f
  100
AcDbEntity
  8
1
  100
AcDbLine
  10
74.1
  20
1.917095
  30
0
  11
74.2
  21
1.85335
  31
0
  0
LINE
  5
110
  100
AcDbEntity
  8
1
  100
AcDbLine
  10
74.2
  20
1.85335
  30
0
  11
74.3
  21
1.786641
  31
0
  0
LINE
  5
111
  100
AcDbEntity
  8
1
  100
AcDbLine
  10
74.3
  20
1.786641
  30
0
  11
74.4
  21
1.717073
  31
0
  0
LINE
  5
112
  100
AcDbEntity
  8
1
  100
AcDbLine
  10
74.4
  20
1.717073
  30
0
  11
74.5
  21
1.644758
  31
0
  0
LINE
  5
113
  100
AcDbEntity
  8
1
  100
AcDbLine
  10
74.5
  20
1.644758
  30
0
  11
74.6
  21
1.569812
  31
0
  0
LINE
  5
114
  100
AcDbEntity
  8
1
  100
AcDbLine
  10
74.6
  20
1.569812
  30
0
  11
74.7
  21
1.492355
  31
0
  0
LINE
  5
115
  100
AcDbEntity
  8
1
  100
AcDbLine
  10
74.7
  20
1.492355
  30
0
  11
74.8
  21
1.41251
  31
0
  0
LINE
  5
116
  100
AcDbEntity
  8
1
  100
AcDbLine
  10
74.8
  20
1.41251
  30
0
  11
74.9
  21
1.330405
  31
0
  0
LINE
  5
117
  100
AcDbEntity
  8
1
  100
AcDbLine
  10
74.9
  20
1.330405
  30
0
  11
75
  21
1.246172
  31
0
  0
LINE
  5
118
  100
AcDbEntity
  8
1
  100
AcDbLine
  10
75
  20
1.246172
  30
0
  11
75.1
  21
1.159946
  31
0
  0
LINE
  5
119
  100
AcDbEntity
  8
1
  100
AcDbLine
  10
75.1
  20
1.159946
  30
0
  11
75.2
  21
1.071863
  31
0
  0
LINE
  5
11a
  100
AcDbEntity
  8
1
  100
AcDbLine
  10
75.2
  20
1.071863
  30
0
  11
75.3
  21
0.982066
  31
0
  0
LINE
  5
11b
  100
AcDbEntity
  8
1
  100
AcDbLine
  10
75.3
  20
0.982066
  30
0
  11
75.4
  21
0.890698
  31
0
  0
LINE
  5
11c
  100
AcDbEntity
  8
1
  100
AcDbLine
  10
75.4
  20
0.890698
  30
0
  11
75.5
  21
0.797905
  31
0
  0
LINE
  5
11d
  100
AcDbEntity
  8
1
  100
AcDbLine
  10
75.5
  20
0.797905
  30
0
  11
75.6
  21
0.703836
  31
0
  0
LINE
  5
11e
  100
AcDbEntity
  8
1
  100
AcDbLine
  10
75.6
  20
0.703836
  30
0
  11
75.7
  21
0.60864
  31
0
  0
LINE
  5
11f
  100
AcDbEntity
  8
1
  100
AcDbLine
  10
75.7
  20
0.60864
  30
0
  11
75.8
  21
0.512471
  31
0
  0
LINE
  5
120
  100
AcDbEntity
  8
1
  100
AcDbLine
  10
75.8
  20
0.512471
  30
0
  11
75.9
  21
0.415482
  31
0
  0
LINE
  5
121
  100
AcDbEntity
  8
1
  100
AcDbLine
  10
75.9
  20
0.415482
  30
0
  11
76
  21
0.317828
  31
0
  0
LINE
  5
122
  100
AcDbEntity
  8
1
  100
AcDbLine
  10
76
  20
0.317828
  30
0
  11
76.1
  21
0.219666
  31
0
  0
LINE
  5
123
  100
AcDbEntity
  8
1
  100
AcDbLine
  10
76.1
  20
0.219666
  30
0
  11
76.2
  21
0.121152
  31
0
  0
LINE
  5
124
  100
AcDbEntity
  8
1
  100
AcDbLine
  10
76.2
  20
0.121152
  30
0
  11
76.3
  21
0.022445
  31
0
  0
LINE
  5
125
  100
AcDbEntity
  8
1
  100
AcDbLine
  10
76.3
  20
0.022445
  30
0
  11
76.4
  21
-0.076298
  31
0
  0
LINE
  5
126
  100
AcDbEntity
  8
1
  100
AcDbLine
  10
76.4
  20
-0.076298
  30
0
  11
76.5
  21
-0.17492
  31
0
  0
LINE
  5
127
  100
AcDbEntity
  8
1
  100
AcDbLine
  10
76.5
  20
-0.17492
  30
0
  11
76.6
  21
-0.273261
  31
0
  0
LINE
  5
128
  100
AcDbEntity
  8
1
  100
AcDbLine
  10
76.6
  20
-0.273261
  30
0
  11
76.7
  21
-0.371165
  31
0
  0
LINE
  5
129
  100
AcDbEntity
  8
1
  100
AcDbLine
  10
76.7
  20
-0.371165
  30
0
  11
76.8
  21
-0.468476
  31
0
  0
LINE
  5
12a
  100
AcDbEntity
  8
1
  100
AcDbLine
  10
76.8
  20
-0.468476
  30
0
  11
76.9
  21
-0.565037
  31
0
  0
LINE
  5
12b
  100
AcDbEntity
  8
1
  100
AcDbLine
  10
76.9
  20
-0.565037
  30
0
  11
77
  21
-0.660694
  31
0
  0
LINE
  5
12c
  100
AcDbEntity
  8
1
  100
AcDbLine
  10
77
  20
-0.660694
  30
0
  11
77.1
  21
-0.755294
  31
0
  0
LINE
  5
12d
  100
AcDbEntity
  8
1
  100
AcDbLine
  10
77.1
  20
-0.755294
  30
0
  11
77.2
  21
-0.848686
  31
0
  0
LINE
  5
12e
  100
AcDbEntity
  8
1
  100
AcDbLine
  10
77.2
  20
-0.848686
  30
0
  11
77.3
  21
-0.94072
  31
0
  0
LINE
  5
12f
  100
AcDbEntity
  8
1
  100
AcDbLine
  10
77.3
  20
-0.94072
  30
0
  11
77.4
  21
-1.031249
  31
0
  0
LINE
  5
130
  100
AcDbEntity
  8
1
  100
AcDbLine
  10
77.4
  20
-1.031249
  30
0
  11
77.5
  21
-1.120128
  31
0
  0
LINE
  5
131
  100
AcDbEntity
  8
1
  100
AcDbLine
  10
77.5
  20
-1.120128
  30
0
  11
77.6
  21
-1.207216
  31
0
  0
LINE
  5
132
  100
AcDbEntity
  8
1
  100
AcDbLine
  10
77.6
  20
-1.207216
  30
0
  11
77.7
  21
-1.292372
  31
0
  0
LINE
  5
133
  100
AcDbEntity
  8
1
  100
AcDbLine
  10
77.7
  20
-1.292372
  30
0
  11
77.8
  21
-1.37546
  31
0
  0
LINE
  5
134
  100
AcDbEntity
  8
1
  100
AcDbLine
  10
77.8
  20
-1.37546
  30
0
  11
77.9
  21
-1.456349
  31
0
  0
LINE
  5
135
  100
AcDbEntity
  8
1
  100
AcDbLine
  10
77.9
  20
-1.456349
  30
0
  11
78
  21
-1.534907
  31
0
  0
LINE
  5
136
  100
AcDbEntity
  8
1
  100
AcDbLine
  10
78
  20
-1.534907
  30
0
  11
78.1
  21
-1.61101
  31
0
  0
LINE
  5
137
  100
AcDbEntity
  8
1
  100
AcDbLine
  10
78.1
  20
-1.61101
  30
0
  11
78.2
  21
-1.684535
  31
0
  0
LINE
  5
138
  100
AcDbEntity
  8
1
  100
AcDbLine
  10
78.2
  20
-1.684535
  30
0
  11
78.3
  21
-1.755366
  31
0
  0
LINE
  5
139
  100
AcDbEntity
  8
1
  100
AcDbLine
  10
78.3
  20
-1.755366
  30
0
  11
78.4
  21
-1.823388
  31
0
  0
LINE
  5
13a
  100
AcDbEntity
  8
1
  100
AcDbLine
  10
78.4
  20
-1.823388
  30
0
  11
78.5
  21
-1.888493
  31
0
  0
LINE
  5
13b
  100
AcDbEntity
  8
1
  100
AcDbLine
  10
78.5
  20
-1.888493
  30
0
  11
78.6
  21
-1.950578
  31
0
  0
LINE
  5
13c
  100
AcDbEntity
  8
1
  100
AcDbLine
  10
78.6
  20
-1.950578
  30
0
  11
78.7
  21
-2.009541
  31
0
  0
LINE
  5
13d
  100
AcDbEntity
  8
1
  100
AcDbLine
  10
78.7
  20
-2.009541
  30
0
  11
78.8
  21
-2.06529
  31
0
  0
LINE
  5
13e
  100
AcDbEntity
  8
1
  100
AcDbLine
  10
78.8
  20
-2.06529
  30
0
  11
78.9
  21
-2.117735
  31
0
  0
LINE
  5
13f
  100
AcDbEntity
  8
1
  100
AcDbLine
  10
78.9
  20
-2.117735
  30
0
  11
79
  21
-2.166792
  31
0
  0
LINE
  5
140
  100
AcDbEntity
  8
1
  100
AcDbLine
  10
79
  20
-2.166792
  30
0
  11
79.1
  21
-2.212382
  31
0
  0
LINE
  5
141
  100
AcDbEntity
  8
1
  100
AcDbLine
  10
79.1
  20
-2.212382
  30
0
  11
79.2
  21
-2.254433
  31
0
  0
LINE
  5
142
  100
AcDbEntity
  8
1
  100
AcDbLine
  10
79.2
  20
-2.254433
  30
0
  11
79.3
  21
-2.292878
  31
0
  0
LINE
  5
143
  100
AcDbEntity
  8
1
  100
AcDbLine
  10
79.3
  20
-2.292878
  30
0
  11
79.4
  21
-2.327654
  31
0
  0
LINE
  5
144
  100
AcDbEntity
  8
1
  100
AcDbLine
  10
79.4
  20
-2.327654
  30
0
  11
79.5
  21
-2.358707
  31
0
  0
LINE
  5
145
  100
AcDbEntity
  8
1
  100
AcDbLine
  10
79.5
  20
-2.358707
  30
0
  11
79.6
  21
-2.375652
  31
0
  0
LINE
  5
146
  100
AcDbEntity
  8
1
  100
AcDbLine
  10
79.6
  20
-2.375652
  30
0
  11
79.7
  21
-2.366726
  31
0
  0
LINE
  5
147
  100
AcDbEntity
  8
1
  100
AcDbLine
  10
79.7
  20
-2.366726
  30
0
  11
79.8
  21
-2.326795
  31
0
  0
LINE
  5
148
  100
AcDbEntity
  8
1
  100
AcDbLine
  10
79.8
  20
-2.326795
  30
0
  11
79.9
  21
-2.240657
  31
0
  0
LINE
  5
149
  100
AcDbEntity
  8
1
  100
AcDbLine
  10
79.9
  20
-2.240657
  30
0
  11
79.997802
  21
-1.953164
  31
0
  0
LINE
  5
14a
  100
AcDbEntity
  8
1
  100
AcDbLine
  10
79.997802
  20
-1.953164
  30
0
  11
80
  21
-1.946702
  31
0
  0
LINE
  5
14b
  100
AcDbEntity
  8
1
  100
AcDbLine
  10
80
  20
-1.998759
  30
0
  11
79.999998
  21
-1.998764
  31
0
  0
LINE
  5
14c
  100
AcDbEntity
  8
1
  100
AcDbLine
  10
79.999998
  20
-1.998764
  30
0
  11
79.9
  21
-2.296863
  31
0
  0
LINE
  5
14d
  100
AcDbEntity
  8
1
  100
AcDbLine
  10
79.9
  20
-2.296863
  30
0
  11
79.8
  21
-2.391159
  31
0
  0
LINE
  5
14e
  100
AcDbEntity
  8
1
  100
AcDbLine
  10
79.8
  20
-2.391159
  30
0
  11
79.7
  21
-2.43987
  31
0
  0
LINE
  5
14f
  100
AcDbEntity
  8
1
  100
AcDbLine
  10
79.7
  20
-2.43987
  30
0
  11
79.6
  21
-2.457869
  31
0
  0
LINE
  5
150
  100
AcDbEntity
  8
1
  100
AcDbLine
  10
79.6
  20
-2.457869
  30
0
  11
79.5
  21
-2.450166
  31
0
  0
LINE
  5
151
  100
AcDbEntity
  8
1
  100
AcDbLine
  10
79.5
  20
-2.450166
  30
0
  11
79.4
  21
-2.428345
  31
0
  0
LINE
  5
152
  100
AcDbEntity
  8
1
  100
AcDbLine
  10
79.4
  20
-2.428345
  30
0
  11
79.3
  21
-2.402639
  31
0
  0
LINE
  5
153
  100
AcDbEntity
  8
1
  100
AcDbLine
  10
79.3
  20
-2.402639
  30
0
  11
79.2
  21
-2.373089
  31
0
  0
LINE
  5
154
  100
AcDbEntity
  8
1
  100
AcDbLine
  10
79.2
  20
-2.373089
  30
0
  11
79.1
  21
-2.339742
  31
0
  0
LINE
  5
155
  100
AcDbEntity
  8
1
  100
AcDbLine
  10
79.1
  20
-2.339742
  30
0
  11
79
  21
-2.302652
  31
0
  0
LINE
  5
156
  100
AcDbEntity
  8
1
  100
AcDbLine
  10
79
  20
-2.302652
  30
0
  11
78.9
  21
-2.261879
  31
0
  0
LINE
  5
157
  100
AcDbEntity
  8
1
  100
AcDbLine
  10
78.9
  20
-2.261879
  30
0
  11
78.8
  21
-2.217487
  31
0
  0
LINE
  5
158
  100
AcDbEntity
  8
1
  100
AcDbLine
  10
78.8
  20
-2.217487
  30
0
  11
78.7
  21
-2.169548
  31
0
  0
LINE
  5
159
  100
AcDbEntity
  8
1
  100
AcDbLine
  10
78.7
  20
-2.169548
  30
0
  11
78.6
  21
-2.118138
  31
0
  0
LINE
  5
15a
  100
AcDbEntity
  8
1
  100
AcDbLine
  10
78.6
  20
-2.118138
  30
0
  11
78.5
  21
-2.063339
  31
0
  0
LINE
  5
15b
  100
AcDbEntity
  8
1
  100
AcDbLine
  10
78.5
  20
-2.063339
  30
0
  11
78.4
  21
-2.005239
  31
0
  0
LINE
  5
15c
  100
AcDbEntity
  8
1
  100
AcDbLine
  10
78.4
  20
-2.005239
  30
0
  11
78.3
  21
-1.943932
  31
0
  0
LINE
  5
15d
  100
AcDbEntity
  8
1
  100
AcDbLine
  10
78.3
  20
-1.943932
  30
0
  11
78.2
  21
-1.879514
  31
0
  0
LINE
  5
15e
  100
AcDbEntity
  8
1
  100
AcDbLine
  10
78.2
  20
-1.879514
  30
0
  11
78.1
  21
-1.81209
  31
0
  0
LINE
  5
15f
  100
AcDbEntity
  8
1
  100
AcDbLine
  10
78.1
  20
-1.81209
  30
0
  11
78
  21
-1.741767
  31
0
  0
LINE
  5
160
  100
AcDbEntity
  8
1
  100
AcDbLine
  10
78
  20
-1.741767
  30
0
  11
77.9
  21
-1.668657
  31
0
  0
LINE
  5
161
  100
AcDbEntity
  8
1
  100
AcDbLine
  10
77.9
  20
-1.668657
  30
0
  11
77.8
  21
-1.592878
  31
0
  0
LINE
  5
162
  100
AcDbEntity
  8
1
  100
AcDbLine
  10
77.8
  20
-1.592878
  30
0
  11
77.7
  21
-1.51455
  31
0
  0
LINE
  5
163
  100
AcDbEntity
  8
1
  100
AcDbLine
  10
77.7
  20
-1.51455
  30
0
  11
77.6
  21
-1.4338
  31
0
  0
LINE
  5
164
  100
AcDbEntity
  8
1
  100
AcDbLine
  10
77.6
  20
-1.4338
  30
0
  11
77.5
  21
-1.350756
  31
0
  0
LINE
  5
165
  100
AcDbEntity
  8
1
  100
AcDbLine
  10
77.5
  20
-1.350756
  30
0
  11
77.4
  21
-1.265551
  31
0
  0
LINE
  5
166
  100
AcDbEntity
  8
1
  100
AcDbLine
  10
77.4
  20
-1.265551
  30
0
  11
77.3
  21
-1.178321
  31
0
  0
LINE
  5
167
  100
AcDbEntity
  8
1
  100
AcDbLine
  10
77.3
  20
-1.178321
  30
0
  11
77.2
  21
-1.089206
  31
0
  0
LINE
  5
168
  100
AcDbEntity
  8
1
  100
AcDbLine
  10
77.2
  20
-1.089206
  30
0
  11
77.1
  21
-0.998349
  31
0
  0
LINE
  5
169
  100
AcDbEntity
  8
1
  100
AcDbLine
  10
77.1
  20
-0.998349
  30
0
  11
77
  21
-0.905894
  31
0
  0
LINE
  5
16a
  100
AcDbEntity
  8
1
  100
AcDbLine
  10
77
  20
-0.905894
  30
0
  11
76.9
  21
-0.811991
  31
0
  0
LINE
  5
16b
  100
AcDbEntity
  8
1
  100
AcDbLine
  10
76.9
  20
-0.811991
  30
0
  11
76.8
  21
-0.716788
  31
0
  0
LINE
  5
16c
  100
AcDbEntity
  8
1
  100
AcDbLine
  10
76.8
  20
-0.716788
  30
0
  11
76.7
  21
-0.620439
  31
0
  0
LINE
  5
16d
  100
AcDbEntity
  8
1
  100
AcDbLine
  10
76.7
  20
-0.620439
  30
0
  11
76.6
  21
-0.523097
  31
0
  0
LINE
  5
16e
  100
AcDbEntity
  8
1
  100
AcDbLine
  10
76.6
  20
-0.523097
  30
0
  11
76.5
  21
-0.424918
  31
0
  0
LINE
  5
16f
  100
AcDbEntity
  8
1
  100
AcDbLine
  10
76.5
  20
-0.424918
  30
0
  11
76.4
  21
-0.326059
  31
0
  0
LINE
  5
170
  100
AcDbEntity
  8
1
  100
AcDbLine
  10
76.4
  20
-0.326059
  30
0
  11
76.3
  21
-0.226679
  31
0
  0
LINE
  5
171
  100
AcDbEntity
  8
1
  100
AcDbLine
  10
76.3
  20
-0.226679
  30
0
  11
76.2
  21
-0.126936
  31
0
  0
LINE
  5
172
  100
AcDbEntity
  8
1
  100
AcDbLine
  10
76.2
  20
-0.126936
  30
0
  11
76.1
  21
-0.02699
  31
0
  0
LINE
  5
173
  100
AcDbEntity
  8
1
  100
AcDbLine
  10
76.1
  20
-0.02699
  30
0
  11
76
  21
0.072999
  31
0
  0
LINE
  5
174
  100
AcDbEntity
  8
1
  100
AcDbLine
  10
76
  20
0.072999
  30
0
  11
75.9
  21
0.172871
  31
0
  0
LINE
  5
175
  100
AcDbEntity
  8
1
  100
AcDbLine
  10
75.9
  20
0.172871
  30
0
  11
75.8
  21
0.272467
  31
0
  0
LINE
  5
176
  100
AcDbEntity
  8
1
  100
AcDbLine
  10
75.8
  20
0.272467
  30
0
  11
75.7
  21
0.371627
  31
0
  0
LINE
  5
177
  100
AcDbEntity
  8
1
  100
AcDbLine
  10
75.7
  20
0.371627
  30
0
  11
75.6
  21
0.470192
  31
0
  0
LINE
  5
178
  100
AcDbEntity
  8
1
  100
AcDbLine
  10
75.6
  20
0.470192
  30
0
  11
75.5
  21
0.568005
  31
0
  0
LINE
  5
179
  100
AcDbEntity
  8
1
  100
AcDbLine
  10
75.5
  20
0.568005
  30
0
  11
75.4
  21
0.66491
  31
0
  0
LINE
  5
17a
  100
AcDbEntity
  8
1
  100
AcDbLine
  10
75.4
  20
0.66491
  30
0
  11
75.3
  21
0.76075
  31
0
  0
LINE
  5
17b
  100
AcDbEntity
  8
1
  100
AcDbLine
  10
75.3
  20
0.76075
  30
0
  11
75.2
  21
0.855374
  31
0
  0
LINE
  5
17c
  100
AcDbEntity
  8
1
  100
AcDbLine
  10
75.2
  20
0.855374
  30
0
  11
75.1
  21
0.948629
  31
0
  0
LINE
  5
17d
  100
AcDbEntity
  8
1
  100
AcDbLine
  10
75.1
  20
0.948629
  30
0
  11
75
  21
1.040367
  31
0
  0
LINE
  5
17e
  100
AcDbEntity
  8
1
  100
AcDbLine
  10
75
  20
1.040367
  30
0
  11
74.9
  21
1.13044
  31
0
  0
LINE
  5
17f
  100
AcDbEntity
  8
1
  100
AcDbLine
  10
74.9
  20
1.13044
  30
0
  11
74.8
  21
1.218705
  31
0
  0
LINE
  5
180
  100
AcDbEntity
  8
1
  100
AcDbLine
  10
74.8
  20
1.218705
  30
0
  11
74.7
  21
1.30502
  31
0
  0
LINE
  5
181
  100
AcDbEntity
  8
1
  100
AcDbLine
  10
74.7
  20
1.30502
  30
0
  11
74.6
  21
1.389248
  31
0
  0
LINE
  5
182
  100
AcDbEntity
  8
1
  100
AcDbLine
  10
74.6
  20
1.389248
  30
0
  11
74.5
  21
1.471253
  31
0
  0
LINE
  5
183
  100
AcDbEntity
  8
1
  100
AcDbLine
  10
74.5
  20
1.471253
  30
0
  11
74.4
  21
1.550904
  31
0
  0
LINE
  5
184
  100
AcDbEntity
  8
1
  100
AcDbLine
  10
74.4
  20
1.550904
  30
0
  11
74.3
  21
1.628074
  31
0
  0
LINE
  5
185
  100
AcDbEntity
  8
1
  100
AcDbLine
  10
74.3
  20
1.628074
  30
0
  11
74.2
  21
1.70264
  31
0
  0
LINE
  5
186
  100
AcDbEntity
  8
1
  100
AcDbLine
  10
74.2
  20
1.70264
  30
0
  11
74.1
  21
1.774481
  31
0
  0
LINE
  5
187
  100
AcDbEntity
  8
1
  100
AcDbLine
  10
74.1
  20
1.774481
  30
0
  11
74
  21
1.843484
  31
0
  0
LINE
  5
188
  100
AcDbEntity
  8
1
  100
AcDbLine
  10
74
  20
1.843484
  30
0
  11
73.9
  21
1.909538
  31
0
  0
LINE
  5
189
  100
AcDbEntity
  8
1
  100
AcDbLine
  10
73.9
  20
1.909538
  30
0
  11
73.8
  21
1.972537
  31
0
  0
LINE
  5
18a
  100
AcDbEntity
  8
1
  100
AcDbLine
  10
73.8
  20
1.972537
  30
0
  11
73.7
  21
2.03238
  31
0
  0
LINE
  5
18b
  100
AcDbEntity
  8
1
  100
AcDbLine
  10
73.7
  20
2.03238
  30
0
  11
73.6
  21
2.088972
  31
0
  0
LINE
  5
18c
  100
AcDbEntity
  8
1
  100
AcDbLine
  10
73.6
  20
2.088972
  30
0
  11
73.5
  21
2.142222
  31
0
  0
LINE
  5
18d
  100
AcDbEntity
  8
1
  100
AcDbLine
  10
73.5
  20
2.142222
  30
0
  11
73.4
  21
2.192045
  31
0
  0
LINE
  5
18e
  100
AcDbEntity
  8
1
  100
AcDbLine
  10
73.4
  20
2.192045
  30
0
  11
73.3
  21
2.238361
  31
0
  0
LINE
  5
18f
  100
AcDbEntity
  8
1
  100
AcDbLine
  10
73.3
  20
2.238361
  30
0
  11
73.2
  21
2.281096
  31
0
  0
LINE
  5
190
  100
AcDbEntity
  8
1
  100
AcDbLine
  10
73.2
  20
2.281096
  30
0
  11
73.1
  21
2.320182
  31
0
  0
LINE
  5
191
  100
AcDbEntity
  8
1
  100
AcDbLine
  10
73.1
  20
2.320182
  30
0
  11
73
  21
2.355556
  31
0
  0
LINE
  5
192
  100
AcDbEntity
  8
1
  100
AcDbLine
  10
73
  20
2.355556
  30
0
  11
72.9
  21
2.387162
  31
0
  0
LINE
  5
193
  100
AcDbEntity
  8
1
  100
AcDbLine
  10
72.9
  20
2.387162
  30
0
  11
72.8
  21
2.414948
  31
0
  0
LINE
  5
194
  100
AcDbEntity
  8
1
  100
AcDbLine
  10
72.8
  20
2.414948
  30
0
  11
72.7
  21
2.438872
  31
0
  0
LINE
  5
195
  100
AcDbEntity
  8
1
  100
AcDbLine
  10
72.7
  20
2.438872
  30
0
  11
72.6
  21
2.458893
  31
0
  0
LINE
  5
196
  100
AcDbEntity
  8
1
  100
AcDbLine
  10
72.6
  20
2.458893
  30
0
  11
72.5
  21
2.474981
  31
0
  0
LINE
  5
197
  100
AcDbEntity
  8
1
  100
AcDbLine
  10
72.5
  20
2.474981
  30
0
  11
72.5
  21
2.377925
  31
0
  0
LINE
  5
198
  100
AcDbEntity
  8
1
  100
AcDbLine
  10
72.5
  20
2.377925
  30
0
  11
72.4
  21
2.38901
  31
0
  0
LINE
  5
199
  100
AcDbEntity
  8
1
  100
AcDbLine
  10
72.4
  20
2.38901
  30
0
  11
72.3
  21
2.396273
  31
0
  0
LINE
  5
19a
  100
AcDbEntity
  8
1
  100
AcDbLine
  10
72.3
  20
2.396273
  30
0
  11
72.2
  21
2.399703
  31
0
  0
LINE
  5
19b
  100
AcDbEntity
  8
1
  100
AcDbLine
  10
72.2
  20
2.399703
  30
0
  11
72.160644
  21
2.4
  31
0
  0
LINE
  5
19c
  100
AcDbEntity
  8
1
  100
AcDbLine
  10
71.640629
  20
2.4
  30
0
  11
71.6
  21
2.393069
  31
0
  0
LINE
  5
19d
  100
AcDbEntity
  8
1
  100
AcDbLine
  10
71.6
  20
2.393069
  30
0
  11
71.6
  21
2.154787
  31
0
  0
LINE
  5
19e
  100
AcDbEntity
  8
1
  100
AcDbLine
  10
71.6
  20
2.154787
  30
0
  11
71.7
  21
1.689119
  31
0
  0
LINE
  5
19f
  100
AcDbEntity
  8
1
  100
AcDbLine
  10
71.7
  20
1.689119
  30
0
  11
71.8
  21
1.321152
  31
0
  0
LINE
  5
1a0
  100
AcDbEntity
  8
1
  100
AcDbLine
  10
71.8
  20
1.321152
  30
0
  11
71.9
  21
1.0771
  31
0
  0
LINE
  5
1a1
  100
AcDbEntity
  8
1
  100
AcDbLine
  10
71.9
  20
1.0771
  30
0
  11
72
  21
0.915839
  31
0
  0
LINE
  5
1a2
  100
AcDbEntity
  8
1
  100
AcDbLine
  10
72
  20
0.915839
  30
0
  11
72.1
  21
0.797961
  31
0
  0
LINE
  5
1a3
  100
AcDbEntity
  8
1
  100
AcDbLine
  10
72.1
  20
0.797961
  30
0
  11
72.2
  21
0.698371
  31
0
  0
LINE
  5
1a4
  100
AcDbEntity
  8
1
  100
AcDbLine
  10
72.2
  20
0.698371
  30
0
  11
72.3
  21
0.604305
  31
0
  0
LINE
  5
1a5
  100
AcDbEntity
  8
1
  100
AcDbLine
  10
72.3
  20
0.604305
  30
0
  11
72.4
  21
0.510778
  31
0
  0
LINE
  5
1a6
  100
AcDbEntity
  8
1
  100
AcDbLine
  10
72.4
  20
0.510778
  30
0
  11
72.5
  21
0.416591
  31
0
  0
LINE
  5
1a7
  100
AcDbEntity
  8
1
  100
AcDbLine
  10
72.5
  20
0.416591
  30
0
  11
72.5
  21
0.429279
  31
0
  0
LINE
  5
1a8
  100
AcDbEntity
  8
1
  100
AcDbLine
  10
72.5
  20
0.429279
  30
0
  11
72.6
  21
0.330447
  31
0
  0
LINE
  5
1a9
  100
AcDbEntity
  8
1
  100
AcDbLine
  10
72.6
  20
0.330447
  30
0
  11
72.7
  21
0.231086
  31
0
  0
LINE
  5
1aa
  100
AcDbEntity
  8
1
  100
AcDbLine
  10
72.7
  20
0.231086
  30
0
  11
72.8
  21
0.131356
  31
0
  0
LINE
  5
1ab
  100
AcDbEntity
  8
1
  100
AcDbLine
  10
72.8
  20
0.131356
  30
0
  11
72.9
  21
0.031416
  31
0
  0
LINE
  5
1ac
  100
AcDbEntity
  8
1
  100
AcDbLine
  10
72.9
  20
0.031416
  30
0
  11
73
  21
-0.068575
  31
0
  0
LINE
  5
1ad
  100
AcDbEntity
  8
1
  100
AcDbLine
  10
73
  20
-0.068575
  30
0
  11
73.1
  21
-0.168456
  31
0
  0
LINE
  5
1ae
  100
AcDbEntity
  8
1
  100
AcDbLine
  10
73.1
  20
-0.168456
  30
0
  11
73.2
  21
-0.268067
  31
0
  0
LINE
  5
1af
  100
AcDbEntity
  8
1
  100
AcDbLine
  10
73.2
  20
-0.268067
  30
0
  11
73.3
  21
-0.36725
  31
0
  0
LINE
  5
1b0
  100
AcDbEntity
  8
1
  100
AcDbLine
  10
73.3
  20
-0.36725
  30
0
  11
73.4
  21
-0.465845
  31
0
  0
LINE
  5
1b1
  100
AcDbEntity
  8
1
  100
AcDbLine
  10
73.4
  20
-0.465845
  30
0
  11
73.5
  21
-0.563694
  31
0
  0
LINE
  5
1b2
  100
AcDbEntity
  8
1
  100
AcDbLine
  10
73.5
  20
-0.563694
  30
0
  11
73.6
  21
-0.660642
  31
0
  0
LINE
  5
1b3
  100
AcDbEntity
  8
1
  100
AcDbLine
  10
73.6
  20
-0.660642
  30
0
  11
73.7
  21
-0.756533
  31
0
  0
LINE
  5
1b4
  100
AcDbEntity
  8
1
  100
AcDbLine
  10
73.7
  20
-0.756533
  30
0
  11
73.8
  21
-0.851214
  31
0
  0
LINE
  5
1b5
  100
AcDbEntity
  8
1
  100
AcDbLine
  10
73.8
  20
-0.851214
  30
0
  11
73.9
  21
-0.944533
  31
0
  0
LINE
  5
1b6
  100
AcDbEntity
  8
1
  100
AcDbLine
  10
73.9
  20
-0.944533
  30
0
  11
74
  21
-1.036341
  31
0
  0
LINE
  5
1b7
  100
AcDbEntity
  8
1
  100
AcDbLine
  10
74
  20
-1.036341
  30
0
  11
74.1
  21
-1.126491
  31
0
  0
LINE
  5
1b8
  100
AcDbEntity
  8
1
  100
AcDbLine
  10
74.1
  20
-1.126491
  30
0
  11
74.2
  21
-1.214839
  31
0
  0
LINE
  5
1b9
  100
AcDbEntity
  8
1
  100
AcDbLine
  10
74.2
  20
-1.214839
  30
0
  11
74.3
  21
-1.301244
  31
0
  0
LINE
  5
1ba
  100
AcDbEntity
  8
1
  100
AcDbLine
  10
74.3
  20
-1.301244
  30
0
  11
74.4
  21
-1.385566
  31
0
  0
LINE
  5
1bb
  100
AcDbEntity
  8
1
  100
AcDbLine
  10
74.4
  20
-1.385566
  30
0
  11
74.5
  21
-1.467672
  31
0
  0
LINE
  5
1bc
  100
AcDbEntity
  8
1
  100
AcDbLine
  10
74.5
  20
-1.467672
  30
0
  11
74.6
  21
-1.54743
  31
0
  0
LINE
  5
1bd
  100
AcDbEntity
  8
1
  100
AcDbLine
  10
74.6
  20
-1.54743
  30
0
  11
74.7
  21
-1.624713
  31
0
  0
LINE
  5
1be
  100
AcDbEntity
  8
1
  100
AcDbLine
  10
74.7
  20
-1.624713
  30
0
  11
74.8
  21
-1.699396
  31
0
  0
LINE
  5
1bf
  100
AcDbEntity
  8
1
  100
AcDbLine
  10
74.8
  20
-1.699396
  30
0
  11
74.9
  21
-1.771361
  31
0
  0
LINE
  5
1c0
  100
AcDbEntity
  8
1
  100
AcDbLine
  10
74.9
  20
-1.771361
  30
0
  11
75
  21
-1.840492
  31
0
  0
LINE
  5
1c1
  100
AcDbEntity
  8
1
  100
AcDbLine
  10
75
  20
-1.840492
  30
0
  11
75.1
  21
-1.906679
  31
0
  0
LINE
  5
1c2
  100
AcDbEntity
  8
1
  100
AcDbLine
  10
75.1
  20
-1.906679
  30
0
  11
75.2
  21
-1.969815
  31
0
  0
LINE
  5
1c3
  100
AcDbEntity
  8
1
  100
AcDbLine
  10
75.2
  20
-1.969815
  30
0
  11
75.3
  21
-2.0298
  31
0
  0
LINE
  5
1c4
  100
AcDbEntity
  8
1
  100
AcDbLine
  10
75.3
  20
-2.0298
  30
0
  11
75.4
  21
-2.086537
  31
0
  0
LINE
  5
1c5
  100
AcDbEntity
  8
1
  100
AcDbLine
  10
75.4
  20
-2.086537
  30
0
  11
75.5
  21
-2.139937
  31
0
  0
LINE
  5
1c6
  100
AcDbEntity
  8
1
  100
AcDbLine
  10
75.5
  20
-2.139937
  30
0
  11
75.6
  21
-2.189913
  31
0
  0
LINE
  5
1c7
  100
AcDbEntity
  8
1
  100
AcDbLine
  10
75.6
  20
-2.189913
  30
0
  11
75.7
  21
-2.236386
  31
0
  0
LINE
  5
1c8
  100
AcDbEntity
  8
1
  100
AcDbLine
  10
75.7
  20
-2.236386
  30
0
  11
75.8
  21
-2.279281
  31
0
  0
LINE
  5
1c9
  100
AcDbEntity
  8
1
  100
AcDbLine
  10
75.8
  20
-2.279281
  30
0
  11
75.9
  21
-2.31853
  31
0
  0
LINE
  5
1ca
  100
AcDbEntity
  8
1
  100
AcDbLine
  10
75.9
  20
-2.31853
  30
0
  11
76
  21
-2.35407
  31
0
  0
LINE
  5
1cb
  100
AcDbEntity
  8
1
  100
AcDbLine
  10
76
  20
-2.35407
  30
0
  11
76.1
  21
-2.385843
  31
0
  0
LINE
  5
1cc
  100
AcDbEntity
  8
1
  100
AcDbLine
  10
76.1
  20
-2.385843
  30
0
  11
76.2
  21
-2.4138
  31
0
  0
LINE
  5
1cd
  100
AcDbEntity
  8
1
  100
AcDbLine
  10
76.2
  20
-2.4138
  30
0
  11
76.3
  21
-2.437895
  31
0
  0
LINE
  5
1ce
  100
AcDbEntity
  8
1
  100
AcDbLine
  10
76.3
  20
-2.437895
  30
0
  11
76.4
  21
-2.45809
  31
0
  0
LINE
  5
1cf
  100
AcDbEntity
  8
1
  100
AcDbLine
  10
76.4
  20
-2.45809
  30
0
  11
76.5
  21
-2.474353
  31
0
  0
LINE
  5
1d0
  100
AcDbEntity
  8
1
  100
AcDbLine
  10
76.5
  20
-2.474353
  30
0
  11
76.6
  21
-2.486657
  31
0
  0
LINE
  5
1d1
  100
AcDbEntity
  8
1
  100
AcDbLine
  10
76.6
  20
-2.486657
  30
0
  11
76.7
  21
-2.494983
  31
0
  0
LINE
  5
1d2
  100
AcDbEntity
  8
1
  100
AcDbLine
  10
76.7
  20
-2.494983
  30
0
  11
76.8
  21
-2.499318
  31
0
  0
LINE
  5
1d3
  100
AcDbEntity
  8
1
  100
AcDbLine
  10
76.8
  20
-2.499318
  30
0
  11
76.858406
  21
-2.5
  31
0
  0
LINE
  5
1d4
  100
AcDbEntity
  8
1
  100
AcDbLine
  10
76.322731
  20
-2.5
  30
0
  11
76.3
  21
-2.468792
  31
0
  0
LINE
  5
1d5
  100
AcDbEntity
  8
1
  100
AcDbLine
  10
76.3
  20
-2.468792
  30
0
  11
76.2
  21
-2.46592
  31
0
  0
LINE
  5
1d6
  100
AcDbEntity
  8
1
  100
AcDbLine
  10
76.2
  20
-2.46592
  30
0
  11
76.1
  21
-2.459103
  31
0
  0
LINE
  5
1d7
  100
AcDbEntity
  8
1
  100
AcDbLine
  10
76.1
  20
-2.459103
  30
0
  11
76
  21
-2.448351
  31
0
  0
LINE
  5
1d8
  100
AcDbEntity
  8
1
  100
AcDbLine
  10
76
  20
-2.448351
  30
0
  11
75.9
  21
-2.433683
  31
0
  0
LINE
  5
1d9
  100
AcDbEntity
  8
1
  100
AcDbLine
  10
75.9
  20
-2.433683
  30
0
  11
75.8
  21
-2.415122
  31
0
  0
LINE
  5
1da
  100
AcDbEntity
  8
1
  100
AcDbLine
  10
75.8
  20
-2.415122
  30
0
  11
75.7
  21
-2.392697
  31
0
  0
LINE
  5
1db
  100
AcDbEntity
  8
1
  100
AcDbLine
  10
75.7
  20
-2.392697
  30
0
  11
75.6
  21
-2.366444
  31
0
  0
LINE
  5
1dc
  100
AcDbEntity
  8
1
  100
AcDbLine
  10
75.6
  20
-2.366444
  30
0
  11
75.5
  21
-2.336405
  31
0
  0
LINE
  5
1dd
  100
AcDbEntity
  8
1
  100
AcDbLine
  10
75.5
  20
-2.336405
  30
0
  11
75.4
  21
-2.302628
  31
0
  0
LINE
  5
1de
  100
AcDbEntity
  8
1
  100
AcDbLine
  10
75.4
  20
-2.302628
  30
0
  11
75.3
  21
-2.265168
  31
0
  0
LINE
  5
1df
  100
AcDbEntity
  8
1
  100
AcDbLine
  10
75.3
  20
-2.265168
  30
0
  11
75.2
  21
-2.224084
  31
0
  0
LINE
  5
1e0
  100
AcDbEntity
  8
1
  100
AcDbLine
  10
75.2
  20
-2.224084
  30
0
  11
75.1
  21
-2.179442
  31
0
  0
LINE
  5
1e1
  100
AcDbEntity
  8
1
  100
AcDbLine
  10
75.1
  20
-2.179442
  30
0
  11
75
  21
-2.131313
  31
0
  0
LINE
  5
1e2
  100
AcDbEntity
  8
1
  100
AcDbLine
  10
75
  20
-2.131313
  30
0
  11
74.9
  21
-2.079775
  31
0
  0
LINE
  5
1e3
  100
AcDbEntity
  8
1
  100
AcDbLine
  10
74.9
  20
-2.079775
  30
0
  11
74.8
  21
-2.024909
  31
0
  0
LINE
  5
1e4
  100
AcDbEntity
  8
1
  100
AcDbLine
  10
74.8
  20
-2.024909
  30
0
  11
74.7
  21
-1.966804
  31
0
  0
LINE
  5
1e5
  100
AcDbEntity
  8
1
  100
AcDbLine
  10
74.7
  20
-1.966804
  30
0
  11
74.6
  21
-1.905552
  31
0
  0
LINE
  5
1e6
  100
AcDbEntity
  8
1
  100
AcDbLine
  10
74.6
  20
-1.905552
  30
0
  11
74.5
  21
-1.841252
  31
0
  0
LINE
  5
1e7
  100
AcDbEntity
  8
1
  100
AcDbLine
  10
74.5
  20
-1.841252
  30
0
  11
74.4
  21
-1.774007
  31
0
  0
LINE
  5
1e8
  100
AcDbEntity
  8
1
  100
AcDbLine
  10
74.4
  20
-1.774007
  30
0
  11
74.3
  21
-1.703923
  31
0
  0
LINE
  5
1e9
  100
AcDbEntity
  8
1
  100
AcDbLine
  10
74.3
  20
-1.703923
  30
0
  11
74.2
  21
-1.631114
  31
0
  0
LINE
  5
1ea
  100
AcDbEntity
  8
1
  100
AcDbLine
  10
74.2
  20
-1.631114
  30
0
  11
74.1
  21
-1.555695
  31
0
  0
LINE
  5
1eb
  100
AcDbEntity
  8
1
  100
AcDbLine
  10
74.1
  20
-1.555695
  30
0
  11
74
  21
-1.477787
  31
0
  0
LINE
  5
1ec
  100
AcDbEntity
  8
1
  100
AcDbLine
  10
74
  20
-1.477787
  30
0
  11
73.9
  21
-1.397515
  31
0
  0
LINE
  5
1ed
  100
AcDbEntity
  8
1
  100
AcDbLine
  10
73.9
  20
-1.397515
  30
0
  11
73.8
  21
-1.315007
  31
0
  0
LINE
  5
1ee
  100
AcDbEntity
  8
1
  100
AcDbLine
  10
73.8
  20
-1.315007
  30
0
  11
73.7
  21
-1.230396
  31
0
  0
LINE
  5
1ef
  100
AcDbEntity
  8
1
  100
AcDbLine
  10
73.7
  20
-1.230396
  30
0
  11
73.6
  21
-1.143816
  31
0
  0
LINE
  5
1f0
  100
AcDbEntity
  8
1
  100
AcDbLine
  10
73.6
  20
-1.143816
  30
0
  11
73.5
  21
-1.055407
  31
0
  0
LINE
  5
1f1
  100
AcDbEntity
  8
1
  100
AcDbLine
  10
73.5
  20
-1.055407
  30
0
  11
73.4
  21
-0.965309
  31
0
  0
LINE
  5
1f2
  100
AcDbEntity
  8
1
  100
AcDbLine
  10
73.4
  20
-0.965309
  30
0
  11
73.3
  21
-0.873666
  31
0
  0
LINE
  5
1f3
  100
AcDbEntity
  8
1
  100
AcDbLine
  10
73.3
  20
-0.873666
  30
0
  11
73.2
  21
-0.780627
  31
0
  0
LINE
  5
1f4
  100
AcDbEntity
  8
1
  100
AcDbLine
  10
73.2
  20
-0.780627
  30
0
  11
73.1
  21
-0.686338
  31
0
  0
LINE
  5
1f5
  100
AcDbEntity
  8
1
  100
AcDbLine
  10
73.1
  20
-0.686338
  30
0
  11
73
  21
-0.590951
  31
0
  0
LINE
  5
1f6
  100
AcDbEntity
  8
1
  100
AcDbLine
  10
73
  20
-0.590951
  30
0
  11
72.9
  21
-0.494619
  31
0
  0
LINE
  5
1f7
  100
AcDbEntity
  8
1
  100
AcDbLine
  10
72.9
  20
-0.494619
  30
0
  11
72.8
  21
-0.397495
  31
0
  0
LINE
  5
1f8
  100
AcDbEntity
  8
1
  100
AcDbLine
  10
72.8
  20
-0.397495
  30
0
  11
72.7
  21
-0.299736
  31
0
  0
LINE
  5
1f9
  100
AcDbEntity
  8
1
  100
AcDbLine
  10
72.7
  20
-0.299736
  30
0
  11
72.6
  21
-0.201497
  31
0
  0
LINE
  5
1fa
  100
AcDbEntity
  8
1
  100
AcDbLine
  10
72.6
  20
-0.201497
  30
0
  11
72.5
  21
-0.102936
  31
0
  0
LINE
  5
1fb
  100
AcDbEntity
  8
1
  100
AcDbLine
  10
72.5
  20
-0.102936
  30
0
  11
72.5
  21
-0.074951
  31
0
  0
LINE
  5
1fc
  100
AcDbEntity
  8
1
  100
AcDbLine
  10
72.160644
  20
-2.4
  30
0
  11
72.1
  21
-2.399294
  31
0
  0
LINE
  5
1fd
  100
AcDbEntity
  8
1
  100
AcDbLine
  10
72.1
  20
-2.399294
  30
0
  11
72
  21
-2.395086
  31
0
  0
LINE
  5
1fe
  100
AcDbEntity
  8
1
  100
AcDbLine
  10
72
  20
-2.395086
  30
0
  11
71.9
  21
-2.387538
  31
0
  0
LINE
  5
1ff
  100
AcDbEntity
  8
1
  100
AcDbLine
  10
71.9
  20
-2.387538
  30
0
  11
71.8
  21
-2.379888
  31
0
  0
LINE
  5
200
  100
AcDbEntity
  8
1
  100
AcDbLine
  10
71.8
  20
-2.379888
  30
0
  11
71.7
  21
-2.385176
  31
0
  0
LINE
  5
201
  100
AcDbEntity
  8
1
  100
AcDbLine
  10
71.7
  20
-2.385176
  30
0
  11
71.640629
  21
-2.4
  31
0
  0
LINE
  5
202
  100
AcDbEntity
  8
1
  100
AcDbLine
  10
72.931419
  20
-2.5
  30
0
  11
72.9
  21
-2.499803
  31
0
  0
LINE
  5
203
  100
AcDbEntity
  8
1
  100
AcDbLine
  10
72.9
  20
-2.499803
  30
0
  11
72.8
  21
-2.496547
  31
0
  0
LINE
  5
204
  100
AcDbEntity
  8
1
  100
AcDbLine
  10
72.8
  20
-2.496547
  30
0
  11
72.7
  21
-2.489297
  31
0
  0
LINE
  5
205
  100
AcDbEntity
  8
1
  100
AcDbLine
  10
72.7
  20
-2.489297
  30
0
  11
72.6
  21
-2.478065
  31
0
  0
LINE
  5
206
  100
AcDbEntity
  8
1
  100
AcDbLine
  10
72.6
  20
-2.478065
  30
0
  11
72.5
  21
-2.462868
  31
0
  0
LINE
  5
207
  100
AcDbEntity
  8
1
  100
AcDbLine
  10
72.5
  20
-2.462868
  30
0
  11
72.5
  21
-2.363568
  31
0
  0
LINE
  5
208
  100
AcDbEntity
  8
1
  100
AcDbLine
  10
72.5
  20
-2.363568
  30
0
  11
72.4
  21
-2.345017
  31
0
  0
LINE
  5
209
  100
AcDbEntity
  8
1
  100
AcDbLine
  10
72.4
  20
-2.345017
  30
0
  11
72.3
  21
-2.322674
  31
0
  0
LINE
  5
20a
  100
AcDbEntity
  8
1
  100
AcDbLine
  10
72.3
  20
-2.322674
  30
0
  11
72.2
  21
-2.296144
  31
0
  0
LINE
  5
20b
  100
AcDbEntity
  8
1
  100
AcDbLine
  10
72.2
  20
-2.296144
  30
0
  11
72.1
  21
-2.263461
  31
0
  0
LINE
  5
20c
  100
AcDbEntity
  8
1
  100
AcDbLine
  10
72.1
  20
-2.263461
  30
0
  11
72
  21
-2.218387
  31
0
  0
LINE
  5
20d
  100
AcDbEntity
  8
1
  100
AcDbLine
  10
72
  20
-2.218387
  30
0
  11
71.9
  21
-2.144727
  31
0
  0
LINE
  5
20e
  100
AcDbEntity
  8
1
  100
AcDbLine
  10
71.9
  20
-2.144727
  30
0
  11
71.8
  21
-2.003636
  31
0
  0
LINE
  5
20f
  100
AcDbEntity
  8
1
  100
AcDbLine
  10
71.8
  20
-2.003636
  30
0
  11
71.7
  21
-1.704956
  31
0
  0
LINE
  5
210
  100
AcDbEntity
  8
1
  100
AcDbLine
  10
71.7
  20
-1.704956
  30
0
  11
71.6
  21
-1.056831
  31
0
  0
LINE
  5
211
  100
AcDbEntity
  8
1
  100
AcDbLine
  10
71.6
  20
-1.056831
  30
0
  11
71.6
  21
-0.182264
  31
0
  0
LINE
  5
212
  100
AcDbEntity
  8
1
  100
AcDbLine
  10
71.6
  20
-0.182264
  30
0
  11
71.7
  21
0.266336
  31
0
  0
LINE
  5
213
  100
AcDbEntity
  8
1
  100
AcDbLine
  10
71.7
  20
0.266336
  30
0
  11
71.8
  21
0.31005
  31
0
  0
LINE
  5
214
  100
AcDbEntity
  8
1
  100
AcDbLine
  10
71.8
  20
0.31005
  30
0
  11
71.9
  21
0.244259
  31
0
  0
LINE
  5
215
  100
AcDbEntity
  8
1
  100
AcDbLine
  10
71.9
  20
0.244259
  30
0
  11
72
  21
0.15351
  31
0
  0
LINE
  5
216
  100
AcDbEntity
  8
1
  100
AcDbLine
  10
72
  20
0.15351
  30
0
  11
72.1
  21
0.058189
  31
0
  0
LINE
  5
217
  100
AcDbEntity
  8
1
  100
AcDbLine
  10
72.1
  20
0.058189
  30
0
  11
72.2
  21
-0.037762
  31
0
  0
LINE
  5
218
  100
AcDbEntity
  8
1
  100
AcDbLine
  10
72.2
  20
-0.037762
  30
0
  11
72.3
  21
-0.133693
  31
0
  0
LINE
  5
219
  100
AcDbEntity
  8
1
  100
AcDbLine
  10
72.3
  20
-0.133693
  30
0
  11
72.4
  21
-0.229412
  31
0
  0
LINE
  5
21a
  100
AcDbEntity
  8
1
  100
AcDbLine
  10
72.4
  20
-0.229412
  30
0
  11
72.5
  21
-0.324763
  31
0
  0
LINE
  5
21b
  100
AcDbEntity
  8
1
  100
AcDbLine
  10
72.5
  20
-0.324763
  30
0
  11
72.5
  21
-0.3528
  31
0
  0
LINE
  5
21c
  100
AcDbEntity
  8
1
  100
AcDbLine
  10
72.5
  20
-0.3528
  30
0
  11
72.6
  21
-0.451491
  31
0
  0
LINE
  5
21d
  100
AcDbEntity
  8
1
  100
AcDbLine
  10
72.6
  20
-0.451491
  30
0
  11
72.7
  21
-0.549459
  31
0
  0
LINE
  5
21e
  100
AcDbEntity
  8
1
  100
AcDbLine
  10
72.7
  20
-0.549459
  30
0
  11
72.8
  21
-0.646548
  31
0
  0
LINE
  5
21f
  100
AcDbEntity
  8
1
  100
AcDbLine
  10
72.8
  20
-0.646548
  30
0
  11
72.9
  21
-0.742603
  31
0
  0
LINE
  5
220
  100
AcDbEntity
  8
1
  100
AcDbLine
  10
72.9
  20
-0.742603
  30
0
  11
73
  21
-0.83747
  31
0
  0
LINE
  5
221
  100
AcDbEntity
  8
1
  100
AcDbLine
  10
73
  20
-0.83747
  30
0
  11
73.1
  21
-0.930998
  31
0
  0
LINE
  5
222
  100
AcDbEntity
  8
1
  100
AcDbLine
  10
73.1
  20
-0.930998
  30
0
  11
73.2
  21
-1.023035
  31
0
  0
LINE
  5
223
  100
AcDbEntity
  8
1
  100
AcDbLine
  10
73.2
  20
-1.023035
  30
0
  11
73.3
  21
-1.113437
  31
0
  0
LINE
  5
224
  100
AcDbEntity
  8
1
  100
AcDbLine
  10
73.3
  20
-1.113437
  30
0
  11
73.4
  21
-1.202057
  31
0
  0
LINE
  5
225
  100
AcDbEntity
  8
1
  100
AcDbLine
  10
73.4
  20
-1.202057
  30
0
  11
73.5
  21
-1.288753
  31
0
  0
LINE
  5
226
  100
AcDbEntity
  8
1
  100
AcDbLine
  10
73.5
  20
-1.288753
  30
0
  11
73.6
  21
-1.373389
  31
0
  0
LINE
  5
227
  100
AcDbEntity
  8
1
  100
AcDbLine
  10
73.6
  20
-1.373389
  30
0
  11
73.7
  21
-1.455827
  31
0
  0
LINE
  5
228
  100
AcDbEntity
  8
1
  100
AcDbLine
  10
73.7
  20
-1.455827
  30
0
  11
73.8
  21
-1.535936
  31
0
  0
LINE
  5
229
  100
AcDbEntity
  8
1
  100
AcDbLine
  10
73.8
  20
-1.535936
  30
0
  11
73.9
  21
-1.613587
  31
0
  0
LINE
  5
22a
  100
AcDbEntity
  8
1
  100
AcDbLine
  10
73.9
  20
-1.613587
  30
0
  11
74
  21
-1.688658
  31
0
  0
LINE
  5
22b
  100
AcDbEntity
  8
1
  100
AcDbLine
  10
74
  20
-1.688658
  30
0
  11
74.1
  21
-1.761027
  31
0
  0
LINE
  5
22c
  100
AcDbEntity
  8
1
  100
AcDbLine
  10
74.1
  20
-1.761027
  30
0
  11
74.2
  21
-1.830579
  31
0
  0
LINE
  5
22d
  100
AcDbEntity
  8
1
  100
AcDbLine
  10
74.2
  20
-1.830579
  30
0
  11
74.3
  21
-1.897202
  31
0
  0
LINE
  5
22e
  100
AcDbEntity
  8
1
  100
AcDbLine
  10
74.3
  20
-1.897202
  30
0
  11
74.4
  21
-1.96079
  31
0
  0
LINE
  5
22f
  100
AcDbEntity
  8
1
  100
AcDbLine
  10
74.4
  20
-1.96079
  30
0
  11
74.5
  21
-2.021241
  31
0
  0
LINE
  5
230
  100
AcDbEntity
  8
1
  100
AcDbLine
  10
74.5
  20
-2.021241
  30
0
  11
74.6
  21
-2.078459
  31
0
  0
LINE
  5
231
  100
AcDbEntity
  8
1
  100
AcDbLine
  10
74.6
  20
-2.078459
  30
0
  11
74.7
  21
-2.132351
  31
0
  0
LINE
  5
232
  100
AcDbEntity
  8
1
  100
AcDbLine
  10
74.7
  20
-2.132351
  30
0
  11
74.8
  21
-2.182832
  31
0
  0
LINE
  5
233
  100
AcDbEntity
  8
1
  100
AcDbLine
  10
74.8
  20
-2.182832
  30
0
  11
74.9
  21
-2.229822
  31
0
  0
LINE
  5
234
  100
AcDbEntity
  8
1
  100
AcDbLine
  10
74.9
  20
-2.229822
  30
0
  11
75
  21
-2.273244
  31
0
  0
LINE
  5
235
  100
AcDbEntity
  8
1
  100
AcDbLine
  10
75
  20
-2.273244
  30
0
  11
75.1
  21
-2.313029
  31
0
  0
LINE
  5
236
  100
AcDbEntity
  8
1
  100
AcDbLine
  10
75.1
  20
-2.313029
  30
0
  11
75.2
  21
-2.349114
  31
0
  0
LINE
  5
237
  100
AcDbEntity
  8
1
  100
AcDbLine
  10
75.2
  20
-2.349114
  30
0
  11
75.3
  21
-2.38144
  31
0
  0
LINE
  5
238
  100
AcDbEntity
  8
1
  100
AcDbLine
  10
75.3
  20
-2.38144
  30
0
  11
75.4
  21
-2.409957
  31
0
  0
LINE
  5
239
  100
AcDbEntity
  8
1
  100
AcDbLine
  10
75.4
  20
-2.409957
  30
0
  11
75.5
  21
-2.434619
  31
0
  0
LINE
  5
23a
  100
AcDbEntity
  8
1
  100
AcDbLine
  10
75.5
  20
-2.434619
  30
0
  11
75.6
  21
-2.455386
  31
0
  0
LINE
  5
23b
  100
AcDbEntity
  8
1
  100
AcDbLine
  10
75.6
  20
-2.455386
  30
0
  11
75.7
  21
-2.472224
  31
0
  0
LINE
  5
23c
  100
AcDbEntity
  8
1
  100
AcDbLine
  10
75.7
  20
-2.472224
  30
0
  11
75.8
  21
-2.485108
  31
0
  0
LINE
  5
23d
  100
AcDbEntity
  8
1
  100
AcDbLine
  10
75.8
  20
-2.485108
  30
0
  11
75.9
  21
-2.494016
  31
0
  0
LINE
  5
23e
  100
AcDbEntity
  8
1
  100
AcDbLine
  10
75.9
  20
-2.494016
  30
0
  11
76
  21
-2.498934
  31
0
  0
LINE
  5
23f
  100
AcDbEntity
  8
1
  100
AcDbLine
  10
76
  20
-2.498934
  30
0
  11
76.073007
  21
-2.5
  31
0
  0
LINE
  5
240
  100
AcDbEntity
  8
1
  100
AcDbLine
  10
65.58
  20
-2.4
  30
0
  11
65.58
  21
2.4
  31
0
  0
LINE
  5
241
  100
AcDbEntity
  8
1
  100
AcDbLine
  10
63.863367
  20
2.702689
  30
0
  11
63.863367
  21
-2.702689
  31
0
  0
LINE
  5
242
  100
AcDbEntity
  8
SK1
  100
AcDbLine
  10
62.9
  20
2.960822
  30
0
  11
62.753786
  21
3
  31
0
  0
LINE
  5
243
  100
AcDbEntity
  8
SK1
  100
AcDbLine
  10
62.753786
  20
3
  30
0
  11
62.9
  21
3
  31
0
  0
LINE
  5
244
  100
AcDbEntity
  8
SK1
  100
AcDbLine
  10
62.9
  20
3
  30
0
  11
0.7
  21
3
  31
0
  0
LINE
  5
245
  100
AcDbEntity
  8
SK1
  100
AcDbLine
  10
0.7
  20
3
  30
0
  11
0
  21
2.3
  31
0
  0
LINE
  5
246
  100
AcDbEntity
  8
SK1
  100
AcDbLine
  10
62.9
  20
-2.960822
  30
0
  11
62.753786
  21
-3
  31
0
  0
LINE
  5
247
  100
AcDbEntity
  8
SK1
  100
AcDbLine
  10
62.753786
  20
-3
  30
0
  11
62.9
  21
-3
  31
0
  0
LINE
  5
248
  100
AcDbEntity
  8
SK1
  100
AcDbLine
  10
62.9
  20
-3
  30
0
  11
0.7
  21
-3
  31
0
  0
LINE
  5
249
  100
AcDbEntity
  8
SK1
  100
AcDbLine
  10
0.7
  20
-3
  30
0
  11
0
  21
-2.3
  31
0
  0
LINE
  5
24a
  100
AcDbEntity
  8
SK1
  100
AcDbLine
  10
62.753786
  20
3
  30
0
  11
62.753786
  21
-3
  31
0
  0
LINE
  5
24b
  100
AcDbEntity
  8
SK1
  100
AcDbLine
  10
0.7
  20
3
  30
0
  11
0.7
  21
-3
  31
0
  0
LINE
  5
24c
  100
AcDbEntity
  8
SK1
  100
AcDbLine
  10
0
  20
2.3
  30
0
  11
0
  21
-2.3
  31
0
  0
LINE
  5
24d
  100
AcDbEntity
  8
SK1
  100
AcDbLine
  10
63.9401
  20
1.40688
  30
0
  11
64.3069
  21
1.0401
  31
0
  0
LINE
  5
24e
  100
AcDbEntity
  8
SK1
  100
AcDbLine
  10
63.4328
  20
1.66666
  30
0
  11
64.5667
  21
0.532833
  31
0
  0
LINE
  5
24f
  100
AcDbEntity
  8
SK1
  100
AcDbLine
  10
63.1154
  20
1.73657
  30
0
  11
64.6366
  21
0.215434
  31
0
  0
LINE
  5
250
  100
AcDbEntity
  8
SK1
  100
AcDbLine
  10
62.9
  20
1.70452
  30
0
  11
64.6045
  21
0
  31
0
  0
LINE
  5
251
  100
AcDbEntity
  8
SK1
  100
AcDbLine
  10
62.9
  20
1.45703
  30
0
  11
64.357
  21
0
  31
0
  0
LINE
  5
252
  100
AcDbEntity
  8
SK1
  100
AcDbLine
  10
62.9
  20
1.20954
  30
0
  11
64.1095
  21
0
  31
0
  0
LINE
  5
253
  100
AcDbEntity
  8
SK1
  100
AcDbLine
  10
62.9
  20
0.962054
  30
0
  11
63.8621
  21
0
  31
0
  0
LINE
  5
254
  100
AcDbEntity
  8
SK1
  100
AcDbLine
  10
62.9
  20
0.714566
  30
0
  11
63.6146
  21
0
  31
0
  0
LINE
  5
255
  100
AcDbEntity
  8
SK1
  100
AcDbLine
  10
62.9
  20
0.467079
  30
0
  11
63.3671
  21
0
  31
0
  0
LINE
  5
256
  100
AcDbEntity
  8
SK1
  100
AcDbLine
  10
62.9
  20
0.219592
  30
0
  11
63.1196
  21
0
  31
0
  0
LINE
  5
257
  100
AcDbEntity
  8
SK1
  100
AcDbLine
  10
62.9
  20
1.70452
  30
0
  11
62.9441
  21
1.74861
  31
0
  0
LINE
  5
258
  100
AcDbEntity
  8
SK1
  100
AcDbLine
  10
62.9
  20
1.45703
  30
0
  11
63.171
  21
1.72802
  31
0
  0
LINE
  5
259
  100
AcDbEntity
  8
SK1
  100
AcDbLine
  10
62.9
  20
1.20954
  30
0
  11
63.3742
  21
1.6837
  31
0
  0
LINE
  5
25a
  100
AcDbEntity
  8
SK1
  100
AcDbLine
  10
62.9
  20
0.962054
  30
0
  11
63.5588
  21
1.62082
  31
0
  0
LINE
  5
25b
  100
AcDbEntity
  8
SK1
  100
AcDbLine
  10
62.9
  20
0.714566
  30
0
  11
63.7271
  21
1.54167
  31
0
  0
LINE
  5
25c
  100
AcDbEntity
  8
SK1
  100
AcDbLine
  10
62.9
  20
0.467079
  30
0
  11
63.881
  21
1.44812
  31
0
  0
LINE
  5
25d
  100
AcDbEntity
  8
SK1
  100
AcDbLine
  10
62.9
  20
0.219592
  30
0
  11
64.0226
  21
1.34216
  31
0
  0
LINE
  5
25e
  100
AcDbEntity
  8
SK1
  100
AcDbLine
  10
62.9279
  20
0
  30
0
  11
64.1508
  21
1.22288
  31
0
  0
LINE
  5
25f
  100
AcDbEntity
  8
SK1
  100
AcDbLine
  10
63.1754
  20
0
  30
0
  11
64.267
  21
1.09157
  31
0
  0
LINE
  5
260
  100
AcDbEntity
  8
SK1
  100
AcDbLine
  10
63.4229
  20
0
  30
0
  11
64.3707
  21
0.947822
  31
0
  0
LINE
  5
261
  100
AcDbEntity
  8
SK1
  100
AcDbLine
  10
63.6704
  20
0
  30
0
  11
64.4605
  21
0.790145
  31
0
  0
LINE
  5
262
  100
AcDbEntity
  8
SK1
  100
AcDbLine
  10
63.9178
  20
0
  30
0
  11
64.5364
  21
0.618517
  31
0
  0
LINE
  5
263
  100
AcDbEntity
  8
SK1
  100
AcDbLine
  10
64.1653
  20
0
  30
0
  11
64.596
  21
0.430696
  31
0
  0
LINE
  5
264
  100
AcDbEntity
  8
SK1
  100
AcDbLine
  10
64.4128
  20
0
  30
0
  11
64.6356
  21
0.222827
  31
0
  0
LINE
  5
265
  100
AcDbEntity
  8
SK1
  100
AcDbLine
  10
62.9
  20
0
  30
0
  11
62.9
  21
1.75
  31
0
  0
LINE
  5
266
  100
AcDbEntity
  8
SK1
  100
AcDbLine
  10
62.9
  20
0
  30
0
  11
64.65
  21
0
  31
0
  0
ARC
  5
267
  100
AcDbEntity
  8
SK1
  100
AcDbCircle
  10
62.9
  20
0
  30
0
  40
1.75
  100
AcDbArc
  50
0
  51
90
  0
ARC
  5
268
  100
AcDbEntity
  8
SK1
  100
AcDbCircle
  10
62.9
  20
0
  30
0
  40
1.75
  100
AcDbArc
  50
90
  51
180
  0
LINE
  5
269
  100
AcDbEntity
  8
SK1
  100
AcDbLine
  10
62.8721
  20
0
  30
0
  11
62.9
  21
-0.027896
  31
0
  0
LINE
  5
26a
  100
AcDbEntity
  8
SK1
  100
AcDbLine
  10
62.6246
  20
0
  30
0
  11
62.9
  21
-0.275383
  31
0
  0
LINE
  5
26b
  100
AcDbEntity
  8
SK1
  100
AcDbLine
  10
62.3771
  20
0
  30
0
  11
62.9
  21
-0.522871
  31
0
  0
LINE
  5
26c
  100
AcDbEntity
  8
SK1
  100
AcDbLine
  10
62.1296
  20
0
  30
0
  11
62.9
  21
-0.770358
  31
0
  0
LINE
  5
26d
  100
AcDbEntity
  8
SK1
  100
AcDbLine
  10
61.8822
  20
0
  30
0
  11
62.9
  21
-1.01785
  31
0
  0
LINE
  5
26e
  100
AcDbEntity
  8
SK1
  100
AcDbLine
  10
61.6347
  20
0
  30
0
  11
62.9
  21
-1.26533
  31
0
  0
LINE
  5
26f
  100
AcDbEntity
  8
SK1
  100
AcDbLine
  10
61.3872
  20
0
  30
0
  11
62.9
  21
-1.51282
  31
0
  0
LINE
  5
270
  100
AcDbEntity
  8
SK1
  100
AcDbLine
  10
61.1503
  20
-0.010642
  30
0
  11
62.8894
  21
-1.74967
  31
0
  0
LINE
  5
271
  100
AcDbEntity
  8
SK1
  100
AcDbLine
  10
61.1736
  20
-0.281429
  30
0
  11
62.6186
  21
-1.72637
  31
0
  0
LINE
  5
272
  100
AcDbEntity
  8
SK1
  100
AcDbLine
  10
61.2639
  20
-0.619147
  30
0
  11
62.2809
  21
-1.63613
  31
0
  0
LINE
  5
273
  100
AcDbEntity
  8
SK1
  100
AcDbLine
  10
61.1514
  20
-0.044098
  30
0
  11
61.1955
  21
0
  31
0
  0
LINE
  5
274
  100
AcDbEntity
  8
SK1
  100
AcDbLine
  10
61.172
  20
-0.270991
  30
0
  11
61.443
  21
0
  31
0
  0
LINE
  5
275
  100
AcDbEntity
  8
SK1
  100
AcDbLine
  10
61.2163
  20
-0.474162
  30
0
  11
61.6905
  21
0
  31
0
  0
LINE
  5
276
  100
AcDbEntity
  8
SK1
  100
AcDbLine
  10
61.2792
  20
-0.658762
  30
0
  11
61.9379
  21
0
  31
0
  0
LINE
  5
277
  100
AcDbEntity
  8
SK1
  100
AcDbLine
  10
61.3583
  20
-0.827105
  30
0
  11
62.1854
  21
0
  31
0
  0
LINE
  5
278
  100
AcDbEntity
  8
SK1
  100
AcDbLine
  10
61.4519
  20
-0.981039
  30
0
  11
62.4329
  21
0
  31
0
  0
LINE
  5
279
  100
AcDbEntity
  8
SK1
  100
AcDbLine
  10
61.5578
  20
-1.12257
  30
0
  11
62.6804
  21
0
  31
0
  0
LINE
  5
27a
  100
AcDbEntity
  8
SK1
  100
AcDbLine
  10
61.6771
  20
-1.25077
  30
0
  11
62.9
  21
-0.027896
  31
0
  0
LINE
  5
27b
  100
AcDbEntity
  8
SK1
  100
AcDbLine
  10
61.8084
  20
-1.36695
  30
0
  11
62.9
  21
-0.275383
  31
0
  0
LINE
  5
27c
  100
AcDbEntity
  8
SK1
  100
AcDbLine
  10
61.9522
  20
-1.47069
  30
0
  11
62.9
  21
-0.522871
  31
0
  0
LINE
  5
27d
  100
AcDbEntity
  8
SK1
  100
AcDbLine
  10
62.1099
  20
-1.5605
  30
0
  11
62.9
  21
-0.770358
  31
0
  0
LINE
  5
27e
  100
AcDbEntity
  8
SK1
  100
AcDbLine
  10
62.2815
  20
-1.63636
  30
0
  11
62.9
  21
-1.01785
  31
0
  0
LINE
  5
27f
  100
AcDbEntity
  8
SK1
  100
AcDbLine
  10
62.4693
  20
-1.69603
  30
0
  11
62.9
  21
-1.26533
  31
0
  0
LINE
  5
280
  100
AcDbEntity
  8
SK1
  100
AcDbLine
  10
62.6772
  20
-1.73565
  30
0
  11
62.9
  21
-1.51282
  31
0
  0
LINE
  5
281
  100
AcDbEntity
  8
SK1
  100
AcDbLine
  10
62.9
  20
0
  30
0
  11
61.15
  21
0
  31
0
  0
LINE
  5
282
  100
AcDbEntity
  8
SK1
  100
AcDbLine
  10
62.9
  20
-1.75
  30
0
  11
62.9
  21
0
  31
0
  0
ARC
  5
283
  100
AcDbEntity
  8
SK1
  100
AcDbCircle
  10
62.9
  20
0
  30
0
  40
1.75
  100
AcDbArc
  50
180
  51
270
  0
ARC
  5
284
  100
AcDbEntity
  8
SK1
  100
AcDbCircle
  10
62.9
  20
0
  30
0
  40
1.75
  100
AcDbArc
  50
270
  51
0
  0
LINE
  5
2ff
  100
AcDbEntity
  8
NOCUT
  100
AcDbLine
  10
72.5
  20
0
  30
0
  11
72.5
  21
2.4
  31
0
  0
LINE
  5
300
  100
AcDbEntity
  8
NOCUT
  100
AcDbLine
  10
72.5
  20
2.4
  30
0
  11
65.58
  21
2.4
  31
0
  0
ARC
  5
301
  100
AcDbEntity
  8
NOCUT
  100
AcDbCircle
  10
66.451557
  20
12.361947
  30
0
  40
10
  100
AcDbArc
  50
255
  51
265
  0
LINE
  5
302
  100
AcDbEntity
  8
NOCUT
  100
AcDbLine
  10
63.863367
  20
2.702689
  30
0
  11
62.9
  21
2.960822
  31
0
  0
LINE
  5
303
  100
AcDbEntity
  8
NOCUT
  100
AcDbLine
  10
62.9
  20
2.960822
  30
0
  11
62.9
  21
0
  31
0
  0
LINE
  5
304
  100
AcDbEntity
  8
NOCUT
  100
AcDbLine
  10
62.9
  20
0
  30
0
  11
72.5
  21
0
  31
0
  0
LINE
  5
305
  100
AcDbEntity
  8
CUT
  100
AcDbLine
  10
80
  20
0
  30
0
  11
80
  21
2
  31
0
  0
ARC
  5
306
  100
AcDbEntity
  8
CUT
  100
AcDbCircle
  10
79.5
  20
2
  30
0
  40
0.5
  100
AcDbArc
  50
0
  51
90
  0
LINE
  5
307
  100
AcDbEntity
  8
CUT
  100
AcDbLine
  10
79.5
  20
2.5
  30
0
  11
72.5
  21
2.5
  31
0
  0
LINE
  5
308
  100
AcDbEntity
  8
CUT
  100
AcDbLine
  10
72.5
  20
2.5
  30
0
  11
72.5
  21
0
  31
0
  0
LINE
  5
309
  100
AcDbEntity
  8
CUT
  100
AcDbLine
  10
72.5
  20
0
  30
0
  11
80
  21
0
  31
0
  0
LINE
  5
30a
  100
AcDbEntity
  8
4
  100
AcDbLine
  10
62.9
  20
0
  30
0
  11
80
  21
0
  31
0
  0
LINE
  5
30b
  100
AcDbEntity
  8
SK4
  100
AcDbLine
  10
-1
  20
0
  30
0
  11
81
  21
0
  31
0
  0
LINE
  5
30c
  100
AcDbEntity
  8
INFTOTAL
  100
AcDbLine
  10
-17.2
  20
20.2
  30
0
  11
97.2
  21
20.2
  31
0
  0
LINE
  5
30d
  100
AcDbEntity
  8
INFTOTAL
  100
AcDbLine
  10
97.2
  20
20.2
  30
0
  11
97.2
  21
-17.561947
  31
0
  0
LINE
  5
30e
  100
AcDbEntity
  8
INFTOTAL
  100
AcDbLine
  10
97.2
  20
-17.561947
  30
0
  11
-17.2
  21
-17.561947
  31
0
  0
LINE
  5
30f
  100
AcDbEntity
  8
INFTOTAL
  100
AcDbLine
  10
-17.2
  20
-17.561947
  30
0
  11
-17.2
  21
20.2
  31
0
  0
ENDSEC
  0
SECTION
  2
OBJECTS
  0
DICTIONARY
  5
310
  330
0
100
AcDbDictionary
281
    1
  3
ACAD_GROUP
  350
311
  0
DICTIONARY
  5
311
102
{ACAD_REACTORS
  330
310
102
}
  330
310
100
AcDbDictionary
281
    1
  0
ENDSEC
  0
EOF
