  0
SECTION
  2
HEADER
  9
$ACADVER
  1
AC1015
  9
$ACADMAINTVER
 70
     6
  9
$DWGCODEPAGE
  3
ANSI_932
  9
$INSBASE
 10
0.0
 20
0.0
 30
0.0
  9
$EXTMIN
 10
-18.84
 20
-25.0
 30
0.0
  9
$EXTMAX
 10
91.0
 20
45.0
 30
0.0
  9
$LIMMIN
 10
0.0
 20
0.0
  9
$LIMMAX
 10
12.0
 20
9.0
  9
$ORTHOMODE
 70
     0
  9
$REGENMODE
 70
     1
  9
$FILLMODE
 70
     1
  9
$QTEXTMODE
 70
     0
  9
$MIRRTEXT
 70
     1
  9
$LTSCALE
 40
1.0
  9
$ATTMODE
 70
     1
  9
$TEXTSIZE
 40
0.2
  9
$TRACEWID
 40
0.05
  9
$TEXTSTYLE
  7
Standard
  9
$CLAYER
  8
0
  9
$CELTYPE
  6
ByBlock
  9
$CECOLOR
 62
   256
  9
$CELTSCALE
 40
1.0
  9
$DISPSILH
 70
     0
  9
$DIMSCALE
 40
1.0
  9
$DIMASZ
 40
0.18
  9
$DIMEXO
 40
0.0625
  9
$DIMDLI
 40
0.38
  9
$DIMRND
 40
0.0
  9
$DIMDLE
 40
0.0
  9
$DIMEXE
 40
0.18
  9
$DIMTP
 40
0.0
  9
$DIMTM
 40
0.0
  9
$DIMTXT
 40
0.18
  9
$DIMCEN
 40
0.09
  9
$DIMTSZ
 40
0.0
  9
$DIMTOL
 70
     0
  9
$DIMLIM
 70
     0
  9
$DIMTIH
 70
     1
  9
$DIMTOH
 70
     1
  9
$DIMSE1
 70
     0
  9
$DIMSE2
 70
     0
  9
$DIMTAD
 70
     0
  9
$DIMZIN
 70
     0
  9
$DIMBLK
  1

  9
$DIMASO
 70
     1
  9
$DIMSHO
 70
     1
  9
$DIMPOST
  1

  9
$DIMAPOST
  1

  9
$DIMALT
 70
     0
  9
$DIMALTD
 70
     2
  9
$DIMALTF
 40
25.4
  9
$DIMLFAC
 40
1.0
  9
$DIMTOFL
 70
     0
  9
$DIMTVP
 40
0.0
  9
$DIMTIX
 70
     0
  9
$DIMSOXD
 70
     0
  9
$DIMSAH
 70
     0
  9
$DIMBLK1
  1

  9
$DIMBLK2
  1

  9
$DIMSTYLE
  2
STANDARD
  9
$DIMCLRD
 70
     0
  9
$DIMCLRE
 70
     0
  9
$DIMCLRT
 70
     0
  9
$DIMTFAC
 40
1.0
  9
$DIMGAP
 40
0.09
  9
$DIMJUST
 70
     0
  9
$DIMSD1
 70
     0
  9
$DIMSD2
 70
     0
  9
$DIMTOLJ
 70
     1
  9
$DIMTZIN
 70
     0
  9
$DIMALTZ
 70
     0
  9
$DIMALTTZ
 70
     0
  9
$DIMUPT
 70
     0
  9
$DIMDEC
 70
     4
  9
$DIMTDEC
 70
     4
  9
$DIMALTU
 70
     2
  9
$DIMALTTD
 70
     2
  9
$DIMTXSTY
  7
Standard
  9
$DIMAUNIT
 70
     0
  9
$DIMADEC
 70
     0
  9
$DIMALTRND
 40
0.0
  9
$DIMAZIN
 70
     0
  9
$DIMDSEP
 70
    46
  9
$DIMATFIT
 70
     3
  9
$DIMFRAC
 70
     0
  9
$DIMLDRBLK
  1

  9
$DIMLUNIT
 70
     2
  9
$DIMLWD
 70
    -2
  9
$DIMLWE
 70
    -2
  9
$DIMTMOVE
 70
     0
  9
$LUNITS
 70
     2
  9
$LUPREC
 70
     4
  9
$SKETCHINC
 40
0.1
  9
$FILLETRAD
 40
0.5
  9
$AUNITS
 70
     0
  9
$AUPREC
 70
     0
  9
$MENU
  1
.
  9
$ELEVATION
 40
0.0
  9
$PELEVATION
 40
0.0
  9
$THICKNESS
 40
0.0
  9
$LIMCHECK
 70
     0
  9
$CHAMFERA
 40
0.0
  9
$CHAMFERB
 40
0.0
  9
$CHAMFERC
 40
0.0
  9
$CHAMFERD
 40
0.0
  9
$SKPOLY
 70
     0
  9
$TDCREATE
 40
2447893.375
  9
$TDUCREATE
 40
0.0
  9
$TDUPDATE
 40
2460710.583049375
  9
$TDUUPDATE
 40
2460710.208049375
  9
$TDINDWG
 40
0.0036007639
  9
$TDUSRTIMER
 40
0.0036007639
  9
$USRTIMER
 70
     1
  9
$ANGBASE
 50
0.0
  9
$ANGDIR
 70
     0
  9
$PDMODE
 70
     0
  9
$PDSIZE
 40
0.0
  9
$PLINEWID
 40
0.0
  9
$SPLFRAME
 70
     0
  9
$SPLINETYPE
 70
     6
  9
$SPLINESEGS
 70
     8
  9
$HANDSEED
  5
106AC68
  9
$SURFTAB1
 70
     6
  9
$SURFTAB2
 70
     6
  9
$SURFTYPE
 70
     6
  9
$SURFU
 70
     6
  9
$SURFV
 70
     6
  9
$UCSBASE
  2

  9
$UCSNAME
  2

  9
$UCSORG
 10
0.0
 20
0.0
 30
0.0
  9
$UCSXDIR
 10
1.0
 20
0.0
 30
0.0
  9
$UCSYDIR
 10
0.0
 20
1.0
 30
0.0
  9
$UCSORTHOREF
  2

  9
$UCSORTHOVIEW
 70
     0
  9
$UCSORGTOP
 10
0.0
 20
0.0
 30
0.0
  9
$UCSORGBOTTOM
 10
0.0
 20
0.0
 30
0.0
  9
$UCSORGLEFT
 10
0.0
 20
0.0
 30
0.0
  9
$UCSORGRIGHT
 10
0.0
 20
0.0
 30
0.0
  9
$UCSORGFRONT
 10
0.0
 20
0.0
 30
0.0
  9
$UCSORGBACK
 10
0.0
 20
0.0
 30
0.0
  9
$PUCSBASE
  2

  9
$PUCSNAME
  2

  9
$PUCSORG
 10
0.0
 20
0.0
 30
0.0
  9
$PUCSXDIR
 10
1.0
 20
0.0
 30
0.0
  9
$PUCSYDIR
 10
0.0
 20
1.0
 30
0.0
  9
$PUCSORTHOREF
  2

  9
$PUCSORTHOVIEW
 70
     0
  9
$PUCSORGTOP
 10
0.0
 20
0.0
 30
0.0
  9
$PUCSORGBOTTOM
 10
0.0
 20
0.0
 30
0.0
  9
$PUCSORGLEFT
 10
0.0
 20
0.0
 30
0.0
  9
$PUCSORGRIGHT
 10
0.0
 20
0.0
 30
0.0
  9
$PUCSORGFRONT
 10
0.0
 20
0.0
 30
0.0
  9
$PUCSORGBACK
 10
0.0
 20
0.0
 30
0.0
  9
$USERI1
 70
     0
  9
$USERI2
 70
     0
  9
$USERI3
 70
     0
  9
$USERI4
 70
     0
  9
$USERI5
 70
     0
  9
$USERR1
 40
0.0
  9
$USERR2
 40
0.0
  9
$USERR3
 40
0.0
  9
$USERR4
 40
0.0
  9
$USERR5
 40
0.0
  9
$WORLDVIEW
 70
     1
  9
$SHADEDGE
 70
     3
  9
$SHADEDIF
 70
    70
  9
$TILEMODE
 70
     1
  9
$MAXACTVP
 70
    64
  9
$PINSBASE
 10
0.0
 20
0.0
 30
0.0
  9
$PLIMCHECK
 70
     0
  9
$PEXTMIN
 10
1.000000000000000E+20
 20
1.000000000000000E+20
 30
1.000000000000000E+20
  9
$PEXTMAX
 10
-1.000000000000000E+20
 20
-1.000000000000000E+20
 30
-1.000000000000000E+20
  9
$PLIMMIN
 10
0.0
 20
0.0
  9
$PLIMMAX
 10
0.0
 20
0.0
  9
$UNITMODE
 70
     0
  9
$VISRETAIN
 70
     1
  9
$PLINEGEN
 70
     0
  9
$PSLTSCALE
 70
     1
  9
$TREEDEPTH
 70
  3020
  9
$CMLSTYLE
  2
Standard
  9
$CMLJUST
 70
     0
  9
$CMLSCALE
 40
1.0
  9
$PROXYGRAPHICS
 70
     1
  9
$MEASUREMENT
 70
     0
  9
$CELWEIGHT
370
    -1
  9
$ENDCAPS
280
     0
  9
$JOINSTYLE
280
     0
  9
$LWDISPLAY
290
     0
  9
$INSUNITS
 70
     0
  9
$HYPERLINKBASE
  1

  9
$STYLESHEET
  1

  9
$XEDIT
290
     1
  9
$CEPSNTYPE
380
     0
  9
$PSTYLEMODE
290
     1
  9
$FINGERPRINTGUID
  2
{036535b6-ca95-49f6-ab3d-ed9761ecb700}
  9
$VERSIONGUID
  2
{FAEB1C32-E019-11D5-929B-00C0DF256EC4}
  9
$EXTNAMES
290
     1
  9
$PSVPSCALE
 40
0.0
  9
$OLESTARTUP
290
     0
  0
ENDSEC
  0
SECTION
  2
CLASSES
  0
CLASS
  1
IMAGEDEF
  2
AcDbRasterImageDef
  3
ISM
 90
        0
280
     0
281
     0
  0
CLASS
  1
IMAGE
  2
AcDbRasterImage
  3
ISM
 90
      127
280
     0
281
     1
  0
CLASS
  1
IMAGEDEF_REACTOR
  2
AcDbRasterImageDefReactor
  3
ISM
 90
        1
280
     0
281
     0
  0
CLASS
  1
ACDBDICTIONARYWDFLT
  2
AcDbDictionaryWithDefault
  3
ObjectDBX Classes
 90
        0
280
     0
281
     0
  0
CLASS
  1
SCALE
  2
AcDbScale
  3
ObjectDBX Classes
 90
     1153
280
     0
281
     0
  0
CLASS
  1
MATERIAL
  2
AcDbMaterial
  3
ObjectDBX Classes
 90
     1153
280
     0
281
     0
  0
CLASS
  1
VISUALSTYLE
  2
AcDbVisualStyle
  3
ObjectDBX Classes
 90
     4095
280
     0
281
     0
  0
CLASS
  1
TABLESTYLE
  2
AcDbTableStyle
  3
ObjectDBX Classes
 90
     4095
280
     0
281
     0
  0
CLASS
  1
MLEADERSTYLE
  2
AcDbMLeaderStyle
  3
ACDB_MLEADERSTYLE_CLASS
 90
     4095
280
     0
281
     0
  0
CLASS
  1
SUN
  2
AcDbSun
  3
SCENEOE
 90
     1153
280
     0
281
     0
  0
CLASS
  1
RASTERVARIABLES
  2
AcDbRasterVariables
  3
ISM
 90
        0
280
     0
281
     0
  0
CLASS
  1
DICTIONARYVAR
  2
AcDbDictionaryVar
  3
ObjectDBX Classes
 90
        0
280
     0
281
     0
  0
CLASS
  1
ACDBPLACEHOLDER
  2
AcDbPlaceHolder
  3
ObjectDBX Classes
 90
        0
280
     0
281
     0
  0
CLASS
  1
LAYOUT
  2
AcDbLayout
  3
ObjectDBX Classes
 90
        0
280
     0
281
     0
  0
ENDSEC
  0
SECTION
  2
TABLES
  0
TABLE
  2
VPORT
  5
2
102
{ACAD_XDICTIONARY
360
106AC2B
102
}
330
0
100
AcDbSymbolTable
 70
     1
  0
VPORT
  5
106AB91
330
2
100
AcDbSymbolTableRecord
100
AcDbViewportTableRecord
  2
*Active
 70
     0
 10
0.0
 20
0.0
 11
1.0
 21
1.0
 12
36.08
 22
10.0
 13
0.0
 23
0.0
 14
0.5
 24
0.5
 15
0.5
 25
0.5
 16
0.0
 26
0.0
 36
1.0
 17
0.0
 27
0.0
 37
0.0
 40
71.4
 41
2.060393258426966
 42
50.0
 43
0.0
 44
0.0
 50
0.0
 51
0.0
 71
    16
 72
   100
 73
     1
 74
     3
 75
     0
 76
     0
 77
     0
 78
     0
281
     0
 65
     1
110
0.0
120
0.0
130
0.0
111
1.0
121
0.0
131
0.0
112
0.0
122
1.0
132
0.0
 79
     0
146
0.0
  0
ENDTAB
  0
TABLE
  2
LTYPE
  5
3
330
0
100
AcDbSymbolTable
 70
     3
  0
LTYPE
  5
4
330
3
100
AcDbSymbolTableRecord
100
AcDbLinetypeTableRecord
  2
ByBlock
 70
     0
  3

 72
    65
 73
     0
 40
0.0
  0
LTYPE
  5
5
330
3
100
AcDbSymbolTableRecord
100
AcDbLinetypeTableRecord
  2
ByLayer
 70
     0
  3

 72
    65
 73
     0
 40
0.0
  0
LTYPE
  5
6
330
3
100
AcDbSymbolTableRecord
100
AcDbLinetypeTableRecord
  2
CONTINUOUS
 70
     0
  3
Solid Line
 72
    65
 73
     0
 40
0.0
  0
LTYPE
  5
7
330
3
100
AcDbSymbolTableRecord
100
AcDbLinetypeTableRecord
  2
DASH
 70
     0
  3
Hidden
 72
    65
 73
     2
 40
2.5
 49
1.5
 74
     0
 49
-1.0
 74
     0
  0
LTYPE
  5
8
330
3
100
AcDbSymbolTableRecord
100
AcDbLinetypeTableRecord
  2
LONGDASHDASH
 70
     0
  3
__ . __
 72
    65
 73
     4
 40
7.0
 49
4.0
 74
     0
 49
-1.0
 74
     0
 49
1.0
 74
     0
 49
-1.0
 74
     0
  0
ENDTAB
  0
TABLE
  2
LAYER
  5
9
330
0
100
AcDbSymbolTable
 70
    11
  0
LAYER
  5
A
330
9
100
AcDbSymbolTableRecord
100
AcDbLayerTableRecord
  2
0
 70
     0
 62
     7
  6
CONTINUOUS
370
    -3
390
106AB96
  0
LAYER
  5
C
330
9
100
AcDbSymbolTableRecord
100
AcDbLayerTableRecord
  2
1
 70
     0
 62
     4
  6
CONTINUOUS
370
    50
390
106AB96
  0
LAYER
  5
D
330
9
100
AcDbSymbolTableRecord
100
AcDbLayerTableRecord
  2
2
 70
     0
 62
     7
  6
CONTINUOUS
370
    25
390
106AB96
  0
LAYER
  5
F
330
9
100
AcDbSymbolTableRecord
100
AcDbLayerTableRecord
  2
4
 70
     0
 62
     2
  6
LONGDASHDASH
370
    25
390
106AB96
  0
LAYER
  5
13
330
9
100
AcDbSymbolTableRecord
100
AcDbLayerTableRecord
  2
SK1
 70
     0
 62
     4
  6
CONTINUOUS
370
    50
390
106AB96
  0
LAYER
  5
14
330
9
100
AcDbSymbolTableRecord
100
AcDbLayerTableRecord
  2
SK2
 70
     0
 62
     7
  6
CONTINUOUS
370
    25
390
106AB96
  0
LAYER
  5
16
330
9
100
AcDbSymbolTableRecord
100
AcDbLayerTableRecord
  2
SK4
 70
     0
 62
     2
  6
LONGDASHDASH
370
    25
390
106AB96
  0
LAYER
  5
21
330
9
100
AcDbSymbolTableRecord
100
AcDbLayerTableRecord
  2
NOCUT
 70
     0
 62
     7
  6
CONTINUOUS
370
    25
390
106AB96
  0
LAYER
  5
22
330
9
100
AcDbSymbolTableRecord
100
AcDbLayerTableRecord
  2
CUT
 70
     0
 62
     1
  6
CONTINUOUS
370
    25
390
106AB96
  0
LAYER
  5
26
330
9
100
AcDbSymbolTableRecord
100
AcDbLayerTableRecord
  2
INFTOTAL
 70
     0
 62
     9
  6
CONTINUOUS
370
    18
390
106AB96
  0
LAYER
  5
106ABE3
330
9
100
AcDbSymbolTableRecord
100
AcDbLayerTableRecord
  2
Defpoints
 70
     0
 62
     7
  6
CONTINUOUS
290
     0
370
    -3
390
106AB96
  0
ENDTAB
  0
TABLE
  2
STYLE
  5
27
330
0
100
AcDbSymbolTable
 70
     2
  0
STYLE
  5
28
330
27
100
AcDbSymbolTableRecord
100
AcDbTextStyleTableRecord
  2
Monospac821 BT
 70
     0
 40
3.5
 41
1.0
 50
0.0
 71
     0
 42
3.0
  3

  4

1001
ACAD
1000
Monospac821 BT
1071
      256
  0
STYLE
  5
106AB90
330
27
100
AcDbSymbolTableRecord
100
AcDbTextStyleTableRecord
  2
Standard
 70
     0
 40
0.0
 41
1.0
 50
0.0
 71
     0
 42
0.2
  3
txt
  4

  0
ENDTAB
  0
TABLE
  2
VIEW
  5
29
330
0
100
AcDbSymbolTable
 70
     0
  0
ENDTAB
  0
TABLE
  2
UCS
  5
2A
330
0
100
AcDbSymbolTable
 70
     0
  0
ENDTAB
  0
TABLE
  2
APPID
  5
2B
330
0
100
AcDbSymbolTable
 70
     5
  0
APPID
  5
2C
330
2B
100
AcDbSymbolTableRecord
100
AcDbRegAppTableRecord
  2
ACAD
 70
     0
  0
APPID
  5
106AC1E
330
2B
100
AcDbSymbolTableRecord
100
AcDbRegAppTableRecord
  2
FX_DIMP_FAV_VERSION
 70
     0
  0
APPID
  5
106AC29
330
2B
100
AcDbSymbolTableRecord
100
AcDbRegAppTableRecord
  2
ACAD_DSTYLE_DIMFLIPARROW_SYMBOL
 70
     0
  0
APPID
  5
106AC2A
330
2B
100
AcDbSymbolTableRecord
100
AcDbRegAppTableRecord
  2
ACAD_DSTYLE_DIMFLIPARROW_WHICH_SYMBOL
 70
     0
  0
APPID
  5
106AC65
330
2B
100
AcDbSymbolTableRecord
100
AcDbRegAppTableRecord
  2
ACAD_MLEADERVER
 70
     0
  0
ENDTAB
  0
TABLE
  2
DIMSTYLE
  5
2D
330
0
100
AcDbSymbolTable
 70
     1
100
AcDbDimStyleTable
  0
DIMSTYLE
105
2E
102
{ACAD_REACTORS
330
106AC00
330
106AC10
102
}
330
2D
100
AcDbSymbolTableRecord
100
AcDbDimStyleTableRecord
  2
STANDARD
 70
     0
 41
3.0
 42
0.5
 44
1.0
 73
     0
 77
     1
 78
     1
140
3.5
141
2.5
143
0.03937007874
147
0.8
172
     1
174
     1
178
     0
179
     1
271
     2
279
     1
284
     1
340
28
  0
ENDTAB
  0
TABLE
  2
BLOCK_RECORD
  5
2F
330
0
100
AcDbSymbolTable
 70
    11
  0
BLOCK_RECORD
  5
30
102
{ACAD_XDICTIONARY
360
106AC1F
102
}
330
2F
100
AcDbSymbolTableRecord
100
AcDbBlockTableRecord
  2
*Model_Space
340
106AB98
  0
BLOCK_RECORD
  5
31
330
2F
100
AcDbSymbolTableRecord
100
AcDbBlockTableRecord
  2
*Paper_Space
340
106AB99
  0
BLOCK_RECORD
  5
50B
330
2F
100
AcDbSymbolTableRecord
100
AcDbBlockTableRecord
  2
*D0
340
0
  0
BLOCK_RECORD
  5
519
330
2F
100
AcDbSymbolTableRecord
100
AcDbBlockTableRecord
  2
*D1
340
0
  0
BLOCK_RECORD
  5
527
330
2F
100
AcDbSymbolTableRecord
100
AcDbBlockTableRecord
  2
*D2
340
0
  0
BLOCK_RECORD
  5
537
330
2F
100
AcDbSymbolTableRecord
100
AcDbBlockTableRecord
  2
*D3
340
0
  0
BLOCK_RECORD
  5
545
330
2F
100
AcDbSymbolTableRecord
100
AcDbBlockTableRecord
  2
*D4
340
0
  0
BLOCK_RECORD
  5
553
330
2F
100
AcDbSymbolTableRecord
100
AcDbBlockTableRecord
  2
*D5
340
0
  0
BLOCK_RECORD
  5
55D
330
2F
100
AcDbSymbolTableRecord
100
AcDbBlockTableRecord
  2
*D6
340
0
  0
BLOCK_RECORD
  5
56B
330
2F
100
AcDbSymbolTableRecord
100
AcDbBlockTableRecord
  2
*D7
340
0
  0
BLOCK_RECORD
  5
579
330
2F
100
AcDbSymbolTableRecord
100
AcDbBlockTableRecord
  2
*D8
340
0
  0
BLOCK_RECORD
  5
106AC01
330
2F
100
AcDbSymbolTableRecord
100
AcDbBlockTableRecord
  2
*D10
340
0
  0
BLOCK_RECORD
  5
106AC11
330
2F
100
AcDbSymbolTableRecord
100
AcDbBlockTableRecord
  2
*D11
340
0
  0
ENDTAB
  0
ENDSEC
  0
SECTION
  2
BLOCKS
  0
BLOCK
  5
32
330
30
100
AcDbEntity
  8
0
100
AcDbBlockBegin
  2
*Model_Space
 70
     0
 10
0.0
 20
0.0
 30
0.0
  3
*Model_Space
  1

  0
ENDBLK
  5
33
330
30
100
AcDbEntity
  8
0
100
AcDbBlockEnd
  0
BLOCK
  5
34
330
31
100
AcDbEntity
 67
     1
  8
0
100
AcDbBlockBegin
  2
*Paper_Space
 70
     0
 10
0.0
 20
0.0
 30
0.0
  3
*Paper_Space
  1

  0
ENDBLK
  5
35
330
31
100
AcDbEntity
 67
     1
  8
0
100
AcDbBlockEnd
  0
BLOCK
  5
509
330
50B
100
AcDbEntity
  8
SK2
100
AcDbBlockBegin
  2
*D0
 70
     1
 10
0.0
 20
0.0
 30
0.0
  3
*D0
  1

  0
LINE
  5
50C
330
50B
100
AcDbEntity
  8
SK2
 62
     0
370
    -2
100
AcDbLine
 10
0.0
 20
2.975
 30
0.0
 11
0.0
 21
39.0
 31
0.0
  0
LINE
  5
50D
330
50B
100
AcDbEntity
  8
SK2
 62
     0
370
    -2
100
AcDbLine
 10
50.8
 20
0.5
 30
0.0
 11
50.8
 21
39.0
 31
0.0
  0
LINE
  5
50E
330
50B
100
AcDbEntity
  8
SK2
 62
     0
370
    -2
100
AcDbLine
 10
3.0
 20
38.0
 30
0.0
 11
47.8
 21
38.0
 31
0.0
  0
SOLID
  5
50F
330
50B
100
AcDbEntity
  8
SK2
 62
     0
100
AcDbTrace
 10
3.0
 20
38.5
 30
0.0
 11
3.0
 21
37.5
 31
0.0
 12
0.0
 22
38.0
 32
0.0
 13
0.0
 23
38.0
 33
0.0
  0
SOLID
  5
510
330
50B
100
AcDbEntity
  8
SK2
 62
     0
100
AcDbTrace
 10
47.8
 20
37.5
 30
0.0
 11
47.8
 21
38.5
 31
0.0
 12
50.8
 22
38.0
 32
0.0
 13
50.8
 23
38.0
 33
0.0
  0
MTEXT
  5
511
330
50B
100
AcDbEntity
  8
SK2
  6
ByBlock
 62
     0
100
AcDbMText
 10
25.4
 20
40.61125
 30
0.0
 40
3.5
 41
0.0
 71
     5
 72
     1
  1
\A1;50.8
 73
     1
 44
1.0
  0
POINT
  5
512
330
50B
100
AcDbEntity
  8
Defpoints
 62
     0
100
AcDbPoint
 10
0.0
 20
2.475
 30
0.0
  0
POINT
  5
513
330
50B
100
AcDbEntity
  8
Defpoints
 62
     0
100
AcDbPoint
 10
50.8
 20
0.0
 30
0.0
  0
POINT
  5
514
330
50B
100
AcDbEntity
  8
Defpoints
 62
     0
100
AcDbPoint
 10
50.8
 20
38.0
 30
0.0
  0
ENDBLK
  5
515
330
50B
100
AcDbEntity
  8
SK2
100
AcDbBlockEnd
  0
BLOCK
  5
517
330
519
100
AcDbEntity
  8
SK2
100
AcDbBlockBegin
  2
*D1
 70
     1
 10
0.0
 20
0.0
 30
0.0
  3
*D1
  1

  0
LINE
  5
51A
330
519
100
AcDbEntity
  8
2
 62
     0
370
    -2
100
AcDbLine
 10
49.7125
 20
1.5875
 30
0.0
 11
89.0
 21
1.587499999999999
 31
0.0
  0
LINE
  5
51B
330
519
100
AcDbEntity
  8
2
 62
     0
370
    -2
100
AcDbLine
 10
49.7125
 20
-1.5875
 30
0.0
 11
89.0
 21
-1.587500000000002
 31
0.0
  0
LINE
  5
51C
330
519
100
AcDbEntity
  8
2
 62
     0
370
    -2
100
AcDbLine
 10
88.0
 20
1.587499999999999
 30
0.0
 11
88.0
 21
26.91499999999998
 31
0.0
  0
LINE
  5
51D
330
519
100
AcDbEntity
  8
2
 62
     0
370
    -2
100
AcDbLine
 10
88.0
 20
1.587499999999999
 30
0.0
 11
88.0
 21
-1.587500000000002
 31
0.0
  0
LINE
  5
51E
330
519
100
AcDbEntity
  8
2
 62
     0
370
    -2
100
AcDbLine
 10
88.0
 20
4.587499999999999
 30
0.0
 11
88.0
 21
7.587499999999999
 31
0.0
  0
LINE
  5
51F
330
519
100
AcDbEntity
  8
2
 62
     0
370
    -2
100
AcDbLine
 10
88.0
 20
-4.587500000000002
 30
0.0
 11
88.0
 21
-7.587500000000002
 31
0.0
  0
SOLID
  5
520
330
519
100
AcDbEntity
  8
2
 62
     0
100
AcDbTrace
 10
87.5
 20
4.587499999999999
 30
0.0
 11
88.5
 21
4.587499999999999
 31
0.0
 12
88.0
 22
1.587499999999999
 32
0.0
 13
88.0
 23
1.587499999999999
 33
0.0
  0
SOLID
  5
521
330
519
100
AcDbEntity
  8
2
 62
     0
100
AcDbTrace
 10
88.5
 20
-4.587500000000002
 30
0.0
 11
87.5
 21
-4.587500000000002
 31
0.0
 12
88.0
 22
-1.587500000000002
 32
0.0
 13
88.0
 23
-1.587500000000002
 33
0.0
  0
MTEXT
  5
522
330
519
100
AcDbEntity
  8
2
  6
ByBlock
 62
     0
100
AcDbMText
 10
85.338
 20
17.25124999999999
 30
0.0
 40
3.5
 41
0.0
 71
     5
 72
     1
  1
\A1;%%c3.175
 11
0.0
 21
1.0
 31
0.0
 73
     1
 44
1.0
  0
POINT
  5
106ABE4
330
519
100
AcDbEntity
  8
Defpoints
 62
     0
100
AcDbPoint
 10
49.2125
 20
1.5875
 30
0.0
  0
POINT
  5
106ABE5
330
519
100
AcDbEntity
  8
Defpoints
 62
     0
100
AcDbPoint
 10
49.2125
 20
-1.5875
 30
0.0
  0
POINT
  5
106ABEE
330
519
100
AcDbEntity
  8
Defpoints
 62
     0
100
AcDbPoint
 10
88.0
 20
-1.587500000000002
 30
0.0
  0
ENDBLK
  5
523
330
519
100
AcDbEntity
  8
SK2
100
AcDbBlockEnd
  0
BLOCK
  5
525
330
527
100
AcDbEntity
  8
SK2
100
AcDbBlockBegin
  2
*D2
 70
     1
 10
0.0
 20
0.0
 30
0.0
  3
*D2
  1

  0
LINE
  5
528
330
527
100
AcDbEntity
  8
SK2
100
AcDbLine
 10
24.201405700128
 20
5.24555236082
 30
0.0
 11
31.928812310441
 21
3.175
 31
0.0
  0
LINE
  5
529
330
527
100
AcDbEntity
  8
SK2
100
AcDbLine
 10
31.128812310441
 20
3.175
 30
0.0
 11
23.928812310441
 21
3.175
 31
0.0
  0
ARC
  5
52A
330
527
100
AcDbEntity
  8
SK2
100
AcDbCircle
 10
31.928812310441
 20
3.175
 30
0.0
 40
6.0
100
AcDbArc
 50
102.861967381816
 51
180.0
  0
SOLID
  5
52B
330
527
100
AcDbEntity
  8
SK2
100
AcDbTrace
 10
26.133257352706
 20
4.727914270615
 30
0.0
 11
25.806941872156
 21
2.249302117181
 31
0.0
 12
25.176548771794
 22
2.418215439337
 32
0.0
 13
25.176548771794
 23
2.418215439337
 33
0.0
  0
SOLID
  5
52C
330
527
100
AcDbEntity
  8
SK2
100
AcDbTrace
 10
25.928812310441
 20
3.175
 30
0.0
 11
25.602496829891
 21
5.653612153435
 31
0.0
 12
26.255127790991
 22
5.653612153435
 32
0.0
 13
26.255127790991
 23
5.653612153435
 33
0.0
  0
MTEXT
  5
52D
330
527
100
AcDbEntity
  8
SK2
100
AcDbMText
 10
26.133257352706
 20
4.727914270615
 30
0.0
 40
3.5
 41
0.0
 71
     8
 72
     1
  1
15°
 11
0.258819045103
 21
0.965925826289
 31
0.0
 73
     1
 44
1.0
  0
POINT
  5
52E
330
527
100
AcDbEntity
  8
SK2
 62
     0
100
AcDbPoint
 10
26.029282865057
 20
4.268413152953
 30
0.0
  0
POINT
  5
52F
330
527
100
AcDbEntity
  8
SK2
 62
     0
100
AcDbPoint
 10
31.928812310441
 20
3.175
 30
0.0
  0
POINT
  5
530
330
527
100
AcDbEntity
  8
SK2
 62
     0
100
AcDbPoint
 10
24.201405700128
 20
5.24555236082
 30
0.0
  0
POINT
  5
531
330
527
100
AcDbEntity
  8
SK2
 62
     0
100
AcDbPoint
 10
31.928812310441
 20
3.175
 30
0.0
  0
POINT
  5
532
330
527
100
AcDbEntity
  8
SK2
 62
     0
100
AcDbPoint
 10
31.128812310441
 20
3.175
 30
0.0
  0
ENDBLK
  5
533
330
527
100
AcDbEntity
  8
SK2
100
AcDbBlockEnd
  0
BLOCK
  5
535
330
537
100
AcDbEntity
  8
SK2
100
AcDbBlockBegin
  2
*D3
 70
     1
 10
0.0
 20
0.0
 30
0.0
  3
*D3
  1

  0
LINE
  5
538
330
537
100
AcDbEntity
  8
SK2
 62
     0
370
    -2
100
AcDbLine
 10
0.2
 20
-3.175
 30
0.0
 11
-9.0
 21
-3.175000000000003
 31
0.0
  0
LINE
  5
539
330
537
100
AcDbEntity
  8
SK2
 62
     0
370
    -2
100
AcDbLine
 10
0.2
 20
3.175
 30
0.0
 11
-9.0
 21
3.174999999999998
 31
0.0
  0
LINE
  5
53A
330
537
100
AcDbEntity
  8
SK2
 62
     0
370
    -2
100
AcDbLine
 10
-8.0
 20
3.174999999999998
 30
0.0
 11
-8.0
 21
25.4715
 31
0.0
  0
LINE
  5
53B
330
537
100
AcDbEntity
  8
SK2
 62
     0
370
    -2
100
AcDbLine
 10
-8.0
 20
-3.175000000000002
 30
0.0
 11
-8.0
 21
3.174999999999998
 31
0.0
  0
LINE
  5
53C
330
537
100
AcDbEntity
  8
SK2
 62
     0
370
    -2
100
AcDbLine
 10
-8.0
 20
-6.175000000000002
 30
0.0
 11
-8.0
 21
-9.175000000000002
 31
0.0
  0
LINE
  5
53D
330
537
100
AcDbEntity
  8
SK2
 62
     0
370
    -2
100
AcDbLine
 10
-8.0
 20
6.174999999999999
 30
0.0
 11
-8.0
 21
9.174999999999999
 31
0.0
  0
SOLID
  5
53E
330
537
100
AcDbEntity
  8
SK2
 62
     0
100
AcDbTrace
 10
-7.5
 20
-6.175000000000002
 30
0.0
 11
-8.5
 21
-6.175000000000002
 31
0.0
 12
-8.0
 22
-3.175000000000002
 32
0.0
 13
-8.0
 23
-3.175000000000002
 33
0.0
  0
SOLID
  5
53F
330
537
100
AcDbEntity
  8
SK2
 62
     0
100
AcDbTrace
 10
-8.5
 20
6.174999999999999
 30
0.0
 11
-7.5
 21
6.174999999999999
 31
0.0
 12
-8.0
 22
3.174999999999998
 32
0.0
 13
-8.0
 23
3.174999999999998
 33
0.0
  0
MTEXT
  5
540
330
537
100
AcDbEntity
  8
SK2
  6
ByBlock
 62
     0
100
AcDbMText
 10
-10.662
 20
17.32325
 30
0.0
 40
3.5
 41
0.0
 71
     5
 72
     1
  1
\A1;%%c6.35
 11
0.0
 21
1.0
 31
0.0
 73
     1
 44
1.0
  0
POINT
  5
106ABE6
330
537
100
AcDbEntity
  8
Defpoints
 62
     0
100
AcDbPoint
 10
0.7
 20
-3.175
 30
0.0
  0
POINT
  5
106ABE7
330
537
100
AcDbEntity
  8
Defpoints
 62
     0
100
AcDbPoint
 10
0.7
 20
3.175
 30
0.0
  0
POINT
  5
106ABEC
330
537
100
AcDbEntity
  8
Defpoints
 62
     0
100
AcDbPoint
 10
-8.0
 20
3.174999999999999
 30
0.0
  0
ENDBLK
  5
541
330
537
100
AcDbEntity
  8
SK2
100
AcDbBlockEnd
  0
BLOCK
  5
543
330
545
100
AcDbEntity
  8
SK2
100
AcDbBlockBegin
  2
*D4
 70
     1
 10
0.0
 20
0.0
 30
0.0
  3
*D4
  1

  0
LINE
  5
546
330
545
100
AcDbEntity
  8
SK2
 62
     0
370
    -2
100
AcDbLine
 10
31.7
 20
3.675
 30
0.0
 11
31.7
 21
31.0
 31
0.0
  0
LINE
  5
547
330
545
100
AcDbEntity
  8
SK2
 62
     0
370
    -2
100
AcDbLine
 10
0.0
 20
2.975
 30
0.0
 11
0.0
 21
31.0
 31
0.0
  0
LINE
  5
548
330
545
100
AcDbEntity
  8
SK2
 62
     0
370
    -2
100
AcDbLine
 10
28.7
 20
30.0
 30
0.0
 11
3.0
 21
30.0
 31
0.0
  0
SOLID
  5
549
330
545
100
AcDbEntity
  8
SK2
 62
     0
100
AcDbTrace
 10
28.7
 20
29.5
 30
0.0
 11
28.7
 21
30.5
 31
0.0
 12
31.7
 22
30.0
 32
0.0
 13
31.7
 23
30.0
 33
0.0
  0
SOLID
  5
54A
330
545
100
AcDbEntity
  8
SK2
 62
     0
100
AcDbTrace
 10
3.0
 20
30.5
 30
0.0
 11
3.0
 21
29.5
 31
0.0
 12
0.0
 22
30.0
 32
0.0
 13
0.0
 23
30.0
 33
0.0
  0
MTEXT
  5
54B
330
545
100
AcDbEntity
  8
SK2
  6
ByBlock
 62
     0
100
AcDbMText
 10
15.85
 20
32.61125
 30
0.0
 40
3.5
 41
0.0
 71
     5
 72
     1
  1
\A1;31.7
 73
     1
 44
1.0
  0
POINT
  5
54C
330
545
100
AcDbEntity
  8
Defpoints
 62
     0
100
AcDbPoint
 10
31.7
 20
3.175
 30
0.0
  0
POINT
  5
54D
330
545
100
AcDbEntity
  8
Defpoints
 62
     0
100
AcDbPoint
 10
0.0
 20
2.475
 30
0.0
  0
POINT
  5
54E
330
545
100
AcDbEntity
  8
Defpoints
 62
     0
100
AcDbPoint
 10
0.0
 20
30.0
 30
0.0
  0
ENDBLK
  5
54F
330
545
100
AcDbEntity
  8
SK2
100
AcDbBlockEnd
  0
BLOCK
  5
551
330
553
100
AcDbEntity
  8
2
100
AcDbBlockBegin
  2
*D5
 70
     1
 10
0.0
 20
0.0
 30
0.0
  3
*D5
  1

  0
LINE
  5
554
330
553
100
AcDbEntity
  8
2
 62
     0
370
    -2
100
AcDbLine
 10
74.495
 20
7.0
 30
0.0
 11
56.21249999999999
 21
7.0
 31
0.0
  0
LINE
  5
555
330
553
100
AcDbEntity
  8
2
 62
     0
370
    -2
100
AcDbLine
 10
56.21249999999999
 20
7.0
 30
0.0
 11
52.45635235869364
 21
3.243852358693644
 31
0.0
  0
MTEXT
  5
556
330
553
100
AcDbEntity
  8
2
  6
ByBlock
 62
     0
100
AcDbMText
 10
65.75375
 20
9.61125
 30
0.0
 40
3.5
 41
0.0
 71
     5
 72
     1
  1
\A1;R1.588
 73
     1
 44
1.0
  0
LINE
  5
557
330
553
100
AcDbEntity
  8
2
 62
     0
370
    -2
100
AcDbLine
 10
49.2125
 20
0.0
 30
0.0
 11
50.335032015134
 21
1.122532015134
 31
0.0
  0
SOLID
  5
558
330
553
100
AcDbEntity
  8
2
 62
     0
100
AcDbTrace
 10
52.10279896810036
 20
3.597405749286917
 30
0.0
 11
52.80990574928691
 21
2.89029896810037
 31
0.0
 12
50.335032015134
 22
1.122532015134
 32
0.0
 13
50.335032015134
 23
1.122532015134
 33
0.0
  0
POINT
  5
106ABEF
330
553
100
AcDbEntity
  8
Defpoints
 62
     0
100
AcDbPoint
 10
50.335032015134
 20
1.122532015134
 30
0.0
  0
POINT
  5
106ABF0
330
553
100
AcDbEntity
  8
Defpoints
 62
     0
100
AcDbPoint
 10
49.2125
 20
0.0
 30
0.0
  0
ENDBLK
  5
559
330
553
100
AcDbEntity
  8
2
100
AcDbBlockEnd
  0
BLOCK
  5
55B
330
55D
100
AcDbEntity
  8
2
100
AcDbBlockBegin
  2
*D6
 70
     1
 10
0.0
 20
0.0
 30
0.0
  3
*D6
  1

  0
LINE
  5
55E
330
55D
100
AcDbEntity
  8
2
 62
     0
370
    -2
100
AcDbLine
 10
50.8
 20
-0.5
 30
0.0
 11
50.8
 21
-16.0
 31
0.0
  0
LINE
  5
55F
330
55D
100
AcDbEntity
  8
2
 62
     0
370
    -2
100
AcDbLine
 10
47.6
 20
-2.0875
 30
0.0
 11
47.6
 21
-16.0
 31
0.0
  0
LINE
  5
560
330
55D
100
AcDbEntity
  8
2
 62
     0
370
    -2
100
AcDbLine
 10
50.8
 20
-15.0
 30
0.0
 11
66.90499999999999
 21
-15.0
 31
0.0
  0
LINE
  5
561
330
55D
100
AcDbEntity
  8
2
 62
     0
370
    -2
100
AcDbLine
 10
50.8
 20
-15.0
 30
0.0
 11
47.6
 21
-15.0
 31
0.0
  0
LINE
  5
562
330
55D
100
AcDbEntity
  8
2
 62
     0
370
    -2
100
AcDbLine
 10
53.8
 20
-15.0
 30
0.0
 11
56.8
 21
-15.0
 31
0.0
  0
LINE
  5
563
330
55D
100
AcDbEntity
  8
2
 62
     0
370
    -2
100
AcDbLine
 10
44.6
 20
-15.0
 30
0.0
 11
41.6
 21
-15.0
 31
0.0
  0
SOLID
  5
564
330
55D
100
AcDbEntity
  8
2
 62
     0
100
AcDbTrace
 10
53.8
 20
-14.5
 30
0.0
 11
53.8
 21
-15.5
 31
0.0
 12
50.8
 22
-15.0
 32
0.0
 13
50.8
 23
-15.0
 33
0.0
  0
SOLID
  5
565
330
55D
100
AcDbEntity
  8
2
 62
     0
100
AcDbTrace
 10
44.6
 20
-15.5
 30
0.0
 11
44.6
 21
-14.5
 31
0.0
 12
47.6
 22
-15.0
 32
0.0
 13
47.6
 23
-15.0
 33
0.0
  0
MTEXT
  5
566
330
55D
100
AcDbEntity
  8
2
  6
ByBlock
 62
     0
100
AcDbMText
 10
61.85249999999999
 20
-12.38875
 30
0.0
 40
3.5
 41
0.0
 71
     5
 72
     1
  1
\A1;3.2
 73
     1
 44
1.0
  0
POINT
  5
106ABE8
330
55D
100
AcDbEntity
  8
Defpoints
 62
     0
100
AcDbPoint
 10
50.8
 20
0.0
 30
0.0
  0
POINT
  5
106ABE9
330
55D
100
AcDbEntity
  8
Defpoints
 62
     0
100
AcDbPoint
 10
47.6
 20
-1.5875
 30
0.0
  0
POINT
  5
106ABF1
330
55D
100
AcDbEntity
  8
Defpoints
 62
     0
100
AcDbPoint
 10
47.6
 20
-15.0
 30
0.0
  0
ENDBLK
  5
567
330
55D
100
AcDbEntity
  8
2
100
AcDbBlockEnd
  0
BLOCK
  5
569
330
56B
100
AcDbEntity
  8
2
100
AcDbBlockBegin
  2
*D7
 70
     1
 10
0.0
 20
0.0
 30
0.0
  3
*D7
  1

  0
LINE
  5
56C
330
56B
100
AcDbEntity
  8
2
 62
     0
370
    -2
100
AcDbLine
 10
43.1
 20
1.514999999999546
 30
0.0
 11
43.1
 21
23.794
 31
0.0
  0
LINE
  5
56D
330
56B
100
AcDbEntity
  8
2
 62
     0
370
    -2
100
AcDbLine
 10
43.1
 20
-1.515000000000001
 30
0.0
 11
43.1
 21
1.514999999999546
 31
0.0
  0
LINE
  5
56E
330
56B
100
AcDbEntity
  8
2
 62
     0
370
    -2
100
AcDbLine
 10
43.1
 20
-4.515000000000001
 30
0.0
 11
43.1
 21
-7.515000000000001
 31
0.0
  0
LINE
  5
56F
330
56B
100
AcDbEntity
  8
2
 62
     0
370
    -2
100
AcDbLine
 10
43.1
 20
4.514999999999546
 30
0.0
 11
43.1
 21
7.514999999999546
 31
0.0
  0
SOLID
  5
570
330
56B
100
AcDbEntity
  8
2
 62
     0
100
AcDbTrace
 10
43.6
 20
-4.515000000000001
 30
0.0
 11
42.6
 21
-4.515000000000001
 31
0.0
 12
43.1
 22
-1.515000000000001
 32
0.0
 13
43.1
 23
-1.515000000000001
 33
0.0
  0
SOLID
  5
571
330
56B
100
AcDbEntity
  8
2
 62
     0
100
AcDbTrace
 10
42.6
 20
4.514999999999546
 30
0.0
 11
43.6
 21
4.514999999999546
 31
0.0
 12
43.1
 22
1.514999999999546
 32
0.0
 13
43.1
 23
1.514999999999546
 33
0.0
  0
MTEXT
  5
572
330
56B
100
AcDbEntity
  8
2
  6
ByBlock
 62
     0
100
AcDbMText
 10
40.438
 20
15.6545
 30
0.0
 40
3.5
 41
0.0
 71
     5
 72
     1
  1
\A1;%%c3.03
 11
0.0
 21
1.0
 31
0.0
 73
     1
 44
1.0
  0
POINT
  5
573
330
56B
100
AcDbEntity
  8
Defpoints
 62
     0
100
AcDbPoint
 10
38.711
 20
-1.515
 30
0.0
  0
POINT
  5
574
330
56B
100
AcDbEntity
  8
Defpoints
 62
     0
100
AcDbPoint
 10
38.71100000000042
 20
1.514999999999546
 30
0.0
  0
POINT
  5
106ABEA
330
56B
100
AcDbEntity
  8
Defpoints
 62
     0
100
AcDbPoint
 10
43.1555
 20
1.514999999999546
 30
0.0
  0
ENDBLK
  5
575
330
56B
100
AcDbEntity
  8
2
100
AcDbBlockEnd
  0
BLOCK
  5
577
330
579
100
AcDbEntity
  8
2
100
AcDbBlockBegin
  2
*D8
 70
     1
 10
0.0
 20
0.0
 30
0.0
  3
*D8
  1

  0
LINE
  5
57A
330
579
100
AcDbEntity
  8
2
 62
     0
370
    -2
100
AcDbLine
 10
50.8
 20
-0.5
 30
0.0
 11
50.8
 21
-24.0
 31
0.0
  0
LINE
  5
57B
330
579
100
AcDbEntity
  8
2
 62
     0
370
    -2
100
AcDbLine
 10
38.09970935312
 20
-2.0875
 30
0.0
 11
38.09970935312
 21
-24.0
 31
0.0
  0
LINE
  5
57C
330
579
100
AcDbEntity
  8
2
 62
     0
370
    -2
100
AcDbLine
 10
38.09970935312
 20
-23.0
 30
0.0
 11
22.28570935312001
 21
-23.0
 31
0.0
  0
LINE
  5
57D
330
579
100
AcDbEntity
  8
2
 62
     0
370
    -2
100
AcDbLine
 10
50.8
 20
-23.0
 30
0.0
 11
38.09970935312
 21
-23.0
 31
0.0
  0
LINE
  5
57E
330
579
100
AcDbEntity
  8
2
 62
     0
370
    -2
100
AcDbLine
 10
53.8
 20
-23.0
 30
0.0
 11
56.8
 21
-23.0
 31
0.0
  0
LINE
  5
57F
330
579
100
AcDbEntity
  8
2
 62
     0
370
    -2
100
AcDbLine
 10
35.09970935312
 20
-23.0
 30
0.0
 11
32.09970935312
 21
-23.0
 31
0.0
  0
SOLID
  5
580
330
579
100
AcDbEntity
  8
2
 62
     0
100
AcDbTrace
 10
53.8
 20
-22.5
 30
0.0
 11
53.8
 21
-23.5
 31
0.0
 12
50.8
 22
-23.0
 32
0.0
 13
50.8
 23
-23.0
 33
0.0
  0
SOLID
  5
581
330
579
100
AcDbEntity
  8
2
 62
     0
100
AcDbTrace
 10
35.09970935312
 20
-23.5
 30
0.0
 11
35.09970935312
 21
-22.5
 31
0.0
 12
38.09970935312
 22
-23.0
 32
0.0
 13
38.09970935312
 23
-23.0
 33
0.0
  0
MTEXT
  5
582
330
579
100
AcDbEntity
  8
2
  6
ByBlock
 62
     0
100
AcDbMText
 10
28.69270935312
 20
-20.4395
 30
0.0
 40
3.5
 41
0.0
 71
     5
 72
     1
  1
\A1;12.7
 73
     1
 44
1.0
  0
POINT
  5
106ABF2
330
579
100
AcDbEntity
  8
Defpoints
 62
     0
100
AcDbPoint
 10
50.8
 20
0.0
 30
0.0
  0
POINT
  5
106ABF3
330
579
100
AcDbEntity
  8
Defpoints
 62
     0
100
AcDbPoint
 10
38.09970935312
 20
-1.5875
 30
0.0
  0
POINT
  5
106ABF4
330
579
100
AcDbEntity
  8
Defpoints
 62
     0
100
AcDbPoint
 10
38.09970935312
 20
-23.0
 30
0.0
  0
ENDBLK
  5
583
330
579
100
AcDbEntity
  8
2
100
AcDbBlockEnd
  0
BLOCK
  5
106AC02
330
106AC01
100
AcDbEntity
  8
SK2
100
AcDbBlockBegin
  2
*D10
 70
     1
 10
0.0
 20
0.0
 30
0.0
  3
*D10
  1

  0
LINE
  5
106AC03
330
106AC01
100
AcDbEntity
  8
SK2
 62
     0
370
    -2
100
AcDbLine
 10
31.7
 20
1.2
 30
0.0
 11
31.7
 21
28.525
 31
0.0
  0
LINE
  5
106AC04
330
106AC01
100
AcDbEntity
  8
SK2
 62
     0
370
    -2
100
AcDbLine
 10
0.0
 20
0.5
 30
0.0
 11
0.0
 21
28.525
 31
0.0
  0
LINE
  5
106AC05
330
106AC01
100
AcDbEntity
  8
SK2
 62
     0
370
    -2
100
AcDbLine
 10
28.7
 20
27.525
 30
0.0
 11
3.0
 21
27.525
 31
0.0
  0
SOLID
  5
106AC06
330
106AC01
100
AcDbEntity
  8
SK2
 62
     0
100
AcDbTrace
 10
28.7
 20
27.025
 30
0.0
 11
28.7
 21
28.025
 31
0.0
 12
31.7
 22
27.525
 32
0.0
 13
31.7
 23
27.525
 33
0.0
  0
SOLID
  5
106AC07
330
106AC01
100
AcDbEntity
  8
SK2
 62
     0
100
AcDbTrace
 10
3.0
 20
28.025
 30
0.0
 11
3.0
 21
27.025
 31
0.0
 12
0.0
 22
27.525
 32
0.0
 13
0.0
 23
27.525
 33
0.0
  0
MTEXT
  5
106AC08
330
106AC01
100
AcDbEntity
  8
SK2
  6
ByBlock
 62
     0
100
AcDbMText
 10
15.85
 20
30.13625
 30
0.0
 40
3.5
 41
0.0
 71
     5
 72
     1
  1
\A1;31.7
 73
     1
 44
1.0
  0
POINT
  5
106AC09
330
106AC01
100
AcDbEntity
  8
Defpoints
 62
     0
100
AcDbPoint
 10
31.7
 20
0.6999999999999997
 30
0.0
  0
POINT
  5
106AC0A
330
106AC01
100
AcDbEntity
  8
Defpoints
 62
     0
100
AcDbPoint
 10
0.0
 20
0.0
 30
0.0
  0
POINT
  5
106AC0B
330
106AC01
100
AcDbEntity
  8
Defpoints
 62
     0
100
AcDbPoint
 10
0.0
 20
27.525
 30
0.0
  0
ENDBLK
  5
106AC0C
330
106AC01
100
AcDbEntity
  8
SK2
100
AcDbBlockEnd
  0
BLOCK
  5
106AC12
330
106AC11
100
AcDbEntity
  8
0
100
AcDbBlockBegin
  2
*D11
 70
     1
 10
0.0
 20
0.0
 30
0.0
  3
*D11
  1

  0
LINE
  5
106AC14
330
106AC11
100
AcDbEntity
  8
2
 62
     0
370
    -2
100
AcDbLine
 10
50.8
 20
0.5
 30
0.0
 11
50.8
 21
31.0
 31
0.0
  0
LINE
  5
106AC15
330
106AC11
100
AcDbEntity
  8
2
 62
     0
370
    -2
100
AcDbLine
 10
31.7
 20
3.675
 30
0.0
 11
31.7
 21
31.0
 31
0.0
  0
LINE
  5
106AC16
330
106AC11
100
AcDbEntity
  8
2
 62
     0
370
    -2
100
AcDbLine
 10
47.8
 20
30.0
 30
0.0
 11
34.7
 21
30.0
 31
0.0
  0
SOLID
  5
106AC17
330
106AC11
100
AcDbEntity
  8
2
 62
     0
100
AcDbTrace
 10
47.8
 20
29.5
 30
0.0
 11
47.8
 21
30.5
 31
0.0
 12
50.8
 22
30.0
 32
0.0
 13
50.8
 23
30.0
 33
0.0
  0
SOLID
  5
106AC18
330
106AC11
100
AcDbEntity
  8
2
 62
     0
100
AcDbTrace
 10
34.7
 20
30.5
 30
0.0
 11
34.7
 21
29.5
 31
0.0
 12
31.7
 22
30.0
 32
0.0
 13
31.7
 23
30.0
 33
0.0
  0
MTEXT
  5
106AC19
330
106AC11
100
AcDbEntity
  8
2
  6
ByBlock
 62
     0
100
AcDbMText
 10
41.25
 20
32.61125
 30
0.0
 40
3.5
 41
0.0
 71
     5
 72
     1
  1
\A1;19.1
 73
     1
 44
1.0
  0
POINT
  5
106AC1A
330
106AC11
100
AcDbEntity
  8
Defpoints
 62
     0
100
AcDbPoint
 10
50.8
 20
0.0
 30
0.0
  0
POINT
  5
106AC1B
330
106AC11
100
AcDbEntity
  8
Defpoints
 62
     0
100
AcDbPoint
 10
31.7
 20
3.175
 30
0.0
  0
POINT
  5
106AC1C
330
106AC11
100
AcDbEntity
  8
Defpoints
 62
     0
100
AcDbPoint
 10
31.7
 20
30.0
 30
0.0
  0
ENDBLK
  5
106AC13
330
106AC11
100
AcDbEntity
  8
0
100
AcDbBlockEnd
  0
ENDSEC
  0
SECTION
  2
ENTITIES
  0
DIMENSION
  5
516
330
30
100
AcDbEntity
  8
SK2
100
AcDbDimension
  2
*D0
 10
50.8
 20
38.0
 30
0.0
 11
25.4
 21
38.0
 31
0.0
 70
   160
  1
<>
 71
     5
 42
50.8
  3
STANDARD
100
AcDbAlignedDimension
 13
0.0
 23
2.475
 33
0.0
 14
50.8
 24
0.0
 34
0.0
100
AcDbRotatedDimension
1001
ACAD
1000
DSTYLE
1002
{
1070
   271
1070
     1
1070
   279
1070
     0
1070
    74
1070
     0
1002
}
  0
DIMENSION
  5
524
330
30
100
AcDbEntity
  8
2
100
AcDbDimension
  2
*D1
 10
88.0
 20
-1.587500000000002
 30
0.0
 11
88.0
 21
17.25124999999999
 31
0.0
 70
   160
  1
%%c<>
 71
     5
 42
3.175
  3
STANDARD
100
AcDbAlignedDimension
 13
49.2125
 23
1.5875
 33
0.0
 14
49.2125
 24
-1.5875
 34
0.0
 50
90.0
100
AcDbRotatedDimension
1001
ACAD
1000
DSTYLE
1002
{
1070
   271
1070
     3
1070
   279
1070
     0
1070
    74
1070
     0
1002
}
  0
DIMENSION
  5
542
330
30
100
AcDbEntity
  8
SK2
100
AcDbDimension
  2
*D3
 10
-8.0
 20
3.174999999999998
 30
0.0
 11
-8.0
 21
17.32325
 31
0.0
 70
   160
  1
%%c<>
 71
     5
 42
6.35
  3
STANDARD
100
AcDbAlignedDimension
 13
0.7
 23
-3.175
 33
0.0
 14
0.7
 24
3.175
 34
0.0
 50
-90.0
100
AcDbRotatedDimension
1001
ACAD
1000
DSTYLE
1002
{
1070
   279
1070
     0
1070
    74
1070
     0
1002
}
  0
DIMENSION
  5
550
330
30
100
AcDbEntity
  8
SK2
100
AcDbDimension
  2
*D4
 10
0.0
 20
30.0
 30
0.0
 11
15.85
 21
30.0
 31
0.0
 70
   160
  1
<>
 71
     5
 42
31.7
  3
STANDARD
100
AcDbAlignedDimension
 13
31.7
 23
3.175
 33
0.0
 14
0.0
 24
2.475
 34
0.0
100
AcDbRotatedDimension
1001
ACAD
1000
DSTYLE
1002
{
1070
   271
1070
     1
1070
   279
1070
     0
1070
    74
1070
     0
1002
}
  0
DIMENSION
  5
55A
330
30
100
AcDbEntity
  8
2
100
AcDbDimension
  2
*D5
 10
49.2125
 20
0.0
 30
0.0
 11
65.75375
 21
7.0
 31
0.0
 70
   164
 71
     5
 42
1.587500000000502
  3
STANDARD
100
AcDbRadialDimension
 15
50.335032015134
 25
1.122532015134
 35
0.0
 40
0.0
1001
ACAD
1000
DSTYLE
1002
{
1070
   279
1070
     0
1070
   271
1070
     3
1002
}
  0
DIMENSION
  5
568
330
30
100
AcDbEntity
  8
2
100
AcDbDimension
  2
*D6
 10
47.6
 20
-15.0
 30
0.0
 11
61.85249999999999
 21
-15.0
 31
0.0
 70
   160
  1
<>
 71
     5
 42
3.199999999999996
  3
STANDARD
100
AcDbAlignedDimension
 13
50.8
 23
0.0
 33
0.0
 14
47.6
 24
-1.5875
 34
0.0
100
AcDbRotatedDimension
1001
ACAD
1000
DSTYLE
1002
{
1070
   271
1070
     1
1070
   279
1070
     0
1070
    74
1070
     0
1002
}
  0
DIMENSION
  5
576
330
30
100
AcDbEntity
  8
2
100
AcDbDimension
  2
*D7
 10
43.1
 20
1.514999999999546
 30
0.0
 11
43.1
 21
15.6545
 31
0.0
 70
   160
  1
%%c<>
 71
     5
 42
3.029999999999546
  3
STANDARD
100
AcDbAlignedDimension
 13
38.711
 23
-1.515
 33
0.0
 14
38.71100000000042
 24
1.514999999999546
 34
0.0
 50
-90.0
100
AcDbRotatedDimension
1001
ACAD
1000
DSTYLE
1002
{
1070
    76
1070
     1
1070
    75
1070
     1
1070
   279
1070
     0
1070
    74
1070
     0
1002
}
  0
DIMENSION
  5
584
330
30
100
AcDbEntity
  8
2
100
AcDbDimension
  2
*D8
 10
38.09970935312
 20
-23.0
 30
0.0
 11
28.69270935312
 21
-23.0
 31
0.0
 70
   160
  1
<>
 71
     5
 42
12.70029064688
  3
STANDARD
100
AcDbAlignedDimension
 13
50.8
 23
0.0
 33
0.0
 14
38.09970935312
 24
-1.5875
 34
0.0
100
AcDbRotatedDimension
1001
ACAD
1000
DSTYLE
1002
{
1070
   271
1070
     1
1070
   279
1070
     0
1070
    74
1070
     0
1002
}
1001
ACAD_DSTYLE_DIMFLIPARROW_SYMBOL
1070
   385
1070
     0
1001
ACAD_DSTYLE_DIMFLIPARROW_WHICH_SYMBOL
1070
   386
1070
     3
  0
ARC
  5
36
330
30
100
AcDbEntity
  8
1
100
AcDbCircle
 10
49.2125
 20
0.0
 30
0.0
 40
1.5875
100
AcDbArc
 50
0.0
 51
90.0
  0
LINE
  5
37
330
30
100
AcDbEntity
  8
1
100
AcDbLine
 10
49.2125
 20
1.5875
 30
0.0
 11
47.6
 21
1.5875
 31
0.0
  0
LINE
  5
38
330
30
100
AcDbEntity
  8
1
100
AcDbLine
 10
47.6
 20
1.5875
 30
0.0
 11
47.6
 21
1.515
 31
0.0
  0
LINE
  5
39
330
30
100
AcDbEntity
  8
1
100
AcDbLine
 10
47.6
 20
1.515
 30
0.0
 11
38.711
 21
1.515
 31
0.0
  0
ARC
  5
3A
330
30
100
AcDbEntity
  8
1
100
AcDbCircle
 10
39.582557427477
 20
11.476946980917
 30
0.0
 40
10.0
100
AcDbArc
 50
255.0
 51
265.0
  0
LINE
  5
3B
330
30
100
AcDbEntity
  8
1
100
AcDbLine
 10
36.994366976451
 20
1.817688718027
 30
0.0
 11
31.928812310441
 21
3.175
 31
0.0
  0
LINE
  5
3C
330
30
100
AcDbEntity
  8
1
100
AcDbLine
 10
31.928812310441
 20
3.175
 30
0.0
 11
31.7
 21
3.175
 31
0.0
  0
LINE
  5
3D
330
30
100
AcDbEntity
  8
1
100
AcDbLine
 10
31.7
 20
3.175
 30
0.0
 11
31.7
 21
-3.175
 31
0.0
  0
LINE
  5
3E
330
30
100
AcDbEntity
  8
1
100
AcDbLine
 10
31.7
 20
-3.175
 30
0.0
 11
31.928812310441
 21
-3.175
 31
0.0
  0
LINE
  5
3F
330
30
100
AcDbEntity
  8
1
100
AcDbLine
 10
31.928812310441
 20
-3.175
 30
0.0
 11
36.994366976451
 21
-1.817688718027
 31
0.0
  0
ARC
  5
40
330
30
100
AcDbEntity
  8
1
100
AcDbCircle
 10
39.582557427477
 20
-11.476946980917
 30
0.0
 40
10.0
100
AcDbArc
 50
95.0
 51
105.0
  0
LINE
  5
41
330
30
100
AcDbEntity
  8
1
100
AcDbLine
 10
38.711
 20
-1.515
 30
0.0
 11
47.6
 21
-1.515
 31
0.0
  0
LINE
  5
42
330
30
100
AcDbEntity
  8
1
100
AcDbLine
 10
47.6
 20
-1.515
 30
0.0
 11
47.6
 21
-1.5875
 31
0.0
  0
LINE
  5
43
330
30
100
AcDbEntity
  8
1
100
AcDbLine
 10
47.6
 20
-1.5875
 30
0.0
 11
49.2125
 21
-1.5875
 31
0.0
  0
ARC
  5
44
330
30
100
AcDbEntity
  8
1
100
AcDbCircle
 10
49.2125
 20
0.0
 30
0.0
 40
1.5875
100
AcDbArc
 50
270.0
 51
0.0
  0
LINE
  5
45
330
30
100
AcDbEntity
  8
1
100
AcDbLine
 10
48.195247400668
 20
1.5875
 30
0.0
 11
48.2075
 21
1.567732407067
 31
0.0
  0
LINE
  5
46
330
30
100
AcDbEntity
  8
1
100
AcDbLine
 10
48.2075
 20
1.567732407067
 30
0.0
 11
48.22875
 21
1.567631600003
 31
0.0
  0
LINE
  5
47
330
30
100
AcDbEntity
  8
1
100
AcDbLine
 10
48.22875
 20
1.567631600003
 30
0.0
 11
48.25
 21
1.567437163807
 31
0.0
  0
LINE
  5
48
330
30
100
AcDbEntity
  8
1
100
AcDbLine
 10
48.25
 20
1.567437163807
 30
0.0
 11
48.27125
 21
1.567149110093
 31
0.0
  0
LINE
  5
49
330
30
100
AcDbEntity
  8
1
100
AcDbLine
 10
48.27125
 20
1.567149110093
 30
0.0
 11
48.2925
 21
1.566767456066
 31
0.0
  0
LINE
  5
4A
330
30
100
AcDbEntity
  8
1
100
AcDbLine
 10
48.2925
 20
1.566767456066
 30
0.0
 11
48.31375
 21
1.566292224519
 31
0.0
  0
LINE
  5
4B
330
30
100
AcDbEntity
  8
1
100
AcDbLine
 10
48.31375
 20
1.566292224519
 30
0.0
 11
48.335
 21
1.565723443837
 31
0.0
  0
LINE
  5
4C
330
30
100
AcDbEntity
  8
1
100
AcDbLine
 10
48.335
 20
1.565723443837
 30
0.0
 11
48.35625
 21
1.565061147991
 31
0.0
  0
LINE
  5
4D
330
30
100
AcDbEntity
  8
1
100
AcDbLine
 10
48.35625
 20
1.565061147991
 30
0.0
 11
48.3775
 21
1.564305376538
 31
0.0
  0
LINE
  5
4E
330
30
100
AcDbEntity
  8
1
100
AcDbLine
 10
48.3775
 20
1.564305376538
 30
0.0
 11
48.39875
 21
1.563456174618
 31
0.0
  0
LINE
  5
4F
330
30
100
AcDbEntity
  8
1
100
AcDbLine
 10
48.39875
 20
1.563456174618
 30
0.0
 11
48.42
 21
1.56251359295
 31
0.0
  0
LINE
  5
50
330
30
100
AcDbEntity
  8
1
100
AcDbLine
 10
48.42
 20
1.56251359295
 30
0.0
 11
48.44125
 21
1.561477687831
 31
0.0
  0
LINE
  5
51
330
30
100
AcDbEntity
  8
1
100
AcDbLine
 10
48.44125
 20
1.561477687831
 30
0.0
 11
48.4625
 21
1.560348521132
 31
0.0
  0
LINE
  5
52
330
30
100
AcDbEntity
  8
1
100
AcDbLine
 10
48.4625
 20
1.560348521132
 30
0.0
 11
48.48375
 21
1.559126160295
 31
0.0
  0
LINE
  5
53
330
30
100
AcDbEntity
  8
1
100
AcDbLine
 10
48.48375
 20
1.559126160295
 30
0.0
 11
48.505
 21
1.557810678327
 31
0.0
  0
LINE
  5
54
330
30
100
AcDbEntity
  8
1
100
AcDbLine
 10
48.505
 20
1.557810678327
 30
0.0
 11
48.52625
 21
1.556402153796
 31
0.0
  0
LINE
  5
55
330
30
100
AcDbEntity
  8
1
100
AcDbLine
 10
48.52625
 20
1.556402153796
 30
0.0
 11
48.5475
 21
1.55490067083
 31
0.0
  0
LINE
  5
56
330
30
100
AcDbEntity
  8
1
100
AcDbLine
 10
48.5475
 20
1.55490067083
 30
0.0
 11
48.56875
 21
1.553306319106
 31
0.0
  0
LINE
  5
57
330
30
100
AcDbEntity
  8
1
100
AcDbLine
 10
48.56875
 20
1.553306319106
 30
0.0
 11
48.59
 21
1.551619193849
 31
0.0
  0
LINE
  5
58
330
30
100
AcDbEntity
  8
1
100
AcDbLine
 10
48.59
 20
1.551619193849
 30
0.0
 11
48.61125
 21
1.549839395826
 31
0.0
  0
LINE
  5
59
330
30
100
AcDbEntity
  8
1
100
AcDbLine
 10
48.61125
 20
1.549839395826
 30
0.0
 11
48.6325
 21
1.547967031338
 31
0.0
  0
LINE
  5
5A
330
30
100
AcDbEntity
  8
1
100
AcDbLine
 10
48.6325
 20
1.547967031338
 30
0.0
 11
48.65375
 21
1.546002212214
 31
0.0
  0
LINE
  5
5B
330
30
100
AcDbEntity
  8
1
100
AcDbLine
 10
48.65375
 20
1.546002212214
 30
0.0
 11
48.675
 21
1.543945055806
 31
0.0
  0
LINE
  5
5C
330
30
100
AcDbEntity
  8
1
100
AcDbLine
 10
48.675
 20
1.543945055806
 30
0.0
 11
48.69625
 21
1.541795684981
 31
0.0
  0
LINE
  5
5D
330
30
100
AcDbEntity
  8
1
100
AcDbLine
 10
48.69625
 20
1.541795684981
 30
0.0
 11
48.7175
 21
1.539554228113
 31
0.0
  0
LINE
  5
5E
330
30
100
AcDbEntity
  8
1
100
AcDbLine
 10
48.7175
 20
1.539554228113
 30
0.0
 11
48.73875
 21
1.537220819077
 31
0.0
  0
LINE
  5
5F
330
30
100
AcDbEntity
  8
1
100
AcDbLine
 10
48.73875
 20
1.537220819077
 30
0.0
 11
48.76
 21
1.534795597238
 31
0.0
  0
LINE
  5
60
330
30
100
AcDbEntity
  8
1
100
AcDbLine
 10
48.76
 20
1.534795597238
 30
0.0
 11
48.78125
 21
1.532278707448
 31
0.0
  0
LINE
  5
61
330
30
100
AcDbEntity
  8
1
100
AcDbLine
 10
48.78125
 20
1.532278707448
 30
0.0
 11
48.8025
 21
1.52967030003
 31
0.0
  0
LINE
  5
62
330
30
100
AcDbEntity
  8
1
100
AcDbLine
 10
48.8025
 20
1.52967030003
 30
0.0
 11
48.82375
 21
1.526970530777
 31
0.0
  0
LINE
  5
63
330
30
100
AcDbEntity
  8
1
100
AcDbLine
 10
48.82375
 20
1.526970530777
 30
0.0
 11
48.845
 21
1.524179560935
 31
0.0
  0
LINE
  5
64
330
30
100
AcDbEntity
  8
1
100
AcDbLine
 10
48.845
 20
1.524179560935
 30
0.0
 11
48.86625
 21
1.521297557199
 31
0.0
  0
LINE
  5
65
330
30
100
AcDbEntity
  8
1
100
AcDbLine
 10
48.86625
 20
1.521297557199
 30
0.0
 11
48.8875
 21
1.518324691702
 31
0.0
  0
LINE
  5
66
330
30
100
AcDbEntity
  8
1
100
AcDbLine
 10
48.8875
 20
1.518324691702
 30
0.0
 11
48.90875
 21
1.515261142002
 31
0.0
  0
LINE
  5
67
330
30
100
AcDbEntity
  8
1
100
AcDbLine
 10
48.90875
 20
1.515261142002
 30
0.0
 11
48.93
 21
1.512107091074
 31
0.0
  0
LINE
  5
68
330
30
100
AcDbEntity
  8
1
100
AcDbLine
 10
48.93
 20
1.512107091074
 30
0.0
 11
48.95125
 21
1.508862727299
 31
0.0
  0
LINE
  5
69
330
30
100
AcDbEntity
  8
1
100
AcDbLine
 10
48.95125
 20
1.508862727299
 30
0.0
 11
48.9725
 21
1.505528244451
 31
0.0
  0
LINE
  5
6A
330
30
100
AcDbEntity
  8
1
100
AcDbLine
 10
48.9725
 20
1.505528244451
 30
0.0
 11
48.99375
 21
1.502103841687
 31
0.0
  0
LINE
  5
6B
330
30
100
AcDbEntity
  8
1
100
AcDbLine
 10
48.99375
 20
1.502103841687
 30
0.0
 11
49.015
 21
1.498589723535
 31
0.0
  0
LINE
  5
6C
330
30
100
AcDbEntity
  8
1
100
AcDbLine
 10
49.015
 20
1.498589723535
 30
0.0
 11
49.03625
 21
1.494986099881
 31
0.0
  0
LINE
  5
6D
330
30
100
AcDbEntity
  8
1
100
AcDbLine
 10
49.03625
 20
1.494986099881
 30
0.0
 11
49.0575
 21
1.491293185956
 31
0.0
  0
LINE
  5
6E
330
30
100
AcDbEntity
  8
1
100
AcDbLine
 10
49.0575
 20
1.491293185956
 30
0.0
 11
49.07875
 21
1.487511202325
 31
0.0
  0
LINE
  5
6F
330
30
100
AcDbEntity
  8
1
100
AcDbLine
 10
49.07875
 20
1.487511202325
 30
0.0
 11
49.1
 21
1.483640374872
 31
0.0
  0
LINE
  5
70
330
30
100
AcDbEntity
  8
1
100
AcDbLine
 10
49.1
 20
1.483640374872
 30
0.0
 11
49.12125
 21
1.47968093479
 31
0.0
  0
LINE
  5
71
330
30
100
AcDbEntity
  8
1
100
AcDbLine
 10
49.12125
 20
1.47968093479
 30
0.0
 11
49.1425
 21
1.47563311856
 31
0.0
  0
LINE
  5
72
330
30
100
AcDbEntity
  8
1
100
AcDbLine
 10
49.1425
 20
1.47563311856
 30
0.0
 11
49.16375
 21
1.471497167946
 31
0.0
  0
LINE
  5
73
330
30
100
AcDbEntity
  8
1
100
AcDbLine
 10
49.16375
 20
1.471497167946
 30
0.0
 11
49.185
 21
1.467273329973
 31
0.0
  0
LINE
  5
74
330
30
100
AcDbEntity
  8
1
100
AcDbLine
 10
49.185
 20
1.467273329973
 30
0.0
 11
49.20625
 21
1.462961856915
 31
0.0
  0
LINE
  5
75
330
30
100
AcDbEntity
  8
1
100
AcDbLine
 10
49.20625
 20
1.462961856915
 30
0.0
 11
49.2275
 21
1.458503600284
 31
0.0
  0
LINE
  5
76
330
30
100
AcDbEntity
  8
1
100
AcDbLine
 10
49.2275
 20
1.458503600284
 30
0.0
 11
49.24875
 21
1.453731941118
 31
0.0
  0
LINE
  5
77
330
30
100
AcDbEntity
  8
1
100
AcDbLine
 10
49.24875
 20
1.453731941118
 30
0.0
 11
49.27
 21
1.448640560182
 31
0.0
  0
LINE
  5
78
330
30
100
AcDbEntity
  8
1
100
AcDbLine
 10
49.27
 20
1.448640560182
 30
0.0
 11
49.29125
 21
1.443233466929
 31
0.0
  0
LINE
  5
79
330
30
100
AcDbEntity
  8
1
100
AcDbLine
 10
49.29125
 20
1.443233466929
 30
0.0
 11
49.3125
 21
1.437514632874
 31
0.0
  0
LINE
  5
7A
330
30
100
AcDbEntity
  8
1
100
AcDbLine
 10
49.3125
 20
1.437514632874
 30
0.0
 11
49.33375
 21
1.431487993526
 31
0.0
  0
LINE
  5
7B
330
30
100
AcDbEntity
  8
1
100
AcDbLine
 10
49.33375
 20
1.431487993526
 30
0.0
 11
49.355
 21
1.425157450094
 31
0.0
  0
LINE
  5
7C
330
30
100
AcDbEntity
  8
1
100
AcDbLine
 10
49.355
 20
1.425157450094
 30
0.0
 11
49.37625
 21
1.418526870944
 31
0.0
  0
LINE
  5
7D
330
30
100
AcDbEntity
  8
1
100
AcDbLine
 10
49.37625
 20
1.418526870944
 30
0.0
 11
49.3975
 21
1.411600092825
 31
0.0
  0
LINE
  5
7E
330
30
100
AcDbEntity
  8
1
100
AcDbLine
 10
49.3975
 20
1.411600092825
 30
0.0
 11
49.41875
 21
1.404380921873
 31
0.0
  0
LINE
  5
7F
330
30
100
AcDbEntity
  8
1
100
AcDbLine
 10
49.41875
 20
1.404380921873
 30
0.0
 11
49.44
 21
1.396873134369
 31
0.0
  0
LINE
  5
80
330
30
100
AcDbEntity
  8
1
100
AcDbLine
 10
49.44
 20
1.396873134369
 30
0.0
 11
49.46125
 21
1.389080477271
 31
0.0
  0
LINE
  5
81
330
30
100
AcDbEntity
  8
1
100
AcDbLine
 10
49.46125
 20
1.389080477271
 30
0.0
 11
49.4825
 21
1.381006668508
 31
0.0
  0
LINE
  5
82
330
30
100
AcDbEntity
  8
1
100
AcDbLine
 10
49.4825
 20
1.381006668508
 30
0.0
 11
49.50375
 21
1.372655397031
 31
0.0
  0
LINE
  5
83
330
30
100
AcDbEntity
  8
1
100
AcDbLine
 10
49.50375
 20
1.372655397031
 30
0.0
 11
49.525
 21
1.364030322608
 31
0.0
  0
LINE
  5
84
330
30
100
AcDbEntity
  8
1
100
AcDbLine
 10
49.525
 20
1.364030322608
 30
0.0
 11
49.54625
 21
1.355135075366
 31
0.0
  0
LINE
  5
85
330
30
100
AcDbEntity
  8
1
100
AcDbLine
 10
49.54625
 20
1.355135075366
 30
0.0
 11
49.5675
 21
1.345973255053
 31
0.0
  0
LINE
  5
86
330
30
100
AcDbEntity
  8
1
100
AcDbLine
 10
49.5675
 20
1.345973255053
 30
0.0
 11
49.58875
 21
1.336548430013
 31
0.0
  0
LINE
  5
87
330
30
100
AcDbEntity
  8
1
100
AcDbLine
 10
49.58875
 20
1.336548430013
 30
0.0
 11
49.61
 21
1.326864135857
 31
0.0
  0
LINE
  5
88
330
30
100
AcDbEntity
  8
1
100
AcDbLine
 10
49.61
 20
1.326864135857
 30
0.0
 11
49.63125
 21
1.316923873803
 31
0.0
  0
LINE
  5
89
330
30
100
AcDbEntity
  8
1
100
AcDbLine
 10
49.63125
 20
1.316923873803
 30
0.0
 11
49.6525
 21
1.306731108664
 31
0.0
  0
LINE
  5
8A
330
30
100
AcDbEntity
  8
1
100
AcDbLine
 10
49.6525
 20
1.306731108664
 30
0.0
 11
49.67375
 21
1.296289266452
 31
0.0
  0
LINE
  5
8B
330
30
100
AcDbEntity
  8
1
100
AcDbLine
 10
49.67375
 20
1.296289266452
 30
0.0
 11
49.695
 21
1.285601731565
 31
0.0
  0
LINE
  5
8C
330
30
100
AcDbEntity
  8
1
100
AcDbLine
 10
49.695
 20
1.285601731565
 30
0.0
 11
49.71625
 21
1.274671843521
 31
0.0
  0
LINE
  5
8D
330
30
100
AcDbEntity
  8
1
100
AcDbLine
 10
49.71625
 20
1.274671843521
 30
0.0
 11
49.7375
 21
1.263502893181
 31
0.0
  0
LINE
  5
8E
330
30
100
AcDbEntity
  8
1
100
AcDbLine
 10
49.7375
 20
1.263502893181
 30
0.0
 11
49.75875
 21
1.252098118423
 31
0.0
  0
LINE
  5
8F
330
30
100
AcDbEntity
  8
1
100
AcDbLine
 10
49.75875
 20
1.252098118423
 30
0.0
 11
49.78
 21
1.240460699192
 31
0.0
  0
LINE
  5
90
330
30
100
AcDbEntity
  8
1
100
AcDbLine
 10
49.78
 20
1.240460699192
 30
0.0
 11
49.80125
 21
1.228593751861
 31
0.0
  0
LINE
  5
91
330
30
100
AcDbEntity
  8
1
100
AcDbLine
 10
49.80125
 20
1.228593751861
 30
0.0
 11
49.8225
 21
1.21650032282
 31
0.0
  0
LINE
  5
92
330
30
100
AcDbEntity
  8
1
100
AcDbLine
 10
49.8225
 20
1.21650032282
 30
0.0
 11
49.84375
 21
1.204183381183
 31
0.0
  0
LINE
  5
93
330
30
100
AcDbEntity
  8
1
100
AcDbLine
 10
49.84375
 20
1.204183381183
 30
0.0
 11
49.865
 21
1.191645810523
 31
0.0
  0
LINE
  5
94
330
30
100
AcDbEntity
  8
1
100
AcDbLine
 10
49.865
 20
1.191645810523
 30
0.0
 11
49.88625
 21
1.178890399476
 31
0.0
  0
LINE
  5
95
330
30
100
AcDbEntity
  8
1
100
AcDbLine
 10
49.88625
 20
1.178890399476
 30
0.0
 11
49.9075
 21
1.16591983108
 31
0.0
  0
LINE
  5
96
330
30
100
AcDbEntity
  8
1
100
AcDbLine
 10
49.9075
 20
1.16591983108
 30
0.0
 11
49.92875
 21
1.15273667065
 31
0.0
  0
LINE
  5
97
330
30
100
AcDbEntity
  8
1
100
AcDbLine
 10
49.92875
 20
1.15273667065
 30
0.0
 11
49.95
 21
1.139343351984
 31
0.0
  0
LINE
  5
98
330
30
100
AcDbEntity
  8
1
100
AcDbLine
 10
49.95
 20
1.139343351984
 30
0.0
 11
49.97125
 21
1.125742161646
 31
0.0
  0
LINE
  5
99
330
30
100
AcDbEntity
  8
1
100
AcDbLine
 10
49.97125
 20
1.125742161646
 30
0.0
 11
49.9925
 21
1.111935221014
 31
0.0
  0
LINE
  5
9A
330
30
100
AcDbEntity
  8
1
100
AcDbLine
 10
49.9925
 20
1.111935221014
 30
0.0
 11
50.01375
 21
1.097924465742
 31
0.0
  0
LINE
  5
9B
330
30
100
AcDbEntity
  8
1
100
AcDbLine
 10
50.01375
 20
1.097924465742
 30
0.0
 11
50.035
 21
1.083711622207
 31
0.0
  0
LINE
  5
9C
330
30
100
AcDbEntity
  8
1
100
AcDbLine
 10
50.035
 20
1.083711622207
 30
0.0
 11
50.05625
 21
1.069298180413
 31
0.0
  0
LINE
  5
9D
330
30
100
AcDbEntity
  8
1
100
AcDbLine
 10
50.05625
 20
1.069298180413
 30
0.0
 11
50.0775
 21
1.054685362741
 31
0.0
  0
LINE
  5
9E
330
30
100
AcDbEntity
  8
1
100
AcDbLine
 10
50.0775
 20
1.054685362741
 30
0.0
 11
50.09875
 21
1.039874087781
 31
0.0
  0
LINE
  5
9F
330
30
100
AcDbEntity
  8
1
100
AcDbLine
 10
50.09875
 20
1.039874087781
 30
0.0
 11
50.12
 21
1.024864928318
 31
0.0
  0
LINE
  5
A0
330
30
100
AcDbEntity
  8
1
100
AcDbLine
 10
50.12
 20
1.024864928318
 30
0.0
 11
50.14125
 21
1.009658062346
 31
0.0
  0
LINE
  5
A1
330
30
100
AcDbEntity
  8
1
100
AcDbLine
 10
50.14125
 20
1.009658062346
 30
0.0
 11
50.1625
 21
0.994253215712
 31
0.0
  0
LINE
  5
A2
330
30
100
AcDbEntity
  8
1
100
AcDbLine
 10
50.1625
 20
0.994253215712
 30
0.0
 11
50.18375
 21
0.978649594643
 31
0.0
  0
LINE
  5
A3
330
30
100
AcDbEntity
  8
1
100
AcDbLine
 10
50.18375
 20
0.978649594643
 30
0.0
 11
50.205
 21
0.96284580599
 31
0.0
  0
LINE
  5
A4
330
30
100
AcDbEntity
  8
1
100
AcDbLine
 10
50.205
 20
0.96284580599
 30
0.0
 11
50.22625
 21
0.946839762446
 31
0.0
  0
LINE
  5
A5
330
30
100
AcDbEntity
  8
1
100
AcDbLine
 10
50.22625
 20
0.946839762446
 30
0.0
 11
50.2475
 21
0.930628569263
 31
0.0
  0
LINE
  5
A6
330
30
100
AcDbEntity
  8
1
100
AcDbLine
 10
50.2475
 20
0.930628569263
 30
0.0
 11
50.26875
 21
0.914208388005
 31
0.0
  0
LINE
  5
A7
330
30
100
AcDbEntity
  8
1
100
AcDbLine
 10
50.26875
 20
0.914208388005
 30
0.0
 11
50.29
 21
0.897574271572
 31
0.0
  0
LINE
  5
A8
330
30
100
AcDbEntity
  8
1
100
AcDbLine
 10
50.29
 20
0.897574271572
 30
0.0
 11
50.31125
 21
0.880719962976
 31
0.0
  0
LINE
  5
A9
330
30
100
AcDbEntity
  8
1
100
AcDbLine
 10
50.31125
 20
0.880719962976
 30
0.0
 11
50.3325
 21
0.863637647929
 31
0.0
  0
LINE
  5
AA
330
30
100
AcDbEntity
  8
1
100
AcDbLine
 10
50.3325
 20
0.863637647929
 30
0.0
 11
50.35375
 21
0.846317647976
 31
0.0
  0
LINE
  5
AB
330
30
100
AcDbEntity
  8
1
100
AcDbLine
 10
50.35375
 20
0.846317647976
 30
0.0
 11
50.375
 21
0.82874803624
 31
0.0
  0
LINE
  5
AC
330
30
100
AcDbEntity
  8
1
100
AcDbLine
 10
50.375
 20
0.82874803624
 30
0.0
 11
50.39625
 21
0.810914151164
 31
0.0
  0
LINE
  5
AD
330
30
100
AcDbEntity
  8
1
100
AcDbLine
 10
50.39625
 20
0.810914151164
 30
0.0
 11
50.4175
 21
0.792797974
 31
0.0
  0
LINE
  5
AE
330
30
100
AcDbEntity
  8
1
100
AcDbLine
 10
50.4175
 20
0.792797974
 30
0.0
 11
50.43875
 21
0.77437732153
 31
0.0
  0
LINE
  5
AF
330
30
100
AcDbEntity
  8
1
100
AcDbLine
 10
50.43875
 20
0.77437732153
 30
0.0
 11
50.46
 21
0.75562478403
 31
0.0
  0
LINE
  5
B0
330
30
100
AcDbEntity
  8
1
100
AcDbLine
 10
50.46
 20
0.75562478403
 30
0.0
 11
50.48125
 21
0.736506305388
 31
0.0
  0
LINE
  5
B1
330
30
100
AcDbEntity
  8
1
100
AcDbLine
 10
50.48125
 20
0.736506305388
 30
0.0
 11
50.5025
 21
0.716979249963
 31
0.0
  0
LINE
  5
B2
330
30
100
AcDbEntity
  8
1
100
AcDbLine
 10
50.5025
 20
0.716979249963
 30
0.0
 11
50.52375
 21
0.696989715568
 31
0.0
  0
LINE
  5
B3
330
30
100
AcDbEntity
  8
1
100
AcDbLine
 10
50.52375
 20
0.696989715568
 30
0.0
 11
50.545
 21
0.676468708893
 31
0.0
  0
LINE
  5
B4
330
30
100
AcDbEntity
  8
1
100
AcDbLine
 10
50.545
 20
0.676468708893
 30
0.0
 11
50.56625
 21
0.655326549851
 31
0.0
  0
LINE
  5
B5
330
30
100
AcDbEntity
  8
1
100
AcDbLine
 10
50.56625
 20
0.655326549851
 30
0.0
 11
50.5875
 21
0.633444416474
 31
0.0
  0
LINE
  5
B6
330
30
100
AcDbEntity
  8
1
100
AcDbLine
 10
50.5875
 20
0.633444416474
 30
0.0
 11
50.60875
 21
0.610661070233
 31
0.0
  0
LINE
  5
B7
330
30
100
AcDbEntity
  8
1
100
AcDbLine
 10
50.60875
 20
0.610661070233
 30
0.0
 11
50.63
 21
0.586751028087
 31
0.0
  0
LINE
  5
B8
330
30
100
AcDbEntity
  8
1
100
AcDbLine
 10
50.63
 20
0.586751028087
 30
0.0
 11
50.65125
 21
0.561386566148
 31
0.0
  0
LINE
  5
B9
330
30
100
AcDbEntity
  8
1
100
AcDbLine
 10
50.65125
 20
0.561386566148
 30
0.0
 11
50.6725
 21
0.532475354302
 31
0.0
  0
LINE
  5
BA
330
30
100
AcDbEntity
  8
1
100
AcDbLine
 10
50.6725
 20
0.532475354302
 30
0.0
 11
50.69375
 21
0.496691806419
 31
0.0
  0
LINE
  5
BB
330
30
100
AcDbEntity
  8
1
100
AcDbLine
 10
50.69375
 20
0.496691806419
 30
0.0
 11
50.715
 21
0.452524133261
 31
0.0
  0
LINE
  5
BC
330
30
100
AcDbEntity
  8
1
100
AcDbLine
 10
50.715
 20
0.452524133261
 30
0.0
 11
50.73625
 21
0.396737106525
 31
0.0
  0
LINE
  5
BD
330
30
100
AcDbEntity
  8
1
100
AcDbLine
 10
50.73625
 20
0.396737106525
 30
0.0
 11
50.7575
 21
0.318528864128
 31
0.0
  0
LINE
  5
BE
330
30
100
AcDbEntity
  8
1
100
AcDbLine
 10
50.7575
 20
0.318528864128
 30
0.0
 11
50.7575
 21
0.097745906001
 31
0.0
  0
LINE
  5
BF
330
30
100
AcDbEntity
  8
1
100
AcDbLine
 10
50.7575
 20
-0.06100067804
 30
0.0
 11
50.7575
 21
0.204506198749
 31
0.0
  0
LINE
  5
C0
330
30
100
AcDbEntity
  8
1
100
AcDbLine
 10
50.715150050543
 20
0.512053781944
 30
0.0
 11
50.715
 21
0.512493777169
 31
0.0
  0
LINE
  5
C1
330
30
100
AcDbEntity
  8
1
100
AcDbLine
 10
50.715
 20
0.512493777169
 30
0.0
 11
50.69375
 21
0.569632684562
 31
0.0
  0
LINE
  5
C2
330
30
100
AcDbEntity
  8
1
100
AcDbLine
 10
50.69375
 20
0.569632684562
 30
0.0
 11
50.6725
 21
0.61917595359
 31
0.0
  0
LINE
  5
C3
330
30
100
AcDbEntity
  8
1
100
AcDbLine
 10
50.6725
 20
0.61917595359
 30
0.0
 11
50.65125
 21
0.663547006212
 31
0.0
  0
LINE
  5
C4
330
30
100
AcDbEntity
  8
1
100
AcDbLine
 10
50.65125
 20
0.663547006212
 30
0.0
 11
50.63
 21
0.704096811569
 31
0.0
  0
LINE
  5
C5
330
30
100
AcDbEntity
  8
1
100
AcDbLine
 10
50.63
 20
0.704096811569
 30
0.0
 11
50.60875
 21
0.741667768219
 31
0.0
  0
LINE
  5
C6
330
30
100
AcDbEntity
  8
1
100
AcDbLine
 10
50.60875
 20
0.741667768219
 30
0.0
 11
50.5875
 21
0.776825755277
 31
0.0
  0
LINE
  5
C7
330
30
100
AcDbEntity
  8
1
100
AcDbLine
 10
50.5875
 20
0.776825755277
 30
0.0
 11
50.56625
 21
0.809971693104
 31
0.0
  0
LINE
  5
C8
330
30
100
AcDbEntity
  8
1
100
AcDbLine
 10
50.56625
 20
0.809971693104
 30
0.0
 11
50.545
 21
0.841401229431
 31
0.0
  0
LINE
  5
C9
330
30
100
AcDbEntity
  8
1
100
AcDbLine
 10
50.545
 20
0.841401229431
 30
0.0
 11
50.52375
 21
0.871339284836
 31
0.0
  0
LINE
  5
CA
330
30
100
AcDbEntity
  8
1
100
AcDbLine
 10
50.52375
 20
0.871339284836
 30
0.0
 11
50.5025
 21
0.899961294774
 31
0.0
  0
LINE
  5
CB
330
30
100
AcDbEntity
  8
1
100
AcDbLine
 10
50.5025
 20
0.899961294774
 30
0.0
 11
50.48125
 21
0.927406915507
 31
0.0
  0
LINE
  5
CC
330
30
100
AcDbEntity
  8
1
100
AcDbLine
 10
50.48125
 20
0.927406915507
 30
0.0
 11
50.46
 21
0.953789221647
 31
0.0
  0
LINE
  5
CD
330
30
100
AcDbEntity
  8
1
100
AcDbLine
 10
50.46
 20
0.953789221647
 30
0.0
 11
50.43875
 21
0.979201083233
 31
0.0
  0
LINE
  5
CE
330
30
100
AcDbEntity
  8
1
100
AcDbLine
 10
50.43875
 20
0.979201083233
 30
0.0
 11
50.4175
 21
1.003719711058
 31
0.0
  0
LINE
  5
CF
330
30
100
AcDbEntity
  8
1
100
AcDbLine
 10
50.4175
 20
1.003719711058
 30
0.0
 11
50.39625
 21
1.027409974003
 31
0.0
  0
LINE
  5
D0
330
30
100
AcDbEntity
  8
1
100
AcDbLine
 10
50.39625
 20
1.027409974003
 30
0.0
 11
50.375
 21
1.050326870318
 31
0.0
  0
LINE
  5
D1
330
30
100
AcDbEntity
  8
1
100
AcDbLine
 10
50.375
 20
1.050326870318
 30
0.0
 11
50.35375
 21
1.072517401991
 31
0.0
  0
LINE
  5
D2
330
30
100
AcDbEntity
  8
1
100
AcDbLine
 10
50.35375
 20
1.072517401991
 30
0.0
 11
50.3325
 21
1.094022019097
 31
0.0
  0
LINE
  5
D3
330
30
100
AcDbEntity
  8
1
100
AcDbLine
 10
50.3325
 20
1.094022019097
 30
0.0
 11
50.31125
 21
1.11487574858
 31
0.0
  0
LINE
  5
D4
330
30
100
AcDbEntity
  8
1
100
AcDbLine
 10
50.31125
 20
1.11487574858
 30
0.0
 11
50.29
 21
1.135109087633
 31
0.0
  0
LINE
  5
D5
330
30
100
AcDbEntity
  8
1
100
AcDbLine
 10
50.29
 20
1.135109087633
 30
0.0
 11
50.26875
 21
1.154748718823
 31
0.0
  0
LINE
  5
D6
330
30
100
AcDbEntity
  8
1
100
AcDbLine
 10
50.26875
 20
1.154748718823
 30
0.0
 11
50.2475
 21
1.173818088469
 31
0.0
  0
LINE
  5
D7
330
30
100
AcDbEntity
  8
1
100
AcDbLine
 10
50.2475
 20
1.173818088469
 30
0.0
 11
50.22625
 21
1.192337878799
 31
0.0
  0
LINE
  5
D8
330
30
100
AcDbEntity
  8
1
100
AcDbLine
 10
50.22625
 20
1.192337878799
 30
0.0
 11
50.205
 21
1.210326396712
 31
0.0
  0
LINE
  5
D9
330
30
100
AcDbEntity
  8
1
100
AcDbLine
 10
50.205
 20
1.210326396712
 30
0.0
 11
50.18375
 21
1.227799896377
 31
0.0
  0
LINE
  5
DA
330
30
100
AcDbEntity
  8
1
100
AcDbLine
 10
50.18375
 20
1.227799896377
 30
0.0
 11
50.1625
 21
1.24477284887
 31
0.0
  0
LINE
  5
DB
330
30
100
AcDbEntity
  8
1
100
AcDbLine
 10
50.1625
 20
1.24477284887
 30
0.0
 11
50.14125
 21
1.261258169048
 31
0.0
  0
LINE
  5
DC
330
30
100
AcDbEntity
  8
1
100
AcDbLine
 10
50.14125
 20
1.261258169048
 30
0.0
 11
50.12
 21
1.277267407607
 31
0.0
  0
LINE
  5
DD
330
30
100
AcDbEntity
  8
1
100
AcDbLine
 10
50.12
 20
1.277267407607
 30
0.0
 11
50.09875
 21
1.292810914609
 31
0.0
  0
LINE
  5
DE
330
30
100
AcDbEntity
  8
1
100
AcDbLine
 10
50.09875
 20
1.292810914609
 30
0.0
 11
50.0775
 21
1.30789797944
 31
0.0
  0
LINE
  5
DF
330
30
100
AcDbEntity
  8
1
100
AcDbLine
 10
50.0775
 20
1.30789797944
 30
0.0
 11
50.05625
 21
1.322536951207
 31
0.0
  0
LINE
  5
E0
330
30
100
AcDbEntity
  8
1
100
AcDbLine
 10
50.05625
 20
1.322536951207
 30
0.0
 11
50.035
 21
1.336735342765
 31
0.0
  0
LINE
  5
E1
330
30
100
AcDbEntity
  8
1
100
AcDbLine
 10
50.035
 20
1.336735342765
 30
0.0
 11
50.01375
 21
1.350499921001
 31
0.0
  0
LINE
  5
E2
330
30
100
AcDbEntity
  8
1
100
AcDbLine
 10
50.01375
 20
1.350499921001
 30
0.0
 11
49.9925
 21
1.3638367855
 31
0.0
  0
LINE
  5
E3
330
30
100
AcDbEntity
  8
1
100
AcDbLine
 10
49.9925
 20
1.3638367855
 30
0.0
 11
49.97125
 21
1.376751437347
 31
0.0
  0
LINE
  5
E4
330
30
100
AcDbEntity
  8
1
100
AcDbLine
 10
49.97125
 20
1.376751437347
 30
0.0
 11
49.95
 21
1.389248839513
 31
0.0
  0
LINE
  5
E5
330
30
100
AcDbEntity
  8
1
100
AcDbLine
 10
49.95
 20
1.389248839513
 30
0.0
 11
49.92875
 21
1.40133347003
 31
0.0
  0
LINE
  5
E6
330
30
100
AcDbEntity
  8
1
100
AcDbLine
 10
49.92875
 20
1.40133347003
 30
0.0
 11
49.9075
 21
1.41300936896
 31
0.0
  0
LINE
  5
E7
330
30
100
AcDbEntity
  8
1
100
AcDbLine
 10
49.9075
 20
1.41300936896
 30
0.0
 11
49.88625
 21
1.424280180006
 31
0.0
  0
LINE
  5
E8
330
30
100
AcDbEntity
  8
1
100
AcDbLine
 10
49.88625
 20
1.424280180006
 30
0.0
 11
49.865
 21
1.435149187467
 31
0.0
  0
LINE
  5
E9
330
30
100
AcDbEntity
  8
1
100
AcDbLine
 10
49.865
 20
1.435149187467
 30
0.0
 11
49.84375
 21
1.445619349146
 31
0.0
  0
LINE
  5
EA
330
30
100
AcDbEntity
  8
1
100
AcDbLine
 10
49.84375
 20
1.445619349146
 30
0.0
 11
49.8225
 21
1.455693325725
 31
0.0
  0
LINE
  5
EB
330
30
100
AcDbEntity
  8
1
100
AcDbLine
 10
49.8225
 20
1.455693325725
 30
0.0
 11
49.80125
 21
1.465373507034
 31
0.0
  0
LINE
  5
EC
330
30
100
AcDbEntity
  8
1
100
AcDbLine
 10
49.80125
 20
1.465373507034
 30
0.0
 11
49.78
 21
1.474662035595
 31
0.0
  0
LINE
  5
ED
330
30
100
AcDbEntity
  8
1
100
AcDbLine
 10
49.78
 20
1.474662035595
 30
0.0
 11
49.75875
 21
1.483560827765
 31
0.0
  0
LINE
  5
EE
330
30
100
AcDbEntity
  8
1
100
AcDbLine
 10
49.75875
 20
1.483560827765
 30
0.0
 11
49.7375
 21
1.49207159274
 31
0.0
  0
LINE
  5
EF
330
30
100
AcDbEntity
  8
1
100
AcDbLine
 10
49.7375
 20
1.49207159274
 30
0.0
 11
49.71625
 21
1.500195849677
 31
0.0
  0
LINE
  5
F0
330
30
100
AcDbEntity
  8
1
100
AcDbLine
 10
49.71625
 20
1.500195849677
 30
0.0
 11
49.695
 21
1.507934943126
 31
0.0
  0
LINE
  5
F1
330
30
100
AcDbEntity
  8
1
100
AcDbLine
 10
49.695
 20
1.507934943126
 30
0.0
 11
49.67375
 21
1.515290056966
 31
0.0
  0
LINE
  5
F2
330
30
100
AcDbEntity
  8
1
100
AcDbLine
 10
49.67375
 20
1.515290056966
 30
0.0
 11
49.6525
 21
1.522262226983
 31
0.0
  0
LINE
  5
F3
330
30
100
AcDbEntity
  8
1
100
AcDbLine
 10
49.6525
 20
1.522262226983
 30
0.0
 11
49.63125
 21
1.528852352251
 31
0.0
  0
LINE
  5
F4
330
30
100
AcDbEntity
  8
1
100
AcDbLine
 10
49.63125
 20
1.528852352251
 30
0.0
 11
49.61
 21
1.535061205412
 31
0.0
  0
LINE
  5
F5
330
30
100
AcDbEntity
  8
1
100
AcDbLine
 10
49.61
 20
1.535061205412
 30
0.0
 11
49.58875
 21
1.540889441974
 31
0.0
  0
LINE
  5
F6
330
30
100
AcDbEntity
  8
1
100
AcDbLine
 10
49.58875
 20
1.540889441974
 30
0.0
 11
49.5675
 21
1.546337608717
 31
0.0
  0
LINE
  5
F7
330
30
100
AcDbEntity
  8
1
100
AcDbLine
 10
49.5675
 20
1.546337608717
 30
0.0
 11
49.54625
 21
1.551406151282
 31
0.0
  0
LINE
  5
F8
330
30
100
AcDbEntity
  8
1
100
AcDbLine
 10
49.54625
 20
1.551406151282
 30
0.0
 11
49.525
 21
1.556095421022
 31
0.0
  0
LINE
  5
F9
330
30
100
AcDbEntity
  8
1
100
AcDbLine
 10
49.525
 20
1.556095421022
 30
0.0
 11
49.50375
 21
1.56040568117
 31
0.0
  0
LINE
  5
FA
330
30
100
AcDbEntity
  8
1
100
AcDbLine
 10
49.50375
 20
1.56040568117
 30
0.0
 11
49.4825
 21
1.564337112384
 31
0.0
  0
LINE
  5
FB
330
30
100
AcDbEntity
  8
1
100
AcDbLine
 10
49.4825
 20
1.564337112384
 30
0.0
 11
49.463302007864
 21
1.56756326917
 31
0.0
  0
LINE
  5
FC
330
30
100
AcDbEntity
  8
1
100
AcDbLine
 10
49.2125
 20
1.5875
 30
0.0
 11
49.2125
 21
-1.5875
 31
0.0
  0
LINE
  5
FD
330
30
100
AcDbEntity
  8
1
100
AcDbLine
 10
47.6125
 20
-0.480736045791
 30
0.0
 11
47.63375
 21
-0.492253930049
 31
0.0
  0
LINE
  5
FE
330
30
100
AcDbEntity
  8
1
100
AcDbLine
 10
47.63375
 20
-0.492253930049
 30
0.0
 11
47.655
 21
-0.503742413707
 31
0.0
  0
LINE
  5
FF
330
30
100
AcDbEntity
  8
1
100
AcDbLine
 10
47.655
 20
-0.503742413707
 30
0.0
 11
47.67625
 21
-0.5152008106
 31
0.0
  0
LINE
  5
100
330
30
100
AcDbEntity
  8
1
100
AcDbLine
 10
47.67625
 20
-0.5152008106
 30
0.0
 11
47.6975
 21
-0.526628436357
 31
0.0
  0
LINE
  5
101
330
30
100
AcDbEntity
  8
1
100
AcDbLine
 10
47.6975
 20
-0.526628436357
 30
0.0
 11
47.71875
 21
-0.538024608447
 31
0.0
  0
LINE
  5
102
330
30
100
AcDbEntity
  8
1
100
AcDbLine
 10
47.71875
 20
-0.538024608447
 30
0.0
 11
47.74
 21
-0.549388646217
 31
0.0
  0
LINE
  5
103
330
30
100
AcDbEntity
  8
1
100
AcDbLine
 10
47.74
 20
-0.549388646217
 30
0.0
 11
47.76125
 21
-0.560719870931
 31
0.0
  0
LINE
  5
104
330
30
100
AcDbEntity
  8
1
100
AcDbLine
 10
47.76125
 20
-0.560719870931
 30
0.0
 11
47.7825
 21
-0.572017605816
 31
0.0
  0
LINE
  5
105
330
30
100
AcDbEntity
  8
1
100
AcDbLine
 10
47.7825
 20
-0.572017605816
 30
0.0
 11
47.80375
 21
-0.583281176098
 31
0.0
  0
LINE
  5
106
330
30
100
AcDbEntity
  8
1
100
AcDbLine
 10
47.80375
 20
-0.583281176098
 30
0.0
 11
47.825
 21
-0.594509909043
 31
0.0
  0
LINE
  5
107
330
30
100
AcDbEntity
  8
1
100
AcDbLine
 10
47.825
 20
-0.594509909043
 30
0.0
 11
47.84625
 21
-0.605703133999
 31
0.0
  0
LINE
  5
108
330
30
100
AcDbEntity
  8
1
100
AcDbLine
 10
47.84625
 20
-0.605703133999
 30
0.0
 11
47.8675
 21
-0.616860182434
 31
0.0
  0
LINE
  5
109
330
30
100
AcDbEntity
  8
1
100
AcDbLine
 10
47.8675
 20
-0.616860182434
 30
0.0
 11
47.88875
 21
-0.627980387976
 31
0.0
  0
LINE
  5
10A
330
30
100
AcDbEntity
  8
1
100
AcDbLine
 10
47.88875
 20
-0.627980387976
 30
0.0
 11
47.91
 21
-0.639063086454
 31
0.0
  0
LINE
  5
10B
330
30
100
AcDbEntity
  8
1
100
AcDbLine
 10
47.91
 20
-0.639063086454
 30
0.0
 11
47.93125
 21
-0.650107615937
 31
0.0
  0
LINE
  5
10C
330
30
100
AcDbEntity
  8
1
100
AcDbLine
 10
47.93125
 20
-0.650107615937
 30
0.0
 11
47.9525
 21
-0.661113316776
 31
0.0
  0
LINE
  5
10D
330
30
100
AcDbEntity
  8
1
100
AcDbLine
 10
47.9525
 20
-0.661113316776
 30
0.0
 11
47.97375
 21
-0.672079531637
 31
0.0
  0
LINE
  5
10E
330
30
100
AcDbEntity
  8
1
100
AcDbLine
 10
47.97375
 20
-0.672079531637
 30
0.0
 11
47.995
 21
-0.683005605548
 31
0.0
  0
LINE
  5
10F
330
30
100
AcDbEntity
  8
1
100
AcDbLine
 10
47.995
 20
-0.683005605548
 30
0.0
 11
48.01625
 21
-0.693890885932
 31
0.0
  0
LINE
  5
110
330
30
100
AcDbEntity
  8
1
100
AcDbLine
 10
48.01625
 20
-0.693890885932
 30
0.0
 11
48.0375
 21
-0.704734722649
 31
0.0
  0
LINE
  5
111
330
30
100
AcDbEntity
  8
1
100
AcDbLine
 10
48.0375
 20
-0.704734722649
 30
0.0
 11
48.05875
 21
-0.715536468036
 31
0.0
  0
LINE
  5
112
330
30
100
AcDbEntity
  8
1
100
AcDbLine
 10
48.05875
 20
-0.715536468036
 30
0.0
 11
48.08
 21
-0.726295476943
 31
0.0
  0
LINE
  5
113
330
30
100
AcDbEntity
  8
1
100
AcDbLine
 10
48.08
 20
-0.726295476943
 30
0.0
 11
48.10125
 21
-0.73701110677
 31
0.0
  0
LINE
  5
114
330
30
100
AcDbEntity
  8
1
100
AcDbLine
 10
48.10125
 20
-0.73701110677
 30
0.0
 11
48.1225
 21
-0.747682717512
 31
0.0
  0
LINE
  5
115
330
30
100
AcDbEntity
  8
1
100
AcDbLine
 10
48.1225
 20
-0.747682717512
 30
0.0
 11
48.14375
 21
-0.758309671791
 31
0.0
  0
LINE
  5
116
330
30
100
AcDbEntity
  8
1
100
AcDbLine
 10
48.14375
 20
-0.758309671791
 30
0.0
 11
48.165
 21
-0.768891334895
 31
0.0
  0
LINE
  5
117
330
30
100
AcDbEntity
  8
1
100
AcDbLine
 10
48.165
 20
-0.768891334895
 30
0.0
 11
48.18625
 21
-0.779427074819
 31
0.0
  0
LINE
  5
118
330
30
100
AcDbEntity
  8
1
100
AcDbLine
 10
48.18625
 20
-0.779427074819
 30
0.0
 11
48.2075
 21
-0.789916262301
 31
0.0
  0
LINE
  5
119
330
30
100
AcDbEntity
  8
1
100
AcDbLine
 10
48.2075
 20
-0.789916262301
 30
0.0
 11
48.22875
 21
-0.800358270859
 31
0.0
  0
LINE
  5
11A
330
30
100
AcDbEntity
  8
1
100
AcDbLine
 10
48.22875
 20
-0.800358270859
 30
0.0
 11
48.25
 21
-0.810752476827
 31
0.0
  0
LINE
  5
11B
330
30
100
AcDbEntity
  8
1
100
AcDbLine
 10
48.25
 20
-0.810752476827
 30
0.0
 11
48.27125
 21
-0.821098259396
 31
0.0
  0
LINE
  5
11C
330
30
100
AcDbEntity
  8
1
100
AcDbLine
 10
48.27125
 20
-0.821098259396
 30
0.0
 11
48.2925
 21
-0.831395000649
 31
0.0
  0
LINE
  5
11D
330
30
100
AcDbEntity
  8
1
100
AcDbLine
 10
48.2925
 20
-0.831395000649
 30
0.0
 11
48.31375
 21
-0.841642085598
 31
0.0
  0
LINE
  5
11E
330
30
100
AcDbEntity
  8
1
100
AcDbLine
 10
48.31375
 20
-0.841642085598
 30
0.0
 11
48.335
 21
-0.85183890222
 31
0.0
  0
LINE
  5
11F
330
30
100
AcDbEntity
  8
1
100
AcDbLine
 10
48.335
 20
-0.85183890222
 30
0.0
 11
48.35625
 21
-0.861984841495
 31
0.0
  0
LINE
  5
120
330
30
100
AcDbEntity
  8
1
100
AcDbLine
 10
48.35625
 20
-0.861984841495
 30
0.0
 11
48.3775
 21
-0.872079297443
 31
0.0
  0
LINE
  5
121
330
30
100
AcDbEntity
  8
1
100
AcDbLine
 10
48.3775
 20
-0.872079297443
 30
0.0
 11
48.39875
 21
-0.882121667156
 31
0.0
  0
LINE
  5
122
330
30
100
AcDbEntity
  8
1
100
AcDbLine
 10
48.39875
 20
-0.882121667156
 30
0.0
 11
48.42
 21
-0.892111350839
 31
0.0
  0
LINE
  5
123
330
30
100
AcDbEntity
  8
1
100
AcDbLine
 10
48.42
 20
-0.892111350839
 30
0.0
 11
48.44125
 21
-0.902047751844
 31
0.0
  0
LINE
  5
124
330
30
100
AcDbEntity
  8
1
100
AcDbLine
 10
48.44125
 20
-0.902047751844
 30
0.0
 11
48.4625
 21
-0.911930276703
 31
0.0
  0
LINE
  5
125
330
30
100
AcDbEntity
  8
1
100
AcDbLine
 10
48.4625
 20
-0.911930276703
 30
0.0
 11
48.48375
 21
-0.921758335169
 31
0.0
  0
LINE
  5
126
330
30
100
AcDbEntity
  8
1
100
AcDbLine
 10
48.48375
 20
-0.921758335169
 30
0.0
 11
48.505
 21
-0.931531340246
 31
0.0
  0
LINE
  5
127
330
30
100
AcDbEntity
  8
1
100
AcDbLine
 10
48.505
 20
-0.931531340246
 30
0.0
 11
48.52625
 21
-0.941248708227
 31
0.0
  0
LINE
  5
128
330
30
100
AcDbEntity
  8
1
100
AcDbLine
 10
48.52625
 20
-0.941248708227
 30
0.0
 11
48.5475
 21
-0.950909858727
 31
0.0
  0
LINE
  5
129
330
30
100
AcDbEntity
  8
1
100
AcDbLine
 10
48.5475
 20
-0.950909858727
 30
0.0
 11
48.56875
 21
-0.960514214721
 31
0.0
  0
LINE
  5
12A
330
30
100
AcDbEntity
  8
1
100
AcDbLine
 10
48.56875
 20
-0.960514214721
 30
0.0
 11
48.59
 21
-0.970061202573
 31
0.0
  0
LINE
  5
12B
330
30
100
AcDbEntity
  8
1
100
AcDbLine
 10
48.59
 20
-0.970061202573
 30
0.0
 11
48.61125
 21
-0.979550252075
 31
0.0
  0
LINE
  5
12C
330
30
100
AcDbEntity
  8
1
100
AcDbLine
 10
48.61125
 20
-0.979550252075
 30
0.0
 11
48.6325
 21
-0.98898079648
 31
0.0
  0
LINE
  5
12D
330
30
100
AcDbEntity
  8
1
100
AcDbLine
 10
48.6325
 20
-0.98898079648
 30
0.0
 11
48.65375
 21
-0.998352272534
 31
0.0
  0
LINE
  5
12E
330
30
100
AcDbEntity
  8
1
100
AcDbLine
 10
48.65375
 20
-0.998352272534
 30
0.0
 11
48.675
 21
-1.007664120513
 31
0.0
  0
LINE
  5
12F
330
30
100
AcDbEntity
  8
1
100
AcDbLine
 10
48.675
 20
-1.007664120513
 30
0.0
 11
48.69625
 21
-1.016915784252
 31
0.0
  0
LINE
  5
130
330
30
100
AcDbEntity
  8
1
100
AcDbLine
 10
48.69625
 20
-1.016915784252
 30
0.0
 11
48.7175
 21
-1.026106711181
 31
0.0
  0
LINE
  5
131
330
30
100
AcDbEntity
  8
1
100
AcDbLine
 10
48.7175
 20
-1.026106711181
 30
0.0
 11
48.73875
 21
-1.03523635236
 31
0.0
  0
LINE
  5
132
330
30
100
AcDbEntity
  8
1
100
AcDbLine
 10
48.73875
 20
-1.03523635236
 30
0.0
 11
48.76
 21
-1.044304162506
 31
0.0
  0
LINE
  5
133
330
30
100
AcDbEntity
  8
1
100
AcDbLine
 10
48.76
 20
-1.044304162506
 30
0.0
 11
48.78125
 21
-1.053309600031
 31
0.0
  0
LINE
  5
134
330
30
100
AcDbEntity
  8
1
100
AcDbLine
 10
48.78125
 20
-1.053309600031
 30
0.0
 11
48.8025
 21
-1.062252127072
 31
0.0
  0
LINE
  5
135
330
30
100
AcDbEntity
  8
1
100
AcDbLine
 10
48.8025
 20
-1.062252127072
 30
0.0
 11
48.82375
 21
-1.071131209523
 31
0.0
  0
LINE
  5
136
330
30
100
AcDbEntity
  8
1
100
AcDbLine
 10
48.82375
 20
-1.071131209523
 30
0.0
 11
48.845
 21
-1.079946317068
 31
0.0
  0
LINE
  5
137
330
30
100
AcDbEntity
  8
1
100
AcDbLine
 10
48.845
 20
-1.079946317068
 30
0.0
 11
48.86625
 21
-1.088696923211
 31
0.0
  0
LINE
  5
138
330
30
100
AcDbEntity
  8
1
100
AcDbLine
 10
48.86625
 20
-1.088696923211
 30
0.0
 11
48.8875
 21
-1.09738250531
 31
0.0
  0
LINE
  5
139
330
30
100
AcDbEntity
  8
1
100
AcDbLine
 10
48.8875
 20
-1.09738250531
 30
0.0
 11
48.90875
 21
-1.106002544605
 31
0.0
  0
LINE
  5
13A
330
30
100
AcDbEntity
  8
1
100
AcDbLine
 10
48.90875
 20
-1.106002544605
 30
0.0
 11
48.93
 21
-1.114556526251
 31
0.0
  0
LINE
  5
13B
330
30
100
AcDbEntity
  8
1
100
AcDbLine
 10
48.93
 20
-1.114556526251
 30
0.0
 11
48.95125
 21
-1.123043939349
 31
0.0
  0
LINE
  5
13C
330
30
100
AcDbEntity
  8
1
100
AcDbLine
 10
48.95125
 20
-1.123043939349
 30
0.0
 11
48.9725
 21
-1.131464276976
 31
0.0
  0
LINE
  5
13D
330
30
100
AcDbEntity
  8
1
100
AcDbLine
 10
48.9725
 20
-1.131464276976
 30
0.0
 11
48.99375
 21
-1.139817036214
 31
0.0
  0
LINE
  5
13E
330
30
100
AcDbEntity
  8
1
100
AcDbLine
 10
48.99375
 20
-1.139817036214
 30
0.0
 11
49.015
 21
-1.148101718183
 31
0.0
  0
LINE
  5
13F
330
30
100
AcDbEntity
  8
1
100
AcDbLine
 10
49.015
 20
-1.148101718183
 30
0.0
 11
49.03625
 21
-1.156317828067
 31
0.0
  0
LINE
  5
140
330
30
100
AcDbEntity
  8
1
100
AcDbLine
 10
49.03625
 20
-1.156317828067
 30
0.0
 11
49.0575
 21
-1.164464875148
 31
0.0
  0
LINE
  5
141
330
30
100
AcDbEntity
  8
1
100
AcDbLine
 10
49.0575
 20
-1.164464875148
 30
0.0
 11
49.07875
 21
-1.17254237283
 31
0.0
  0
LINE
  5
142
330
30
100
AcDbEntity
  8
1
100
AcDbLine
 10
49.07875
 20
-1.17254237283
 30
0.0
 11
49.1
 21
-1.180549838673
 31
0.0
  0
LINE
  5
143
330
30
100
AcDbEntity
  8
1
100
AcDbLine
 10
49.1
 20
-1.180549838673
 30
0.0
 11
49.12125
 21
-1.188486794419
 31
0.0
  0
LINE
  5
144
330
30
100
AcDbEntity
  8
1
100
AcDbLine
 10
49.12125
 20
-1.188486794419
 30
0.0
 11
49.1425
 21
-1.196352766022
 31
0.0
  0
LINE
  5
145
330
30
100
AcDbEntity
  8
1
100
AcDbLine
 10
49.1425
 20
-1.196352766022
 30
0.0
 11
49.16375
 21
-1.204147283675
 31
0.0
  0
LINE
  5
146
330
30
100
AcDbEntity
  8
1
100
AcDbLine
 10
49.16375
 20
-1.204147283675
 30
0.0
 11
49.185
 21
-1.211869881839
 31
0.0
  0
LINE
  5
147
330
30
100
AcDbEntity
  8
1
100
AcDbLine
 10
49.185
 20
-1.211869881839
 30
0.0
 11
49.20625
 21
-1.21952009927
 31
0.0
  0
LINE
  5
148
330
30
100
AcDbEntity
  8
1
100
AcDbLine
 10
49.20625
 20
-1.21952009927
 30
0.0
 11
49.2275
 21
-1.227031766277
 31
0.0
  0
LINE
  5
149
330
30
100
AcDbEntity
  8
1
100
AcDbLine
 10
49.2275
 20
-1.227031766277
 30
0.0
 11
49.24875
 21
-1.23421637222
 31
0.0
  0
LINE
  5
14A
330
30
100
AcDbEntity
  8
1
100
AcDbLine
 10
49.24875
 20
-1.23421637222
 30
0.0
 11
49.27
 21
-1.241059150158
 31
0.0
  0
LINE
  5
14B
330
30
100
AcDbEntity
  8
1
100
AcDbLine
 10
49.27
 20
-1.241059150158
 30
0.0
 11
49.29125
 21
-1.247556647252
 31
0.0
  0
LINE
  5
14C
330
30
100
AcDbEntity
  8
1
100
AcDbLine
 10
49.29125
 20
-1.247556647252
 30
0.0
 11
49.3125
 21
-1.253705355155
 31
0.0
  0
LINE
  5
14D
330
30
100
AcDbEntity
  8
1
100
AcDbLine
 10
49.3125
 20
-1.253705355155
 30
0.0
 11
49.33375
 21
-1.259501706845
 31
0.0
  0
LINE
  5
14E
330
30
100
AcDbEntity
  8
1
100
AcDbLine
 10
49.33375
 20
-1.259501706845
 30
0.0
 11
49.355
 21
-1.264942073124
 31
0.0
  0
LINE
  5
14F
330
30
100
AcDbEntity
  8
1
100
AcDbLine
 10
49.355
 20
-1.264942073124
 30
0.0
 11
49.37625
 21
-1.270022758736
 31
0.0
  0
LINE
  5
150
330
30
100
AcDbEntity
  8
1
100
AcDbLine
 10
49.37625
 20
-1.270022758736
 30
0.0
 11
49.3975
 21
-1.274739998112
 31
0.0
  0
LINE
  5
151
330
30
100
AcDbEntity
  8
1
100
AcDbLine
 10
49.3975
 20
-1.274739998112
 30
0.0
 11
49.41875
 21
-1.279089950693
 31
0.0
  0
LINE
  5
152
330
30
100
AcDbEntity
  8
1
100
AcDbLine
 10
49.41875
 20
-1.279089950693
 30
0.0
 11
49.44
 21
-1.283068695816
 31
0.0
  0
LINE
  5
153
330
30
100
AcDbEntity
  8
1
100
AcDbLine
 10
49.44
 20
-1.283068695816
 30
0.0
 11
49.46125
 21
-1.286672227123
 31
0.0
  0
LINE
  5
154
330
30
100
AcDbEntity
  8
1
100
AcDbLine
 10
49.46125
 20
-1.286672227123
 30
0.0
 11
49.4825
 21
-1.289896446464
 31
0.0
  0
LINE
  5
155
330
30
100
AcDbEntity
  8
1
100
AcDbLine
 10
49.4825
 20
-1.289896446464
 30
0.0
 11
49.50375
 21
-1.292737157245
 31
0.0
  0
LINE
  5
156
330
30
100
AcDbEntity
  8
1
100
AcDbLine
 10
49.50375
 20
-1.292737157245
 30
0.0
 11
49.525
 21
-1.295190057187
 31
0.0
  0
LINE
  5
157
330
30
100
AcDbEntity
  8
1
100
AcDbLine
 10
49.525
 20
-1.295190057187
 30
0.0
 11
49.54625
 21
-1.297250730425
 31
0.0
  0
LINE
  5
158
330
30
100
AcDbEntity
  8
1
100
AcDbLine
 10
49.54625
 20
-1.297250730425
 30
0.0
 11
49.5675
 21
-1.298914638917
 31
0.0
  0
LINE
  5
159
330
30
100
AcDbEntity
  8
1
100
AcDbLine
 10
49.5675
 20
-1.298914638917
 30
0.0
 11
49.58875
 21
-1.300177113073
 31
0.0
  0
LINE
  5
15A
330
30
100
AcDbEntity
  8
1
100
AcDbLine
 10
49.58875
 20
-1.300177113073
 30
0.0
 11
49.61
 21
-1.301033341549
 31
0.0
  0
LINE
  5
15B
330
30
100
AcDbEntity
  8
1
100
AcDbLine
 10
49.61
 20
-1.301033341549
 30
0.0
 11
49.63125
 21
-1.301478360116
 31
0.0
  0
LINE
  5
15C
330
30
100
AcDbEntity
  8
1
100
AcDbLine
 10
49.63125
 20
-1.301478360116
 30
0.0
 11
49.6525
 21
-1.30150703951
 31
0.0
  0
LINE
  5
15D
330
30
100
AcDbEntity
  8
1
100
AcDbLine
 10
49.6525
 20
-1.30150703951
 30
0.0
 11
49.67375
 21
-1.301114072176
 31
0.0
  0
LINE
  5
15E
330
30
100
AcDbEntity
  8
1
100
AcDbLine
 10
49.67375
 20
-1.301114072176
 30
0.0
 11
49.695
 21
-1.300293957766
 31
0.0
  0
LINE
  5
15F
330
30
100
AcDbEntity
  8
1
100
AcDbLine
 10
49.695
 20
-1.300293957766
 30
0.0
 11
49.71625
 21
-1.299040987277
 31
0.0
  0
LINE
  5
160
330
30
100
AcDbEntity
  8
1
100
AcDbLine
 10
49.71625
 20
-1.299040987277
 30
0.0
 11
49.7375
 21
-1.297349225672
 31
0.0
  0
LINE
  5
161
330
30
100
AcDbEntity
  8
1
100
AcDbLine
 10
49.7375
 20
-1.297349225672
 30
0.0
 11
49.75875
 21
-1.295212492818
 31
0.0
  0
LINE
  5
162
330
30
100
AcDbEntity
  8
1
100
AcDbLine
 10
49.75875
 20
-1.295212492818
 30
0.0
 11
49.78
 21
-1.292624342536
 31
0.0
  0
LINE
  5
163
330
30
100
AcDbEntity
  8
1
100
AcDbLine
 10
49.78
 20
-1.292624342536
 30
0.0
 11
49.80125
 21
-1.289578039563
 31
0.0
  0
LINE
  5
164
330
30
100
AcDbEntity
  8
1
100
AcDbLine
 10
49.80125
 20
-1.289578039563
 30
0.0
 11
49.8225
 21
-1.286066534152
 31
0.0
  0
LINE
  5
165
330
30
100
AcDbEntity
  8
1
100
AcDbLine
 10
49.8225
 20
-1.286066534152
 30
0.0
 11
49.84375
 21
-1.282082434033
 31
0.0
  0
LINE
  5
166
330
30
100
AcDbEntity
  8
1
100
AcDbLine
 10
49.84375
 20
-1.282082434033
 30
0.0
 11
49.865
 21
-1.277617973394
 31
0.0
  0
LINE
  5
167
330
30
100
AcDbEntity
  8
1
100
AcDbLine
 10
49.865
 20
-1.277617973394
 30
0.0
 11
49.88625
 21
-1.272664978505
 31
0.0
  0
LINE
  5
168
330
30
100
AcDbEntity
  8
1
100
AcDbLine
 10
49.88625
 20
-1.272664978505
 30
0.0
 11
49.9075
 21
-1.267214829528
 31
0.0
  0
LINE
  5
169
330
30
100
AcDbEntity
  8
1
100
AcDbLine
 10
49.9075
 20
-1.267214829528
 30
0.0
 11
49.92875
 21
-1.261258418008
 31
0.0
  0
LINE
  5
16A
330
30
100
AcDbEntity
  8
1
100
AcDbLine
 10
49.92875
 20
-1.261258418008
 30
0.0
 11
49.95
 21
-1.254786099425
 31
0.0
  0
LINE
  5
16B
330
30
100
AcDbEntity
  8
1
100
AcDbLine
 10
49.95
 20
-1.254786099425
 30
0.0
 11
49.97125
 21
-1.247787640122
 31
0.0
  0
LINE
  5
16C
330
30
100
AcDbEntity
  8
1
100
AcDbLine
 10
49.97125
 20
-1.247787640122
 30
0.0
 11
49.9925
 21
-1.240252157758
 31
0.0
  0
LINE
  5
16D
330
30
100
AcDbEntity
  8
1
100
AcDbLine
 10
49.9925
 20
-1.240252157758
 30
0.0
 11
50.01375
 21
-1.232168054324
 31
0.0
  0
LINE
  5
16E
330
30
100
AcDbEntity
  8
1
100
AcDbLine
 10
50.01375
 20
-1.232168054324
 30
0.0
 11
50.035
 21
-1.223522940562
 31
0.0
  0
LINE
  5
16F
330
30
100
AcDbEntity
  8
1
100
AcDbLine
 10
50.035
 20
-1.223522940562
 30
0.0
 11
50.05625
 21
-1.2143035504
 31
0.0
  0
LINE
  5
170
330
30
100
AcDbEntity
  8
1
100
AcDbLine
 10
50.05625
 20
-1.2143035504
 30
0.0
 11
50.0775
 21
-1.20449564378
 31
0.0
  0
LINE
  5
171
330
30
100
AcDbEntity
  8
1
100
AcDbLine
 10
50.0775
 20
-1.20449564378
 30
0.0
 11
50.09875
 21
-1.194083895881
 31
0.0
  0
LINE
  5
172
330
30
100
AcDbEntity
  8
1
100
AcDbLine
 10
50.09875
 20
-1.194083895881
 30
0.0
 11
50.12
 21
-1.183051770376
 31
0.0
  0
LINE
  5
173
330
30
100
AcDbEntity
  8
1
100
AcDbLine
 10
50.12
 20
-1.183051770376
 30
0.0
 11
50.14125
 21
-1.171381373816
 31
0.0
  0
LINE
  5
174
330
30
100
AcDbEntity
  8
1
100
AcDbLine
 10
50.14125
 20
-1.171381373816
 30
0.0
 11
50.1625
 21
-1.159053287615
 31
0.0
  0
LINE
  5
175
330
30
100
AcDbEntity
  8
1
100
AcDbLine
 10
50.1625
 20
-1.159053287615
 30
0.0
 11
50.18375
 21
-1.1460463733
 31
0.0
  0
LINE
  5
176
330
30
100
AcDbEntity
  8
1
100
AcDbLine
 10
50.18375
 20
-1.1460463733
 30
0.0
 11
50.205
 21
-1.132337545654
 31
0.0
  0
LINE
  5
177
330
30
100
AcDbEntity
  8
1
100
AcDbLine
 10
50.205
 20
-1.132337545654
 30
0.0
 11
50.22625
 21
-1.117901507066
 31
0.0
  0
LINE
  5
178
330
30
100
AcDbEntity
  8
1
100
AcDbLine
 10
50.22625
 20
-1.117901507066
 30
0.0
 11
50.2475
 21
-1.102710434705
 31
0.0
  0
LINE
  5
179
330
30
100
AcDbEntity
  8
1
100
AcDbLine
 10
50.2475
 20
-1.102710434705
 30
0.0
 11
50.26875
 21
-1.086733609872
 31
0.0
  0
LINE
  5
17A
330
30
100
AcDbEntity
  8
1
100
AcDbLine
 10
50.26875
 20
-1.086733609872
 30
0.0
 11
50.29
 21
-1.069936975978
 31
0.0
  0
LINE
  5
17B
330
30
100
AcDbEntity
  8
1
100
AcDbLine
 10
50.29
 20
-1.069936975978
 30
0.0
 11
50.31125
 21
-1.052282607657
 31
0.0
  0
LINE
  5
17C
330
30
100
AcDbEntity
  8
1
100
AcDbLine
 10
50.31125
 20
-1.052282607657
 30
0.0
 11
50.3325
 21
-1.03372806822
 31
0.0
  0
LINE
  5
17D
330
30
100
AcDbEntity
  8
1
100
AcDbLine
 10
50.3325
 20
-1.03372806822
 30
0.0
 11
50.35375
 21
-1.014225625452
 31
0.0
  0
LINE
  5
17E
330
30
100
AcDbEntity
  8
1
100
AcDbLine
 10
50.35375
 20
-1.014225625452
 30
0.0
 11
50.375
 21
-0.993721285744
 31
0.0
  0
LINE
  5
17F
330
30
100
AcDbEntity
  8
1
100
AcDbLine
 10
50.375
 20
-0.993721285744
 30
0.0
 11
50.39625
 21
-0.972153592522
 31
0.0
  0
LINE
  5
180
330
30
100
AcDbEntity
  8
1
100
AcDbLine
 10
50.39625
 20
-0.972153592522
 30
0.0
 11
50.4175
 21
-0.94945211489
 31
0.0
  0
LINE
  5
181
330
30
100
AcDbEntity
  8
1
100
AcDbLine
 10
50.4175
 20
-0.94945211489
 30
0.0
 11
50.43875
 21
-0.925535523319
 31
0.0
  0
LINE
  5
182
330
30
100
AcDbEntity
  8
1
100
AcDbLine
 10
50.43875
 20
-0.925535523319
 30
0.0
 11
50.46
 21
-0.900309106119
 31
0.0
  0
LINE
  5
183
330
30
100
AcDbEntity
  8
1
100
AcDbLine
 10
50.46
 20
-0.900309106119
 30
0.0
 11
50.48125
 21
-0.873661515204
 31
0.0
  0
LINE
  5
184
330
30
100
AcDbEntity
  8
1
100
AcDbLine
 10
50.48125
 20
-0.873661515204
 30
0.0
 11
50.5025
 21
-0.845460428556
 31
0.0
  0
LINE
  5
185
330
30
100
AcDbEntity
  8
1
100
AcDbLine
 10
50.5025
 20
-0.845460428556
 30
0.0
 11
50.52375
 21
-0.815546655624
 31
0.0
  0
LINE
  5
186
330
30
100
AcDbEntity
  8
1
100
AcDbLine
 10
50.52375
 20
-0.815546655624
 30
0.0
 11
50.545
 21
-0.783725947153
 31
0.0
  0
LINE
  5
187
330
30
100
AcDbEntity
  8
1
100
AcDbLine
 10
50.545
 20
-0.783725947153
 30
0.0
 11
50.56625
 21
-0.749757320038
 31
0.0
  0
LINE
  5
188
330
30
100
AcDbEntity
  8
1
100
AcDbLine
 10
50.56625
 20
-0.749757320038
 30
0.0
 11
50.5875
 21
-0.713335908276
 31
0.0
  0
LINE
  5
189
330
30
100
AcDbEntity
  8
1
100
AcDbLine
 10
50.5875
 20
-0.713335908276
 30
0.0
 11
50.60875
 21
-0.67406686346
 31
0.0
  0
LINE
  5
18A
330
30
100
AcDbEntity
  8
1
100
AcDbLine
 10
50.60875
 20
-0.67406686346
 30
0.0
 11
50.63
 21
-0.631423898847
 31
0.0
  0
LINE
  5
18B
330
30
100
AcDbEntity
  8
1
100
AcDbLine
 10
50.63
 20
-0.631423898847
 30
0.0
 11
50.65125
 21
-0.584679891659
 31
0.0
  0
LINE
  5
18C
330
30
100
AcDbEntity
  8
1
100
AcDbLine
 10
50.65125
 20
-0.584679891659
 30
0.0
 11
50.6725
 21
-0.534371318328
 31
0.0
  0
LINE
  5
18D
330
30
100
AcDbEntity
  8
1
100
AcDbLine
 10
50.6725
 20
-0.534371318328
 30
0.0
 11
50.69375
 21
-0.48244800656
 31
0.0
  0
LINE
  5
18E
330
30
100
AcDbEntity
  8
1
100
AcDbLine
 10
50.69375
 20
-0.48244800656
 30
0.0
 11
50.715
 21
-0.429026695734
 31
0.0
  0
LINE
  5
18F
330
30
100
AcDbEntity
  8
1
100
AcDbLine
 10
50.715
 20
-0.429026695734
 30
0.0
 11
50.73625
 21
-0.374981393154
 31
0.0
  0
LINE
  5
190
330
30
100
AcDbEntity
  8
1
100
AcDbLine
 10
50.73625
 20
-0.374981393154
 30
0.0
 11
50.7575
 21
-0.325296666318
 31
0.0
  0
LINE
  5
191
330
30
100
AcDbEntity
  8
1
100
AcDbLine
 10
50.7575
 20
-0.325296666318
 30
0.0
 11
50.7575
 21
-0.364871552742
 31
0.0
  0
LINE
  5
192
330
30
100
AcDbEntity
  8
1
100
AcDbLine
 10
50.7575
 20
-0.363942511665
 30
0.0
 11
50.7575
 21
-0.364871552742
 31
0.0
  0
LINE
  5
193
330
30
100
AcDbEntity
  8
1
100
AcDbLine
 10
50.7575
 20
-0.364871552742
 30
0.0
 11
50.7575
 21
-0.363942511665
 31
0.0
  0
LINE
  5
194
330
30
100
AcDbEntity
  8
1
100
AcDbLine
 10
50.7575
 20
-0.363942511665
 30
0.0
 11
50.73625
 21
-0.435167360482
 31
0.0
  0
LINE
  5
195
330
30
100
AcDbEntity
  8
1
100
AcDbLine
 10
50.73625
 20
-0.435167360482
 30
0.0
 11
50.715
 21
-0.49554990752
 31
0.0
  0
LINE
  5
196
330
30
100
AcDbEntity
  8
1
100
AcDbLine
 10
50.715
 20
-0.49554990752
 30
0.0
 11
50.69375
 21
-0.550526181634
 31
0.0
  0
LINE
  5
197
330
30
100
AcDbEntity
  8
1
100
AcDbLine
 10
50.69375
 20
-0.550526181634
 30
0.0
 11
50.6725
 21
-0.601763408611
 31
0.0
  0
LINE
  5
198
330
30
100
AcDbEntity
  8
1
100
AcDbLine
 10
50.6725
 20
-0.601763408611
 30
0.0
 11
50.65125
 21
-0.650072754146
 31
0.0
  0
LINE
  5
199
330
30
100
AcDbEntity
  8
1
100
AcDbLine
 10
50.65125
 20
-0.650072754146
 30
0.0
 11
50.63
 21
-0.694848265639
 31
0.0
  0
LINE
  5
19A
330
30
100
AcDbEntity
  8
1
100
AcDbLine
 10
50.63
 20
-0.694848265639
 30
0.0
 11
50.60875
 21
-0.736073287934
 31
0.0
  0
LINE
  5
19B
330
30
100
AcDbEntity
  8
1
100
AcDbLine
 10
50.60875
 20
-0.736073287934
 30
0.0
 11
50.5875
 21
-0.774333114363
 31
0.0
  0
LINE
  5
19C
330
30
100
AcDbEntity
  8
1
100
AcDbLine
 10
50.5875
 20
-0.774333114363
 30
0.0
 11
50.56625
 21
-0.810058390425
 31
0.0
  0
LINE
  5
19D
330
30
100
AcDbEntity
  8
1
100
AcDbLine
 10
50.56625
 20
-0.810058390425
 30
0.0
 11
50.545
 21
-0.843576812599
 31
0.0
  0
LINE
  5
19E
330
30
100
AcDbEntity
  8
1
100
AcDbLine
 10
50.545
 20
-0.843576812599
 30
0.0
 11
50.52375
 21
-0.87514452472
 31
0.0
  0
LINE
  5
19F
330
30
100
AcDbEntity
  8
1
100
AcDbLine
 10
50.52375
 20
-0.87514452472
 30
0.0
 11
50.5025
 21
-0.904966183493
 31
0.0
  0
LINE
  5
1A0
330
30
100
AcDbEntity
  8
1
100
AcDbLine
 10
50.5025
 20
-0.904966183493
 30
0.0
 11
50.48125
 21
-0.933208324278
 31
0.0
  0
LINE
  5
1A1
330
30
100
AcDbEntity
  8
1
100
AcDbLine
 10
50.48125
 20
-0.933208324278
 30
0.0
 11
50.46
 21
-0.960008574475
 31
0.0
  0
LINE
  5
1A2
330
30
100
AcDbEntity
  8
1
100
AcDbLine
 10
50.46
 20
-0.960008574475
 30
0.0
 11
50.43875
 21
-0.985482190494
 31
0.0
  0
LINE
  5
1A3
330
30
100
AcDbEntity
  8
1
100
AcDbLine
 10
50.43875
 20
-0.985482190494
 30
0.0
 11
50.4175
 21
-1.009726811528
 31
0.0
  0
LINE
  5
1A4
330
30
100
AcDbEntity
  8
1
100
AcDbLine
 10
50.4175
 20
-1.009726811528
 30
0.0
 11
50.39625
 21
-1.032825991002
 31
0.0
  0
LINE
  5
1A5
330
30
100
AcDbEntity
  8
1
100
AcDbLine
 10
50.39625
 20
-1.032825991002
 30
0.0
 11
50.375
 21
-1.054851869267
 31
0.0
  0
LINE
  5
1A6
330
30
100
AcDbEntity
  8
1
100
AcDbLine
 10
50.375
 20
-1.054851869267
 30
0.0
 11
50.35375
 21
-1.07586722978
 31
0.0
  0
LINE
  5
1A7
330
30
100
AcDbEntity
  8
1
100
AcDbLine
 10
50.35375
 20
-1.07586722978
 30
0.0
 11
50.3325
 21
-1.095927104171
 31
0.0
  0
LINE
  5
1A8
330
30
100
AcDbEntity
  8
1
100
AcDbLine
 10
50.3325
 20
-1.095927104171
 30
0.0
 11
50.31125
 21
-1.115080041569
 31
0.0
  0
LINE
  5
1A9
330
30
100
AcDbEntity
  8
1
100
AcDbLine
 10
50.31125
 20
-1.115080041569
 30
0.0
 11
50.29
 21
-1.133369124226
 31
0.0
  0
LINE
  5
1AA
330
30
100
AcDbEntity
  8
1
100
AcDbLine
 10
50.29
 20
-1.133369124226
 30
0.0
 11
50.26875
 21
-1.150832788776
 31
0.0
  0
LINE
  5
1AB
330
30
100
AcDbEntity
  8
1
100
AcDbLine
 10
50.26875
 20
-1.150832788776
 30
0.0
 11
50.2475
 21
-1.167505496739
 31
0.0
  0
LINE
  5
1AC
330
30
100
AcDbEntity
  8
1
100
AcDbLine
 10
50.2475
 20
-1.167505496739
 30
0.0
 11
50.22625
 21
-1.183418286759
 31
0.0
  0
LINE
  5
1AD
330
30
100
AcDbEntity
  8
1
100
AcDbLine
 10
50.22625
 20
-1.183418286759
 30
0.0
 11
50.205
 21
-1.198599233101
 31
0.0
  0
LINE
  5
1AE
330
30
100
AcDbEntity
  8
1
100
AcDbLine
 10
50.205
 20
-1.198599233101
 30
0.0
 11
50.18375
 21
-1.213073829142
 31
0.0
  0
LINE
  5
1AF
330
30
100
AcDbEntity
  8
1
100
AcDbLine
 10
50.18375
 20
-1.213073829142
 30
0.0
 11
50.1625
 21
-1.226865310314
 31
0.0
  0
LINE
  5
1B0
330
30
100
AcDbEntity
  8
1
100
AcDbLine
 10
50.1625
 20
-1.226865310314
 30
0.0
 11
50.14125
 21
-1.23999492778
 31
0.0
  0
LINE
  5
1B1
330
30
100
AcDbEntity
  8
1
100
AcDbLine
 10
50.14125
 20
-1.23999492778
 30
0.0
 11
50.12
 21
-1.252482181707
 31
0.0
  0
LINE
  5
1B2
330
30
100
AcDbEntity
  8
1
100
AcDbLine
 10
50.12
 20
-1.252482181707
 30
0.0
 11
50.09875
 21
-1.264345021204
 31
0.0
  0
LINE
  5
1B3
330
30
100
AcDbEntity
  8
1
100
AcDbLine
 10
50.09875
 20
-1.264345021204
 30
0.0
 11
50.0775
 21
-1.275600016543
 31
0.0
  0
LINE
  5
1B4
330
30
100
AcDbEntity
  8
1
100
AcDbLine
 10
50.0775
 20
-1.275600016543
 30
0.0
 11
50.05625
 21
-1.286262508208
 31
0.0
  0
LINE
  5
1B5
330
30
100
AcDbEntity
  8
1
100
AcDbLine
 10
50.05625
 20
-1.286262508208
 30
0.0
 11
50.035
 21
-1.296346736481
 31
0.0
  0
LINE
  5
1B6
330
30
100
AcDbEntity
  8
1
100
AcDbLine
 10
50.035
 20
-1.296346736481
 30
0.0
 11
50.01375
 21
-1.30586595455
 31
0.0
  0
LINE
  5
1B7
330
30
100
AcDbEntity
  8
1
100
AcDbLine
 10
50.01375
 20
-1.30586595455
 30
0.0
 11
49.9925
 21
-1.314832527638
 31
0.0
  0
LINE
  5
1B8
330
30
100
AcDbEntity
  8
1
100
AcDbLine
 10
49.9925
 20
-1.314832527638
 30
0.0
 11
49.97125
 21
-1.323258020201
 31
0.0
  0
LINE
  5
1B9
330
30
100
AcDbEntity
  8
1
100
AcDbLine
 10
49.97125
 20
-1.323258020201
 30
0.0
 11
49.95
 21
-1.33115327288
 31
0.0
  0
LINE
  5
1BA
330
30
100
AcDbEntity
  8
1
100
AcDbLine
 10
49.95
 20
-1.33115327288
 30
0.0
 11
49.92875
 21
-1.338528470651
 31
0.0
  0
LINE
  5
1BB
330
30
100
AcDbEntity
  8
1
100
AcDbLine
 10
49.92875
 20
-1.338528470651
 30
0.0
 11
49.9075
 21
-1.345393203353
 31
0.0
  0
LINE
  5
1BC
330
30
100
AcDbEntity
  8
1
100
AcDbLine
 10
49.9075
 20
-1.345393203353
 30
0.0
 11
49.88625
 21
-1.351756519613
 31
0.0
  0
LINE
  5
1BD
330
30
100
AcDbEntity
  8
1
100
AcDbLine
 10
49.88625
 20
-1.351756519613
 30
0.0
 11
49.865
 21
-1.357626975007
 31
0.0
  0
LINE
  5
1BE
330
30
100
AcDbEntity
  8
1
100
AcDbLine
 10
49.865
 20
-1.357626975007
 30
0.0
 11
49.84375
 21
-1.3630126752
 31
0.0
  0
LINE
  5
1BF
330
30
100
AcDbEntity
  8
1
100
AcDbLine
 10
49.84375
 20
-1.3630126752
 30
0.0
 11
49.8225
 21
-1.367921314672
 31
0.0
  0
LINE
  5
1C0
330
30
100
AcDbEntity
  8
1
100
AcDbLine
 10
49.8225
 20
-1.367921314672
 30
0.0
 11
49.80125
 21
-1.372360211562
 31
0.0
  0
LINE
  5
1C1
330
30
100
AcDbEntity
  8
1
100
AcDbLine
 10
49.80125
 20
-1.372360211562
 30
0.0
 11
49.78
 21
-1.376336339103
 31
0.0
  0
LINE
  5
1C2
330
30
100
AcDbEntity
  8
1
100
AcDbLine
 10
49.78
 20
-1.376336339103
 30
0.0
 11
49.75875
 21
-1.379856354014
 31
0.0
  0
LINE
  5
1C3
330
30
100
AcDbEntity
  8
1
100
AcDbLine
 10
49.75875
 20
-1.379856354014
 30
0.0
 11
49.7375
 21
-1.382926622216
 31
0.0
  0
LINE
  5
1C4
330
30
100
AcDbEntity
  8
1
100
AcDbLine
 10
49.7375
 20
-1.382926622216
 30
0.0
 11
49.71625
 21
-1.385553242161
 31
0.0
  0
LINE
  5
1C5
330
30
100
AcDbEntity
  8
1
100
AcDbLine
 10
49.71625
 20
-1.385553242161
 30
0.0
 11
49.695
 21
-1.387742066022
 31
0.0
  0
LINE
  5
1C6
330
30
100
AcDbEntity
  8
1
100
AcDbLine
 10
49.695
 20
-1.387742066022
 30
0.0
 11
49.67375
 21
-1.38949871898
 31
0.0
  0
LINE
  5
1C7
330
30
100
AcDbEntity
  8
1
100
AcDbLine
 10
49.67375
 20
-1.38949871898
 30
0.0
 11
49.6525
 21
-1.390828616811
 31
0.0
  0
LINE
  5
1C8
330
30
100
AcDbEntity
  8
1
100
AcDbLine
 10
49.6525
 20
-1.390828616811
 30
0.0
 11
49.63125
 21
-1.391736981924
 31
0.0
  0
LINE
  5
1C9
330
30
100
AcDbEntity
  8
1
100
AcDbLine
 10
49.63125
 20
-1.391736981924
 30
0.0
 11
49.61
 21
-1.392228858028
 31
0.0
  0
LINE
  5
1CA
330
30
100
AcDbEntity
  8
1
100
AcDbLine
 10
49.61
 20
-1.392228858028
 30
0.0
 11
49.58875
 21
-1.392309123548
 31
0.0
  0
LINE
  5
1CB
330
30
100
AcDbEntity
  8
1
100
AcDbLine
 10
49.58875
 20
-1.392309123548
 30
0.0
 11
49.5675
 21
-1.391982503905
 31
0.0
  0
LINE
  5
1CC
330
30
100
AcDbEntity
  8
1
100
AcDbLine
 10
49.5675
 20
-1.391982503905
 30
0.0
 11
49.54625
 21
-1.391253582785
 31
0.0
  0
LINE
  5
1CD
330
30
100
AcDbEntity
  8
1
100
AcDbLine
 10
49.54625
 20
-1.391253582785
 30
0.0
 11
49.525
 21
-1.390126812462
 31
0.0
  0
LINE
  5
1CE
330
30
100
AcDbEntity
  8
1
100
AcDbLine
 10
49.525
 20
-1.390126812462
 30
0.0
 11
49.50375
 21
-1.388606523283
 31
0.0
  0
LINE
  5
1CF
330
30
100
AcDbEntity
  8
1
100
AcDbLine
 10
49.50375
 20
-1.388606523283
 30
0.0
 11
49.4825
 21
-1.386696932374
 31
0.0
  0
LINE
  5
1D0
330
30
100
AcDbEntity
  8
1
100
AcDbLine
 10
49.4825
 20
-1.386696932374
 30
0.0
 11
49.46125
 21
-1.384402151639
 31
0.0
  0
LINE
  5
1D1
330
30
100
AcDbEntity
  8
1
100
AcDbLine
 10
49.46125
 20
-1.384402151639
 30
0.0
 11
49.44
 21
-1.381726195105
 31
0.0
  0
LINE
  5
1D2
330
30
100
AcDbEntity
  8
1
100
AcDbLine
 10
49.44
 20
-1.381726195105
 30
0.0
 11
49.41875
 21
-1.378672985667
 31
0.0
  0
LINE
  5
1D3
330
30
100
AcDbEntity
  8
1
100
AcDbLine
 10
49.41875
 20
-1.378672985667
 30
0.0
 11
49.3975
 21
-1.375246361288
 31
0.0
  0
LINE
  5
1D4
330
30
100
AcDbEntity
  8
1
100
AcDbLine
 10
49.3975
 20
-1.375246361288
 30
0.0
 11
49.37625
 21
-1.37145008068
 31
0.0
  0
LINE
  5
1D5
330
30
100
AcDbEntity
  8
1
100
AcDbLine
 10
49.37625
 20
-1.37145008068
 30
0.0
 11
49.355
 21
-1.367287828515
 31
0.0
  0
LINE
  5
1D6
330
30
100
AcDbEntity
  8
1
100
AcDbLine
 10
49.355
 20
-1.367287828515
 30
0.0
 11
49.33375
 21
-1.362763220192
 31
0.0
  0
LINE
  5
1D7
330
30
100
AcDbEntity
  8
1
100
AcDbLine
 10
49.33375
 20
-1.362763220192
 30
0.0
 11
49.3125
 21
-1.357879806196
 31
0.0
  0
LINE
  5
1D8
330
30
100
AcDbEntity
  8
1
100
AcDbLine
 10
49.3125
 20
-1.357879806196
 30
0.0
 11
49.29125
 21
-1.35264107607
 31
0.0
  0
LINE
  5
1D9
330
30
100
AcDbEntity
  8
1
100
AcDbLine
 10
49.29125
 20
-1.35264107607
 30
0.0
 11
49.27
 21
-1.347050462021
 31
0.0
  0
LINE
  5
1DA
330
30
100
AcDbEntity
  8
1
100
AcDbLine
 10
49.27
 20
-1.347050462021
 30
0.0
 11
49.24875
 21
-1.341111342189
 31
0.0
  0
LINE
  5
1DB
330
30
100
AcDbEntity
  8
1
100
AcDbLine
 10
49.24875
 20
-1.341111342189
 30
0.0
 11
49.2275
 21
-1.334827043585
 31
0.0
  0
LINE
  5
1DC
330
30
100
AcDbEntity
  8
1
100
AcDbLine
 10
49.2275
 20
-1.334827043585
 30
0.0
 11
49.20625
 21
-1.328212085479
 31
0.0
  0
LINE
  5
1DD
330
30
100
AcDbEntity
  8
1
100
AcDbLine
 10
49.20625
 20
-1.328212085479
 30
0.0
 11
49.185
 21
-1.321452816358
 31
0.0
  0
LINE
  5
1DE
330
30
100
AcDbEntity
  8
1
100
AcDbLine
 10
49.185
 20
-1.321452816358
 30
0.0
 11
49.16375
 21
-1.314614621501
 31
0.0
  0
LINE
  5
1DF
330
30
100
AcDbEntity
  8
1
100
AcDbLine
 10
49.16375
 20
-1.314614621501
 30
0.0
 11
49.1425
 21
-1.307697909328
 31
0.0
  0
LINE
  5
1E0
330
30
100
AcDbEntity
  8
1
100
AcDbLine
 10
49.1425
 20
-1.307697909328
 30
0.0
 11
49.12125
 21
-1.30070309295
 31
0.0
  0
LINE
  5
1E1
330
30
100
AcDbEntity
  8
1
100
AcDbLine
 10
49.12125
 20
-1.30070309295
 30
0.0
 11
49.1
 21
-1.293630590144
 31
0.0
  0
LINE
  5
1E2
330
30
100
AcDbEntity
  8
1
100
AcDbLine
 10
49.1
 20
-1.293630590144
 30
0.0
 11
49.07875
 21
-1.286480823324
 31
0.0
  0
LINE
  5
1E3
330
30
100
AcDbEntity
  8
1
100
AcDbLine
 10
49.07875
 20
-1.286480823324
 30
0.0
 11
49.0575
 21
-1.279254219522
 31
0.0
  0
LINE
  5
1E4
330
30
100
AcDbEntity
  8
1
100
AcDbLine
 10
49.0575
 20
-1.279254219522
 30
0.0
 11
49.03625
 21
-1.271951210357
 31
0.0
  0
LINE
  5
1E5
330
30
100
AcDbEntity
  8
1
100
AcDbLine
 10
49.03625
 20
-1.271951210357
 30
0.0
 11
49.015
 21
-1.264572232012
 31
0.0
  0
LINE
  5
1E6
330
30
100
AcDbEntity
  8
1
100
AcDbLine
 10
49.015
 20
-1.264572232012
 30
0.0
 11
48.99375
 21
-1.257117725208
 31
0.0
  0
LINE
  5
1E7
330
30
100
AcDbEntity
  8
1
100
AcDbLine
 10
48.99375
 20
-1.257117725208
 30
0.0
 11
48.9725
 21
-1.249588135177
 31
0.0
  0
LINE
  5
1E8
330
30
100
AcDbEntity
  8
1
100
AcDbLine
 10
48.9725
 20
-1.249588135177
 30
0.0
 11
48.95125
 21
-1.241983911633
 31
0.0
  0
LINE
  5
1E9
330
30
100
AcDbEntity
  8
1
100
AcDbLine
 10
48.95125
 20
-1.241983911633
 30
0.0
 11
48.93
 21
-1.234305508751
 31
0.0
  0
LINE
  5
1EA
330
30
100
AcDbEntity
  8
1
100
AcDbLine
 10
48.93
 20
-1.234305508751
 30
0.0
 11
48.90875
 21
-1.226553385135
 31
0.0
  0
LINE
  5
1EB
330
30
100
AcDbEntity
  8
1
100
AcDbLine
 10
48.90875
 20
-1.226553385135
 30
0.0
 11
48.8875
 21
-1.218728003792
 31
0.0
  0
LINE
  5
1EC
330
30
100
AcDbEntity
  8
1
100
AcDbLine
 10
48.8875
 20
-1.218728003792
 30
0.0
 11
48.86625
 21
-1.210829832104
 31
0.0
  0
LINE
  5
1ED
330
30
100
AcDbEntity
  8
1
100
AcDbLine
 10
48.86625
 20
-1.210829832104
 30
0.0
 11
48.845
 21
-1.202859341802
 31
0.0
  0
LINE
  5
1EE
330
30
100
AcDbEntity
  8
1
100
AcDbLine
 10
48.845
 20
-1.202859341802
 30
0.0
 11
48.82375
 21
-1.194817008935
 31
0.0
  0
LINE
  5
1EF
330
30
100
AcDbEntity
  8
1
100
AcDbLine
 10
48.82375
 20
-1.194817008935
 30
0.0
 11
48.8025
 21
-1.186703313843
 31
0.0
  0
LINE
  5
1F0
330
30
100
AcDbEntity
  8
1
100
AcDbLine
 10
48.8025
 20
-1.186703313843
 30
0.0
 11
48.78125
 21
-1.178518741129
 31
0.0
  0
LINE
  5
1F1
330
30
100
AcDbEntity
  8
1
100
AcDbLine
 10
48.78125
 20
-1.178518741129
 30
0.0
 11
48.76
 21
-1.170263779628
 31
0.0
  0
LINE
  5
1F2
330
30
100
AcDbEntity
  8
1
100
AcDbLine
 10
48.76
 20
-1.170263779628
 30
0.0
 11
48.73875
 21
-1.161938922381
 31
0.0
  0
LINE
  5
1F3
330
30
100
AcDbEntity
  8
1
100
AcDbLine
 10
48.73875
 20
-1.161938922381
 30
0.0
 11
48.7175
 21
-1.153544666602
 31
0.0
  0
LINE
  5
1F4
330
30
100
AcDbEntity
  8
1
100
AcDbLine
 10
48.7175
 20
-1.153544666602
 30
0.0
 11
48.69625
 21
-1.14508151365
 31
0.0
  0
LINE
  5
1F5
330
30
100
AcDbEntity
  8
1
100
AcDbLine
 10
48.69625
 20
-1.14508151365
 30
0.0
 11
48.675
 21
-1.136549969
 31
0.0
  0
LINE
  5
1F6
330
30
100
AcDbEntity
  8
1
100
AcDbLine
 10
48.675
 20
-1.136549969
 30
0.0
 11
48.65375
 21
-1.12795054221
 31
0.0
  0
LINE
  5
1F7
330
30
100
AcDbEntity
  8
1
100
AcDbLine
 10
48.65375
 20
-1.12795054221
 30
0.0
 11
48.6325
 21
-1.119283746896
 31
0.0
  0
LINE
  5
1F8
330
30
100
AcDbEntity
  8
1
100
AcDbLine
 10
48.6325
 20
-1.119283746896
 30
0.0
 11
48.61125
 21
-1.110550100693
 31
0.0
  0
LINE
  5
1F9
330
30
100
AcDbEntity
  8
1
100
AcDbLine
 10
48.61125
 20
-1.110550100693
 30
0.0
 11
48.59
 21
-1.101750125231
 31
0.0
  0
LINE
  5
1FA
330
30
100
AcDbEntity
  8
1
100
AcDbLine
 10
48.59
 20
-1.101750125231
 30
0.0
 11
48.56875
 21
-1.092884346104
 31
0.0
  0
LINE
  5
1FB
330
30
100
AcDbEntity
  8
1
100
AcDbLine
 10
48.56875
 20
-1.092884346104
 30
0.0
 11
48.5475
 21
-1.083953292831
 31
0.0
  0
LINE
  5
1FC
330
30
100
AcDbEntity
  8
1
100
AcDbLine
 10
48.5475
 20
-1.083953292831
 30
0.0
 11
48.52625
 21
-1.074957498834
 31
0.0
  0
LINE
  5
1FD
330
30
100
AcDbEntity
  8
1
100
AcDbLine
 10
48.52625
 20
-1.074957498834
 30
0.0
 11
48.505
 21
-1.065897501401
 31
0.0
  0
LINE
  5
1FE
330
30
100
AcDbEntity
  8
1
100
AcDbLine
 10
48.505
 20
-1.065897501401
 30
0.0
 11
48.48375
 21
-1.056773841652
 31
0.0
  0
LINE
  5
1FF
330
30
100
AcDbEntity
  8
1
100
AcDbLine
 10
48.48375
 20
-1.056773841652
 30
0.0
 11
48.4625
 21
-1.047587064512
 31
0.0
  0
LINE
  5
200
330
30
100
AcDbEntity
  8
1
100
AcDbLine
 10
48.4625
 20
-1.047587064512
 30
0.0
 11
48.44125
 21
-1.038337718674
 31
0.0
  0
LINE
  5
201
330
30
100
AcDbEntity
  8
1
100
AcDbLine
 10
48.44125
 20
-1.038337718674
 30
0.0
 11
48.42
 21
-1.029026356571
 31
0.0
  0
LINE
  5
202
330
30
100
AcDbEntity
  8
1
100
AcDbLine
 10
48.42
 20
-1.029026356571
 30
0.0
 11
48.39875
 21
-1.019653534337
 31
0.0
  0
LINE
  5
203
330
30
100
AcDbEntity
  8
1
100
AcDbLine
 10
48.39875
 20
-1.019653534337
 30
0.0
 11
48.3775
 21
-1.010219811777
 31
0.0
  0
LINE
  5
204
330
30
100
AcDbEntity
  8
1
100
AcDbLine
 10
48.3775
 20
-1.010219811777
 30
0.0
 11
48.35625
 21
-1.000725752334
 31
0.0
  0
LINE
  5
205
330
30
100
AcDbEntity
  8
1
100
AcDbLine
 10
48.35625
 20
-1.000725752334
 30
0.0
 11
48.335
 21
-0.991171923056
 31
0.0
  0
LINE
  5
206
330
30
100
AcDbEntity
  8
1
100
AcDbLine
 10
48.335
 20
-0.991171923056
 30
0.0
 11
48.31375
 21
-0.98155889456
 31
0.0
  0
LINE
  5
207
330
30
100
AcDbEntity
  8
1
100
AcDbLine
 10
48.31375
 20
-0.98155889456
 30
0.0
 11
48.2925
 21
-0.971887240997
 31
0.0
  0
LINE
  5
208
330
30
100
AcDbEntity
  8
1
100
AcDbLine
 10
48.2925
 20
-0.971887240997
 30
0.0
 11
48.27125
 21
-0.962157540021
 31
0.0
  0
LINE
  5
209
330
30
100
AcDbEntity
  8
1
100
AcDbLine
 10
48.27125
 20
-0.962157540021
 30
0.0
 11
48.25
 21
-0.952370372754
 31
0.0
  0
LINE
  5
20A
330
30
100
AcDbEntity
  8
1
100
AcDbLine
 10
48.25
 20
-0.952370372754
 30
0.0
 11
48.22875
 21
-0.942526323749
 31
0.0
  0
LINE
  5
20B
330
30
100
AcDbEntity
  8
1
100
AcDbLine
 10
48.22875
 20
-0.942526323749
 30
0.0
 11
48.2075
 21
-0.932625980955
 31
0.0
  0
LINE
  5
20C
330
30
100
AcDbEntity
  8
1
100
AcDbLine
 10
48.2075
 20
-0.932625980955
 30
0.0
 11
48.18625
 21
-0.922669935687
 31
0.0
  0
LINE
  5
20D
330
30
100
AcDbEntity
  8
1
100
AcDbLine
 10
48.18625
 20
-0.922669935687
 30
0.0
 11
48.165
 21
-0.912658782582
 31
0.0
  0
LINE
  5
20E
330
30
100
AcDbEntity
  8
1
100
AcDbLine
 10
48.165
 20
-0.912658782582
 30
0.0
 11
48.14375
 21
-0.902593119573
 31
0.0
  0
LINE
  5
20F
330
30
100
AcDbEntity
  8
1
100
AcDbLine
 10
48.14375
 20
-0.902593119573
 30
0.0
 11
48.1225
 21
-0.892473547847
 31
0.0
  0
LINE
  5
210
330
30
100
AcDbEntity
  8
1
100
AcDbLine
 10
48.1225
 20
-0.892473547847
 30
0.0
 11
48.10125
 21
-0.882300671808
 31
0.0
  0
LINE
  5
211
330
30
100
AcDbEntity
  8
1
100
AcDbLine
 10
48.10125
 20
-0.882300671808
 30
0.0
 11
48.08
 21
-0.872075099049
 31
0.0
  0
LINE
  5
212
330
30
100
AcDbEntity
  8
1
100
AcDbLine
 10
48.08
 20
-0.872075099049
 30
0.0
 11
48.05875
 21
-0.861797440306
 31
0.0
  0
LINE
  5
213
330
30
100
AcDbEntity
  8
1
100
AcDbLine
 10
48.05875
 20
-0.861797440306
 30
0.0
 11
48.0375
 21
-0.851468309427
 31
0.0
  0
LINE
  5
214
330
30
100
AcDbEntity
  8
1
100
AcDbLine
 10
48.0375
 20
-0.851468309427
 30
0.0
 11
48.01625
 21
-0.841088323337
 31
0.0
  0
LINE
  5
215
330
30
100
AcDbEntity
  8
1
100
AcDbLine
 10
48.01625
 20
-0.841088323337
 30
0.0
 11
47.995
 21
-0.830658101993
 31
0.0
  0
LINE
  5
216
330
30
100
AcDbEntity
  8
1
100
AcDbLine
 10
47.995
 20
-0.830658101993
 30
0.0
 11
47.97375
 21
-0.820178268358
 31
0.0
  0
LINE
  5
217
330
30
100
AcDbEntity
  8
1
100
AcDbLine
 10
47.97375
 20
-0.820178268358
 30
0.0
 11
47.9525
 21
-0.809649448355
 31
0.0
  0
LINE
  5
218
330
30
100
AcDbEntity
  8
1
100
AcDbLine
 10
47.9525
 20
-0.809649448355
 30
0.0
 11
47.93125
 21
-0.799072270833
 31
0.0
  0
LINE
  5
219
330
30
100
AcDbEntity
  8
1
100
AcDbLine
 10
47.93125
 20
-0.799072270833
 30
0.0
 11
47.91
 21
-0.78844736753
 31
0.0
  0
LINE
  5
21A
330
30
100
AcDbEntity
  8
1
100
AcDbLine
 10
47.91
 20
-0.78844736753
 30
0.0
 11
47.88875
 21
-0.777775373034
 31
0.0
  0
LINE
  5
21B
330
30
100
AcDbEntity
  8
1
100
AcDbLine
 10
47.88875
 20
-0.777775373034
 30
0.0
 11
47.8675
 21
-0.767056924746
 31
0.0
  0
LINE
  5
21C
330
30
100
AcDbEntity
  8
1
100
AcDbLine
 10
47.8675
 20
-0.767056924746
 30
0.0
 11
47.84625
 21
-0.756292662841
 31
0.0
  0
LINE
  5
21D
330
30
100
AcDbEntity
  8
1
100
AcDbLine
 10
47.84625
 20
-0.756292662841
 30
0.0
 11
47.825
 21
-0.745483230231
 31
0.0
  0
LINE
  5
21E
330
30
100
AcDbEntity
  8
1
100
AcDbLine
 10
47.825
 20
-0.745483230231
 30
0.0
 11
47.80375
 21
-0.734629272525
 31
0.0
  0
LINE
  5
21F
330
30
100
AcDbEntity
  8
1
100
AcDbLine
 10
47.80375
 20
-0.734629272525
 30
0.0
 11
47.7825
 21
-0.723731437992
 31
0.0
  0
LINE
  5
220
330
30
100
AcDbEntity
  8
1
100
AcDbLine
 10
47.7825
 20
-0.723731437992
 30
0.0
 11
47.76125
 21
-0.712790377521
 31
0.0
  0
LINE
  5
221
330
30
100
AcDbEntity
  8
1
100
AcDbLine
 10
47.76125
 20
-0.712790377521
 30
0.0
 11
47.74
 21
-0.701806744583
 31
0.0
  0
LINE
  5
222
330
30
100
AcDbEntity
  8
1
100
AcDbLine
 10
47.74
 20
-0.701806744583
 30
0.0
 11
47.71875
 21
-0.690781195193
 31
0.0
  0
LINE
  5
223
330
30
100
AcDbEntity
  8
1
100
AcDbLine
 10
47.71875
 20
-0.690781195193
 30
0.0
 11
47.6975
 21
-0.679714387868
 31
0.0
  0
LINE
  5
224
330
30
100
AcDbEntity
  8
1
100
AcDbLine
 10
47.6975
 20
-0.679714387868
 30
0.0
 11
47.67625
 21
-0.668606983589
 31
0.0
  0
LINE
  5
225
330
30
100
AcDbEntity
  8
1
100
AcDbLine
 10
47.67625
 20
-0.668606983589
 30
0.0
 11
47.655
 21
-0.657459645762
 31
0.0
  0
LINE
  5
226
330
30
100
AcDbEntity
  8
1
100
AcDbLine
 10
47.655
 20
-0.657459645762
 30
0.0
 11
47.63375
 21
-0.646273040179
 31
0.0
  0
LINE
  5
227
330
30
100
AcDbEntity
  8
1
100
AcDbLine
 10
47.63375
 20
-0.646273040179
 30
0.0
 11
47.6125
 21
-0.635047834977
 31
0.0
  0
LINE
  5
228
330
30
100
AcDbEntity
  8
1
100
AcDbLine
 10
47.6125
 20
-0.635047834977
 30
0.0
 11
47.59125
 21
-0.5859093335
 31
0.0
  0
LINE
  5
229
330
30
100
AcDbEntity
  8
1
100
AcDbLine
 10
47.59125
 20
-0.5859093335
 30
0.0
 11
47.57
 21
-0.575094591403
 31
0.0
  0
LINE
  5
22A
330
30
100
AcDbEntity
  8
1
100
AcDbLine
 10
47.57
 20
-0.575094591403
 30
0.0
 11
47.54875
 21
-0.564245500926
 31
0.0
  0
LINE
  5
22B
330
30
100
AcDbEntity
  8
1
100
AcDbLine
 10
47.54875
 20
-0.564245500926
 30
0.0
 11
47.5275
 21
-0.553362710047
 31
0.0
  0
LINE
  5
22C
330
30
100
AcDbEntity
  8
1
100
AcDbLine
 10
47.5275
 20
-0.553362710047
 30
0.0
 11
47.50625
 21
-0.542446868755
 31
0.0
  0
LINE
  5
22D
330
30
100
AcDbEntity
  8
1
100
AcDbLine
 10
47.50625
 20
-0.542446868755
 30
0.0
 11
47.485
 21
-0.531498629017
 31
0.0
  0
LINE
  5
22E
330
30
100
AcDbEntity
  8
1
100
AcDbLine
 10
47.485
 20
-0.531498629017
 30
0.0
 11
47.46375
 21
-0.520518644732
 31
0.0
  0
LINE
  5
22F
330
30
100
AcDbEntity
  8
1
100
AcDbLine
 10
47.46375
 20
-0.520518644732
 30
0.0
 11
47.4425
 21
-0.509507571696
 31
0.0
  0
LINE
  5
230
330
30
100
AcDbEntity
  8
1
100
AcDbLine
 10
47.4425
 20
-0.509507571696
 30
0.0
 11
47.42125
 21
-0.498466067562
 31
0.0
  0
LINE
  5
231
330
30
100
AcDbEntity
  8
1
100
AcDbLine
 10
47.42125
 20
-0.498466067562
 30
0.0
 11
47.4
 21
-0.487394791799
 31
0.0
  0
LINE
  5
232
330
30
100
AcDbEntity
  8
1
100
AcDbLine
 10
47.4
 20
-0.487394791799
 30
0.0
 11
47.37875
 21
-0.476294405657
 31
0.0
  0
LINE
  5
233
330
30
100
AcDbEntity
  8
1
100
AcDbLine
 10
47.37875
 20
-0.476294405657
 30
0.0
 11
47.3575
 21
-0.465165572123
 31
0.0
  0
LINE
  5
234
330
30
100
AcDbEntity
  8
1
100
AcDbLine
 10
47.3575
 20
-0.465165572123
 30
0.0
 11
47.33625
 21
-0.454008955882
 31
0.0
  0
LINE
  5
235
330
30
100
AcDbEntity
  8
1
100
AcDbLine
 10
47.33625
 20
-0.454008955882
 30
0.0
 11
47.315
 21
-0.44282522328
 31
0.0
  0
LINE
  5
236
330
30
100
AcDbEntity
  8
1
100
AcDbLine
 10
47.315
 20
-0.44282522328
 30
0.0
 11
47.29375
 21
-0.431615042283
 31
0.0
  0
LINE
  5
237
330
30
100
AcDbEntity
  8
1
100
AcDbLine
 10
47.29375
 20
-0.431615042283
 30
0.0
 11
47.2725
 21
-0.420379082435
 31
0.0
  0
LINE
  5
238
330
30
100
AcDbEntity
  8
1
100
AcDbLine
 10
47.2725
 20
-0.420379082435
 30
0.0
 11
47.25125
 21
-0.409118014821
 31
0.0
  0
LINE
  5
239
330
30
100
AcDbEntity
  8
1
100
AcDbLine
 10
47.25125
 20
-0.409118014821
 30
0.0
 11
47.23
 21
-0.397832512027
 31
0.0
  0
LINE
  5
23A
330
30
100
AcDbEntity
  8
1
100
AcDbLine
 10
47.23
 20
-0.397832512027
 30
0.0
 11
47.20875
 21
-0.386523248095
 31
0.0
  0
LINE
  5
23B
330
30
100
AcDbEntity
  8
1
100
AcDbLine
 10
47.20875
 20
-0.386523248095
 30
0.0
 11
47.1875
 21
-0.375190898491
 31
0.0
  0
LINE
  5
23C
330
30
100
AcDbEntity
  8
1
100
AcDbLine
 10
47.1875
 20
-0.375190898491
 30
0.0
 11
47.16625
 21
-0.36383614006
 31
0.0
  0
LINE
  5
23D
330
30
100
AcDbEntity
  8
1
100
AcDbLine
 10
47.16625
 20
-0.36383614006
 30
0.0
 11
47.145
 21
-0.352459650986
 31
0.0
  0
LINE
  5
23E
330
30
100
AcDbEntity
  8
1
100
AcDbLine
 10
47.145
 20
-0.352459650986
 30
0.0
 11
47.12375
 21
-0.341062110753
 31
0.0
  0
LINE
  5
23F
330
30
100
AcDbEntity
  8
1
100
AcDbLine
 10
47.12375
 20
-0.341062110753
 30
0.0
 11
47.1025
 21
-0.32964420011
 31
0.0
  0
LINE
  5
240
330
30
100
AcDbEntity
  8
1
100
AcDbLine
 10
47.1025
 20
-0.32964420011
 30
0.0
 11
47.08125
 21
-0.318206601023
 31
0.0
  0
LINE
  5
241
330
30
100
AcDbEntity
  8
1
100
AcDbLine
 10
47.08125
 20
-0.318206601023
 30
0.0
 11
47.06
 21
-0.306749996646
 31
0.0
  0
LINE
  5
242
330
30
100
AcDbEntity
  8
1
100
AcDbLine
 10
47.06
 20
-0.306749996646
 30
0.0
 11
47.03875
 21
-0.295275071277
 31
0.0
  0
LINE
  5
243
330
30
100
AcDbEntity
  8
1
100
AcDbLine
 10
47.03875
 20
-0.295275071277
 30
0.0
 11
47.0175
 21
-0.283782510324
 31
0.0
  0
LINE
  5
244
330
30
100
AcDbEntity
  8
1
100
AcDbLine
 10
47.0175
 20
-0.283782510324
 30
0.0
 11
46.99625
 21
-0.27227300027
 31
0.0
  0
LINE
  5
245
330
30
100
AcDbEntity
  8
1
100
AcDbLine
 10
46.99625
 20
-0.27227300027
 30
0.0
 11
46.975
 21
-0.260747228638
 31
0.0
  0
LINE
  5
246
330
30
100
AcDbEntity
  8
1
100
AcDbLine
 10
46.975
 20
-0.260747228638
 30
0.0
 11
46.95375
 21
-0.249205883959
 31
0.0
  0
LINE
  5
247
330
30
100
AcDbEntity
  8
1
100
AcDbLine
 10
46.95375
 20
-0.249205883959
 30
0.0
 11
46.9325
 21
-0.237649655743
 31
0.0
  0
LINE
  5
248
330
30
100
AcDbEntity
  8
1
100
AcDbLine
 10
46.9325
 20
-0.237649655743
 30
0.0
 11
46.91125
 21
-0.226079234454
 31
0.0
  0
LINE
  5
249
330
30
100
AcDbEntity
  8
1
100
AcDbLine
 10
46.91125
 20
-0.226079234454
 30
0.0
 11
46.89
 21
-0.214495311489
 31
0.0
  0
LINE
  5
24A
330
30
100
AcDbEntity
  8
1
100
AcDbLine
 10
46.89
 20
-0.214495311489
 30
0.0
 11
46.86875
 21
-0.202898579155
 31
0.0
  0
LINE
  5
24B
330
30
100
AcDbEntity
  8
1
100
AcDbLine
 10
46.86875
 20
-0.202898579155
 30
0.0
 11
46.8475
 21
-0.191289730663
 31
0.0
  0
LINE
  5
24C
330
30
100
AcDbEntity
  8
1
100
AcDbLine
 10
46.8475
 20
-0.191289730663
 30
0.0
 11
46.82625
 21
-0.179669460122
 31
0.0
  0
LINE
  5
24D
330
30
100
AcDbEntity
  8
1
100
AcDbLine
 10
46.82625
 20
-0.179669460122
 30
0.0
 11
46.805
 21
-0.168038462538
 31
0.0
  0
LINE
  5
24E
330
30
100
AcDbEntity
  8
1
100
AcDbLine
 10
46.805
 20
-0.168038462538
 30
0.0
 11
46.78375
 21
-0.156397433831
 31
0.0
  0
LINE
  5
24F
330
30
100
AcDbEntity
  8
1
100
AcDbLine
 10
46.78375
 20
-0.156397433831
 30
0.0
 11
46.7625
 21
-0.144747070858
 31
0.0
  0
LINE
  5
250
330
30
100
AcDbEntity
  8
1
100
AcDbLine
 10
46.7625
 20
-0.144747070858
 30
0.0
 11
46.74125
 21
-0.13308807145
 31
0.0
  0
LINE
  5
251
330
30
100
AcDbEntity
  8
1
100
AcDbLine
 10
46.74125
 20
-0.13308807145
 30
0.0
 11
46.72
 21
-0.121421134467
 31
0.0
  0
LINE
  5
252
330
30
100
AcDbEntity
  8
1
100
AcDbLine
 10
46.72
 20
-0.121421134467
 30
0.0
 11
46.69875
 21
-0.109746959865
 31
0.0
  0
LINE
  5
253
330
30
100
AcDbEntity
  8
1
100
AcDbLine
 10
46.69875
 20
-0.109746959865
 30
0.0
 11
46.6775
 21
-0.098066248793
 31
0.0
  0
LINE
  5
254
330
30
100
AcDbEntity
  8
1
100
AcDbLine
 10
46.6775
 20
-0.098066248793
 30
0.0
 11
46.65625
 21
-0.086379703711
 31
0.0
  0
LINE
  5
255
330
30
100
AcDbEntity
  8
1
100
AcDbLine
 10
46.65625
 20
-0.086379703711
 30
0.0
 11
46.635
 21
-0.07468802853
 31
0.0
  0
LINE
  5
256
330
30
100
AcDbEntity
  8
1
100
AcDbLine
 10
46.635
 20
-0.07468802853
 30
0.0
 11
46.61375
 21
-0.062991928794
 31
0.0
  0
LINE
  5
257
330
30
100
AcDbEntity
  8
1
100
AcDbLine
 10
46.61375
 20
-0.062991928794
 30
0.0
 11
46.5925
 21
-0.051292111891
 31
0.0
  0
LINE
  5
258
330
30
100
AcDbEntity
  8
1
100
AcDbLine
 10
46.5925
 20
-0.051292111891
 30
0.0
 11
46.57125
 21
-0.039589287316
 31
0.0
  0
LINE
  5
259
330
30
100
AcDbEntity
  8
1
100
AcDbLine
 10
46.57125
 20
-0.039589287316
 30
0.0
 11
46.55
 21
-0.027884166967
 31
0.0
  0
LINE
  5
25A
330
30
100
AcDbEntity
  8
1
100
AcDbLine
 10
46.55
 20
-0.027884166967
 30
0.0
 11
46.52875
 21
-0.016177465508
 31
0.0
  0
LINE
  5
25B
330
30
100
AcDbEntity
  8
1
100
AcDbLine
 10
46.52875
 20
-0.016177465508
 30
0.0
 11
46.5075
 21
-0.00446990079
 31
0.0
  0
LINE
  5
25C
330
30
100
AcDbEntity
  8
1
100
AcDbLine
 10
46.5075
 20
-0.00446990079
 30
0.0
 11
46.48625
 21
0.007237805663
 31
0.0
  0
LINE
  5
25D
330
30
100
AcDbEntity
  8
1
100
AcDbLine
 10
46.48625
 20
0.007237805663
 30
0.0
 11
46.465
 21
0.01894492809
 31
0.0
  0
LINE
  5
25E
330
30
100
AcDbEntity
  8
1
100
AcDbLine
 10
46.465
 20
0.01894492809
 30
0.0
 11
46.44375
 21
0.030650735835
 31
0.0
  0
LINE
  5
25F
330
30
100
AcDbEntity
  8
1
100
AcDbLine
 10
46.44375
 20
0.030650735835
 30
0.0
 11
46.4225
 21
0.042354492604
 31
0.0
  0
LINE
  5
260
330
30
100
AcDbEntity
  8
1
100
AcDbLine
 10
46.4225
 20
0.042354492604
 30
0.0
 11
46.40125
 21
0.054055455605
 31
0.0
  0
LINE
  5
261
330
30
100
AcDbEntity
  8
1
100
AcDbLine
 10
46.40125
 20
0.054055455605
 30
0.0
 11
46.38
 21
0.065752874571
 31
0.0
  0
LINE
  5
262
330
30
100
AcDbEntity
  8
1
100
AcDbLine
 10
46.38
 20
0.065752874571
 30
0.0
 11
46.35875
 21
0.077445990651
 31
0.0
  0
LINE
  5
263
330
30
100
AcDbEntity
  8
1
100
AcDbLine
 10
46.35875
 20
0.077445990651
 30
0.0
 11
46.3375
 21
0.089134035153
 31
0.0
  0
LINE
  5
264
330
30
100
AcDbEntity
  8
1
100
AcDbLine
 10
46.3375
 20
0.089134035153
 30
0.0
 11
46.31625
 21
0.100816228123
 31
0.0
  0
LINE
  5
265
330
30
100
AcDbEntity
  8
1
100
AcDbLine
 10
46.31625
 20
0.100816228123
 30
0.0
 11
46.295
 21
0.112491776746
 31
0.0
  0
LINE
  5
266
330
30
100
AcDbEntity
  8
1
100
AcDbLine
 10
46.295
 20
0.112491776746
 30
0.0
 11
46.27375
 21
0.124159873549
 31
0.0
  0
LINE
  5
267
330
30
100
AcDbEntity
  8
1
100
AcDbLine
 10
46.27375
 20
0.124159873549
 30
0.0
 11
46.2525
 21
0.135819694386
 31
0.0
  0
LINE
  5
268
330
30
100
AcDbEntity
  8
1
100
AcDbLine
 10
46.2525
 20
0.135819694386
 30
0.0
 11
46.23125
 21
0.147470396187
 31
0.0
  0
LINE
  5
269
330
30
100
AcDbEntity
  8
1
100
AcDbLine
 10
46.23125
 20
0.147470396187
 30
0.0
 11
46.21
 21
0.159111114445
 31
0.0
  0
LINE
  5
26A
330
30
100
AcDbEntity
  8
1
100
AcDbLine
 10
46.21
 20
0.159111114445
 30
0.0
 11
46.18875
 21
0.17074096042
 31
0.0
  0
LINE
  5
26B
330
30
100
AcDbEntity
  8
1
100
AcDbLine
 10
46.18875
 20
0.17074096042
 30
0.0
 11
46.1675
 21
0.18235901803
 31
0.0
  0
LINE
  5
26C
330
30
100
AcDbEntity
  8
1
100
AcDbLine
 10
46.1675
 20
0.18235901803
 30
0.0
 11
46.14625
 21
0.193964340412
 31
0.0
  0
LINE
  5
26D
330
30
100
AcDbEntity
  8
1
100
AcDbLine
 10
46.14625
 20
0.193964340412
 30
0.0
 11
46.125
 21
0.205555946104
 31
0.0
  0
LINE
  5
26E
330
30
100
AcDbEntity
  8
1
100
AcDbLine
 10
46.125
 20
0.205555946104
 30
0.0
 11
46.10375
 21
0.21713281484
 31
0.0
  0
LINE
  5
26F
330
30
100
AcDbEntity
  8
1
100
AcDbLine
 10
46.10375
 20
0.21713281484
 30
0.0
 11
46.0825
 21
0.22869388291
 31
0.0
  0
LINE
  5
270
330
30
100
AcDbEntity
  8
1
100
AcDbLine
 10
46.0825
 20
0.22869388291
 30
0.0
 11
46.06125
 21
0.24023803805
 31
0.0
  0
LINE
  5
271
330
30
100
AcDbEntity
  8
1
100
AcDbLine
 10
46.06125
 20
0.24023803805
 30
0.0
 11
46.04
 21
0.251764113831
 31
0.0
  0
LINE
  5
272
330
30
100
AcDbEntity
  8
1
100
AcDbLine
 10
46.04
 20
0.251764113831
 30
0.0
 11
46.01875
 21
0.263270883504
 31
0.0
  0
LINE
  5
273
330
30
100
AcDbEntity
  8
1
100
AcDbLine
 10
46.01875
 20
0.263270883504
 30
0.0
 11
45.9975
 21
0.274757053261
 31
0.0
  0
LINE
  5
274
330
30
100
AcDbEntity
  8
1
100
AcDbLine
 10
45.9975
 20
0.274757053261
 30
0.0
 11
45.97625
 21
0.28622125486
 31
0.0
  0
LINE
  5
275
330
30
100
AcDbEntity
  8
1
100
AcDbLine
 10
45.97625
 20
0.28622125486
 30
0.0
 11
45.955
 21
0.297662037579
 31
0.0
  0
LINE
  5
276
330
30
100
AcDbEntity
  8
1
100
AcDbLine
 10
45.955
 20
0.297662037579
 30
0.0
 11
45.93375
 21
0.309077859439
 31
0.0
  0
LINE
  5
277
330
30
100
AcDbEntity
  8
1
100
AcDbLine
 10
45.93375
 20
0.309077859439
 30
0.0
 11
45.9125
 21
0.32046707765
 31
0.0
  0
LINE
  5
278
330
30
100
AcDbEntity
  8
1
100
AcDbLine
 10
45.9125
 20
0.32046707765
 30
0.0
 11
45.89125
 21
0.331827938223
 31
0.0
  0
LINE
  5
279
330
30
100
AcDbEntity
  8
1
100
AcDbLine
 10
45.89125
 20
0.331827938223
 30
0.0
 11
45.87
 21
0.343158564688
 31
0.0
  0
LINE
  5
27A
330
30
100
AcDbEntity
  8
1
100
AcDbLine
 10
45.87
 20
0.343158564688
 30
0.0
 11
45.84875
 21
0.354456945862
 31
0.0
  0
LINE
  5
27B
330
30
100
AcDbEntity
  8
1
100
AcDbLine
 10
45.84875
 20
0.354456945862
 30
0.0
 11
45.8275
 21
0.365720922596
 31
0.0
  0
LINE
  5
27C
330
30
100
AcDbEntity
  8
1
100
AcDbLine
 10
45.8275
 20
0.365720922596
 30
0.0
 11
45.80625
 21
0.376948173443
 31
0.0
  0
LINE
  5
27D
330
30
100
AcDbEntity
  8
1
100
AcDbLine
 10
45.80625
 20
0.376948173443
 30
0.0
 11
45.785
 21
0.388136199159
 31
0.0
  0
LINE
  5
27E
330
30
100
AcDbEntity
  8
1
100
AcDbLine
 10
45.785
 20
0.388136199159
 30
0.0
 11
45.76375
 21
0.399282305984
 31
0.0
  0
LINE
  5
27F
330
30
100
AcDbEntity
  8
1
100
AcDbLine
 10
45.76375
 20
0.399282305984
 30
0.0
 11
45.7425
 21
0.410383587605
 31
0.0
  0
LINE
  5
280
330
30
100
AcDbEntity
  8
1
100
AcDbLine
 10
45.7425
 20
0.410383587605
 30
0.0
 11
45.72125
 21
0.421436905728
 31
0.0
  0
LINE
  5
281
330
30
100
AcDbEntity
  8
1
100
AcDbLine
 10
45.72125
 20
0.421436905728
 30
0.0
 11
45.7
 21
0.432438869164
 31
0.0
  0
LINE
  5
282
330
30
100
AcDbEntity
  8
1
100
AcDbLine
 10
45.7
 20
0.432438869164
 30
0.0
 11
45.67875
 21
0.44338581134
 31
0.0
  0
LINE
  5
283
330
30
100
AcDbEntity
  8
1
100
AcDbLine
 10
45.67875
 20
0.44338581134
 30
0.0
 11
45.6575
 21
0.454273766135
 31
0.0
  0
LINE
  5
284
330
30
100
AcDbEntity
  8
1
100
AcDbLine
 10
45.6575
 20
0.454273766135
 30
0.0
 11
45.63625
 21
0.465098441927
 31
0.0
  0
LINE
  5
285
330
30
100
AcDbEntity
  8
1
100
AcDbLine
 10
45.63625
 20
0.465098441927
 30
0.0
 11
45.615
 21
0.475855193751
 31
0.0
  0
LINE
  5
286
330
30
100
AcDbEntity
  8
1
100
AcDbLine
 10
45.615
 20
0.475855193751
 30
0.0
 11
45.59375
 21
0.486538993433
 31
0.0
  0
LINE
  5
287
330
30
100
AcDbEntity
  8
1
100
AcDbLine
 10
45.59375
 20
0.486538993433
 30
0.0
 11
45.5725
 21
0.497144397573
 31
0.0
  0
LINE
  5
288
330
30
100
AcDbEntity
  8
1
100
AcDbLine
 10
45.5725
 20
0.497144397573
 30
0.0
 11
45.55125
 21
0.507665513243
 31
0.0
  0
LINE
  5
289
330
30
100
AcDbEntity
  8
1
100
AcDbLine
 10
45.55125
 20
0.507665513243
 30
0.0
 11
45.53
 21
0.518095961229
 31
0.0
  0
LINE
  5
28A
330
30
100
AcDbEntity
  8
1
100
AcDbLine
 10
45.53
 20
0.518095961229
 30
0.0
 11
45.50875
 21
0.528428836663
 31
0.0
  0
LINE
  5
28B
330
30
100
AcDbEntity
  8
1
100
AcDbLine
 10
45.50875
 20
0.528428836663
 30
0.0
 11
45.4875
 21
0.538656666849
 31
0.0
  0
LINE
  5
28C
330
30
100
AcDbEntity
  8
1
100
AcDbLine
 10
45.4875
 20
0.538656666849
 30
0.0
 11
45.46625
 21
0.548771366087
 31
0.0
  0
LINE
  5
28D
330
30
100
AcDbEntity
  8
1
100
AcDbLine
 10
45.46625
 20
0.548771366087
 30
0.0
 11
45.445
 21
0.558764187257
 31
0.0
  0
LINE
  5
28E
330
30
100
AcDbEntity
  8
1
100
AcDbLine
 10
45.445
 20
0.558764187257
 30
0.0
 11
45.42375
 21
0.568625669921
 31
0.0
  0
LINE
  5
28F
330
30
100
AcDbEntity
  8
1
100
AcDbLine
 10
45.42375
 20
0.568625669921
 30
0.0
 11
45.4025
 21
0.578345584648
 31
0.0
  0
LINE
  5
290
330
30
100
AcDbEntity
  8
1
100
AcDbLine
 10
45.4025
 20
0.578345584648
 30
0.0
 11
45.38125
 21
0.58791287325
 31
0.0
  0
LINE
  5
291
330
30
100
AcDbEntity
  8
1
100
AcDbLine
 10
45.38125
 20
0.58791287325
 30
0.0
 11
45.36
 21
0.597315584568
 31
0.0
  0
LINE
  5
292
330
30
100
AcDbEntity
  8
1
100
AcDbLine
 10
45.36
 20
0.597315584568
 30
0.0
 11
45.33875
 21
0.606540805391
 31
0.0
  0
LINE
  5
293
330
30
100
AcDbEntity
  8
1
100
AcDbLine
 10
45.33875
 20
0.606540805391
 30
0.0
 11
45.3175
 21
0.615574586053
 31
0.0
  0
LINE
  5
294
330
30
100
AcDbEntity
  8
1
100
AcDbLine
 10
45.3175
 20
0.615574586053
 30
0.0
 11
45.29625
 21
0.624401860177
 31
0.0
  0
LINE
  5
295
330
30
100
AcDbEntity
  8
1
100
AcDbLine
 10
45.29625
 20
0.624401860177
 30
0.0
 11
45.275
 21
0.633006357958
 31
0.0
  0
LINE
  5
296
330
30
100
AcDbEntity
  8
1
100
AcDbLine
 10
45.275
 20
0.633006357958
 30
0.0
 11
45.25375
 21
0.641370512297
 31
0.0
  0
LINE
  5
297
330
30
100
AcDbEntity
  8
1
100
AcDbLine
 10
45.25375
 20
0.641370512297
 30
0.0
 11
45.2325
 21
0.649475356998
 31
0.0
  0
LINE
  5
298
330
30
100
AcDbEntity
  8
1
100
AcDbLine
 10
45.2325
 20
0.649475356998
 30
0.0
 11
45.21125
 21
0.657300416129
 31
0.0
  0
LINE
  5
299
330
30
100
AcDbEntity
  8
1
100
AcDbLine
 10
45.21125
 20
0.657300416129
 30
0.0
 11
45.19
 21
0.66482358351
 31
0.0
  0
LINE
  5
29A
330
30
100
AcDbEntity
  8
1
100
AcDbLine
 10
45.19
 20
0.66482358351
 30
0.0
 11
45.16875
 21
0.672020991153
 31
0.0
  0
LINE
  5
29B
330
30
100
AcDbEntity
  8
1
100
AcDbLine
 10
45.16875
 20
0.672020991153
 30
0.0
 11
45.1475
 21
0.678866865304
 31
0.0
  0
LINE
  5
29C
330
30
100
AcDbEntity
  8
1
100
AcDbLine
 10
45.1475
 20
0.678866865304
 30
0.0
 11
45.12625
 21
0.685333368564
 31
0.0
  0
LINE
  5
29D
330
30
100
AcDbEntity
  8
1
100
AcDbLine
 10
45.12625
 20
0.685333368564
 30
0.0
 11
45.105
 21
0.691390426345
 31
0.0
  0
LINE
  5
29E
330
30
100
AcDbEntity
  8
1
100
AcDbLine
 10
45.105
 20
0.691390426345
 30
0.0
 11
45.08375
 21
0.697005535674
 31
0.0
  0
LINE
  5
29F
330
30
100
AcDbEntity
  8
1
100
AcDbLine
 10
45.08375
 20
0.697005535674
 30
0.0
 11
45.0625
 21
0.702143554141
 31
0.0
  0
LINE
  5
2A0
330
30
100
AcDbEntity
  8
1
100
AcDbLine
 10
45.0625
 20
0.702143554141
 30
0.0
 11
45.04125
 21
0.706766466455
 31
0.0
  0
LINE
  5
2A1
330
30
100
AcDbEntity
  8
1
100
AcDbLine
 10
45.04125
 20
0.706766466455
 30
0.0
 11
45.02
 21
0.710833125819
 31
0.0
  0
LINE
  5
2A2
330
30
100
AcDbEntity
  8
1
100
AcDbLine
 10
45.02
 20
0.710833125819
 30
0.0
 11
44.99875
 21
0.714298966984
 31
0.0
  0
LINE
  5
2A3
330
30
100
AcDbEntity
  8
1
100
AcDbLine
 10
44.99875
 20
0.714298966984
 30
0.0
 11
44.9775
 21
0.717115687519
 31
0.0
  0
LINE
  5
2A4
330
30
100
AcDbEntity
  8
1
100
AcDbLine
 10
44.9775
 20
0.717115687519
 30
0.0
 11
44.95625
 21
0.719230893501
 31
0.0
  0
LINE
  5
2A5
330
30
100
AcDbEntity
  8
1
100
AcDbLine
 10
44.95625
 20
0.719230893501
 30
0.0
 11
44.935
 21
0.720587705485
 31
0.0
  0
LINE
  5
2A6
330
30
100
AcDbEntity
  8
1
100
AcDbLine
 10
44.935
 20
0.720587705485
 30
0.0
 11
44.91375
 21
0.721124320317
 31
0.0
  0
LINE
  5
2A7
330
30
100
AcDbEntity
  8
1
100
AcDbLine
 10
44.91375
 20
0.721124320317
 30
0.0
 11
44.8925
 21
0.720773524073
 31
0.0
  0
LINE
  5
2A8
330
30
100
AcDbEntity
  8
1
100
AcDbLine
 10
44.8925
 20
0.720773524073
 30
0.0
 11
44.87125
 21
0.719462151244
 31
0.0
  0
LINE
  5
2A9
330
30
100
AcDbEntity
  8
1
100
AcDbLine
 10
44.87125
 20
0.719462151244
 30
0.0
 11
44.85
 21
0.717110485201
 31
0.0
  0
LINE
  5
2AA
330
30
100
AcDbEntity
  8
1
100
AcDbLine
 10
44.85
 20
0.717110485201
 30
0.0
 11
44.82875
 21
0.713631595107
 31
0.0
  0
LINE
  5
2AB
330
30
100
AcDbEntity
  8
1
100
AcDbLine
 10
44.82875
 20
0.713631595107
 30
0.0
 11
44.8075
 21
0.708930604803
 31
0.0
  0
LINE
  5
2AC
330
30
100
AcDbEntity
  8
1
100
AcDbLine
 10
44.8075
 20
0.708930604803
 30
0.0
 11
44.78625
 21
0.702903889908
 31
0.0
  0
LINE
  5
2AD
330
30
100
AcDbEntity
  8
1
100
AcDbLine
 10
44.78625
 20
0.702903889908
 30
0.0
 11
44.765
 21
0.695438200596
 31
0.0
  0
LINE
  5
2AE
330
30
100
AcDbEntity
  8
1
100
AcDbLine
 10
44.765
 20
0.695438200596
 30
0.0
 11
44.74375
 21
0.68640970933
 31
0.0
  0
LINE
  5
2AF
330
30
100
AcDbEntity
  8
1
100
AcDbLine
 10
44.74375
 20
0.68640970933
 30
0.0
 11
44.7225
 21
0.675682985541
 31
0.0
  0
LINE
  5
2B0
330
30
100
AcDbEntity
  8
1
100
AcDbLine
 10
44.7225
 20
0.675682985541
 30
0.0
 11
44.70125
 21
0.663109903072
 31
0.0
  0
LINE
  5
2B1
330
30
100
AcDbEntity
  8
1
100
AcDbLine
 10
44.70125
 20
0.663109903072
 30
0.0
 11
44.68
 21
0.648528491472
 31
0.0
  0
LINE
  5
2B2
330
30
100
AcDbEntity
  8
1
100
AcDbLine
 10
44.68
 20
0.648528491472
 30
0.0
 11
44.65875
 21
0.631761749412
 31
0.0
  0
LINE
  5
2B3
330
30
100
AcDbEntity
  8
1
100
AcDbLine
 10
44.65875
 20
0.631761749412
 30
0.0
 11
44.6375
 21
0.612616448084
 31
0.0
  0
LINE
  5
2B4
330
30
100
AcDbEntity
  8
1
100
AcDbLine
 10
44.6375
 20
0.612616448084
 30
0.0
 11
44.61625
 21
0.59088196512
 31
0.0
  0
LINE
  5
2B5
330
30
100
AcDbEntity
  8
1
100
AcDbLine
 10
44.61625
 20
0.59088196512
 30
0.0
 11
44.595
 21
0.566329206173
 31
0.0
  0
LINE
  5
2B6
330
30
100
AcDbEntity
  8
1
100
AcDbLine
 10
44.595
 20
0.566329206173
 30
0.0
 11
44.57375
 21
0.538709692726
 31
0.0
  0
LINE
  5
2B7
330
30
100
AcDbEntity
  8
1
100
AcDbLine
 10
44.57375
 20
0.538709692726
 30
0.0
 11
44.5525
 21
0.507754922268
 31
0.0
  0
LINE
  5
2B8
330
30
100
AcDbEntity
  8
1
100
AcDbLine
 10
44.5525
 20
0.507754922268
 30
0.0
 11
44.53125
 21
0.473176141962
 31
0.0
  0
LINE
  5
2B9
330
30
100
AcDbEntity
  8
1
100
AcDbLine
 10
44.53125
 20
0.473176141962
 30
0.0
 11
44.51
 21
0.434664721034
 31
0.0
  0
LINE
  5
2BA
330
30
100
AcDbEntity
  8
1
100
AcDbLine
 10
44.51
 20
0.434664721034
 30
0.0
 11
44.48875
 21
0.391893362137
 31
0.0
  0
LINE
  5
2BB
330
30
100
AcDbEntity
  8
1
100
AcDbLine
 10
44.48875
 20
0.391893362137
 30
0.0
 11
44.4675
 21
0.344518459827
 31
0.0
  0
LINE
  5
2BC
330
30
100
AcDbEntity
  8
1
100
AcDbLine
 10
44.4675
 20
0.344518459827
 30
0.0
 11
44.44625
 21
0.292183997094
 31
0.0
  0
LINE
  5
2BD
330
30
100
AcDbEntity
  8
1
100
AcDbLine
 10
44.44625
 20
0.292183997094
 30
0.0
 11
44.425
 21
0.234527470397
 31
0.0
  0
LINE
  5
2BE
330
30
100
AcDbEntity
  8
1
100
AcDbLine
 10
44.425
 20
0.234527470397
 30
0.0
 11
44.425
 21
0.192775221855
 31
0.0
  0
LINE
  5
2BF
330
30
100
AcDbEntity
  8
1
100
AcDbLine
 10
44.425
 20
0.192775221855
 30
0.0
 11
44.44625
 21
0.127224723877
 31
0.0
  0
LINE
  5
2C0
330
30
100
AcDbEntity
  8
1
100
AcDbLine
 10
44.44625
 20
0.127224723877
 30
0.0
 11
44.4675
 21
0.063227939835
 31
0.0
  0
LINE
  5
2C1
330
30
100
AcDbEntity
  8
1
100
AcDbLine
 10
44.4675
 20
0.063227939835
 30
0.0
 11
44.48875
 21
0.000866062686
 31
0.0
  0
LINE
  5
2C2
330
30
100
AcDbEntity
  8
1
100
AcDbLine
 10
44.48875
 20
0.000866062686
 30
0.0
 11
44.51
 21
-0.059797422989
 31
0.0
  0
LINE
  5
2C3
330
30
100
AcDbEntity
  8
1
100
AcDbLine
 10
44.51
 20
-0.059797422989
 30
0.0
 11
44.53125
 21
-0.118714936042
 31
0.0
  0
LINE
  5
2C4
330
30
100
AcDbEntity
  8
1
100
AcDbLine
 10
44.53125
 20
-0.118714936042
 30
0.0
 11
44.5525
 21
-0.175853106558
 31
0.0
  0
LINE
  5
2C5
330
30
100
AcDbEntity
  8
1
100
AcDbLine
 10
44.5525
 20
-0.175853106558
 30
0.0
 11
44.57375
 21
-0.23119119781
 31
0.0
  0
LINE
  5
2C6
330
30
100
AcDbEntity
  8
1
100
AcDbLine
 10
44.57375
 20
-0.23119119781
 30
0.0
 11
44.595
 21
-0.284719641927
 31
0.0
  0
LINE
  5
2C7
330
30
100
AcDbEntity
  8
1
100
AcDbLine
 10
44.595
 20
-0.284719641927
 30
0.0
 11
44.61625
 21
-0.336438687345
 31
0.0
  0
LINE
  5
2C8
330
30
100
AcDbEntity
  8
1
100
AcDbLine
 10
44.61625
 20
-0.336438687345
 30
0.0
 11
44.6375
 21
-0.386357154934
 31
0.0
  0
LINE
  5
2C9
330
30
100
AcDbEntity
  8
1
100
AcDbLine
 10
44.6375
 20
-0.386357154934
 30
0.0
 11
44.65875
 21
-0.434491298815
 31
0.0
  0
LINE
  5
2CA
330
30
100
AcDbEntity
  8
1
100
AcDbLine
 10
44.65875
 20
-0.434491298815
 30
0.0
 11
44.68
 21
-0.480863767223
 31
0.0
  0
LINE
  5
2CB
330
30
100
AcDbEntity
  8
1
100
AcDbLine
 10
44.68
 20
-0.480863767223
 30
0.0
 11
44.70125
 21
-0.525502658307
 31
0.0
  0
LINE
  5
2CC
330
30
100
AcDbEntity
  8
1
100
AcDbLine
 10
44.70125
 20
-0.525502658307
 30
0.0
 11
44.7225
 21
-0.568440665459
 31
0.0
  0
LINE
  5
2CD
330
30
100
AcDbEntity
  8
1
100
AcDbLine
 10
44.7225
 20
-0.568440665459
 30
0.0
 11
44.74375
 21
-0.609714306634
 31
0.0
  0
LINE
  5
2CE
330
30
100
AcDbEntity
  8
1
100
AcDbLine
 10
44.74375
 20
-0.609714306634
 30
0.0
 11
44.765
 21
-0.649363232039
 31
0.0
  0
LINE
  5
2CF
330
30
100
AcDbEntity
  8
1
100
AcDbLine
 10
44.765
 20
-0.649363232039
 30
0.0
 11
44.78625
 21
-0.687429604623
 31
0.0
  0
LINE
  5
2D0
330
30
100
AcDbEntity
  8
1
100
AcDbLine
 10
44.78625
 20
-0.687429604623
 30
0.0
 11
44.8075
 21
-0.723957547919
 31
0.0
  0
LINE
  5
2D1
330
30
100
AcDbEntity
  8
1
100
AcDbLine
 10
44.8075
 20
-0.723957547919
 30
0.0
 11
44.82875
 21
-0.758992655944
 31
0.0
  0
LINE
  5
2D2
330
30
100
AcDbEntity
  8
1
100
AcDbLine
 10
44.82875
 20
-0.758992655944
 30
0.0
 11
44.85
 21
-0.792581560058
 31
0.0
  0
LINE
  5
2D3
330
30
100
AcDbEntity
  8
1
100
AcDbLine
 10
44.85
 20
-0.792581560058
 30
0.0
 11
44.87125
 21
-0.824771547943
 31
0.0
  0
LINE
  5
2D4
330
30
100
AcDbEntity
  8
1
100
AcDbLine
 10
44.87125
 20
-0.824771547943
 30
0.0
 11
44.8925
 21
-0.855610230083
 31
0.0
  0
LINE
  5
2D5
330
30
100
AcDbEntity
  8
1
100
AcDbLine
 10
44.8925
 20
-0.855610230083
 30
0.0
 11
44.91375
 21
-0.885145249426
 31
0.0
  0
LINE
  5
2D6
330
30
100
AcDbEntity
  8
1
100
AcDbLine
 10
44.91375
 20
-0.885145249426
 30
0.0
 11
44.935
 21
-0.913424030155
 31
0.0
  0
LINE
  5
2D7
330
30
100
AcDbEntity
  8
1
100
AcDbLine
 10
44.935
 20
-0.913424030155
 30
0.0
 11
44.95625
 21
-0.940493561771
 31
0.0
  0
LINE
  5
2D8
330
30
100
AcDbEntity
  8
1
100
AcDbLine
 10
44.95625
 20
-0.940493561771
 30
0.0
 11
44.9775
 21
-0.966400214992
 31
0.0
  0
LINE
  5
2D9
330
30
100
AcDbEntity
  8
1
100
AcDbLine
 10
44.9775
 20
-0.966400214992
 30
0.0
 11
44.99875
 21
-0.991189586169
 31
0.0
  0
LINE
  5
2DA
330
30
100
AcDbEntity
  8
1
100
AcDbLine
 10
44.99875
 20
-0.991189586169
 30
0.0
 11
45.02
 21
-1.014906367257
 31
0.0
  0
LINE
  5
2DB
330
30
100
AcDbEntity
  8
1
100
AcDbLine
 10
45.02
 20
-1.014906367257
 30
0.0
 11
45.04125
 21
-1.037594238547
 31
0.0
  0
LINE
  5
2DC
330
30
100
AcDbEntity
  8
1
100
AcDbLine
 10
45.04125
 20
-1.037594238547
 30
0.0
 11
45.0625
 21
-1.05929578165
 31
0.0
  0
LINE
  5
2DD
330
30
100
AcDbEntity
  8
1
100
AcDbLine
 10
45.0625
 20
-1.05929578165
 30
0.0
 11
45.08375
 21
-1.080052410414
 31
0.0
  0
LINE
  5
2DE
330
30
100
AcDbEntity
  8
1
100
AcDbLine
 10
45.08375
 20
-1.080052410414
 30
0.0
 11
45.105
 21
-1.099904317679
 31
0.0
  0
LINE
  5
2DF
330
30
100
AcDbEntity
  8
1
100
AcDbLine
 10
45.105
 20
-1.099904317679
 30
0.0
 11
45.12625
 21
-1.118890435952
 31
0.0
  0
LINE
  5
2E0
330
30
100
AcDbEntity
  8
1
100
AcDbLine
 10
45.12625
 20
-1.118890435952
 30
0.0
 11
45.1475
 21
-1.137048410277
 31
0.0
  0
LINE
  5
2E1
330
30
100
AcDbEntity
  8
1
100
AcDbLine
 10
45.1475
 20
-1.137048410277
 30
0.0
 11
45.16875
 21
-1.15441458174
 31
0.0
  0
LINE
  5
2E2
330
30
100
AcDbEntity
  8
1
100
AcDbLine
 10
45.16875
 20
-1.15441458174
 30
0.0
 11
45.19
 21
-1.171023980198
 31
0.0
  0
LINE
  5
2E3
330
30
100
AcDbEntity
  8
1
100
AcDbLine
 10
45.19
 20
-1.171023980198
 30
0.0
 11
45.21125
 21
-1.186910324965
 31
0.0
  0
LINE
  5
2E4
330
30
100
AcDbEntity
  8
1
100
AcDbLine
 10
45.21125
 20
-1.186910324965
 30
0.0
 11
45.2325
 21
-1.202106032329
 31
0.0
  0
LINE
  5
2E5
330
30
100
AcDbEntity
  8
1
100
AcDbLine
 10
45.2325
 20
-1.202106032329
 30
0.0
 11
45.25375
 21
-1.216642228883
 31
0.0
  0
LINE
  5
2E6
330
30
100
AcDbEntity
  8
1
100
AcDbLine
 10
45.25375
 20
-1.216642228883
 30
0.0
 11
45.275
 21
-1.230548769754
 31
0.0
  0
LINE
  5
2E7
330
30
100
AcDbEntity
  8
1
100
AcDbLine
 10
45.275
 20
-1.230548769754
 30
0.0
 11
45.29625
 21
-1.243854260953
 31
0.0
  0
LINE
  5
2E8
330
30
100
AcDbEntity
  8
1
100
AcDbLine
 10
45.29625
 20
-1.243854260953
 30
0.0
 11
45.3175
 21
-1.256586085103
 31
0.0
  0
LINE
  5
2E9
330
30
100
AcDbEntity
  8
1
100
AcDbLine
 10
45.3175
 20
-1.256586085103
 30
0.0
 11
45.33875
 21
-1.268770429938
 31
0.0
  0
LINE
  5
2EA
330
30
100
AcDbEntity
  8
1
100
AcDbLine
 10
45.33875
 20
-1.268770429938
 30
0.0
 11
45.36
 21
-1.280432319008
 31
0.0
  0
LINE
  5
2EB
330
30
100
AcDbEntity
  8
1
100
AcDbLine
 10
45.36
 20
-1.280432319008
 30
0.0
 11
45.38125
 21
-1.291595644095
 31
0.0
  0
LINE
  5
2EC
330
30
100
AcDbEntity
  8
1
100
AcDbLine
 10
45.38125
 20
-1.291595644095
 30
0.0
 11
45.4025
 21
-1.302283198935
 31
0.0
  0
LINE
  5
2ED
330
30
100
AcDbEntity
  8
1
100
AcDbLine
 10
45.4025
 20
-1.302283198935
 30
0.0
 11
45.42375
 21
-1.312516713841
 31
0.0
  0
LINE
  5
2EE
330
30
100
AcDbEntity
  8
1
100
AcDbLine
 10
45.42375
 20
-1.312516713841
 30
0.0
 11
45.445
 21
-1.322316890943
 31
0.0
  0
LINE
  5
2EF
330
30
100
AcDbEntity
  8
1
100
AcDbLine
 10
45.445
 20
-1.322316890943
 30
0.0
 11
45.46625
 21
-1.331703439727
 31
0.0
  0
LINE
  5
2F0
330
30
100
AcDbEntity
  8
1
100
AcDbLine
 10
45.46625
 20
-1.331703439727
 30
0.0
 11
45.4875
 21
-1.34069511266
 31
0.0
  0
LINE
  5
2F1
330
30
100
AcDbEntity
  8
1
100
AcDbLine
 10
45.4875
 20
-1.34069511266
 30
0.0
 11
45.50875
 21
-1.349309740689
 31
0.0
  0
LINE
  5
2F2
330
30
100
AcDbEntity
  8
1
100
AcDbLine
 10
45.50875
 20
-1.349309740689
 30
0.0
 11
45.53
 21
-1.357564268429
 31
0.0
  0
LINE
  5
2F3
330
30
100
AcDbEntity
  8
1
100
AcDbLine
 10
45.53
 20
-1.357564268429
 30
0.0
 11
45.55125
 21
-1.365474788912
 31
0.0
  0
LINE
  5
2F4
330
30
100
AcDbEntity
  8
1
100
AcDbLine
 10
45.55125
 20
-1.365474788912
 30
0.0
 11
45.5725
 21
-1.37305657776
 31
0.0
  0
LINE
  5
2F5
330
30
100
AcDbEntity
  8
1
100
AcDbLine
 10
45.5725
 20
-1.37305657776
 30
0.0
 11
45.59375
 21
-1.380324126692
 31
0.0
  0
LINE
  5
2F6
330
30
100
AcDbEntity
  8
1
100
AcDbLine
 10
45.59375
 20
-1.380324126692
 30
0.0
 11
45.615
 21
-1.387291176277
 31
0.0
  0
LINE
  5
2F7
330
30
100
AcDbEntity
  8
1
100
AcDbLine
 10
45.615
 20
-1.387291176277
 30
0.0
 11
45.63625
 21
-1.39397074787
 31
0.0
  0
LINE
  5
2F8
330
30
100
AcDbEntity
  8
1
100
AcDbLine
 10
45.63625
 20
-1.39397074787
 30
0.0
 11
45.6575
 21
-1.400375174686
 31
0.0
  0
LINE
  5
2F9
330
30
100
AcDbEntity
  8
1
100
AcDbLine
 10
45.6575
 20
-1.400375174686
 30
0.0
 11
45.67875
 21
-1.406516131965
 31
0.0
  0
LINE
  5
2FA
330
30
100
AcDbEntity
  8
1
100
AcDbLine
 10
45.67875
 20
-1.406516131965
 30
0.0
 11
45.7
 21
-1.412404666212
 31
0.0
  0
LINE
  5
2FB
330
30
100
AcDbEntity
  8
1
100
AcDbLine
 10
45.7
 20
-1.412404666212
 30
0.0
 11
45.72125
 21
-1.418051223486
 31
0.0
  0
LINE
  5
2FC
330
30
100
AcDbEntity
  8
1
100
AcDbLine
 10
45.72125
 20
-1.418051223486
 30
0.0
 11
45.7425
 21
-1.423465676738
 31
0.0
  0
LINE
  5
2FD
330
30
100
AcDbEntity
  8
1
100
AcDbLine
 10
45.7425
 20
-1.423465676738
 30
0.0
 11
45.76375
 21
-1.428657352186
 31
0.0
  0
LINE
  5
2FE
330
30
100
AcDbEntity
  8
1
100
AcDbLine
 10
45.76375
 20
-1.428657352186
 30
0.0
 11
45.785
 21
-1.433635054739
 31
0.0
  0
LINE
  5
2FF
330
30
100
AcDbEntity
  8
1
100
AcDbLine
 10
45.785
 20
-1.433635054739
 30
0.0
 11
45.80625
 21
-1.438407092484
 31
0.0
  0
LINE
  5
300
330
30
100
AcDbEntity
  8
1
100
AcDbLine
 10
45.80625
 20
-1.438407092484
 30
0.0
 11
45.8275
 21
-1.442981300228
 31
0.0
  0
LINE
  5
301
330
30
100
AcDbEntity
  8
1
100
AcDbLine
 10
45.8275
 20
-1.442981300228
 30
0.0
 11
45.84875
 21
-1.447365062138
 31
0.0
  0
LINE
  5
302
330
30
100
AcDbEntity
  8
1
100
AcDbLine
 10
45.84875
 20
-1.447365062138
 30
0.0
 11
45.87
 21
-1.451565333482
 31
0.0
  0
LINE
  5
303
330
30
100
AcDbEntity
  8
1
100
AcDbLine
 10
45.87
 20
-1.451565333482
 30
0.0
 11
45.89125
 21
-1.455588661495
 31
0.0
  0
LINE
  5
304
330
30
100
AcDbEntity
  8
1
100
AcDbLine
 10
45.89125
 20
-1.455588661495
 30
0.0
 11
45.9125
 21
-1.4594412054
 31
0.0
  0
LINE
  5
305
330
30
100
AcDbEntity
  8
1
100
AcDbLine
 10
45.9125
 20
-1.4594412054
 30
0.0
 11
45.93375
 21
-1.463128755601
 31
0.0
  0
LINE
  5
306
330
30
100
AcDbEntity
  8
1
100
AcDbLine
 10
45.93375
 20
-1.463128755601
 30
0.0
 11
45.955
 21
-1.466656752077
 31
0.0
  0
LINE
  5
307
330
30
100
AcDbEntity
  8
1
100
AcDbLine
 10
45.955
 20
-1.466656752077
 30
0.0
 11
45.97625
 21
-1.470030302002
 31
0.0
  0
LINE
  5
308
330
30
100
AcDbEntity
  8
1
100
AcDbLine
 10
45.97625
 20
-1.470030302002
 30
0.0
 11
45.9975
 21
-1.473254196626
 31
0.0
  0
LINE
  5
309
330
30
100
AcDbEntity
  8
1
100
AcDbLine
 10
45.9975
 20
-1.473254196626
 30
0.0
 11
46.01875
 21
-1.476332927424
 31
0.0
  0
LINE
  5
30A
330
30
100
AcDbEntity
  8
1
100
AcDbLine
 10
46.01875
 20
-1.476332927424
 30
0.0
 11
46.04
 21
-1.479270701563
 31
0.0
  0
LINE
  5
30B
330
30
100
AcDbEntity
  8
1
100
AcDbLine
 10
46.04
 20
-1.479270701563
 30
0.0
 11
46.06125
 21
-1.482071456693
 31
0.0
  0
LINE
  5
30C
330
30
100
AcDbEntity
  8
1
100
AcDbLine
 10
46.06125
 20
-1.482071456693
 30
0.0
 11
46.0825
 21
-1.484738875107
 31
0.0
  0
LINE
  5
30D
330
30
100
AcDbEntity
  8
1
100
AcDbLine
 10
46.0825
 20
-1.484738875107
 30
0.0
 11
46.10375
 21
-1.487276397276
 31
0.0
  0
LINE
  5
30E
330
30
100
AcDbEntity
  8
1
100
AcDbLine
 10
46.10375
 20
-1.487276397276
 30
0.0
 11
46.125
 21
-1.489687234797
 31
0.0
  0
LINE
  5
30F
330
30
100
AcDbEntity
  8
1
100
AcDbLine
 10
46.125
 20
-1.489687234797
 30
0.0
 11
46.14625
 21
-1.491974382775
 31
0.0
  0
LINE
  5
310
330
30
100
AcDbEntity
  8
1
100
AcDbLine
 10
46.14625
 20
-1.491974382775
 30
0.0
 11
46.1675
 21
-1.494140631662
 31
0.0
  0
LINE
  5
311
330
30
100
AcDbEntity
  8
1
100
AcDbLine
 10
46.1675
 20
-1.494140631662
 30
0.0
 11
46.18875
 21
-1.496188578567
 31
0.0
  0
LINE
  5
312
330
30
100
AcDbEntity
  8
1
100
AcDbLine
 10
46.18875
 20
-1.496188578567
 30
0.0
 11
46.21
 21
-1.498120638079
 31
0.0
  0
LINE
  5
313
330
30
100
AcDbEntity
  8
1
100
AcDbLine
 10
46.21
 20
-1.498120638079
 30
0.0
 11
46.23125
 21
-1.499939052603
 31
0.0
  0
LINE
  5
314
330
30
100
AcDbEntity
  8
1
100
AcDbLine
 10
46.23125
 20
-1.499939052603
 30
0.0
 11
46.2525
 21
-1.501645902233
 31
0.0
  0
LINE
  5
315
330
30
100
AcDbEntity
  8
1
100
AcDbLine
 10
46.2525
 20
-1.501645902233
 30
0.0
 11
46.27375
 21
-1.503243114202
 31
0.0
  0
LINE
  5
316
330
30
100
AcDbEntity
  8
1
100
AcDbLine
 10
46.27375
 20
-1.503243114202
 30
0.0
 11
46.295
 21
-1.504732471889
 31
0.0
  0
LINE
  5
317
330
30
100
AcDbEntity
  8
1
100
AcDbLine
 10
46.295
 20
-1.504732471889
 30
0.0
 11
46.31625
 21
-1.506115623438
 31
0.0
  0
LINE
  5
318
330
30
100
AcDbEntity
  8
1
100
AcDbLine
 10
46.31625
 20
-1.506115623438
 30
0.0
 11
46.3375
 21
-1.507394089984
 31
0.0
  0
LINE
  5
319
330
30
100
AcDbEntity
  8
1
100
AcDbLine
 10
46.3375
 20
-1.507394089984
 30
0.0
 11
46.35875
 21
-1.508569273505
 31
0.0
  0
LINE
  5
31A
330
30
100
AcDbEntity
  8
1
100
AcDbLine
 10
46.35875
 20
-1.508569273505
 30
0.0
 11
46.38
 21
-1.509642464322
 31
0.0
  0
LINE
  5
31B
330
30
100
AcDbEntity
  8
1
100
AcDbLine
 10
46.38
 20
-1.509642464322
 30
0.0
 11
46.40125
 21
-1.510614848252
 31
0.0
  0
LINE
  5
31C
330
30
100
AcDbEntity
  8
1
100
AcDbLine
 10
46.40125
 20
-1.510614848252
 30
0.0
 11
46.4225
 21
-1.511487513437
 31
0.0
  0
LINE
  5
31D
330
30
100
AcDbEntity
  8
1
100
AcDbLine
 10
46.4225
 20
-1.511487513437
 30
0.0
 11
46.44375
 21
-1.512261456851
 31
0.0
  0
LINE
  5
31E
330
30
100
AcDbEntity
  8
1
100
AcDbLine
 10
46.44375
 20
-1.512261456851
 30
0.0
 11
46.465
 21
-1.512937590511
 31
0.0
  0
LINE
  5
31F
330
30
100
AcDbEntity
  8
1
100
AcDbLine
 10
46.465
 20
-1.512937590511
 30
0.0
 11
46.48625
 21
-1.513516747385
 31
0.0
  0
LINE
  5
320
330
30
100
AcDbEntity
  8
1
100
AcDbLine
 10
46.48625
 20
-1.513516747385
 30
0.0
 11
46.5075
 21
-1.513999687032
 31
0.0
  0
LINE
  5
321
330
30
100
AcDbEntity
  8
1
100
AcDbLine
 10
46.5075
 20
-1.513999687032
 30
0.0
 11
46.52875
 21
-1.514387100961
 31
0.0
  0
LINE
  5
322
330
30
100
AcDbEntity
  8
1
100
AcDbLine
 10
46.52875
 20
-1.514387100961
 30
0.0
 11
46.55
 21
-1.514679617733
 31
0.0
  0
LINE
  5
323
330
30
100
AcDbEntity
  8
1
100
AcDbLine
 10
46.55
 20
-1.514679617733
 30
0.0
 11
46.57125
 21
-1.514877807813
 31
0.0
  0
LINE
  5
324
330
30
100
AcDbEntity
  8
1
100
AcDbLine
 10
46.57125
 20
-1.514877807813
 30
0.0
 11
46.5925
 21
-1.514982188175
 31
0.0
  0
LINE
  5
325
330
30
100
AcDbEntity
  8
1
100
AcDbLine
 10
46.5925
 20
-1.514982188175
 30
0.0
 11
46.605644366185
 21
-1.515
 31
0.0
  0
LINE
  5
326
330
30
100
AcDbEntity
  8
1
100
AcDbLine
 10
47.6
 20
-1.515
 30
0.0
 11
47.6
 21
1.515
 31
0.0
  0
LINE
  5
327
330
30
100
AcDbEntity
  8
1
100
AcDbLine
 10
47.6
 20
1.5875
 30
0.0
 11
47.6
 21
-1.5875
 31
0.0
  0
LINE
  5
328
330
30
100
AcDbEntity
  8
1
100
AcDbLine
 10
47.920593509435
 20
1.5875
 30
0.0
 11
47.93125
 21
1.587488077622
 31
0.0
  0
LINE
  5
329
330
30
100
AcDbEntity
  8
1
100
AcDbLine
 10
47.93125
 20
1.587488077622
 30
0.0
 11
47.9525
 21
1.587393122023
 31
0.0
  0
LINE
  5
32A
330
30
100
AcDbEntity
  8
1
100
AcDbLine
 10
47.9525
 20
1.587393122023
 30
0.0
 11
47.97375
 21
1.587203357007
 31
0.0
  0
LINE
  5
32B
330
30
100
AcDbEntity
  8
1
100
AcDbLine
 10
47.97375
 20
1.587203357007
 30
0.0
 11
47.995
 21
1.586918793908
 31
0.0
  0
LINE
  5
32C
330
30
100
AcDbEntity
  8
1
100
AcDbLine
 10
47.995
 20
1.586918793908
 30
0.0
 11
48.01625
 21
1.586539449721
 31
0.0
  0
LINE
  5
32D
330
30
100
AcDbEntity
  8
1
100
AcDbLine
 10
48.01625
 20
1.586539449721
 30
0.0
 11
48.0375
 21
1.586065347103
 31
0.0
  0
LINE
  5
32E
330
30
100
AcDbEntity
  8
1
100
AcDbLine
 10
48.0375
 20
1.586065347103
 30
0.0
 11
48.05875
 21
1.58549651437
 31
0.0
  0
LINE
  5
32F
330
30
100
AcDbEntity
  8
1
100
AcDbLine
 10
48.05875
 20
1.58549651437
 30
0.0
 11
48.08
 21
1.584832985498
 31
0.0
  0
LINE
  5
330
330
30
100
AcDbEntity
  8
1
100
AcDbLine
 10
48.08
 20
1.584832985498
 30
0.0
 11
48.10125
 21
1.584074800116
 31
0.0
  0
LINE
  5
331
330
30
100
AcDbEntity
  8
1
100
AcDbLine
 10
48.10125
 20
1.584074800116
 30
0.0
 11
48.1225
 21
1.583222003509
 31
0.0
  0
LINE
  5
332
330
30
100
AcDbEntity
  8
1
100
AcDbLine
 10
48.1225
 20
1.583222003509
 30
0.0
 11
48.14375
 21
1.58227464661
 31
0.0
  0
LINE
  5
333
330
30
100
AcDbEntity
  8
1
100
AcDbLine
 10
48.14375
 20
1.58227464661
 30
0.0
 11
48.165
 21
1.581232786002
 31
0.0
  0
LINE
  5
334
330
30
100
AcDbEntity
  8
1
100
AcDbLine
 10
48.165
 20
1.581232786002
 30
0.0
 11
48.18625
 21
1.580096483911
 31
0.0
  0
LINE
  5
335
330
30
100
AcDbEntity
  8
1
100
AcDbLine
 10
48.18625
 20
1.580096483911
 30
0.0
 11
48.2075
 21
1.578865808206
 31
0.0
  0
LINE
  5
336
330
30
100
AcDbEntity
  8
1
100
AcDbLine
 10
48.2075
 20
1.578865808206
 30
0.0
 11
48.22875
 21
1.57754083239
 31
0.0
  0
LINE
  5
337
330
30
100
AcDbEntity
  8
1
100
AcDbLine
 10
48.22875
 20
1.57754083239
 30
0.0
 11
48.25
 21
1.576121635598
 31
0.0
  0
LINE
  5
338
330
30
100
AcDbEntity
  8
1
100
AcDbLine
 10
48.25
 20
1.576121635598
 30
0.0
 11
48.27125
 21
1.574608302595
 31
0.0
  0
LINE
  5
339
330
30
100
AcDbEntity
  8
1
100
AcDbLine
 10
48.27125
 20
1.574608302595
 30
0.0
 11
48.2925
 21
1.573000923768
 31
0.0
  0
LINE
  5
33A
330
30
100
AcDbEntity
  8
1
100
AcDbLine
 10
48.2925
 20
1.573000923768
 30
0.0
 11
48.31375
 21
1.571299595117
 31
0.0
  0
LINE
  5
33B
330
30
100
AcDbEntity
  8
1
100
AcDbLine
 10
48.31375
 20
1.571299595117
 30
0.0
 11
48.335
 21
1.56950441826
 31
0.0
  0
LINE
  5
33C
330
30
100
AcDbEntity
  8
1
100
AcDbLine
 10
48.335
 20
1.56950441826
 30
0.0
 11
48.35625
 21
1.567615500414
 31
0.0
  0
LINE
  5
33D
330
30
100
AcDbEntity
  8
1
100
AcDbLine
 10
48.35625
 20
1.567615500414
 30
0.0
 11
48.3775
 21
1.565632954398
 31
0.0
  0
LINE
  5
33E
330
30
100
AcDbEntity
  8
1
100
AcDbLine
 10
48.3775
 20
1.565632954398
 30
0.0
 11
48.39875
 21
1.563556898623
 31
0.0
  0
LINE
  5
33F
330
30
100
AcDbEntity
  8
1
100
AcDbLine
 10
48.39875
 20
1.563556898623
 30
0.0
 11
48.42
 21
1.561387457085
 31
0.0
  0
LINE
  5
340
330
30
100
AcDbEntity
  8
1
100
AcDbLine
 10
48.42
 20
1.561387457085
 30
0.0
 11
48.44125
 21
1.559124759356
 31
0.0
  0
LINE
  5
341
330
30
100
AcDbEntity
  8
1
100
AcDbLine
 10
48.44125
 20
1.559124759356
 30
0.0
 11
48.4625
 21
1.556768940579
 31
0.0
  0
LINE
  5
342
330
30
100
AcDbEntity
  8
1
100
AcDbLine
 10
48.4625
 20
1.556768940579
 30
0.0
 11
48.48375
 21
1.55432014146
 31
0.0
  0
LINE
  5
343
330
30
100
AcDbEntity
  8
1
100
AcDbLine
 10
48.48375
 20
1.55432014146
 30
0.0
 11
48.505
 21
1.551778508256
 31
0.0
  0
LINE
  5
344
330
30
100
AcDbEntity
  8
1
100
AcDbLine
 10
48.505
 20
1.551778508256
 30
0.0
 11
48.52625
 21
1.54914419277
 31
0.0
  0
LINE
  5
345
330
30
100
AcDbEntity
  8
1
100
AcDbLine
 10
48.52625
 20
1.54914419277
 30
0.0
 11
48.5475
 21
1.546417352341
 31
0.0
  0
LINE
  5
346
330
30
100
AcDbEntity
  8
1
100
AcDbLine
 10
48.5475
 20
1.546417352341
 30
0.0
 11
48.56875
 21
1.543598149833
 31
0.0
  0
LINE
  5
347
330
30
100
AcDbEntity
  8
1
100
AcDbLine
 10
48.56875
 20
1.543598149833
 30
0.0
 11
48.59
 21
1.540686753628
 31
0.0
  0
LINE
  5
348
330
30
100
AcDbEntity
  8
1
100
AcDbLine
 10
48.59
 20
1.540686753628
 30
0.0
 11
48.61125
 21
1.537683337612
 31
0.0
  0
LINE
  5
349
330
30
100
AcDbEntity
  8
1
100
AcDbLine
 10
48.61125
 20
1.537683337612
 30
0.0
 11
48.6325
 21
1.53458808117
 31
0.0
  0
LINE
  5
34A
330
30
100
AcDbEntity
  8
1
100
AcDbLine
 10
48.6325
 20
1.53458808117
 30
0.0
 11
48.65375
 21
1.53140116917
 31
0.0
  0
LINE
  5
34B
330
30
100
AcDbEntity
  8
1
100
AcDbLine
 10
48.65375
 20
1.53140116917
 30
0.0
 11
48.675
 21
1.528122791954
 31
0.0
  0
LINE
  5
34C
330
30
100
AcDbEntity
  8
1
100
AcDbLine
 10
48.675
 20
1.528122791954
 30
0.0
 11
48.69625
 21
1.52475314533
 31
0.0
  0
LINE
  5
34D
330
30
100
AcDbEntity
  8
1
100
AcDbLine
 10
48.69625
 20
1.52475314533
 30
0.0
 11
48.7175
 21
1.521292430555
 31
0.0
  0
LINE
  5
34E
330
30
100
AcDbEntity
  8
1
100
AcDbLine
 10
48.7175
 20
1.521292430555
 30
0.0
 11
48.73875
 21
1.517740854323
 31
0.0
  0
LINE
  5
34F
330
30
100
AcDbEntity
  8
1
100
AcDbLine
 10
48.73875
 20
1.517740854323
 30
0.0
 11
48.76
 21
1.51409862876
 31
0.0
  0
LINE
  5
350
330
30
100
AcDbEntity
  8
1
100
AcDbLine
 10
48.76
 20
1.51409862876
 30
0.0
 11
48.78125
 21
1.510365971402
 31
0.0
  0
LINE
  5
351
330
30
100
AcDbEntity
  8
1
100
AcDbLine
 10
48.78125
 20
1.510365971402
 30
0.0
 11
48.8025
 21
1.506543105187
 31
0.0
  0
LINE
  5
352
330
30
100
AcDbEntity
  8
1
100
AcDbLine
 10
48.8025
 20
1.506543105187
 30
0.0
 11
48.82375
 21
1.502630258443
 31
0.0
  0
LINE
  5
353
330
30
100
AcDbEntity
  8
1
100
AcDbLine
 10
48.82375
 20
1.502630258443
 30
0.0
 11
48.845
 21
1.498627664869
 31
0.0
  0
LINE
  5
354
330
30
100
AcDbEntity
  8
1
100
AcDbLine
 10
48.845
 20
1.498627664869
 30
0.0
 11
48.86625
 21
1.494535563526
 31
0.0
  0
LINE
  5
355
330
30
100
AcDbEntity
  8
1
100
AcDbLine
 10
48.86625
 20
1.494535563526
 30
0.0
 11
48.8875
 21
1.490354198822
 31
0.0
  0
LINE
  5
356
330
30
100
AcDbEntity
  8
1
100
AcDbLine
 10
48.8875
 20
1.490354198822
 30
0.0
 11
48.90875
 21
1.486083820495
 31
0.0
  0
LINE
  5
357
330
30
100
AcDbEntity
  8
1
100
AcDbLine
 10
48.90875
 20
1.486083820495
 30
0.0
 11
48.93
 21
1.481724683598
 31
0.0
  0
LINE
  5
358
330
30
100
AcDbEntity
  8
1
100
AcDbLine
 10
48.93
 20
1.481724683598
 30
0.0
 11
48.95125
 21
1.477277048489
 31
0.0
  0
LINE
  5
359
330
30
100
AcDbEntity
  8
1
100
AcDbLine
 10
48.95125
 20
1.477277048489
 30
0.0
 11
48.9725
 21
1.472741180809
 31
0.0
  0
LINE
  5
35A
330
30
100
AcDbEntity
  8
1
100
AcDbLine
 10
48.9725
 20
1.472741180809
 30
0.0
 11
48.99375
 21
1.468117351469
 31
0.0
  0
LINE
  5
35B
330
30
100
AcDbEntity
  8
1
100
AcDbLine
 10
48.99375
 20
1.468117351469
 30
0.0
 11
49.015
 21
1.463405836635
 31
0.0
  0
LINE
  5
35C
330
30
100
AcDbEntity
  8
1
100
AcDbLine
 10
49.015
 20
1.463405836635
 30
0.0
 11
49.03625
 21
1.458606917708
 31
0.0
  0
LINE
  5
35D
330
30
100
AcDbEntity
  8
1
100
AcDbLine
 10
49.03625
 20
1.458606917708
 30
0.0
 11
49.0575
 21
1.453720881311
 31
0.0
  0
LINE
  5
35E
330
30
100
AcDbEntity
  8
1
100
AcDbLine
 10
49.0575
 20
1.453720881311
 30
0.0
 11
49.07875
 21
1.44874801927
 31
0.0
  0
LINE
  5
35F
330
30
100
AcDbEntity
  8
1
100
AcDbLine
 10
49.07875
 20
1.44874801927
 30
0.0
 11
49.1
 21
1.443688628597
 31
0.0
  0
LINE
  5
360
330
30
100
AcDbEntity
  8
1
100
AcDbLine
 10
49.1
 20
1.443688628597
 30
0.0
 11
49.12125
 21
1.438543011471
 31
0.0
  0
LINE
  5
361
330
30
100
AcDbEntity
  8
1
100
AcDbLine
 10
49.12125
 20
1.438543011471
 30
0.0
 11
49.1425
 21
1.433311475222
 31
0.0
  0
LINE
  5
362
330
30
100
AcDbEntity
  8
1
100
AcDbLine
 10
49.1425
 20
1.433311475222
 30
0.0
 11
49.16375
 21
1.427994332311
 31
0.0
  0
LINE
  5
363
330
30
100
AcDbEntity
  8
1
100
AcDbLine
 10
49.16375
 20
1.427994332311
 30
0.0
 11
49.185
 21
1.422591900313
 31
0.0
  0
LINE
  5
364
330
30
100
AcDbEntity
  8
1
100
AcDbLine
 10
49.185
 20
1.422591900313
 30
0.0
 11
49.20625
 21
1.417104501895
 31
0.0
  0
LINE
  5
365
330
30
100
AcDbEntity
  8
1
100
AcDbLine
 10
49.20625
 20
1.417104501895
 30
0.0
 11
49.2275
 21
1.411474010117
 31
0.0
  0
LINE
  5
366
330
30
100
AcDbEntity
  8
1
100
AcDbLine
 10
49.2275
 20
1.411474010117
 30
0.0
 11
49.24875
 21
1.405536566434
 31
0.0
  0
LINE
  5
367
330
30
100
AcDbEntity
  8
1
100
AcDbLine
 10
49.24875
 20
1.405536566434
 30
0.0
 11
49.27
 21
1.399286065981
 31
0.0
  0
LINE
  5
368
330
30
100
AcDbEntity
  8
1
100
AcDbLine
 10
49.27
 20
1.399286065981
 30
0.0
 11
49.29125
 21
1.392726571735
 31
0.0
  0
LINE
  5
369
330
30
100
AcDbEntity
  8
1
100
AcDbLine
 10
49.29125
 20
1.392726571735
 30
0.0
 11
49.3125
 21
1.385862113418
 31
0.0
  0
LINE
  5
36A
330
30
100
AcDbEntity
  8
1
100
AcDbLine
 10
49.3125
 20
1.385862113418
 30
0.0
 11
49.33375
 21
1.37869668945
 31
0.0
  0
LINE
  5
36B
330
30
100
AcDbEntity
  8
1
100
AcDbLine
 10
49.33375
 20
1.37869668945
 30
0.0
 11
49.355
 21
1.371234268681
 31
0.0
  0
LINE
  5
36C
330
30
100
AcDbEntity
  8
1
100
AcDbLine
 10
49.355
 20
1.371234268681
 30
0.0
 11
49.37625
 21
1.363478791917
 31
0.0
  0
LINE
  5
36D
330
30
100
AcDbEntity
  8
1
100
AcDbLine
 10
49.37625
 20
1.363478791917
 30
0.0
 11
49.3975
 21
1.355434173233
 31
0.0
  0
LINE
  5
36E
330
30
100
AcDbEntity
  8
1
100
AcDbLine
 10
49.3975
 20
1.355434173233
 30
0.0
 11
49.41875
 21
1.347104301083
 31
0.0
  0
LINE
  5
36F
330
30
100
AcDbEntity
  8
1
100
AcDbLine
 10
49.41875
 20
1.347104301083
 30
0.0
 11
49.44
 21
1.338493039202
 31
0.0
  0
LINE
  5
370
330
30
100
AcDbEntity
  8
1
100
AcDbLine
 10
49.44
 20
1.338493039202
 30
0.0
 11
49.46125
 21
1.329604227308
 31
0.0
  0
LINE
  5
371
330
30
100
AcDbEntity
  8
1
100
AcDbLine
 10
49.46125
 20
1.329604227308
 30
0.0
 11
49.4825
 21
1.320441681593
 31
0.0
  0
LINE
  5
372
330
30
100
AcDbEntity
  8
1
100
AcDbLine
 10
49.4825
 20
1.320441681593
 30
0.0
 11
49.50375
 21
1.311009195006
 31
0.0
  0
LINE
  5
373
330
30
100
AcDbEntity
  8
1
100
AcDbLine
 10
49.50375
 20
1.311009195006
 30
0.0
 11
49.525
 21
1.301310537322
 31
0.0
  0
LINE
  5
374
330
30
100
AcDbEntity
  8
1
100
AcDbLine
 10
49.525
 20
1.301310537322
 30
0.0
 11
49.54625
 21
1.291349454983
 31
0.0
  0
LINE
  5
375
330
30
100
AcDbEntity
  8
1
100
AcDbLine
 10
49.54625
 20
1.291349454983
 30
0.0
 11
49.5675
 21
1.281129670719
 31
0.0
  0
LINE
  5
376
330
30
100
AcDbEntity
  8
1
100
AcDbLine
 10
49.5675
 20
1.281129670719
 30
0.0
 11
49.58875
 21
1.270654882913
 31
0.0
  0
LINE
  5
377
330
30
100
AcDbEntity
  8
1
100
AcDbLine
 10
49.58875
 20
1.270654882913
 30
0.0
 11
49.61
 21
1.259928764727
 31
0.0
  0
LINE
  5
378
330
30
100
AcDbEntity
  8
1
100
AcDbLine
 10
49.61
 20
1.259928764727
 30
0.0
 11
49.63125
 21
1.248954962939
 31
0.0
  0
LINE
  5
379
330
30
100
AcDbEntity
  8
1
100
AcDbLine
 10
49.63125
 20
1.248954962939
 30
0.0
 11
49.6525
 21
1.237737096508
 31
0.0
  0
LINE
  5
37A
330
30
100
AcDbEntity
  8
1
100
AcDbLine
 10
49.6525
 20
1.237737096508
 30
0.0
 11
49.67375
 21
1.22627875481
 31
0.0
  0
LINE
  5
37B
330
30
100
AcDbEntity
  8
1
100
AcDbLine
 10
49.67375
 20
1.22627875481
 30
0.0
 11
49.695
 21
1.214583495552
 31
0.0
  0
LINE
  5
37C
330
30
100
AcDbEntity
  8
1
100
AcDbLine
 10
49.695
 20
1.214583495552
 30
0.0
 11
49.71625
 21
1.202654842303
 31
0.0
  0
LINE
  5
37D
330
30
100
AcDbEntity
  8
1
100
AcDbLine
 10
49.71625
 20
1.202654842303
 30
0.0
 11
49.7375
 21
1.190496281636
 31
0.0
  0
LINE
  5
37E
330
30
100
AcDbEntity
  8
1
100
AcDbLine
 10
49.7375
 20
1.190496281636
 30
0.0
 11
49.75875
 21
1.178111259816
 31
0.0
  0
LINE
  5
37F
330
30
100
AcDbEntity
  8
1
100
AcDbLine
 10
49.75875
 20
1.178111259816
 30
0.0
 11
49.78
 21
1.165503179003
 31
0.0
  0
LINE
  5
380
330
30
100
AcDbEntity
  8
1
100
AcDbLine
 10
49.78
 20
1.165503179003
 30
0.0
 11
49.80125
 21
1.152675392912
 31
0.0
  0
LINE
  5
381
330
30
100
AcDbEntity
  8
1
100
AcDbLine
 10
49.80125
 20
1.152675392912
 30
0.0
 11
49.8225
 21
1.139631201864
 31
0.0
  0
LINE
  5
382
330
30
100
AcDbEntity
  8
1
100
AcDbLine
 10
49.8225
 20
1.139631201864
 30
0.0
 11
49.84375
 21
1.126373847155
 31
0.0
  0
LINE
  5
383
330
30
100
AcDbEntity
  8
1
100
AcDbLine
 10
49.84375
 20
1.126373847155
 30
0.0
 11
49.865
 21
1.112906504667
 31
0.0
  0
LINE
  5
384
330
30
100
AcDbEntity
  8
1
100
AcDbLine
 10
49.865
 20
1.112906504667
 30
0.0
 11
49.88625
 21
1.099232277607
 31
0.0
  0
LINE
  5
385
330
30
100
AcDbEntity
  8
1
100
AcDbLine
 10
49.88625
 20
1.099232277607
 30
0.0
 11
49.9075
 21
1.085354188276
 31
0.0
  0
LINE
  5
386
330
30
100
AcDbEntity
  8
1
100
AcDbLine
 10
49.9075
 20
1.085354188276
 30
0.0
 11
49.92875
 21
1.071275168718
 31
0.0
  0
LINE
  5
387
330
30
100
AcDbEntity
  8
1
100
AcDbLine
 10
49.92875
 20
1.071275168718
 30
0.0
 11
49.95
 21
1.056998050104
 31
0.0
  0
LINE
  5
388
330
30
100
AcDbEntity
  8
1
100
AcDbLine
 10
49.95
 20
1.056998050104
 30
0.0
 11
49.97125
 21
1.042525550653
 31
0.0
  0
LINE
  5
389
330
30
100
AcDbEntity
  8
1
100
AcDbLine
 10
49.97125
 20
1.042525550653
 30
0.0
 11
49.9925
 21
1.027860261879
 31
0.0
  0
LINE
  5
38A
330
30
100
AcDbEntity
  8
1
100
AcDbLine
 10
49.9925
 20
1.027860261879
 30
0.0
 11
50.01375
 21
1.013004632902
 31
0.0
  0
LINE
  5
38B
330
30
100
AcDbEntity
  8
1
100
AcDbLine
 10
50.01375
 20
1.013004632902
 30
0.0
 11
50.035
 21
0.997960952512
 31
0.0
  0
LINE
  5
38C
330
30
100
AcDbEntity
  8
1
100
AcDbLine
 10
50.035
 20
0.997960952512
 30
0.0
 11
50.05625
 21
0.982731328615
 31
0.0
  0
LINE
  5
38D
330
30
100
AcDbEntity
  8
1
100
AcDbLine
 10
50.05625
 20
0.982731328615
 30
0.0
 11
50.0775
 21
0.967317664623
 31
0.0
  0
LINE
  5
38E
330
30
100
AcDbEntity
  8
1
100
AcDbLine
 10
50.0775
 20
0.967317664623
 30
0.0
 11
50.09875
 21
0.951721632244
 31
0.0
  0
LINE
  5
38F
330
30
100
AcDbEntity
  8
1
100
AcDbLine
 10
50.09875
 20
0.951721632244
 30
0.0
 11
50.12
 21
0.935944640043
 31
0.0
  0
LINE
  5
390
330
30
100
AcDbEntity
  8
1
100
AcDbLine
 10
50.12
 20
0.935944640043
 30
0.0
 11
50.14125
 21
0.91998779696
 31
0.0
  0
LINE
  5
391
330
30
100
AcDbEntity
  8
1
100
AcDbLine
 10
50.14125
 20
0.91998779696
 30
0.0
 11
50.1625
 21
0.903851869846
 31
0.0
  0
LINE
  5
392
330
30
100
AcDbEntity
  8
1
100
AcDbLine
 10
50.1625
 20
0.903851869846
 30
0.0
 11
50.18375
 21
0.887537233812
 31
0.0
  0
LINE
  5
393
330
30
100
AcDbEntity
  8
1
100
AcDbLine
 10
50.18375
 20
0.887537233812
 30
0.0
 11
50.205
 21
0.871043813927
 31
0.0
  0
LINE
  5
394
330
30
100
AcDbEntity
  8
1
100
AcDbLine
 10
50.205
 20
0.871043813927
 30
0.0
 11
50.22625
 21
0.854371016419
 31
0.0
  0
LINE
  5
395
330
30
100
AcDbEntity
  8
1
100
AcDbLine
 10
50.22625
 20
0.854371016419
 30
0.0
 11
50.2475
 21
0.837517647071
 31
0.0
  0
LINE
  5
396
330
30
100
AcDbEntity
  8
1
100
AcDbLine
 10
50.2475
 20
0.837517647071
 30
0.0
 11
50.26875
 21
0.820481813885
 31
0.0
  0
LINE
  5
397
330
30
100
AcDbEntity
  8
1
100
AcDbLine
 10
50.26875
 20
0.820481813885
 30
0.0
 11
50.29
 21
0.803260810263
 31
0.0
  0
LINE
  5
398
330
30
100
AcDbEntity
  8
1
100
AcDbLine
 10
50.29
 20
0.803260810263
 30
0.0
 11
50.31125
 21
0.785850973865
 31
0.0
  0
LINE
  5
399
330
30
100
AcDbEntity
  8
1
100
AcDbLine
 10
50.31125
 20
0.785850973865
 30
0.0
 11
50.3325
 21
0.768247514865
 31
0.0
  0
LINE
  5
39A
330
30
100
AcDbEntity
  8
1
100
AcDbLine
 10
50.3325
 20
0.768247514865
 30
0.0
 11
50.35375
 21
0.7504443053
 31
0.0
  0
LINE
  5
39B
330
30
100
AcDbEntity
  8
1
100
AcDbLine
 10
50.35375
 20
0.7504443053
 30
0.0
 11
50.375
 21
0.732433618459
 31
0.0
  0
LINE
  5
39C
330
30
100
AcDbEntity
  8
1
100
AcDbLine
 10
50.375
 20
0.732433618459
 30
0.0
 11
50.39625
 21
0.714205803405
 31
0.0
  0
LINE
  5
39D
330
30
100
AcDbEntity
  8
1
100
AcDbLine
 10
50.39625
 20
0.714205803405
 30
0.0
 11
50.4175
 21
0.695748874205
 31
0.0
  0
LINE
  5
39E
330
30
100
AcDbEntity
  8
1
100
AcDbLine
 10
50.4175
 20
0.695748874205
 30
0.0
 11
50.43875
 21
0.677047985484
 31
0.0
  0
LINE
  5
39F
330
30
100
AcDbEntity
  8
1
100
AcDbLine
 10
50.43875
 20
0.677047985484
 30
0.0
 11
50.46
 21
0.658084754163
 31
0.0
  0
LINE
  5
3A0
330
30
100
AcDbEntity
  8
1
100
AcDbLine
 10
50.46
 20
0.658084754163
 30
0.0
 11
50.48125
 21
0.638836369488
 31
0.0
  0
LINE
  5
3A1
330
30
100
AcDbEntity
  8
1
100
AcDbLine
 10
50.48125
 20
0.638836369488
 30
0.0
 11
50.5025
 21
0.61927440612
 31
0.0
  0
LINE
  5
3A2
330
30
100
AcDbEntity
  8
1
100
AcDbLine
 10
50.5025
 20
0.61927440612
 30
0.0
 11
50.52375
 21
0.599363211626
 31
0.0
  0
LINE
  5
3A3
330
30
100
AcDbEntity
  8
1
100
AcDbLine
 10
50.52375
 20
0.599363211626
 30
0.0
 11
50.545
 21
0.57905766882
 31
0.0
  0
LINE
  5
3A4
330
30
100
AcDbEntity
  8
1
100
AcDbLine
 10
50.545
 20
0.57905766882
 30
0.0
 11
50.56625
 21
0.558300013378
 31
0.0
  0
LINE
  5
3A5
330
30
100
AcDbEntity
  8
1
100
AcDbLine
 10
50.56625
 20
0.558300013378
 30
0.0
 11
50.5875
 21
0.537015175795
 31
0.0
  0
LINE
  5
3A6
330
30
100
AcDbEntity
  8
1
100
AcDbLine
 10
50.5875
 20
0.537015175795
 30
0.0
 11
50.60875
 21
0.51510372634
 31
0.0
  0
LINE
  5
3A7
330
30
100
AcDbEntity
  8
1
100
AcDbLine
 10
50.60875
 20
0.51510372634
 30
0.0
 11
50.63
 21
0.492430738891
 31
0.0
  0
LINE
  5
3A8
330
30
100
AcDbEntity
  8
1
100
AcDbLine
 10
50.63
 20
0.492430738891
 30
0.0
 11
50.65125
 21
0.468807293335
 31
0.0
  0
LINE
  5
3A9
330
30
100
AcDbEntity
  8
1
100
AcDbLine
 10
50.65125
 20
0.468807293335
 30
0.0
 11
50.6725
 21
0.441692881214
 31
0.0
  0
LINE
  5
3AA
330
30
100
AcDbEntity
  8
1
100
AcDbLine
 10
50.6725
 20
0.441692881214
 30
0.0
 11
50.69375
 21
0.406532691739
 31
0.0
  0
LINE
  5
3AB
330
30
100
AcDbEntity
  8
1
100
AcDbLine
 10
50.69375
 20
0.406532691739
 30
0.0
 11
50.715
 21
0.360957182345
 31
0.0
  0
LINE
  5
3AC
330
30
100
AcDbEntity
  8
1
100
AcDbLine
 10
50.715
 20
0.360957182345
 30
0.0
 11
50.73625
 21
0.299612132032
 31
0.0
  0
LINE
  5
3AD
330
30
100
AcDbEntity
  8
1
100
AcDbLine
 10
50.73625
 20
0.299612132032
 30
0.0
 11
50.7575
 21
0.204506198749
 31
0.0
  0
LINE
  5
3AE
330
30
100
AcDbEntity
  8
1
100
AcDbLine
 10
50.7575
 20
0.204506198749
 30
0.0
 11
50.7575
 21
-0.06100067804
 31
0.0
  0
LINE
  5
3AF
330
30
100
AcDbEntity
  8
1
100
AcDbLine
 10
50.7575
 20
-0.06100067804
 30
0.0
 11
50.73625
 21
-0.177617695085
 31
0.0
  0
LINE
  5
3B0
330
30
100
AcDbEntity
  8
1
100
AcDbLine
 10
50.73625
 20
-0.177617695085
 30
0.0
 11
50.715
 21
-0.256557166934
 31
0.0
  0
LINE
  5
3B1
330
30
100
AcDbEntity
  8
1
100
AcDbLine
 10
50.715
 20
-0.256557166934
 30
0.0
 11
50.69375
 21
-0.319167021083
 31
0.0
  0
LINE
  5
3B2
330
30
100
AcDbEntity
  8
1
100
AcDbLine
 10
50.69375
 20
-0.319167021083
 30
0.0
 11
50.6725
 21
-0.371902031166
 31
0.0
  0
LINE
  5
3B3
330
30
100
AcDbEntity
  8
1
100
AcDbLine
 10
50.6725
 20
-0.371902031166
 30
0.0
 11
50.65125
 21
-0.417767942084
 31
0.0
  0
LINE
  5
3B4
330
30
100
AcDbEntity
  8
1
100
AcDbLine
 10
50.65125
 20
-0.417767942084
 30
0.0
 11
50.63
 21
-0.458459213288
 31
0.0
  0
LINE
  5
3B5
330
30
100
AcDbEntity
  8
1
100
AcDbLine
 10
50.63
 20
-0.458459213288
 30
0.0
 11
50.60875
 21
-0.495044720245
 31
0.0
  0
LINE
  5
3B6
330
30
100
AcDbEntity
  8
1
100
AcDbLine
 10
50.60875
 20
-0.495044720245
 30
0.0
 11
50.5875
 21
-0.52825116622
 31
0.0
  0
LINE
  5
3B7
330
30
100
AcDbEntity
  8
1
100
AcDbLine
 10
50.5875
 20
-0.52825116622
 30
0.0
 11
50.56625
 21
-0.558599917855
 31
0.0
  0
LINE
  5
3B8
330
30
100
AcDbEntity
  8
1
100
AcDbLine
 10
50.56625
 20
-0.558599917855
 30
0.0
 11
50.545
 21
-0.586480524034
 31
0.0
  0
LINE
  5
3B9
330
30
100
AcDbEntity
  8
1
100
AcDbLine
 10
50.545
 20
-0.586480524034
 30
0.0
 11
50.52375
 21
-0.61219344719
 31
0.0
  0
LINE
  5
3BA
330
30
100
AcDbEntity
  8
1
100
AcDbLine
 10
50.52375
 20
-0.61219344719
 30
0.0
 11
50.5025
 21
-0.635976449575
 31
0.0
  0
LINE
  5
3BB
330
30
100
AcDbEntity
  8
1
100
AcDbLine
 10
50.5025
 20
-0.635976449575
 30
0.0
 11
50.48125
 21
-0.658021690113
 31
0.0
  0
LINE
  5
3BC
330
30
100
AcDbEntity
  8
1
100
AcDbLine
 10
50.48125
 20
-0.658021690113
 30
0.0
 11
50.46
 21
-0.678487245862
 31
0.0
  0
LINE
  5
3BD
330
30
100
AcDbEntity
  8
1
100
AcDbLine
 10
50.46
 20
-0.678487245862
 30
0.0
 11
50.43875
 21
-0.697505134089
 31
0.0
  0
LINE
  5
3BE
330
30
100
AcDbEntity
  8
1
100
AcDbLine
 10
50.43875
 20
-0.697505134089
 30
0.0
 11
50.4175
 21
-0.715187054276
 31
0.0
  0
LINE
  5
3BF
330
30
100
AcDbEntity
  8
1
100
AcDbLine
 10
50.4175
 20
-0.715187054276
 30
0.0
 11
50.39625
 21
-0.731628596587
 31
0.0
  0
LINE
  5
3C0
330
30
100
AcDbEntity
  8
1
100
AcDbLine
 10
50.39625
 20
-0.731628596587
 30
0.0
 11
50.375
 21
-0.746912390323
 31
0.0
  0
LINE
  5
3C1
330
30
100
AcDbEntity
  8
1
100
AcDbLine
 10
50.375
 20
-0.746912390323
 30
0.0
 11
50.35375
 21
-0.761110502066
 31
0.0
  0
LINE
  5
3C2
330
30
100
AcDbEntity
  8
1
100
AcDbLine
 10
50.35375
 20
-0.761110502066
 30
0.0
 11
50.3325
 21
-0.774286291528
 31
0.0
  0
LINE
  5
3C3
330
30
100
AcDbEntity
  8
1
100
AcDbLine
 10
50.3325
 20
-0.774286291528
 30
0.0
 11
50.31125
 21
-0.786495868138
 31
0.0
  0
LINE
  5
3C4
330
30
100
AcDbEntity
  8
1
100
AcDbLine
 10
50.31125
 20
-0.786495868138
 30
0.0
 11
50.29
 21
-0.797789248801
 31
0.0
  0
LINE
  5
3C5
330
30
100
AcDbEntity
  8
1
100
AcDbLine
 10
50.29
 20
-0.797789248801
 30
0.0
 11
50.26875
 21
-0.808211288664
 31
0.0
  0
LINE
  5
3C6
330
30
100
AcDbEntity
  8
1
100
AcDbLine
 10
50.26875
 20
-0.808211288664
 30
0.0
 11
50.2475
 21
-0.81780243714
 31
0.0
  0
LINE
  5
3C7
330
30
100
AcDbEntity
  8
1
100
AcDbLine
 10
50.2475
 20
-0.81780243714
 30
0.0
 11
50.22625
 21
-0.82659935777
 31
0.0
  0
LINE
  5
3C8
330
30
100
AcDbEntity
  8
1
100
AcDbLine
 10
50.22625
 20
-0.82659935777
 30
0.0
 11
50.205
 21
-0.83463544083
 31
0.0
  0
LINE
  5
3C9
330
30
100
AcDbEntity
  8
1
100
AcDbLine
 10
50.205
 20
-0.83463544083
 30
0.0
 11
50.18375
 21
-0.841941230565
 31
0.0
  0
LINE
  5
3CA
330
30
100
AcDbEntity
  8
1
100
AcDbLine
 10
50.18375
 20
-0.841941230565
 30
0.0
 11
50.1625
 21
-0.848544783859
 31
0.0
  0
LINE
  5
3CB
330
30
100
AcDbEntity
  8
1
100
AcDbLine
 10
50.1625
 20
-0.848544783859
 30
0.0
 11
50.14125
 21
-0.85447197336
 31
0.0
  0
LINE
  5
3CC
330
30
100
AcDbEntity
  8
1
100
AcDbLine
 10
50.14125
 20
-0.85447197336
 30
0.0
 11
50.12
 21
-0.859746745251
 31
0.0
  0
LINE
  5
3CD
330
30
100
AcDbEntity
  8
1
100
AcDbLine
 10
50.12
 20
-0.859746745251
 30
0.0
 11
50.09875
 21
-0.864391339706
 31
0.0
  0
LINE
  5
3CE
330
30
100
AcDbEntity
  8
1
100
AcDbLine
 10
50.09875
 20
-0.864391339706
 30
0.0
 11
50.0775
 21
-0.868426480456
 31
0.0
  0
LINE
  5
3CF
330
30
100
AcDbEntity
  8
1
100
AcDbLine
 10
50.0775
 20
-0.868426480456
 30
0.0
 11
50.05625
 21
-0.8718715386
 31
0.0
  0
LINE
  5
3D0
330
30
100
AcDbEntity
  8
1
100
AcDbLine
 10
50.05625
 20
-0.8718715386
 30
0.0
 11
50.035
 21
-0.87474467483
 31
0.0
  0
LINE
  5
3D1
330
30
100
AcDbEntity
  8
1
100
AcDbLine
 10
50.035
 20
-0.87474467483
 30
0.0
 11
50.01375
 21
-0.877062963444
 31
0.0
  0
LINE
  5
3D2
330
30
100
AcDbEntity
  8
1
100
AcDbLine
 10
50.01375
 20
-0.877062963444
 30
0.0
 11
49.9925
 21
-0.878842500942
 31
0.0
  0
LINE
  5
3D3
330
30
100
AcDbEntity
  8
1
100
AcDbLine
 10
49.9925
 20
-0.878842500942
 30
0.0
 11
49.97125
 21
-0.880098501478
 31
0.0
  0
LINE
  5
3D4
330
30
100
AcDbEntity
  8
1
100
AcDbLine
 10
49.97125
 20
-0.880098501478
 30
0.0
 11
49.95
 21
-0.880845381073
 31
0.0
  0
LINE
  5
3D5
330
30
100
AcDbEntity
  8
1
100
AcDbLine
 10
49.95
 20
-0.880845381073
 30
0.0
 11
49.92875
 21
-0.881096832161
 31
0.0
  0
LINE
  5
3D6
330
30
100
AcDbEntity
  8
1
100
AcDbLine
 10
49.92875
 20
-0.881096832161
 30
0.0
 11
49.9075
 21
-0.880865889809
 31
0.0
  0
LINE
  5
3D7
330
30
100
AcDbEntity
  8
1
100
AcDbLine
 10
49.9075
 20
-0.880865889809
 30
0.0
 11
49.88625
 21
-0.880164990706
 31
0.0
  0
LINE
  5
3D8
330
30
100
AcDbEntity
  8
1
100
AcDbLine
 10
49.88625
 20
-0.880164990706
 30
0.0
 11
49.865
 21
-0.879006025878
 31
0.0
  0
LINE
  5
3D9
330
30
100
AcDbEntity
  8
1
100
AcDbLine
 10
49.865
 20
-0.879006025878
 30
0.0
 11
49.84375
 21
-0.877400387927
 31
0.0
  0
LINE
  5
3DA
330
30
100
AcDbEntity
  8
1
100
AcDbLine
 10
49.84375
 20
-0.877400387927
 30
0.0
 11
49.8225
 21
-0.875359013461
 31
0.0
  0
LINE
  5
3DB
330
30
100
AcDbEntity
  8
1
100
AcDbLine
 10
49.8225
 20
-0.875359013461
 30
0.0
 11
49.80125
 21
-0.872892421333
 31
0.0
  0
LINE
  5
3DC
330
30
100
AcDbEntity
  8
1
100
AcDbLine
 10
49.80125
 20
-0.872892421333
 30
0.0
 11
49.78
 21
-0.87001074715
 31
0.0
  0
LINE
  5
3DD
330
30
100
AcDbEntity
  8
1
100
AcDbLine
 10
49.78
 20
-0.87001074715
 30
0.0
 11
49.75875
 21
-0.866723774515
 31
0.0
  0
LINE
  5
3DE
330
30
100
AcDbEntity
  8
1
100
AcDbLine
 10
49.75875
 20
-0.866723774515
 30
0.0
 11
49.7375
 21
-0.863040963366
 31
0.0
  0
LINE
  5
3DF
330
30
100
AcDbEntity
  8
1
100
AcDbLine
 10
49.7375
 20
-0.863040963366
 30
0.0
 11
49.71625
 21
-0.858971475734
 31
0.0
  0
LINE
  5
3E0
330
30
100
AcDbEntity
  8
1
100
AcDbLine
 10
49.71625
 20
-0.858971475734
 30
0.0
 11
49.695
 21
-0.854524199206
 31
0.0
  0
LINE
  5
3E1
330
30
100
AcDbEntity
  8
1
100
AcDbLine
 10
49.695
 20
-0.854524199206
 30
0.0
 11
49.67375
 21
-0.849707768345
 31
0.0
  0
LINE
  5
3E2
330
30
100
AcDbEntity
  8
1
100
AcDbLine
 10
49.67375
 20
-0.849707768345
 30
0.0
 11
49.6525
 21
-0.844530584267
 31
0.0
  0
LINE
  5
3E3
330
30
100
AcDbEntity
  8
1
100
AcDbLine
 10
49.6525
 20
-0.844530584267
 30
0.0
 11
49.63125
 21
-0.839000832592
 31
0.0
  0
LINE
  5
3E4
330
30
100
AcDbEntity
  8
1
100
AcDbLine
 10
49.63125
 20
-0.839000832592
 30
0.0
 11
49.61
 21
-0.833126499905
 31
0.0
  0
LINE
  5
3E5
330
30
100
AcDbEntity
  8
1
100
AcDbLine
 10
49.61
 20
-0.833126499905
 30
0.0
 11
49.58875
 21
-0.826915388902
 31
0.0
  0
LINE
  5
3E6
330
30
100
AcDbEntity
  8
1
100
AcDbLine
 10
49.58875
 20
-0.826915388902
 30
0.0
 11
49.5675
 21
-0.820375132336
 31
0.0
  0
LINE
  5
3E7
330
30
100
AcDbEntity
  8
1
100
AcDbLine
 10
49.5675
 20
-0.820375132336
 30
0.0
 11
49.54625
 21
-0.813513205879
 31
0.0
  0
LINE
  5
3E8
330
30
100
AcDbEntity
  8
1
100
AcDbLine
 10
49.54625
 20
-0.813513205879
 30
0.0
 11
49.525
 21
-0.806336940011
 31
0.0
  0
LINE
  5
3E9
330
30
100
AcDbEntity
  8
1
100
AcDbLine
 10
49.525
 20
-0.806336940011
 30
0.0
 11
49.50375
 21
-0.798853531027
 31
0.0
  0
LINE
  5
3EA
330
30
100
AcDbEntity
  8
1
100
AcDbLine
 10
49.50375
 20
-0.798853531027
 30
0.0
 11
49.4825
 21
-0.791070051236
 31
0.0
  0
LINE
  5
3EB
330
30
100
AcDbEntity
  8
1
100
AcDbLine
 10
49.4825
 20
-0.791070051236
 30
0.0
 11
49.46125
 21
-0.782993458429
 31
0.0
  0
LINE
  5
3EC
330
30
100
AcDbEntity
  8
1
100
AcDbLine
 10
49.46125
 20
-0.782993458429
 30
0.0
 11
49.44
 21
-0.774630604691
 31
0.0
  0
LINE
  5
3ED
330
30
100
AcDbEntity
  8
1
100
AcDbLine
 10
49.44
 20
-0.774630604691
 30
0.0
 11
49.41875
 21
-0.765988244601
 31
0.0
  0
LINE
  5
3EE
330
30
100
AcDbEntity
  8
1
100
AcDbLine
 10
49.41875
 20
-0.765988244601
 30
0.0
 11
49.3975
 21
-0.757073042887
 31
0.0
  0
LINE
  5
3EF
330
30
100
AcDbEntity
  8
1
100
AcDbLine
 10
49.3975
 20
-0.757073042887
 30
0.0
 11
49.37625
 21
-0.747891581575
 31
0.0
  0
LINE
  5
3F0
330
30
100
AcDbEntity
  8
1
100
AcDbLine
 10
49.37625
 20
-0.747891581575
 30
0.0
 11
49.355
 21
-0.738450366678
 31
0.0
  0
LINE
  5
3F1
330
30
100
AcDbEntity
  8
1
100
AcDbLine
 10
49.355
 20
-0.738450366678
 30
0.0
 11
49.33375
 21
-0.728755834468
 31
0.0
  0
LINE
  5
3F2
330
30
100
AcDbEntity
  8
1
100
AcDbLine
 10
49.33375
 20
-0.728755834468
 30
0.0
 11
49.3125
 21
-0.718814357369
 31
0.0
  0
LINE
  5
3F3
330
30
100
AcDbEntity
  8
1
100
AcDbLine
 10
49.3125
 20
-0.718814357369
 30
0.0
 11
49.29125
 21
-0.708632249483
 31
0.0
  0
LINE
  5
3F4
330
30
100
AcDbEntity
  8
1
100
AcDbLine
 10
49.29125
 20
-0.708632249483
 30
0.0
 11
49.27
 21
-0.698215771818
 31
0.0
  0
LINE
  5
3F5
330
30
100
AcDbEntity
  8
1
100
AcDbLine
 10
49.27
 20
-0.698215771818
 30
0.0
 11
49.24875
 21
-0.687571137202
 31
0.0
  0
LINE
  5
3F6
330
30
100
AcDbEntity
  8
1
100
AcDbLine
 10
49.24875
 20
-0.687571137202
 30
0.0
 11
49.2275
 21
-0.676704514939
 31
0.0
  0
LINE
  5
3F7
330
30
100
AcDbEntity
  8
1
100
AcDbLine
 10
49.2275
 20
-0.676704514939
 30
0.0
 11
49.20625
 21
-0.665629434262
 31
0.0
  0
LINE
  5
3F8
330
30
100
AcDbEntity
  8
1
100
AcDbLine
 10
49.20625
 20
-0.665629434262
 30
0.0
 11
49.185
 21
-0.654471528679
 31
0.0
  0
LINE
  5
3F9
330
30
100
AcDbEntity
  8
1
100
AcDbLine
 10
49.185
 20
-0.654471528679
 30
0.0
 11
49.16375
 21
-0.643274533808
 31
0.0
  0
LINE
  5
3FA
330
30
100
AcDbEntity
  8
1
100
AcDbLine
 10
49.16375
 20
-0.643274533808
 30
0.0
 11
49.1425
 21
-0.632039118409
 31
0.0
  0
LINE
  5
3FB
330
30
100
AcDbEntity
  8
1
100
AcDbLine
 10
49.1425
 20
-0.632039118409
 30
0.0
 11
49.12125
 21
-0.620765953532
 31
0.0
  0
LINE
  5
3FC
330
30
100
AcDbEntity
  8
1
100
AcDbLine
 10
49.12125
 20
-0.620765953532
 30
0.0
 11
49.1
 21
-0.609455712484
 31
0.0
  0
LINE
  5
3FD
330
30
100
AcDbEntity
  8
1
100
AcDbLine
 10
49.1
 20
-0.609455712484
 30
0.0
 11
49.07875
 21
-0.598109070787
 31
0.0
  0
LINE
  5
3FE
330
30
100
AcDbEntity
  8
1
100
AcDbLine
 10
49.07875
 20
-0.598109070787
 30
0.0
 11
49.0575
 21
-0.586726706134
 31
0.0
  0
LINE
  5
3FF
330
30
100
AcDbEntity
  8
1
100
AcDbLine
 10
49.0575
 20
-0.586726706134
 30
0.0
 11
49.03625
 21
-0.575309298356
 31
0.0
  0
LINE
  5
400
330
30
100
AcDbEntity
  8
1
100
AcDbLine
 10
49.03625
 20
-0.575309298356
 30
0.0
 11
49.015
 21
-0.563857529373
 31
0.0
  0
LINE
  5
401
330
30
100
AcDbEntity
  8
1
100
AcDbLine
 10
49.015
 20
-0.563857529373
 30
0.0
 11
48.99375
 21
-0.55237208316
 31
0.0
  0
LINE
  5
402
330
30
100
AcDbEntity
  8
1
100
AcDbLine
 10
48.99375
 20
-0.55237208316
 30
0.0
 11
48.9725
 21
-0.540853645702
 31
0.0
  0
LINE
  5
403
330
30
100
AcDbEntity
  8
1
100
AcDbLine
 10
48.9725
 20
-0.540853645702
 30
0.0
 11
48.95125
 21
-0.529302904954
 31
0.0
  0
LINE
  5
404
330
30
100
AcDbEntity
  8
1
100
AcDbLine
 10
48.95125
 20
-0.529302904954
 30
0.0
 11
48.93
 21
-0.517720550803
 31
0.0
  0
LINE
  5
405
330
30
100
AcDbEntity
  8
1
100
AcDbLine
 10
48.93
 20
-0.517720550803
 30
0.0
 11
48.90875
 21
-0.506107275021
 31
0.0
  0
LINE
  5
406
330
30
100
AcDbEntity
  8
1
100
AcDbLine
 10
48.90875
 20
-0.506107275021
 30
0.0
 11
48.8875
 21
-0.494463771228
 31
0.0
  0
LINE
  5
407
330
30
100
AcDbEntity
  8
1
100
AcDbLine
 10
48.8875
 20
-0.494463771228
 30
0.0
 11
48.86625
 21
-0.48279073485
 31
0.0
  0
LINE
  5
408
330
30
100
AcDbEntity
  8
1
100
AcDbLine
 10
48.86625
 20
-0.48279073485
 30
0.0
 11
48.845
 21
-0.471088863077
 31
0.0
  0
LINE
  5
409
330
30
100
AcDbEntity
  8
1
100
AcDbLine
 10
48.845
 20
-0.471088863077
 30
0.0
 11
48.82375
 21
-0.45935885482
 31
0.0
  0
LINE
  5
40A
330
30
100
AcDbEntity
  8
1
100
AcDbLine
 10
48.82375
 20
-0.45935885482
 30
0.0
 11
48.8025
 21
-0.447601410672
 31
0.0
  0
LINE
  5
40B
330
30
100
AcDbEntity
  8
1
100
AcDbLine
 10
48.8025
 20
-0.447601410672
 30
0.0
 11
48.78125
 21
-0.435817232863
 31
0.0
  0
LINE
  5
40C
330
30
100
AcDbEntity
  8
1
100
AcDbLine
 10
48.78125
 20
-0.435817232863
 30
0.0
 11
48.76
 21
-0.424007025221
 31
0.0
  0
LINE
  5
40D
330
30
100
AcDbEntity
  8
1
100
AcDbLine
 10
48.76
 20
-0.424007025221
 30
0.0
 11
48.73875
 21
-0.412171493128
 31
0.0
  0
LINE
  5
40E
330
30
100
AcDbEntity
  8
1
100
AcDbLine
 10
48.73875
 20
-0.412171493128
 30
0.0
 11
48.7175
 21
-0.400311343479
 31
0.0
  0
LINE
  5
40F
330
30
100
AcDbEntity
  8
1
100
AcDbLine
 10
48.7175
 20
-0.400311343479
 30
0.0
 11
48.69625
 21
-0.388427284639
 31
0.0
  0
LINE
  5
410
330
30
100
AcDbEntity
  8
1
100
AcDbLine
 10
48.69625
 20
-0.388427284639
 30
0.0
 11
48.675
 21
-0.376520026401
 31
0.0
  0
LINE
  5
411
330
30
100
AcDbEntity
  8
1
100
AcDbLine
 10
48.675
 20
-0.376520026401
 30
0.0
 11
48.65375
 21
-0.364590279944
 31
0.0
  0
LINE
  5
412
330
30
100
AcDbEntity
  8
1
100
AcDbLine
 10
48.65375
 20
-0.364590279944
 30
0.0
 11
48.6325
 21
-0.352638757789
 31
0.0
  0
LINE
  5
413
330
30
100
AcDbEntity
  8
1
100
AcDbLine
 10
48.6325
 20
-0.352638757789
 30
0.0
 11
48.61125
 21
-0.34066617376
 31
0.0
  0
LINE
  5
414
330
30
100
AcDbEntity
  8
1
100
AcDbLine
 10
48.61125
 20
-0.34066617376
 30
0.0
 11
48.59
 21
-0.328673242936
 31
0.0
  0
LINE
  5
415
330
30
100
AcDbEntity
  8
1
100
AcDbLine
 10
48.59
 20
-0.328673242936
 30
0.0
 11
48.56875
 21
-0.316660681614
 31
0.0
  0
LINE
  5
416
330
30
100
AcDbEntity
  8
1
100
AcDbLine
 10
48.56875
 20
-0.316660681614
 30
0.0
 11
48.5475
 21
-0.304629207261
 31
0.0
  0
LINE
  5
417
330
30
100
AcDbEntity
  8
1
100
AcDbLine
 10
48.5475
 20
-0.304629207261
 30
0.0
 11
48.52625
 21
-0.292579538475
 31
0.0
  0
LINE
  5
418
330
30
100
AcDbEntity
  8
1
100
AcDbLine
 10
48.52625
 20
-0.292579538475
 30
0.0
 11
48.505
 21
-0.28051239494
 31
0.0
  0
LINE
  5
419
330
30
100
AcDbEntity
  8
1
100
AcDbLine
 10
48.505
 20
-0.28051239494
 30
0.0
 11
48.48375
 21
-0.268428497385
 31
0.0
  0
LINE
  5
41A
330
30
100
AcDbEntity
  8
1
100
AcDbLine
 10
48.48375
 20
-0.268428497385
 30
0.0
 11
48.4625
 21
-0.256328567538
 31
0.0
  0
LINE
  5
41B
330
30
100
AcDbEntity
  8
1
100
AcDbLine
 10
48.4625
 20
-0.256328567538
 30
0.0
 11
48.44125
 21
-0.244213328086
 31
0.0
  0
LINE
  5
41C
330
30
100
AcDbEntity
  8
1
100
AcDbLine
 10
48.44125
 20
-0.244213328086
 30
0.0
 11
48.42
 21
-0.23208350263
 31
0.0
  0
LINE
  5
41D
330
30
100
AcDbEntity
  8
1
100
AcDbLine
 10
48.42
 20
-0.23208350263
 30
0.0
 11
48.39875
 21
-0.21993981564
 31
0.0
  0
LINE
  5
41E
330
30
100
AcDbEntity
  8
1
100
AcDbLine
 10
48.39875
 20
-0.21993981564
 30
0.0
 11
48.3775
 21
-0.207782992418
 31
0.0
  0
LINE
  5
41F
330
30
100
AcDbEntity
  8
1
100
AcDbLine
 10
48.3775
 20
-0.207782992418
 30
0.0
 11
48.35625
 21
-0.195613759047
 31
0.0
  0
LINE
  5
420
330
30
100
AcDbEntity
  8
1
100
AcDbLine
 10
48.35625
 20
-0.195613759047
 30
0.0
 11
48.335
 21
-0.183432842353
 31
0.0
  0
LINE
  5
421
330
30
100
AcDbEntity
  8
1
100
AcDbLine
 10
48.335
 20
-0.183432842353
 30
0.0
 11
48.31375
 21
-0.17124096986
 31
0.0
  0
LINE
  5
422
330
30
100
AcDbEntity
  8
1
100
AcDbLine
 10
48.31375
 20
-0.17124096986
 30
0.0
 11
48.2925
 21
-0.159038869745
 31
0.0
  0
LINE
  5
423
330
30
100
AcDbEntity
  8
1
100
AcDbLine
 10
48.2925
 20
-0.159038869745
 30
0.0
 11
48.27125
 21
-0.146827270796
 31
0.0
  0
LINE
  5
424
330
30
100
AcDbEntity
  8
1
100
AcDbLine
 10
48.27125
 20
-0.146827270796
 30
0.0
 11
48.25
 21
-0.13460690237
 31
0.0
  0
LINE
  5
425
330
30
100
AcDbEntity
  8
1
100
AcDbLine
 10
48.25
 20
-0.13460690237
 30
0.0
 11
48.22875
 21
-0.122378494346
 31
0.0
  0
LINE
  5
426
330
30
100
AcDbEntity
  8
1
100
AcDbLine
 10
48.22875
 20
-0.122378494346
 30
0.0
 11
48.2075
 21
-0.110142777085
 31
0.0
  0
LINE
  5
427
330
30
100
AcDbEntity
  8
1
100
AcDbLine
 10
48.2075
 20
-0.110142777085
 30
0.0
 11
48.18625
 21
-0.097900481382
 31
0.0
  0
LINE
  5
428
330
30
100
AcDbEntity
  8
1
100
AcDbLine
 10
48.18625
 20
-0.097900481382
 30
0.0
 11
48.165
 21
-0.085652338427
 31
0.0
  0
LINE
  5
429
330
30
100
AcDbEntity
  8
1
100
AcDbLine
 10
48.165
 20
-0.085652338427
 30
0.0
 11
48.14375
 21
-0.073399079759
 31
0.0
  0
LINE
  5
42A
330
30
100
AcDbEntity
  8
1
100
AcDbLine
 10
48.14375
 20
-0.073399079759
 30
0.0
 11
48.1225
 21
-0.061141437222
 31
0.0
  0
LINE
  5
42B
330
30
100
AcDbEntity
  8
1
100
AcDbLine
 10
48.1225
 20
-0.061141437222
 30
0.0
 11
48.10125
 21
-0.048880142921
 31
0.0
  0
LINE
  5
42C
330
30
100
AcDbEntity
  8
1
100
AcDbLine
 10
48.10125
 20
-0.048880142921
 30
0.0
 11
48.08
 21
-0.036615929181
 31
0.0
  0
LINE
  5
42D
330
30
100
AcDbEntity
  8
1
100
AcDbLine
 10
48.08
 20
-0.036615929181
 30
0.0
 11
48.05875
 21
-0.024349528499
 31
0.0
  0
LINE
  5
42E
330
30
100
AcDbEntity
  8
1
100
AcDbLine
 10
48.05875
 20
-0.024349528499
 30
0.0
 11
48.0375
 21
-0.012081673506
 31
0.0
  0
LINE
  5
42F
330
30
100
AcDbEntity
  8
1
100
AcDbLine
 10
48.0375
 20
-0.012081673506
 30
0.0
 11
48.01625
 21
0.000186903082
 31
0.0
  0
LINE
  5
430
330
30
100
AcDbEntity
  8
1
100
AcDbLine
 10
48.01625
 20
0.000186903082
 30
0.0
 11
47.995
 21
0.012455468508
 31
0.0
  0
LINE
  5
431
330
30
100
AcDbEntity
  8
1
100
AcDbLine
 10
47.995
 20
0.012455468508
 30
0.0
 11
47.97375
 21
0.024723290013
 31
0.0
  0
LINE
  5
432
330
30
100
AcDbEntity
  8
1
100
AcDbLine
 10
47.97375
 20
0.024723290013
 30
0.0
 11
47.9525
 21
0.036989634882
 31
0.0
  0
LINE
  5
433
330
30
100
AcDbEntity
  8
1
100
AcDbLine
 10
47.9525
 20
0.036989634882
 30
0.0
 11
47.93125
 21
0.04925377049
 31
0.0
  0
LINE
  5
434
330
30
100
AcDbEntity
  8
1
100
AcDbLine
 10
47.93125
 20
0.04925377049
 30
0.0
 11
47.91
 21
0.061514964343
 31
0.0
  0
LINE
  5
435
330
30
100
AcDbEntity
  8
1
100
AcDbLine
 10
47.91
 20
0.061514964343
 30
0.0
 11
47.88875
 21
0.073772484124
 31
0.0
  0
LINE
  5
436
330
30
100
AcDbEntity
  8
1
100
AcDbLine
 10
47.88875
 20
0.073772484124
 30
0.0
 11
47.8675
 21
0.086025597733
 31
0.0
  0
LINE
  5
437
330
30
100
AcDbEntity
  8
1
100
AcDbLine
 10
47.8675
 20
0.086025597733
 30
0.0
 11
47.84625
 21
0.098273573335
 31
0.0
  0
LINE
  5
438
330
30
100
AcDbEntity
  8
1
100
AcDbLine
 10
47.84625
 20
0.098273573335
 30
0.0
 11
47.825
 21
0.110515679401
 31
0.0
  0
LINE
  5
439
330
30
100
AcDbEntity
  8
1
100
AcDbLine
 10
47.825
 20
0.110515679401
 30
0.0
 11
47.80375
 21
0.122751184755
 31
0.0
  0
LINE
  5
43A
330
30
100
AcDbEntity
  8
1
100
AcDbLine
 10
47.80375
 20
0.122751184755
 30
0.0
 11
47.7825
 21
0.134979358611
 31
0.0
  0
LINE
  5
43B
330
30
100
AcDbEntity
  8
1
100
AcDbLine
 10
47.7825
 20
0.134979358611
 30
0.0
 11
47.76125
 21
0.147199470623
 31
0.0
  0
LINE
  5
43C
330
30
100
AcDbEntity
  8
1
100
AcDbLine
 10
47.76125
 20
0.147199470623
 30
0.0
 11
47.74
 21
0.159410790928
 31
0.0
  0
LINE
  5
43D
330
30
100
AcDbEntity
  8
1
100
AcDbLine
 10
47.74
 20
0.159410790928
 30
0.0
 11
47.71875
 21
0.171612590187
 31
0.0
  0
LINE
  5
43E
330
30
100
AcDbEntity
  8
1
100
AcDbLine
 10
47.71875
 20
0.171612590187
 30
0.0
 11
47.6975
 21
0.183804139628
 31
0.0
  0
LINE
  5
43F
330
30
100
AcDbEntity
  8
1
100
AcDbLine
 10
47.6975
 20
0.183804139628
 30
0.0
 11
47.67625
 21
0.195984711093
 31
0.0
  0
LINE
  5
440
330
30
100
AcDbEntity
  8
1
100
AcDbLine
 10
47.67625
 20
0.195984711093
 30
0.0
 11
47.655
 21
0.208153577079
 31
0.0
  0
LINE
  5
441
330
30
100
AcDbEntity
  8
1
100
AcDbLine
 10
47.655
 20
0.208153577079
 30
0.0
 11
47.63375
 21
0.220310010783
 31
0.0
  0
LINE
  5
442
330
30
100
AcDbEntity
  8
1
100
AcDbLine
 10
47.63375
 20
0.220310010783
 30
0.0
 11
47.6125
 21
0.232453286144
 31
0.0
  0
LINE
  5
443
330
30
100
AcDbEntity
  8
1
100
AcDbLine
 10
47.6125
 20
0.232453286144
 30
0.0
 11
47.59125
 21
0.247784362455
 31
0.0
  0
LINE
  5
444
330
30
100
AcDbEntity
  8
1
100
AcDbLine
 10
47.59125
 20
0.247784362455
 30
0.0
 11
47.57
 21
0.259327577754
 31
0.0
  0
LINE
  5
445
330
30
100
AcDbEntity
  8
1
100
AcDbLine
 10
47.57
 20
0.259327577754
 30
0.0
 11
47.54875
 21
0.27085530435
 31
0.0
  0
LINE
  5
446
330
30
100
AcDbEntity
  8
1
100
AcDbLine
 10
47.54875
 20
0.27085530435
 30
0.0
 11
47.5275
 21
0.282366853854
 31
0.0
  0
LINE
  5
447
330
30
100
AcDbEntity
  8
1
100
AcDbLine
 10
47.5275
 20
0.282366853854
 30
0.0
 11
47.50625
 21
0.293861539112
 31
0.0
  0
LINE
  5
448
330
30
100
AcDbEntity
  8
1
100
AcDbLine
 10
47.50625
 20
0.293861539112
 30
0.0
 11
47.485
 21
0.305338674494
 31
0.0
  0
LINE
  5
449
330
30
100
AcDbEntity
  8
1
100
AcDbLine
 10
47.485
 20
0.305338674494
 30
0.0
 11
47.46375
 21
0.316797576273
 31
0.0
  0
LINE
  5
44A
330
30
100
AcDbEntity
  8
1
100
AcDbLine
 10
47.46375
 20
0.316797576273
 30
0.0
 11
47.4425
 21
0.328237563085
 31
0.0
  0
LINE
  5
44B
330
30
100
AcDbEntity
  8
1
100
AcDbLine
 10
47.4425
 20
0.328237563085
 30
0.0
 11
47.42125
 21
0.339657956466
 31
0.0
  0
LINE
  5
44C
330
30
100
AcDbEntity
  8
1
100
AcDbLine
 10
47.42125
 20
0.339657956466
 30
0.0
 11
47.4
 21
0.351058081474
 31
0.0
  0
LINE
  5
44D
330
30
100
AcDbEntity
  8
1
100
AcDbLine
 10
47.4
 20
0.351058081474
 30
0.0
 11
47.37875
 21
0.362437267388
 31
0.0
  0
LINE
  5
44E
330
30
100
AcDbEntity
  8
1
100
AcDbLine
 10
47.37875
 20
0.362437267388
 30
0.0
 11
47.3575
 21
0.373794848482
 31
0.0
  0
LINE
  5
44F
330
30
100
AcDbEntity
  8
1
100
AcDbLine
 10
47.3575
 20
0.373794848482
 30
0.0
 11
47.33625
 21
0.38513016487
 31
0.0
  0
LINE
  5
450
330
30
100
AcDbEntity
  8
1
100
AcDbLine
 10
47.33625
 20
0.38513016487
 30
0.0
 11
47.315
 21
0.396442563429
 31
0.0
  0
LINE
  5
451
330
30
100
AcDbEntity
  8
1
100
AcDbLine
 10
47.315
 20
0.396442563429
 30
0.0
 11
47.29375
 21
0.407731398787
 31
0.0
  0
LINE
  5
452
330
30
100
AcDbEntity
  8
1
100
AcDbLine
 10
47.29375
 20
0.407731398787
 30
0.0
 11
47.2725
 21
0.418996034378
 31
0.0
  0
LINE
  5
453
330
30
100
AcDbEntity
  8
1
100
AcDbLine
 10
47.2725
 20
0.418996034378
 30
0.0
 11
47.25125
 21
0.430235843566
 31
0.0
  0
LINE
  5
454
330
30
100
AcDbEntity
  8
1
100
AcDbLine
 10
47.25125
 20
0.430235843566
 30
0.0
 11
47.23
 21
0.441450210821
 31
0.0
  0
LINE
  5
455
330
30
100
AcDbEntity
  8
1
100
AcDbLine
 10
47.23
 20
0.441450210821
 30
0.0
 11
47.20875
 21
0.452638532967
 31
0.0
  0
LINE
  5
456
330
30
100
AcDbEntity
  8
1
100
AcDbLine
 10
47.20875
 20
0.452638532967
 30
0.0
 11
47.1875
 21
0.463800220472
 31
0.0
  0
LINE
  5
457
330
30
100
AcDbEntity
  8
1
100
AcDbLine
 10
47.1875
 20
0.463800220472
 30
0.0
 11
47.16625
 21
0.474934698801
 31
0.0
  0
LINE
  5
458
330
30
100
AcDbEntity
  8
1
100
AcDbLine
 10
47.16625
 20
0.474934698801
 30
0.0
 11
47.145
 21
0.486041409814
 31
0.0
  0
LINE
  5
459
330
30
100
AcDbEntity
  8
1
100
AcDbLine
 10
47.145
 20
0.486041409814
 30
0.0
 11
47.12375
 21
0.497119813209
 31
0.0
  0
LINE
  5
45A
330
30
100
AcDbEntity
  8
1
100
AcDbLine
 10
47.12375
 20
0.497119813209
 30
0.0
 11
47.1025
 21
0.508169388011
 31
0.0
  0
LINE
  5
45B
330
30
100
AcDbEntity
  8
1
100
AcDbLine
 10
47.1025
 20
0.508169388011
 30
0.0
 11
47.08125
 21
0.519189634096
 31
0.0
  0
LINE
  5
45C
330
30
100
AcDbEntity
  8
1
100
AcDbLine
 10
47.08125
 20
0.519189634096
 30
0.0
 11
47.06
 21
0.530180073751
 31
0.0
  0
LINE
  5
45D
330
30
100
AcDbEntity
  8
1
100
AcDbLine
 10
47.06
 20
0.530180073751
 30
0.0
 11
47.03875
 21
0.541140253268
 31
0.0
  0
LINE
  5
45E
330
30
100
AcDbEntity
  8
1
100
AcDbLine
 10
47.03875
 20
0.541140253268
 30
0.0
 11
47.0175
 21
0.552069744561
 31
0.0
  0
LINE
  5
45F
330
30
100
AcDbEntity
  8
1
100
AcDbLine
 10
47.0175
 20
0.552069744561
 30
0.0
 11
46.99625
 21
0.562968146807
 31
0.0
  0
LINE
  5
460
330
30
100
AcDbEntity
  8
1
100
AcDbLine
 10
46.99625
 20
0.562968146807
 30
0.0
 11
46.975
 21
0.573835088107
 31
0.0
  0
LINE
  5
461
330
30
100
AcDbEntity
  8
1
100
AcDbLine
 10
46.975
 20
0.573835088107
 30
0.0
 11
46.95375
 21
0.584670227159
 31
0.0
  0
LINE
  5
462
330
30
100
AcDbEntity
  8
1
100
AcDbLine
 10
46.95375
 20
0.584670227159
 30
0.0
 11
46.9325
 21
0.595473254942
 31
0.0
  0
LINE
  5
463
330
30
100
AcDbEntity
  8
1
100
AcDbLine
 10
46.9325
 20
0.595473254942
 30
0.0
 11
46.91125
 21
0.606243896402
 31
0.0
  0
LINE
  5
464
330
30
100
AcDbEntity
  8
1
100
AcDbLine
 10
46.91125
 20
0.606243896402
 30
0.0
 11
46.89
 21
0.616981912141
 31
0.0
  0
LINE
  5
465
330
30
100
AcDbEntity
  8
1
100
AcDbLine
 10
46.89
 20
0.616981912141
 30
0.0
 11
46.86875
 21
0.627687100099
 31
0.0
  0
LINE
  5
466
330
30
100
AcDbEntity
  8
1
100
AcDbLine
 10
46.86875
 20
0.627687100099
 30
0.0
 11
46.8475
 21
0.638359297223
 31
0.0
  0
LINE
  5
467
330
30
100
AcDbEntity
  8
1
100
AcDbLine
 10
46.8475
 20
0.638359297223
 30
0.0
 11
46.82625
 21
0.648998381125
 31
0.0
  0
LINE
  5
468
330
30
100
AcDbEntity
  8
1
100
AcDbLine
 10
46.82625
 20
0.648998381125
 30
0.0
 11
46.805
 21
0.659604271711
 31
0.0
  0
LINE
  5
469
330
30
100
AcDbEntity
  8
1
100
AcDbLine
 10
46.805
 20
0.659604271711
 30
0.0
 11
46.78375
 21
0.670176932794
 31
0.0
  0
LINE
  5
46A
330
30
100
AcDbEntity
  8
1
100
AcDbLine
 10
46.78375
 20
0.670176932794
 30
0.0
 11
46.7625
 21
0.680716373657
 31
0.0
  0
LINE
  5
46B
330
30
100
AcDbEntity
  8
1
100
AcDbLine
 10
46.7625
 20
0.680716373657
 30
0.0
 11
46.74125
 21
0.691222650592
 31
0.0
  0
LINE
  5
46C
330
30
100
AcDbEntity
  8
1
100
AcDbLine
 10
46.74125
 20
0.691222650592
 30
0.0
 11
46.72
 21
0.701695868381
 31
0.0
  0
LINE
  5
46D
330
30
100
AcDbEntity
  8
1
100
AcDbLine
 10
46.72
 20
0.701695868381
 30
0.0
 11
46.69875
 21
0.712136181732
 31
0.0
  0
LINE
  5
46E
330
30
100
AcDbEntity
  8
1
100
AcDbLine
 10
46.69875
 20
0.712136181732
 30
0.0
 11
46.6775
 21
0.722543796649
 31
0.0
  0
LINE
  5
46F
330
30
100
AcDbEntity
  8
1
100
AcDbLine
 10
46.6775
 20
0.722543796649
 30
0.0
 11
46.65625
 21
0.732918971736
 31
0.0
  0
LINE
  5
470
330
30
100
AcDbEntity
  8
1
100
AcDbLine
 10
46.65625
 20
0.732918971736
 30
0.0
 11
46.635
 21
0.743262019429
 31
0.0
  0
LINE
  5
471
330
30
100
AcDbEntity
  8
1
100
AcDbLine
 10
46.635
 20
0.743262019429
 30
0.0
 11
46.61375
 21
0.753573307137
 31
0.0
  0
LINE
  5
472
330
30
100
AcDbEntity
  8
1
100
AcDbLine
 10
46.61375
 20
0.753573307137
 30
0.0
 11
46.5925
 21
0.763853258302
 31
0.0
  0
LINE
  5
473
330
30
100
AcDbEntity
  8
1
100
AcDbLine
 10
46.5925
 20
0.763853258302
 30
0.0
 11
46.57125
 21
0.774102353347
 31
0.0
  0
LINE
  5
474
330
30
100
AcDbEntity
  8
1
100
AcDbLine
 10
46.57125
 20
0.774102353347
 30
0.0
 11
46.55
 21
0.78432113052
 31
0.0
  0
LINE
  5
475
330
30
100
AcDbEntity
  8
1
100
AcDbLine
 10
46.55
 20
0.78432113052
 30
0.0
 11
46.52875
 21
0.794510186622
 31
0.0
  0
LINE
  5
476
330
30
100
AcDbEntity
  8
1
100
AcDbLine
 10
46.52875
 20
0.794510186622
 30
0.0
 11
46.5075
 21
0.804670177594
 31
0.0
  0
LINE
  5
477
330
30
100
AcDbEntity
  8
1
100
AcDbLine
 10
46.5075
 20
0.804670177594
 30
0.0
 11
46.48625
 21
0.814801818972
 31
0.0
  0
LINE
  5
478
330
30
100
AcDbEntity
  8
1
100
AcDbLine
 10
46.48625
 20
0.814801818972
 30
0.0
 11
46.465
 21
0.824905886186
 31
0.0
  0
LINE
  5
479
330
30
100
AcDbEntity
  8
1
100
AcDbLine
 10
46.465
 20
0.824905886186
 30
0.0
 11
46.44375
 21
0.834983214697
 31
0.0
  0
LINE
  5
47A
330
30
100
AcDbEntity
  8
1
100
AcDbLine
 10
46.44375
 20
0.834983214697
 30
0.0
 11
46.4225
 21
0.845034699949
 31
0.0
  0
LINE
  5
47B
330
30
100
AcDbEntity
  8
1
100
AcDbLine
 10
46.4225
 20
0.845034699949
 30
0.0
 11
46.40125
 21
0.855061297135
 31
0.0
  0
LINE
  5
47C
330
30
100
AcDbEntity
  8
1
100
AcDbLine
 10
46.40125
 20
0.855061297135
 30
0.0
 11
46.38
 21
0.865064020758
 31
0.0
  0
LINE
  5
47D
330
30
100
AcDbEntity
  8
1
100
AcDbLine
 10
46.38
 20
0.865064020758
 30
0.0
 11
46.35875
 21
0.875043943964
 31
0.0
  0
LINE
  5
47E
330
30
100
AcDbEntity
  8
1
100
AcDbLine
 10
46.35875
 20
0.875043943964
 30
0.0
 11
46.3375
 21
0.88500219764
 31
0.0
  0
LINE
  5
47F
330
30
100
AcDbEntity
  8
1
100
AcDbLine
 10
46.3375
 20
0.88500219764
 30
0.0
 11
46.31625
 21
0.894939969257
 31
0.0
  0
LINE
  5
480
330
30
100
AcDbEntity
  8
1
100
AcDbLine
 10
46.31625
 20
0.894939969257
 30
0.0
 11
46.295
 21
0.90485850143
 31
0.0
  0
LINE
  5
481
330
30
100
AcDbEntity
  8
1
100
AcDbLine
 10
46.295
 20
0.90485850143
 30
0.0
 11
46.27375
 21
0.914759090192
 31
0.0
  0
LINE
  5
482
330
30
100
AcDbEntity
  8
1
100
AcDbLine
 10
46.27375
 20
0.914759090192
 30
0.0
 11
46.2525
 21
0.924643082946
 31
0.0
  0
LINE
  5
483
330
30
100
AcDbEntity
  8
1
100
AcDbLine
 10
46.2525
 20
0.924643082946
 30
0.0
 11
46.23125
 21
0.93451187607
 31
0.0
  0
LINE
  5
484
330
30
100
AcDbEntity
  8
1
100
AcDbLine
 10
46.23125
 20
0.93451187607
 30
0.0
 11
46.21
 21
0.944366912171
 31
0.0
  0
LINE
  5
485
330
30
100
AcDbEntity
  8
1
100
AcDbLine
 10
46.21
 20
0.944366912171
 30
0.0
 11
46.18875
 21
0.95420967693
 31
0.0
  0
LINE
  5
486
330
30
100
AcDbEntity
  8
1
100
AcDbLine
 10
46.18875
 20
0.95420967693
 30
0.0
 11
46.1675
 21
0.964041695541
 31
0.0
  0
LINE
  5
487
330
30
100
AcDbEntity
  8
1
100
AcDbLine
 10
46.1675
 20
0.964041695541
 30
0.0
 11
46.14625
 21
0.973864528692
 31
0.0
  0
LINE
  5
488
330
30
100
AcDbEntity
  8
1
100
AcDbLine
 10
46.14625
 20
0.973864528692
 30
0.0
 11
46.125
 21
0.98367976806
 31
0.0
  0
LINE
  5
489
330
30
100
AcDbEntity
  8
1
100
AcDbLine
 10
46.125
 20
0.98367976806
 30
0.0
 11
46.10375
 21
0.993489031296
 31
0.0
  0
LINE
  5
48A
330
30
100
AcDbEntity
  8
1
100
AcDbLine
 10
46.10375
 20
0.993489031296
 30
0.0
 11
46.0825
 21
1.003293956446
 31
0.0
  0
LINE
  5
48B
330
30
100
AcDbEntity
  8
1
100
AcDbLine
 10
46.0825
 20
1.003293956446
 30
0.0
 11
46.06125
 21
1.013096195783
 31
0.0
  0
LINE
  5
48C
330
30
100
AcDbEntity
  8
1
100
AcDbLine
 10
46.06125
 20
1.013096195783
 30
0.0
 11
46.04
 21
1.022897408995
 31
0.0
  0
LINE
  5
48D
330
30
100
AcDbEntity
  8
1
100
AcDbLine
 10
46.04
 20
1.022897408995
 30
0.0
 11
46.01875
 21
1.032699255693
 31
0.0
  0
LINE
  5
48E
330
30
100
AcDbEntity
  8
1
100
AcDbLine
 10
46.01875
 20
1.032699255693
 30
0.0
 11
45.9975
 21
1.042503387182
 31
0.0
  0
LINE
  5
48F
330
30
100
AcDbEntity
  8
1
100
AcDbLine
 10
45.9975
 20
1.042503387182
 30
0.0
 11
45.97625
 21
1.052311437453
 31
0.0
  0
LINE
  5
490
330
30
100
AcDbEntity
  8
1
100
AcDbLine
 10
45.97625
 20
1.052311437453
 30
0.0
 11
45.955
 21
1.062125013325
 31
0.0
  0
LINE
  5
491
330
30
100
AcDbEntity
  8
1
100
AcDbLine
 10
45.955
 20
1.062125013325
 30
0.0
 11
45.93375
 21
1.071945683691
 31
0.0
  0
LINE
  5
492
330
30
100
AcDbEntity
  8
1
100
AcDbLine
 10
45.93375
 20
1.071945683691
 30
0.0
 11
45.9125
 21
1.081774967798
 31
0.0
  0
LINE
  5
493
330
30
100
AcDbEntity
  8
1
100
AcDbLine
 10
45.9125
 20
1.081774967798
 30
0.0
 11
45.89125
 21
1.091614322495
 31
0.0
  0
LINE
  5
494
330
30
100
AcDbEntity
  8
1
100
AcDbLine
 10
45.89125
 20
1.091614322495
 30
0.0
 11
45.87
 21
1.101465128369
 31
0.0
  0
LINE
  5
495
330
30
100
AcDbEntity
  8
1
100
AcDbLine
 10
45.87
 20
1.101465128369
 30
0.0
 11
45.84875
 21
1.111328674706
 31
0.0
  0
LINE
  5
496
330
30
100
AcDbEntity
  8
1
100
AcDbLine
 10
45.84875
 20
1.111328674706
 30
0.0
 11
45.8275
 21
1.121206143176
 31
0.0
  0
LINE
  5
497
330
30
100
AcDbEntity
  8
1
100
AcDbLine
 10
45.8275
 20
1.121206143176
 30
0.0
 11
45.80625
 21
1.131098590177
 31
0.0
  0
LINE
  5
498
330
30
100
AcDbEntity
  8
1
100
AcDbLine
 10
45.80625
 20
1.131098590177
 30
0.0
 11
45.785
 21
1.141006927717
 31
0.0
  0
LINE
  5
499
330
30
100
AcDbEntity
  8
1
100
AcDbLine
 10
45.785
 20
1.141006927717
 30
0.0
 11
45.76375
 21
1.150931902758
 31
0.0
  0
LINE
  5
49A
330
30
100
AcDbEntity
  8
1
100
AcDbLine
 10
45.76375
 20
1.150931902758
 30
0.0
 11
45.7425
 21
1.16087407491
 31
0.0
  0
LINE
  5
49B
330
30
100
AcDbEntity
  8
1
100
AcDbLine
 10
45.7425
 20
1.16087407491
 30
0.0
 11
45.72125
 21
1.170833792351
 31
0.0
  0
LINE
  5
49C
330
30
100
AcDbEntity
  8
1
100
AcDbLine
 10
45.72125
 20
1.170833792351
 30
0.0
 11
45.7
 21
1.18081116588
 31
0.0
  0
LINE
  5
49D
330
30
100
AcDbEntity
  8
1
100
AcDbLine
 10
45.7
 20
1.18081116588
 30
0.0
 11
45.67875
 21
1.190806040947
 31
0.0
  0
LINE
  5
49E
330
30
100
AcDbEntity
  8
1
100
AcDbLine
 10
45.67875
 20
1.190806040947
 30
0.0
 11
45.6575
 21
1.200817967557
 31
0.0
  0
LINE
  5
49F
330
30
100
AcDbEntity
  8
1
100
AcDbLine
 10
45.6575
 20
1.200817967557
 30
0.0
 11
45.63625
 21
1.210846167888
 31
0.0
  0
LINE
  5
4A0
330
30
100
AcDbEntity
  8
1
100
AcDbLine
 10
45.63625
 20
1.210846167888
 30
0.0
 11
45.615
 21
1.220889501492
 31
0.0
  0
LINE
  5
4A1
330
30
100
AcDbEntity
  8
1
100
AcDbLine
 10
45.615
 20
1.220889501492
 30
0.0
 11
45.59375
 21
1.230946427907
 31
0.0
  0
LINE
  5
4A2
330
30
100
AcDbEntity
  8
1
100
AcDbLine
 10
45.59375
 20
1.230946427907
 30
0.0
 11
45.5725
 21
1.24101496654
 31
0.0
  0
LINE
  5
4A3
330
30
100
AcDbEntity
  8
1
100
AcDbLine
 10
45.5725
 20
1.24101496654
 30
0.0
 11
45.55125
 21
1.251092653633
 31
0.0
  0
LINE
  5
4A4
330
30
100
AcDbEntity
  8
1
100
AcDbLine
 10
45.55125
 20
1.251092653633
 30
0.0
 11
45.53
 21
1.261176496149
 31
0.0
  0
LINE
  5
4A5
330
30
100
AcDbEntity
  8
1
100
AcDbLine
 10
45.53
 20
1.261176496149
 30
0.0
 11
45.50875
 21
1.271262922386
 31
0.0
  0
LINE
  5
4A6
330
30
100
AcDbEntity
  8
1
100
AcDbLine
 10
45.50875
 20
1.271262922386
 30
0.0
 11
45.4875
 21
1.281347729134
 31
0.0
  0
LINE
  5
4A7
330
30
100
AcDbEntity
  8
1
100
AcDbLine
 10
45.4875
 20
1.281347729134
 30
0.0
 11
45.46625
 21
1.291426025174
 31
0.0
  0
LINE
  5
4A8
330
30
100
AcDbEntity
  8
1
100
AcDbLine
 10
45.46625
 20
1.291426025174
 30
0.0
 11
45.445
 21
1.301492170919
 31
0.0
  0
LINE
  5
4A9
330
30
100
AcDbEntity
  8
1
100
AcDbLine
 10
45.445
 20
1.301492170919
 30
0.0
 11
45.42375
 21
1.311539713985
 31
0.0
  0
LINE
  5
4AA
330
30
100
AcDbEntity
  8
1
100
AcDbLine
 10
45.42375
 20
1.311539713985
 30
0.0
 11
45.4025
 21
1.321561320485
 31
0.0
  0
LINE
  5
4AB
330
30
100
AcDbEntity
  8
1
100
AcDbLine
 10
45.4025
 20
1.321561320485
 30
0.0
 11
45.38125
 21
1.331548701825
 31
0.0
  0
LINE
  5
4AC
330
30
100
AcDbEntity
  8
1
100
AcDbLine
 10
45.38125
 20
1.331548701825
 30
0.0
 11
45.36
 21
1.341492536783
 31
0.0
  0
LINE
  5
4AD
330
30
100
AcDbEntity
  8
1
100
AcDbLine
 10
45.36
 20
1.341492536783
 30
0.0
 11
45.33875
 21
1.351382388664
 31
0.0
  0
LINE
  5
4AE
330
30
100
AcDbEntity
  8
1
100
AcDbLine
 10
45.33875
 20
1.351382388664
 30
0.0
 11
45.3175
 21
1.361206617296
 31
0.0
  0
LINE
  5
4AF
330
30
100
AcDbEntity
  8
1
100
AcDbLine
 10
45.3175
 20
1.361206617296
 30
0.0
 11
45.29625
 21
1.370952285683
 31
0.0
  0
LINE
  5
4B0
330
30
100
AcDbEntity
  8
1
100
AcDbLine
 10
45.29625
 20
1.370952285683
 30
0.0
 11
45.275
 21
1.380605061083
 31
0.0
  0
LINE
  5
4B1
330
30
100
AcDbEntity
  8
1
100
AcDbLine
 10
45.275
 20
1.380605061083
 30
0.0
 11
45.25375
 21
1.390149110342
 31
0.0
  0
LINE
  5
4B2
330
30
100
AcDbEntity
  8
1
100
AcDbLine
 10
45.25375
 20
1.390149110342
 30
0.0
 11
45.2325
 21
1.399566989291
 31
0.0
  0
LINE
  5
4B3
330
30
100
AcDbEntity
  8
1
100
AcDbLine
 10
45.2325
 20
1.399566989291
 30
0.0
 11
45.21125
 21
1.408839526061
 31
0.0
  0
LINE
  5
4B4
330
30
100
AcDbEntity
  8
1
100
AcDbLine
 10
45.21125
 20
1.408839526061
 30
0.0
 11
45.19
 21
1.417945698181
 31
0.0
  0
LINE
  5
4B5
330
30
100
AcDbEntity
  8
1
100
AcDbLine
 10
45.19
 20
1.417945698181
 30
0.0
 11
45.16875
 21
1.426862503353
 31
0.0
  0
LINE
  5
4B6
330
30
100
AcDbEntity
  8
1
100
AcDbLine
 10
45.16875
 20
1.426862503353
 30
0.0
 11
45.1475
 21
1.435564823861
 31
0.0
  0
LINE
  5
4B7
330
30
100
AcDbEntity
  8
1
100
AcDbLine
 10
45.1475
 20
1.435564823861
 30
0.0
 11
45.12625
 21
1.44402528459
 31
0.0
  0
LINE
  5
4B8
330
30
100
AcDbEntity
  8
1
100
AcDbLine
 10
45.12625
 20
1.44402528459
 30
0.0
 11
45.105
 21
1.452214104708
 31
0.0
  0
LINE
  5
4B9
330
30
100
AcDbEntity
  8
1
100
AcDbLine
 10
45.105
 20
1.452214104708
 30
0.0
 11
45.08375
 21
1.46009894313
 31
0.0
  0
LINE
  5
4BA
330
30
100
AcDbEntity
  8
1
100
AcDbLine
 10
45.08375
 20
1.46009894313
 30
0.0
 11
45.0625
 21
1.467644737959
 31
0.0
  0
LINE
  5
4BB
330
30
100
AcDbEntity
  8
1
100
AcDbLine
 10
45.0625
 20
1.467644737959
 30
0.0
 11
45.04125
 21
1.47481354021
 31
0.0
  0
LINE
  5
4BC
330
30
100
AcDbEntity
  8
1
100
AcDbLine
 10
45.04125
 20
1.47481354021
 30
0.0
 11
45.02
 21
1.481564342211
 31
0.0
  0
LINE
  5
4BD
330
30
100
AcDbEntity
  8
1
100
AcDbLine
 10
45.02
 20
1.481564342211
 30
0.0
 11
44.99875
 21
1.487852901241
 31
0.0
  0
LINE
  5
4BE
330
30
100
AcDbEntity
  8
1
100
AcDbLine
 10
44.99875
 20
1.487852901241
 30
0.0
 11
44.9775
 21
1.493631559079
 31
0.0
  0
LINE
  5
4BF
330
30
100
AcDbEntity
  8
1
100
AcDbLine
 10
44.9775
 20
1.493631559079
 30
0.0
 11
44.95625
 21
1.498849058348
 31
0.0
  0
LINE
  5
4C0
330
30
100
AcDbEntity
  8
1
100
AcDbLine
 10
44.95625
 20
1.498849058348
 30
0.0
 11
44.935
 21
1.503450356714
 31
0.0
  0
LINE
  5
4C1
330
30
100
AcDbEntity
  8
1
100
AcDbLine
 10
44.935
 20
1.503450356714
 30
0.0
 11
44.91375
 21
1.507376440241
 31
0.0
  0
LINE
  5
4C2
330
30
100
AcDbEntity
  8
1
100
AcDbLine
 10
44.91375
 20
1.507376440241
 30
0.0
 11
44.8925
 21
1.510564137462
 31
0.0
  0
LINE
  5
4C3
330
30
100
AcDbEntity
  8
1
100
AcDbLine
 10
44.8925
 20
1.510564137462
 30
0.0
 11
44.87125
 21
1.512945936015
 31
0.0
  0
LINE
  5
4C4
330
30
100
AcDbEntity
  8
1
100
AcDbLine
 10
44.87125
 20
1.512945936015
 30
0.0
 11
44.85
 21
1.514449804047
 31
0.0
  0
LINE
  5
4C5
330
30
100
AcDbEntity
  8
1
100
AcDbLine
 10
44.85
 20
1.514449804047
 30
0.0
 11
44.82875
 21
1.514999018928
 31
0.0
  0
LINE
  5
4C6
330
30
100
AcDbEntity
  8
1
100
AcDbLine
 10
44.82875
 20
1.514999018928
 30
0.0
 11
44.827838016615
 21
1.515
 31
0.0
  0
LINE
  5
4C7
330
30
100
AcDbEntity
  8
1
100
AcDbLine
 10
38.711
 20
1.515
 30
0.0
 11
38.711
 21
-1.515
 31
0.0
  0
LINE
  5
4C8
330
30
100
AcDbEntity
  8
1
100
AcDbLine
 10
36.994366976451
 20
-1.817688718027
 30
0.0
 11
36.994366976451
 21
1.817688718027
 31
0.0
  0
LINE
  5
4C9
330
30
100
AcDbEntity
  8
1
100
AcDbLine
 10
31.928812310441
 20
-3.175
 30
0.0
 11
31.928812310441
 21
3.175
 31
0.0
  0
LINE
  5
4CA
330
30
100
AcDbEntity
  8
1
100
AcDbLine
 10
31.928812310441
 20
3.175
 30
0.0
 11
31.928812310441
 21
-3.175
 31
0.0
  0
LINE
  5
4CB
330
30
100
AcDbEntity
  8
SK1
100
AcDbLine
 10
31.7
 20
3.175
 30
0.0
 11
0.7
 21
3.175
 31
0.0
  0
LINE
  5
4CC
330
30
100
AcDbEntity
  8
SK1
100
AcDbLine
 10
0.7
 20
3.175
 30
0.0
 11
0.0
 21
2.475
 31
0.0
  0
LINE
  5
4CD
330
30
100
AcDbEntity
  8
SK1
100
AcDbLine
 10
31.7
 20
-3.175
 30
0.0
 11
0.7
 21
-3.175
 31
0.0
  0
LINE
  5
4CE
330
30
100
AcDbEntity
  8
SK1
100
AcDbLine
 10
0.7
 20
-3.175
 30
0.0
 11
0.0
 21
-2.475
 31
0.0
  0
LINE
  5
4CF
330
30
100
AcDbEntity
  8
SK1
100
AcDbLine
 10
0.7
 20
3.175
 30
0.0
 11
0.7
 21
-3.175
 31
0.0
  0
LINE
  5
4D0
330
30
100
AcDbEntity
  8
SK1
100
AcDbLine
 10
0.0
 20
2.475
 30
0.0
 11
0.0
 21
-2.475
 31
0.0
  0
LINE
  5
4D1
330
30
100
AcDbEntity
  8
SK1
100
AcDbLine
 10
32.7401
 20
1.40688
 30
0.0
 11
33.1069
 21
1.0401
 31
0.0
  0
LINE
  5
4D2
330
30
100
AcDbEntity
  8
SK1
100
AcDbLine
 10
32.2328
 20
1.66666
 30
0.0
 11
33.3667
 21
0.532833
 31
0.0
  0
LINE
  5
4D3
330
30
100
AcDbEntity
  8
SK1
100
AcDbLine
 10
31.9154
 20
1.73657
 30
0.0
 11
33.4366
 21
0.215434
 31
0.0
  0
LINE
  5
4D4
330
30
100
AcDbEntity
  8
SK1
100
AcDbLine
 10
31.7
 20
1.70452
 30
0.0
 11
33.4045
 21
0.0
 31
0.0
  0
LINE
  5
4D5
330
30
100
AcDbEntity
  8
SK1
100
AcDbLine
 10
31.7
 20
1.45703
 30
0.0
 11
33.157
 21
0.0
 31
0.0
  0
LINE
  5
4D6
330
30
100
AcDbEntity
  8
SK1
100
AcDbLine
 10
31.7
 20
1.20954
 30
0.0
 11
32.9095
 21
0.0
 31
0.0
  0
LINE
  5
4D7
330
30
100
AcDbEntity
  8
SK1
100
AcDbLine
 10
31.7
 20
0.962054
 30
0.0
 11
32.6621
 21
0.0
 31
0.0
  0
LINE
  5
4D8
330
30
100
AcDbEntity
  8
SK1
100
AcDbLine
 10
31.7
 20
0.714566
 30
0.0
 11
32.4146
 21
0.0
 31
0.0
  0
LINE
  5
4D9
330
30
100
AcDbEntity
  8
SK1
100
AcDbLine
 10
31.7
 20
0.467079
 30
0.0
 11
32.1671
 21
0.0
 31
0.0
  0
LINE
  5
4DA
330
30
100
AcDbEntity
  8
SK1
100
AcDbLine
 10
31.7
 20
0.219592
 30
0.0
 11
31.9196
 21
0.0
 31
0.0
  0
LINE
  5
4DB
330
30
100
AcDbEntity
  8
SK1
100
AcDbLine
 10
31.7
 20
1.70452
 30
0.0
 11
31.7441
 21
1.74861
 31
0.0
  0
LINE
  5
4DC
330
30
100
AcDbEntity
  8
SK1
100
AcDbLine
 10
31.7
 20
1.45703
 30
0.0
 11
31.971
 21
1.72802
 31
0.0
  0
LINE
  5
4DD
330
30
100
AcDbEntity
  8
SK1
100
AcDbLine
 10
31.7
 20
1.20954
 30
0.0
 11
32.1742
 21
1.6837
 31
0.0
  0
LINE
  5
4DE
330
30
100
AcDbEntity
  8
SK1
100
AcDbLine
 10
31.7
 20
0.962054
 30
0.0
 11
32.3588
 21
1.62082
 31
0.0
  0
LINE
  5
4DF
330
30
100
AcDbEntity
  8
SK1
100
AcDbLine
 10
31.7
 20
0.714566
 30
0.0
 11
32.5271
 21
1.54167
 31
0.0
  0
LINE
  5
4E0
330
30
100
AcDbEntity
  8
SK1
100
AcDbLine
 10
31.7
 20
0.467079
 30
0.0
 11
32.681
 21
1.44812
 31
0.0
  0
LINE
  5
4E1
330
30
100
AcDbEntity
  8
SK1
100
AcDbLine
 10
31.7
 20
0.219592
 30
0.0
 11
32.8226
 21
1.34216
 31
0.0
  0
LINE
  5
4E2
330
30
100
AcDbEntity
  8
SK1
100
AcDbLine
 10
31.7279
 20
0.0
 30
0.0
 11
32.9508
 21
1.22288
 31
0.0
  0
LINE
  5
4E3
330
30
100
AcDbEntity
  8
SK1
100
AcDbLine
 10
31.9754
 20
0.0
 30
0.0
 11
33.067
 21
1.09157
 31
0.0
  0
LINE
  5
4E4
330
30
100
AcDbEntity
  8
SK1
100
AcDbLine
 10
32.2229
 20
0.0
 30
0.0
 11
33.1707
 21
0.947822
 31
0.0
  0
LINE
  5
4E5
330
30
100
AcDbEntity
  8
SK1
100
AcDbLine
 10
32.4704
 20
0.0
 30
0.0
 11
33.2605
 21
0.790145
 31
0.0
  0
LINE
  5
4E6
330
30
100
AcDbEntity
  8
SK1
100
AcDbLine
 10
32.7178
 20
0.0
 30
0.0
 11
33.3364
 21
0.618517
 31
0.0
  0
LINE
  5
4E7
330
30
100
AcDbEntity
  8
SK1
100
AcDbLine
 10
32.9653
 20
0.0
 30
0.0
 11
33.396
 21
0.430696
 31
0.0
  0
LINE
  5
4E8
330
30
100
AcDbEntity
  8
SK1
100
AcDbLine
 10
33.2128
 20
0.0
 30
0.0
 11
33.4356
 21
0.222827
 31
0.0
  0
LINE
  5
4E9
330
30
100
AcDbEntity
  8
SK1
100
AcDbLine
 10
31.7
 20
0.0
 30
0.0
 11
31.7
 21
1.75
 31
0.0
  0
LINE
  5
4EA
330
30
100
AcDbEntity
  8
SK1
100
AcDbLine
 10
31.7
 20
0.0
 30
0.0
 11
33.45
 21
0.0
 31
0.0
  0
ARC
  5
4EB
330
30
100
AcDbEntity
  8
SK1
100
AcDbCircle
 10
31.7
 20
0.0
 30
0.0
 40
1.75
100
AcDbArc
 50
0.0
 51
90.0
  0
ARC
  5
4EC
330
30
100
AcDbEntity
  8
SK1
100
AcDbCircle
 10
31.7
 20
0.0
 30
0.0
 40
1.75
100
AcDbArc
 50
90.0
 51
180.0
  0
LINE
  5
4ED
330
30
100
AcDbEntity
  8
SK1
100
AcDbLine
 10
31.6721
 20
0.0
 30
0.0
 11
31.7
 21
-0.0278958
 31
0.0
  0
LINE
  5
4EE
330
30
100
AcDbEntity
  8
SK1
100
AcDbLine
 10
31.4246
 20
0.0
 30
0.0
 11
31.7
 21
-0.275383
 31
0.0
  0
LINE
  5
4EF
330
30
100
AcDbEntity
  8
SK1
100
AcDbLine
 10
31.1771
 20
0.0
 30
0.0
 11
31.7
 21
-0.522871
 31
0.0
  0
LINE
  5
4F0
330
30
100
AcDbEntity
  8
SK1
100
AcDbLine
 10
30.9296
 20
0.0
 30
0.0
 11
31.7
 21
-0.770358
 31
0.0
  0
LINE
  5
4F1
330
30
100
AcDbEntity
  8
SK1
100
AcDbLine
 10
30.6822
 20
0.0
 30
0.0
 11
31.7
 21
-1.01785
 31
0.0
  0
LINE
  5
4F2
330
30
100
AcDbEntity
  8
SK1
100
AcDbLine
 10
30.4347
 20
0.0
 30
0.0
 11
31.7
 21
-1.26533
 31
0.0
  0
LINE
  5
4F3
330
30
100
AcDbEntity
  8
SK1
100
AcDbLine
 10
30.1872
 20
0.0
 30
0.0
 11
31.7
 21
-1.51282
 31
0.0
  0
LINE
  5
4F4
330
30
100
AcDbEntity
  8
SK1
100
AcDbLine
 10
29.9503
 20
-0.0106419
 30
0.0
 11
31.6894
 21
-1.74967
 31
0.0
  0
LINE
  5
4F5
330
30
100
AcDbEntity
  8
SK1
100
AcDbLine
 10
29.9736
 20
-0.281429
 30
0.0
 11
31.4186
 21
-1.72637
 31
0.0
  0
LINE
  5
4F6
330
30
100
AcDbEntity
  8
SK1
100
AcDbLine
 10
30.0639
 20
-0.619147
 30
0.0
 11
31.0809
 21
-1.63613
 31
0.0
  0
LINE
  5
4F7
330
30
100
AcDbEntity
  8
SK1
100
AcDbLine
 10
29.9514
 20
-0.0440984
 30
0.0
 11
29.9955
 21
0.0
 31
0.0
  0
LINE
  5
4F8
330
30
100
AcDbEntity
  8
SK1
100
AcDbLine
 10
29.972
 20
-0.270991
 30
0.0
 11
30.243
 21
0.0
 31
0.0
  0
LINE
  5
4F9
330
30
100
AcDbEntity
  8
SK1
100
AcDbLine
 10
30.0163
 20
-0.474162
 30
0.0
 11
30.4905
 21
0.0
 31
0.0
  0
LINE
  5
4FA
330
30
100
AcDbEntity
  8
SK1
100
AcDbLine
 10
30.0792
 20
-0.658762
 30
0.0
 11
30.7379
 21
0.0
 31
0.0
  0
LINE
  5
4FB
330
30
100
AcDbEntity
  8
SK1
100
AcDbLine
 10
30.1583
 20
-0.827105
 30
0.0
 11
30.9854
 21
0.0
 31
0.0
  0
LINE
  5
4FC
330
30
100
AcDbEntity
  8
SK1
100
AcDbLine
 10
30.2519
 20
-0.981039
 30
0.0
 11
31.2329
 21
0.0
 31
0.0
  0
LINE
  5
4FD
330
30
100
AcDbEntity
  8
SK1
100
AcDbLine
 10
30.3578
 20
-1.12257
 30
0.0
 11
31.4804
 21
0.0
 31
0.0
  0
LINE
  5
4FE
330
30
100
AcDbEntity
  8
SK1
100
AcDbLine
 10
30.4771
 20
-1.25077
 30
0.0
 11
31.7
 21
-0.0278958
 31
0.0
  0
LINE
  5
4FF
330
30
100
AcDbEntity
  8
SK1
100
AcDbLine
 10
30.6084
 20
-1.36695
 30
0.0
 11
31.7
 21
-0.275383
 31
0.0
  0
LINE
  5
500
330
30
100
AcDbEntity
  8
SK1
100
AcDbLine
 10
30.7522
 20
-1.47069
 30
0.0
 11
31.7
 21
-0.522871
 31
0.0
  0
LINE
  5
501
330
30
100
AcDbEntity
  8
SK1
100
AcDbLine
 10
30.9099
 20
-1.5605
 30
0.0
 11
31.7
 21
-0.770358
 31
0.0
  0
LINE
  5
502
330
30
100
AcDbEntity
  8
SK1
100
AcDbLine
 10
31.0815
 20
-1.63636
 30
0.0
 11
31.7
 21
-1.01785
 31
0.0
  0
LINE
  5
503
330
30
100
AcDbEntity
  8
SK1
100
AcDbLine
 10
31.2693
 20
-1.69603
 30
0.0
 11
31.7
 21
-1.26533
 31
0.0
  0
LINE
  5
504
330
30
100
AcDbEntity
  8
SK1
100
AcDbLine
 10
31.4772
 20
-1.73565
 30
0.0
 11
31.7
 21
-1.51282
 31
0.0
  0
LINE
  5
505
330
30
100
AcDbEntity
  8
SK1
100
AcDbLine
 10
31.7
 20
0.0
 30
0.0
 11
29.95
 21
0.0
 31
0.0
  0
LINE
  5
506
330
30
100
AcDbEntity
  8
SK1
100
AcDbLine
 10
31.7
 20
-1.75
 30
0.0
 11
31.7
 21
0.0
 31
0.0
  0
ARC
  5
507
330
30
100
AcDbEntity
  8
SK1
100
AcDbCircle
 10
31.7
 20
0.0
 30
0.0
 40
1.75
100
AcDbArc
 50
180.0
 51
270.0
  0
ARC
  5
508
330
30
100
AcDbEntity
  8
SK1
100
AcDbCircle
 10
31.7
 20
0.0
 30
0.0
 40
1.75
100
AcDbArc
 50
270.0
 51
0.0
  0
LINE
  5
585
330
30
100
AcDbEntity
  8
NOCUT
100
AcDbLine
 10
47.6
 20
0.0
 30
0.0
 11
47.6
 21
1.515
 31
0.0
  0
LINE
  5
586
330
30
100
AcDbEntity
  8
NOCUT
100
AcDbLine
 10
47.6
 20
1.515
 30
0.0
 11
38.711
 21
1.515
 31
0.0
  0
ARC
  5
587
330
30
100
AcDbEntity
  8
NOCUT
100
AcDbCircle
 10
39.582557427477
 20
11.476946980917
 30
0.0
 40
10.0
100
AcDbArc
 50
255.0
 51
265.0
  0
LINE
  5
588
330
30
100
AcDbEntity
  8
NOCUT
100
AcDbLine
 10
36.994366976451
 20
1.817688718027
 30
0.0
 11
31.928812310441
 21
3.175
 31
0.0
  0
LINE
  5
589
330
30
100
AcDbEntity
  8
NOCUT
100
AcDbLine
 10
31.928812310441
 20
3.175
 30
0.0
 11
31.7
 21
3.175
 31
0.0
  0
LINE
  5
58A
330
30
100
AcDbEntity
  8
NOCUT
100
AcDbLine
 10
31.7
 20
3.175
 30
0.0
 11
31.7
 21
0.0
 31
0.0
  0
LINE
  5
58B
330
30
100
AcDbEntity
  8
NOCUT
100
AcDbLine
 10
31.7
 20
0.0
 30
0.0
 11
47.6
 21
0.0
 31
0.0
  0
ARC
  5
58C
330
30
100
AcDbEntity
  8
CUT
100
AcDbCircle
 10
49.2125
 20
0.0
 30
0.0
 40
1.5875
100
AcDbArc
 50
0.0
 51
90.0
  0
LINE
  5
58D
330
30
100
AcDbEntity
  8
CUT
100
AcDbLine
 10
49.2125
 20
1.5875
 30
0.0
 11
47.6
 21
1.5875
 31
0.0
  0
LINE
  5
58E
330
30
100
AcDbEntity
  8
CUT
100
AcDbLine
 10
47.6
 20
1.5875
 30
0.0
 11
47.6
 21
0.0
 31
0.0
  0
LINE
  5
58F
330
30
100
AcDbEntity
  8
CUT
100
AcDbLine
 10
47.6
 20
0.0
 30
0.0
 11
50.8
 21
0.0
 31
0.0
  0
LINE
  5
590
330
30
100
AcDbEntity
  8
4
100
AcDbLine
 10
31.7
 20
0.0
 30
0.0
 11
50.8
 21
0.0
 31
0.0
  0
LINE
  5
591
330
30
100
AcDbEntity
  8
SK4
100
AcDbLine
 10
-1.0
 20
0.0
 30
0.0
 11
51.8
 21
0.0
 31
0.0
  0
LINE
  5
592
330
30
100
AcDbEntity
  8
INFTOTAL
100
AcDbLine
 10
-18.84
 20
45.0
 30
0.0
 11
91.0
 21
45.0
 31
0.0
  0
LINE
  5
593
330
30
100
AcDbEntity
  8
INFTOTAL
100
AcDbLine
 10
91.0
 20
45.0
 30
0.0
 11
91.0
 21
-25.0
 31
0.0
  0
LINE
  5
594
330
30
100
AcDbEntity
  8
INFTOTAL
100
AcDbLine
 10
91.0
 20
-25.0
 30
0.0
 11
-18.84
 21
-25.0
 31
0.0
  0
LINE
  5
595
330
30
100
AcDbEntity
  8
INFTOTAL
100
AcDbLine
 10
-18.84
 20
-25.0
 30
0.0
 11
-18.84
 21
45.0
 31
0.0
  0
DIMENSION
  5
106AC10
330
30
100
AcDbEntity
  8
2
100
AcDbDimension
  2
*D11
 10
31.7
 20
30.0
 30
0.0
 11
41.25
 21
30.0
 31
0.0
 70
   160
  1
<>
 71
     5
 42
19.1
  3
STANDARD
100
AcDbAlignedDimension
 13
50.8
 23
0.0
 33
0.0
 14
31.7
 24
3.175
 34
0.0
100
AcDbRotatedDimension
1001
ACAD
1000
DSTYLE
1002
{
1070
   271
1070
     1
1070
   279
1070
     0
1070
    74
1070
     0
1002
}
  0
ENDSEC
  0
SECTION
  2
OBJECTS
  0
DICTIONARY
  5
596
330
0
100
AcDbDictionary
281
     1
  3
ACAD_GROUP
350
597
  3
ACAD_IMAGE_VARS
350
106ABDF
  3
ACAD_LAYOUT
350
106AB97
  3
ACAD_MATERIAL
350
106ABBC
  3
ACAD_MLEADERSTYLE
350
106ABDB
  3
ACAD_MLINESTYLE
350
106AB92
  3
ACAD_PLOTSETTINGS
350
106AB94
  3
ACAD_PLOTSTYLENAME
350
106AB95
  3
ACAD_SCALELIST
350
106AB9A
  3
ACAD_TABLESTYLE
350
106ABD9
  3
ACAD_VISUALSTYLE
350
106ABC0
  3
AcDbVariableDictionary
350
106AC21
  3
APPDATA
350
106ABDD
  3
DWGPROPS
350
106AC28
  3
FX_DICT_DIMENSION_PALETTE
350
106AC1D
  3
PRINTCONFIG
350
106ABE2
  0
DICTIONARY
  5
106AC2B
330
2
100
AcDbDictionary
280
     1
281
     1
  3
ACAD_XREC_ROUNDTRIP
360
106AC2C
  0
DICTIONARY
  5
106AC1F
330
30
100
AcDbDictionary
280
     1
281
     1
  3
DIM_BOUNDING_BOXES_V1
360
106AC20
  0
DICTIONARY
  5
597
102
{ACAD_REACTORS
330
596
102
}
330
596
100
AcDbDictionary
281
     1
  0
RASTERVARIABLES
  5
106ABDF
102
{ACAD_REACTORS
330
596
102
}
330
596
100
AcDbRasterVariables
 90
        0
 70
     1
 71
     1
 72
     0
  0
DICTIONARY
  5
106AB97
102
{ACAD_REACTORS
330
596
102
}
330
596
100
AcDbDictionary
281
     1
  3
Model
350
106AB98
  3
シート 1
350
106AB99
  0
DICTIONARY
  5
106ABBC
102
{ACAD_REACTORS
330
596
102
}
330
596
100
AcDbDictionary
281
     1
  3
ByBlock
350
106ABBE
  3
ByLayer
350
106ABBD
  3
Global
350
106ABBF
  0
DICTIONARY
  5
106ABDB
102
{ACAD_REACTORS
330
596
102
}
330
596
100
AcDbDictionary
281
     1
  3
Standard
350
106ABDC
  0
DICTIONARY
  5
106AB92
102
{ACAD_REACTORS
330
596
102
}
330
596
100
AcDbDictionary
281
     1
  3
Standard
350
106AB93
  0
DICTIONARY
  5
106AB94
102
{ACAD_REACTORS
330
596
102
}
330
596
100
AcDbDictionary
281
     1
  0
ACDBDICTIONARYWDFLT
  5
106AB95
102
{ACAD_REACTORS
330
596
102
}
330
596
100
AcDbDictionary
281
     1
  3
Normal
350
106AB96
100
AcDbDictionaryWithDefault
340
106AB96
  0
DICTIONARY
  5
106AB9A
102
{ACAD_REACTORS
330
596
102
}
330
596
100
AcDbDictionary
281
     1
  3
A0
350
106AB9B
  3
A1
350
106AB9C
  3
A2
350
106AB9D
  3
A3
350
106AB9E
  3
A4
350
106AB9F
  3
A5
350
106ABA0
  3
A6
350
106ABA1
  3
A7
350
106ABA2
  3
A8
350
106ABA3
  3
A9
350
106ABA4
  3
B0
350
106ABA5
  3
B1
350
106ABA6
  3
B2
350
106ABA7
  3
B3
350
106ABA8
  3
B4
350
106ABA9
  3
B5
350
106ABAA
  3
B6
350
106ABAB
  3
B7
350
106ABAC
  3
B8
350
106ABAD
  3
B9
350
106ABAE
  3
C0
350
106ABAF
  3
C1
350
106ABB0
  3
C2
350
106ABB1
  3
C3
350
106ABB2
  3
C4
350
106ABB3
  3
C5
350
106ABB4
  3
C6
350
106ABB5
  3
C7
350
106ABB6
  3
C8
350
106ABB7
  3
C9
350
106ABB8
  3
D0
350
106ABB9
  3
D1
350
106ABBA
  3
D2
350
106ABBB
  0
DICTIONARY
  5
106ABD9
102
{ACAD_REACTORS
330
596
102
}
330
596
100
AcDbDictionary
281
     1
  3
Standard
350
106ABDA
  0
DICTIONARY
  5
106ABC0
102
{ACAD_REACTORS
330
596
102
}
330
596
100
AcDbDictionary
281
     1
  3
2dWireframe
350
106ABC5
  3
Basic
350
106ABC8
  3
Brighten
350
106ABCC
  3
ColorChange
350
106ABD0
  3
Conceptual
350
106ABCA
  3
Dim
350
106ABCB
  3
EdgeColorOff
350
106ABD3
  3
Facepattern
350
106ABCF
  3
Flat
350
106ABC1
  3
FlatWithEdges
350
106ABC2
  3
Gouraud
350
106ABC3
  3
GouraudWithEdges
350
106ABC4
  3
Hidden
350
106ABC7
  3
JitterOff
350
106ABD1
  3
Linepattern
350
106ABCE
  3
OverhangOff
350
106ABD2
  3
Realistic
350
106ABC9
  3
Shaded
350
106ABD8
  3
Shaded with edges
350
106ABD7
  3
Shades of Gray
350
106ABD4
  3
Sketchy
350
106ABD5
  3
Thicken
350
106ABCD
  3
Wireframe
350
106ABC6
  3
X-Ray
350
106ABD6
  0
DICTIONARY
  5
106AC21
102
{ACAD_REACTORS
330
596
102
}
330
596
100
AcDbDictionary
281
     1
  3
CANNOSCALE
350
106AC2D
  3
CMLEADERSTYLE
350
106AC23
  3
CTABLESTYLE
350
106AC22
  3
DIMASSOC
350
106AC26
  3
HIDETEXT
350
106AC27
  3
MSLTSCALE
350
106AC2E
  0
DICTIONARY
  5
106ABDD
102
{ACAD_REACTORS
330
596
102
}
330
596
100
AcDbDictionary
281
     1
  0
XRECORD
  5
106AC28
102
{ACAD_REACTORS
330
596
102
}
330
596
100
AcDbXrecord
280
     1
  1
DWGPROPS COOKIE
  2

  3

  4

  6

  7

  8
usr2460
  9

300
=
301
=
302
=
303
=
304
=
305
=
306
=
307
=
308
=
309
=
 40
0.0
 41
0.0
 42
2460710.208049375
  1

 90
        0
  0
DICTIONARY
  5
106AC1D
102
{ACAD_REACTORS
330
596
102
}
330
596
100
AcDbDictionary
281
     1
1001
FX_DIMP_FAV_VERSION
1071
        1
  0
DICTIONARYVAR
  5
106ABE2
102
{ACAD_REACTORS
330
596
102
}
330
596
100
DictionaryVariables
280
     0
  1
0
  0
XRECORD
  5
106AC2C
102
{ACAD_REACTORS
330
106AC2B
102
}
330
106AC2B
100
AcDbXrecord
280
     1
102
VTR_0.000_0.000_1.000_1.000_GRIDDISPLAY
 70
     3
102
VTR_0.000_0.000_1.000_1.000_GRIDMAJOR
 70
     5
102
VTR_0.000_0.000_1.000_1.000_DEFAULTLIGHTING
280
     1
102
VTR_0.000_0.000_1.000_1.000_DEFAULTLIGHTINGTYPE
 70
     1
102
VTR_0.000_0.000_1.000_1.000_BRIGHTNESS
141
0.0
102
VTR_0.000_0.000_1.000_1.000_CONTRAST
142
0.0
  0
DICTIONARY
  5
106AC20
102
{ACAD_REACTORS
330
106AC1F
102
}
330
106AC1F
100
AcDbDictionary
281
     1
  0
LAYOUT
  5
106AB98
102
{ACAD_REACTORS
330
106AB97
102
}
330
106AB97
100
AcDbPlotSettings
  1

  2
none_device
  4
Letter_(8.50_x_11.00_Inches)
  6

 40
6.35
 41
6.35
 42
6.35
 43
6.35
 44
215.9
 45
279.4
 46
0.0
 47
0.0
 48
0.0
 49
0.0
140
0.0
141
0.0
142
1.0
143
2.21959459445662
 70
  1712
 72
     0
 73
     0
 74
     0
  7

 75
     0
147
0.4505327245333333
148
-39.40881537143161
149
0.0
100
AcDbLayout
  1
Model
 70
     1
 71
     0
 10
0.0
 20
0.0
 11
12.0
 21
9.0
 12
0.0
 22
0.0
 32
0.0
 14
-18.84
 24
-25.0
 34
0.0
 15
91.0
 25
45.0
 35
0.0
146
0.0
 13
0.0
 23
0.0
 33
0.0
 16
1.0
 26
0.0
 36
0.0
 17
0.0
 27
1.0
 37
0.0
 76
     0
330
30
331
106AB91
  0
LAYOUT
  5
106AB99
102
{ACAD_REACTORS
330
106AB97
102
}
330
106AB97
100
AcDbPlotSettings
  1

  2
none_device
  4

  6

 40
0.0
 41
0.0
 42
0.0
 43
0.0
 44
0.0
 45
0.0
 46
0.0
 47
0.0
 48
0.0
 49
0.0
140
0.0
141
0.0
142
1.0
143
1.0
 70
   688
 72
     0
 73
     0
 74
     5
  7

 75
    16
147
1.0
148
0.0
149
0.0
100
AcDbLayout
  1
シート 1
 70
     1
 71
     1
 10
0.0
 20
0.0
 11
0.0
 21
0.0
 12
0.0
 22
0.0
 32
0.0
 14
1.000000000000000E+20
 24
1.000000000000000E+20
 34
1.000000000000000E+20
 15
-1.000000000000000E+20
 25
-1.000000000000000E+20
 35
-1.000000000000000E+20
146
0.0
 13
0.0
 23
0.0
 33
0.0
 16
1.0
 26
0.0
 36
0.0
 17
0.0
 27
1.0
 37
0.0
 76
     0
330
31
  0
MATERIAL
  5
106ABBE
102
{ACAD_REACTORS
330
106ABBC
102
}
102
{ACAD_XDICTIONARY
360
106AC31
102
}
330
106ABBC
100
AcDbMaterial
  1
ByBlock
  0
MATERIAL
  5
106ABBD
102
{ACAD_REACTORS
330
106ABBC
102
}
102
{ACAD_XDICTIONARY
360
106AC2F
102
}
330
106ABBC
100
AcDbMaterial
  1
ByLayer
  0
MATERIAL
  5
106ABBF
102
{ACAD_REACTORS
330
106ABBC
102
}
102
{ACAD_XDICTIONARY
360
106AC33
102
}
330
106ABBC
100
AcDbMaterial
  1
Global
  0
MLEADERSTYLE
  5
106ABDC
102
{ACAD_REACTORS
330
106ABDB
102
}
102
{ACAD_XDICTIONARY
360
106AC66
102
}
330
106ABDB
100
AcDbMLeaderStyle
170
     2
171
     1
172
     0
 90
        2
 40
0.0
 41
0.0
173
     1
 91
-1056964608
340
4
 92
       -2
290
     1
 42
0.09
291
     1
 43
0.36
  3
Standard
341
0
 44
0.18
300

342
28
174
     1
178
     1
175
     1
176
     0
 93
-1056964608
 45
0.18
292
     0
297
     0
 46
0.18
343
0
 94
-1056964608
 47
1.0
 49
1.0
140
1.0
293
     1
141
0.0
294
     1
177
     0
142
1.0
295
     0
296
     0
143
0.125
1001
ACAD_MLEADERVER
1070
     2
  0
MLINESTYLE
  5
106AB93
102
{ACAD_REACTORS
330
106AB92
102
}
330
106AB92
100
AcDbMlineStyle
  2
Standard
 70
     0
  3

 62
   256
 51
90.0
 52
90.0
 71
     2
 49
0.5
 62
   256
  6
BYLAYER
 49
-0.5
 62
   256
  6
BYLAYER
  0
ACDBPLACEHOLDER
  5
106AB96
102
{ACAD_REACTORS
330
106AB95
102
}
330
106AB95
  0
SCALE
  5
106AB9B
102
{ACAD_REACTORS
330
106AB9A
102
}
330
106AB9A
100
AcDbScale
 70
     0
300
1:1
140
1.0
141
1.0
290
     1
  0
SCALE
  5
106AB9C
102
{ACAD_REACTORS
330
106AB9A
102
}
330
106AB9A
100
AcDbScale
 70
     0
300
1:2
140
1.0
141
2.0
290
     0
  0
SCALE
  5
106AB9D
102
{ACAD_REACTORS
330
106AB9A
102
}
330
106AB9A
100
AcDbScale
 70
     0
300
1:4
140
1.0
141
4.0
290
     0
  0
SCALE
  5
106AB9E
102
{ACAD_REACTORS
330
106AB9A
102
}
330
106AB9A
100
AcDbScale
 70
     0
300
1:5
140
1.0
141
5.0
290
     0
  0
SCALE
  5
106AB9F
102
{ACAD_REACTORS
330
106AB9A
102
}
330
106AB9A
100
AcDbScale
 70
     0
300
1:8
140
1.0
141
8.0
290
     0
  0
SCALE
  5
106ABA0
102
{ACAD_REACTORS
330
106AB9A
102
}
330
106AB9A
100
AcDbScale
 70
     0
300
1:10
140
1.0
141
10.0
290
     0
  0
SCALE
  5
106ABA1
102
{ACAD_REACTORS
330
106AB9A
102
}
330
106AB9A
100
AcDbScale
 70
     0
300
1:16
140
1.0
141
16.0
290
     0
  0
SCALE
  5
106ABA2
102
{ACAD_REACTORS
330
106AB9A
102
}
330
106AB9A
100
AcDbScale
 70
     0
300
1:20
140
1.0
141
20.0
290
     0
  0
SCALE
  5
106ABA3
102
{ACAD_REACTORS
330
106AB9A
102
}
330
106AB9A
100
AcDbScale
 70
     0
300
1:30
140
1.0
141
30.0
290
     0
  0
SCALE
  5
106ABA4
102
{ACAD_REACTORS
330
106AB9A
102
}
330
106AB9A
100
AcDbScale
 70
     0
300
1:40
140
1.0
141
40.0
290
     0
  0
SCALE
  5
106ABA5
102
{ACAD_REACTORS
330
106AB9A
102
}
330
106AB9A
100
AcDbScale
 70
     0
300
1:50
140
1.0
141
50.0
290
     0
  0
SCALE
  5
106ABA6
102
{ACAD_REACTORS
330
106AB9A
102
}
330
106AB9A
100
AcDbScale
 70
     0
300
1:100
140
1.0
141
100.0
290
     0
  0
SCALE
  5
106ABA7
102
{ACAD_REACTORS
330
106AB9A
102
}
330
106AB9A
100
AcDbScale
 70
     0
300
2:1
140
2.0
141
1.0
290
     0
  0
SCALE
  5
106ABA8
102
{ACAD_REACTORS
330
106AB9A
102
}
330
106AB9A
100
AcDbScale
 70
     0
300
4:1
140
4.0
141
1.0
290
     0
  0
SCALE
  5
106ABA9
102
{ACAD_REACTORS
330
106AB9A
102
}
330
106AB9A
100
AcDbScale
 70
     0
300
8:1
140
8.0
141
1.0
290
     0
  0
SCALE
  5
106ABAA
102
{ACAD_REACTORS
330
106AB9A
102
}
330
106AB9A
100
AcDbScale
 70
     0
300
10:1
140
10.0
141
1.0
290
     0
  0
SCALE
  5
106ABAB
102
{ACAD_REACTORS
330
106AB9A
102
}
330
106AB9A
100
AcDbScale
 70
     0
300
100:1
140
100.0
141
1.0
290
     0
  0
SCALE
  5
106ABAC
102
{ACAD_REACTORS
330
106AB9A
102
}
330
106AB9A
100
AcDbScale
 70
     0
300
1/128" = 1'-0"
140
0.0078125
141
12.0
290
     0
  0
SCALE
  5
106ABAD
102
{ACAD_REACTORS
330
106AB9A
102
}
330
106AB9A
100
AcDbScale
 70
     0
300
1/64" = 1'-0"
140
0.015625
141
12.0
290
     0
  0
SCALE
  5
106ABAE
102
{ACAD_REACTORS
330
106AB9A
102
}
330
106AB9A
100
AcDbScale
 70
     0
300
1/32" = 1'-0"
140
0.03125
141
12.0
290
     0
  0
SCALE
  5
106ABAF
102
{ACAD_REACTORS
330
106AB9A
102
}
330
106AB9A
100
AcDbScale
 70
     0
300
1/16" = 1'-0"
140
0.0625
141
12.0
290
     0
  0
SCALE
  5
106ABB0
102
{ACAD_REACTORS
330
106AB9A
102
}
330
106AB9A
100
AcDbScale
 70
     0
300
3/32" = 1'-0"
140
0.09375
141
12.0
290
     0
  0
SCALE
  5
106ABB1
102
{ACAD_REACTORS
330
106AB9A
102
}
330
106AB9A
100
AcDbScale
 70
     0
300
1/8" = 1'-0"
140
0.125
141
12.0
290
     0
  0
SCALE
  5
106ABB2
102
{ACAD_REACTORS
330
106AB9A
102
}
330
106AB9A
100
AcDbScale
 70
     0
300
3/16" = 1'-0"
140
0.1875
141
12.0
290
     0
  0
SCALE
  5
106ABB3
102
{ACAD_REACTORS
330
106AB9A
102
}
330
106AB9A
100
AcDbScale
 70
     0
300
1/4" = 1'-0"
140
0.25
141
12.0
290
     0
  0
SCALE
  5
106ABB4
102
{ACAD_REACTORS
330
106AB9A
102
}
330
106AB9A
100
AcDbScale
 70
     0
300
3/8" = 1'-0"
140
0.375
141
12.0
290
     0
  0
SCALE
  5
106ABB5
102
{ACAD_REACTORS
330
106AB9A
102
}
330
106AB9A
100
AcDbScale
 70
     0
300
1/2" = 1'-0"
140
0.5
141
12.0
290
     0
  0
SCALE
  5
106ABB6
102
{ACAD_REACTORS
330
106AB9A
102
}
330
106AB9A
100
AcDbScale
 70
     0
300
3/4" = 1'-0"
140
0.75
141
12.0
290
     0
  0
SCALE
  5
106ABB7
102
{ACAD_REACTORS
330
106AB9A
102
}
330
106AB9A
100
AcDbScale
 70
     0
300
1" = 1'-0"
140
1.0
141
12.0
290
     0
  0
SCALE
  5
106ABB8
102
{ACAD_REACTORS
330
106AB9A
102
}
330
106AB9A
100
AcDbScale
 70
     0
300
1-1/2" = 1'-0"
140
1.5
141
12.0
290
     0
  0
SCALE
  5
106ABB9
102
{ACAD_REACTORS
330
106AB9A
102
}
330
106AB9A
100
AcDbScale
 70
     0
300
3" = 1'-0"
140
3.0
141
12.0
290
     0
  0
SCALE
  5
106ABBA
102
{ACAD_REACTORS
330
106AB9A
102
}
330
106AB9A
100
AcDbScale
 70
     0
300
6" = 1'-0"
140
6.0
141
12.0
290
     0
  0
SCALE
  5
106ABBB
102
{ACAD_REACTORS
330
106AB9A
102
}
330
106AB9A
100
AcDbScale
 70
     0
300
1'-0" = 1'-0"
140
12.0
141
12.0
290
     0
  0
TABLESTYLE
  5
106ABDA
102
{ACAD_REACTORS
330
106ABD9
102
}
330
106ABD9
100
AcDbTableStyle
  3
Standard
 70
     0
 71
     0
 40
0.06
 41
0.06
280
     0
281
     0
  7
Monospac821 BT
140
0.18
170
     2
 62
     0
 63
   257
283
     0
274
    -2
284
     1
 64
     0
275
    -2
285
     1
 65
     0
276
    -2
286
     1
 66
     0
277
    -2
287
     1
 67
     0
278
    -2
288
     1
 68
     0
279
    -2
289
     1
 69
     0
  7
Monospac821 BT
140
0.25
170
     5
 62
     0
 63
   257
283
     0
274
    -2
284
     1
 64
     0
275
    -2
285
     1
 65
     0
276
    -2
286
     1
 66
     0
277
    -2
287
     1
 67
     0
278
    -2
288
     1
 68
     0
279
    -2
289
     1
 69
     0
  7
Monospac821 BT
140
0.18
170
     5
 62
     0
 63
   257
283
     0
274
    -2
284
     1
 64
     0
275
    -2
285
     1
 65
     0
276
    -2
286
     1
 66
     0
277
    -2
287
     1
 67
     0
278
    -2
288
     1
 68
     0
279
    -2
289
     1
 69
     0
  0
VISUALSTYLE
  5
106ABC5
102
{ACAD_REACTORS
330
106ABC0
102
}
102
{ACAD_XDICTIONARY
360
106AC3D
102
}
330
106ABC0
100
AcDbVisualStyle
  2
2dWireframe
 70
     4
 71
     0
 72
     2
 73
     0
 90
        0
 40
0.6
 41
30.0
 62
     5
 63
     7
 74
     1
 91
        4
 64
     7
 65
   257
 75
     1
175
     1
 42
1.0
 92
        0
 66
   257
 43
1.0
 76
     1
 77
     6
 78
     2
 67
     7
 79
     5
170
     0
171
     0
290
     0
174
     0
 93
        1
 44
0.0
173
     0
291
     0
 45
0.0
1001
ACAD
1000
AcDbSavedByObjectVersion
1070
     0
  0
VISUALSTYLE
  5
106ABC8
102
{ACAD_REACTORS
330
106ABC0
102
}
102
{ACAD_XDICTIONARY
360
106AC43
102
}
330
106ABC0
100
AcDbVisualStyle
  2
Basic
 70
     7
 71
     1
 72
     0
 73
     1
 90
        0
 40
0.6
 41
30.0
 62
     5
 63
     7
 74
     0
 91
        4
 64
     7
 65
   257
 75
     1
175
     1
 42
1.0
 92
        8
 66
     7
 43
1.0
 76
     1
 77
     6
 78
     2
 67
     7
 79
     5
170
     0
171
     0
290
     0
174
     0
 93
        1
 44
0.0
173
     0
291
     1
 45
0.0
1001
ACAD
1000
AcDbSavedByObjectVersion
1070
     0
  0
VISUALSTYLE
  5
106ABCC
102
{ACAD_REACTORS
330
106ABC0
102
}
102
{ACAD_XDICTIONARY
360
106AC4B
102
}
330
106ABC0
100
AcDbVisualStyle
  2
Brighten
 70
    12
 71
     2
 72
     2
 73
     0
 90
        0
 40
0.6
 41
30.0
 62
     5
 63
     7
 74
     1
 91
        4
 64
     7
 65
   257
 75
     1
175
     1
 42
1.0
 92
        8
 66
     7
 43
1.0
 76
     1
 77
     6
 78
     2
 67
     7
 79
     5
170
     0
171
     0
290
     0
174
     0
 93
        1
 44
50.0
173
     0
291
     1
 45
0.0
1001
ACAD
1000
AcDbSavedByObjectVersion
1070
     0
  0
VISUALSTYLE
  5
106ABD0
102
{ACAD_REACTORS
330
106ABC0
102
}
102
{ACAD_XDICTIONARY
360
106AC53
102
}
330
106ABC0
100
AcDbVisualStyle
  2
ColorChange
 70
    16
 71
     2
 72
     2
 73
     3
 90
        0
 40
0.6
 41
30.0
 62
     5
 63
     8
 74
     1
 91
        4
 64
     7
 65
   257
 75
     1
175
     1
 42
1.0
 92
        8
 66
     8
 43
1.0
 76
     1
 77
     6
 78
     2
 67
     7
 79
     5
170
     0
171
     0
290
     0
174
     0
 93
        1
 44
0.0
173
     0
291
     1
 45
0.0
1001
ACAD
1000
AcDbSavedByObjectVersion
1070
     0
  0
VISUALSTYLE
  5
106ABCA
102
{ACAD_REACTORS
330
106ABC0
102
}
102
{ACAD_XDICTIONARY
360
106AC47
102
}
330
106ABC0
100
AcDbVisualStyle
  2
Conceptual
 70
     9
 71
     3
 72
     2
 73
     0
 90
        0
 40
0.6
 41
30.0
 62
     5
 63
     7
 74
     2
 91
        2
 64
     7
 65
   257
 75
     1
175
     1
 42
179.0
 92
        8
 66
     7
 43
1.0
 76
     1
 77
     6
 78
     2
 67
     7
 79
     3
170
     0
171
     0
290
     0
174
     0
 93
        1
 44
0.0
173
     0
291
     0
 45
0.0
1001
ACAD
1000
AcDbSavedByObjectVersion
1070
     0
  0
VISUALSTYLE
  5
106ABCB
102
{ACAD_REACTORS
330
106ABC0
102
}
102
{ACAD_XDICTIONARY
360
106AC49
102
}
330
106ABC0
100
AcDbVisualStyle
  2
Dim
 70
    11
 71
     2
 72
     2
 73
     0
 90
        0
 40
0.6
 41
30.0
 62
     5
 63
     7
 74
     1
 91
        4
 64
     7
 65
   257
 75
     1
175
     1
 42
1.0
 92
        8
 66
     7
 43
1.0
 76
     1
 77
     6
 78
     2
 67
     7
 79
     5
170
     0
171
     0
290
     0
174
     0
 93
        1
 44
-50.0
173
     0
291
     1
 45
0.0
1001
ACAD
1000
AcDbSavedByObjectVersion
1070
     0
  0
VISUALSTYLE
  5
106ABD3
102
{ACAD_REACTORS
330
106ABC0
102
}
102
{ACAD_XDICTIONARY
360
106AC59
102
}
330
106ABC0
100
AcDbVisualStyle
  2
EdgeColorOff
 70
    22
 71
     2
 72
     2
 73
     0
 90
        0
 40
0.6
 41
30.0
 62
     5
 63
     7
 74
     1
 91
        4
 64
     7
 65
   257
 75
     1
175
     1
 42
1.0
 92
        8
 66
     7
 43
1.0
 76
     1
 77
     6
 78
     2
 67
     7
 79
     5
170
     0
171
     0
290
     0
174
     0
 93
        1
 44
0.0
173
     0
291
     1
 45
0.0
1001
ACAD
1000
AcDbSavedByObjectVersion
1070
     0
  0
VISUALSTYLE
  5
106ABCF
102
{ACAD_REACTORS
330
106ABC0
102
}
102
{ACAD_XDICTIONARY
360
106AC51
102
}
330
106ABC0
100
AcDbVisualStyle
  2
Facepattern
 70
    15
 71
     2
 72
     2
 73
     0
 90
        0
 40
0.6
 41
30.0
 62
     5
 63
     7
 74
     1
 91
        4
 64
     7
 65
   257
 75
     1
175
     1
 42
1.0
 92
        8
 66
     7
 43
1.0
 76
     1
 77
     6
 78
     2
 67
     7
 79
     5
170
     0
171
     0
290
     0
174
     0
 93
        1
 44
0.0
173
     0
291
     1
 45
0.0
1001
ACAD
1000
AcDbSavedByObjectVersion
1070
     0
  0
VISUALSTYLE
  5
106ABC1
102
{ACAD_REACTORS
330
106ABC0
102
}
102
{ACAD_XDICTIONARY
360
106AC35
102
}
330
106ABC0
100
AcDbVisualStyle
  2
Flat
 70
     0
 71
     2
 72
     1
 73
     1
 90
        2
 40
0.6
 41
30.0
 62
     5
 63
     7
 74
     0
 91
        0
 64
     7
 65
   257
 75
     1
175
     1
 42
1.0
 92
        8
 66
     7
 43
1.0
 76
     1
 77
     6
 78
     2
 67
     7
 79
     5
170
     0
171
     0
290
     0
174
     0
 93
       13
 44
0.0
173
     0
291
     1
 45
0.0
1001
ACAD
1000
AcDbSavedByObjectVersion
1070
     0
  0
VISUALSTYLE
  5
106ABC2
102
{ACAD_REACTORS
330
106ABC0
102
}
102
{ACAD_XDICTIONARY
360
106AC37
102
}
330
106ABC0
100
AcDbVisualStyle
  2
FlatWithEdges
 70
     1
 71
     2
 72
     1
 73
     1
 90
        2
 40
0.6
 41
30.0
 62
     5
 63
     7
 74
     1
 91
        0
 64
     7
 65
   257
 75
     1
175
     1
 42
1.0
 92
        0
 66
   257
 43
1.0
 76
     1
 77
     6
 78
     2
 67
     7
 79
     5
170
     0
171
     0
290
     0
174
     0
 93
       13
 44
0.0
173
     0
291
     1
 45
0.0
1001
ACAD
1000
AcDbSavedByObjectVersion
1070
     0
  0
VISUALSTYLE
  5
106ABC3
102
{ACAD_REACTORS
330
106ABC0
102
}
102
{ACAD_XDICTIONARY
360
106AC39
102
}
330
106ABC0
100
AcDbVisualStyle
  2
Gouraud
 70
     2
 71
     2
 72
     2
 73
     1
 90
        2
 40
0.6
 41
30.0
 62
     5
 63
     7
 74
     0
 91
        0
 64
     7
 65
   257
 75
     1
175
     1
 42
1.0
 92
        0
 66
     7
 43
1.0
 76
     1
 77
     6
 78
     2
 67
     7
 79
     5
170
     0
171
     0
290
     0
174
     0
 93
       13
 44
0.0
173
     0
291
     1
 45
0.0
1001
ACAD
1000
AcDbSavedByObjectVersion
1070
     0
  0
VISUALSTYLE
  5
106ABC4
102
{ACAD_REACTORS
330
106ABC0
102
}
102
{ACAD_XDICTIONARY
360
106AC3B
102
}
330
106ABC0
100
AcDbVisualStyle
  2
GouraudWithEdges
 70
     3
 71
     2
 72
     2
 73
     1
 90
        2
 40
0.6
 41
30.0
 62
     5
 63
     7
 74
     1
 91
        0
 64
     7
 65
   257
 75
     1
175
     1
 42
1.0
 92
        0
 66
   257
 43
1.0
 76
     1
 77
     6
 78
     2
 67
     7
 79
     5
170
     0
171
     0
290
     0
174
     0
 93
       13
 44
0.0
173
     0
291
     1
 45
0.0
1001
ACAD
1000
AcDbSavedByObjectVersion
1070
     0
  0
VISUALSTYLE
  5
106ABC7
102
{ACAD_REACTORS
330
106ABC0
102
}
102
{ACAD_XDICTIONARY
360
106AC41
102
}
330
106ABC0
100
AcDbVisualStyle
  2
Hidden
 70
     6
 71
     1
 72
     2
 73
     2
 90
        0
 40
0.6
 41
30.0
 62
     5
 63
     7
 74
     2
 91
        2
 64
     7
 65
   257
 75
     2
175
     1
 42
40.0
 92
        0
 66
   257
 43
1.0
 76
     1
 77
     6
 78
     2
 67
     7
 79
     3
170
     0
171
     0
290
     0
174
     0
 93
        1
 44
0.0
173
     0
291
     0
 45
0.0
1001
ACAD
1000
AcDbSavedByObjectVersion
1070
     0
  0
VISUALSTYLE
  5
106ABD1
102
{ACAD_REACTORS
330
106ABC0
102
}
102
{ACAD_XDICTIONARY
360
106AC55
102
}
330
106ABC0
100
AcDbVisualStyle
  2
JitterOff
 70
    20
 71
     2
 72
     2
 73
     0
 90
        0
 40
0.6
 41
30.0
 62
     5
 63
     7
 74
     1
 91
        4
 64
     7
 65
   257
 75
     1
175
     1
 42
1.0
 92
       10
 66
     7
 43
1.0
 76
     1
 77
     6
 78
     2
 67
     7
 79
     5
170
     0
171
     0
290
     0
174
     0
 93
        1
 44
0.0
173
     0
291
     1
 45
0.0
1001
ACAD
1000
AcDbSavedByObjectVersion
1070
     0
  0
VISUALSTYLE
  5
106ABCE
102
{ACAD_REACTORS
330
106ABC0
102
}
102
{ACAD_XDICTIONARY
360
106AC4F
102
}
330
106ABC0
100
AcDbVisualStyle
  2
Linepattern
 70
    14
 71
     2
 72
     2
 73
     0
 90
        0
 40
0.6
 41
30.0
 62
     5
 63
     7
 74
     1
 91
        4
 64
     7
 65
   257
 75
     7
175
     7
 42
1.0
 92
        8
 66
     7
 43
1.0
 76
     1
 77
     6
 78
     2
 67
     7
 79
     5
170
     0
171
     0
290
     0
174
     0
 93
        1
 44
0.0
173
     0
291
     1
 45
0.0
1001
ACAD
1000
AcDbSavedByObjectVersion
1070
     0
  0
VISUALSTYLE
  5
106ABD2
102
{ACAD_REACTORS
330
106ABC0
102
}
102
{ACAD_XDICTIONARY
360
106AC57
102
}
330
106ABC0
100
AcDbVisualStyle
  2
OverhangOff
 70
    21
 71
     2
 72
     2
 73
     0
 90
        0
 40
0.6
 41
30.0
 62
     5
 63
     7
 74
     1
 91
        4
 64
     7
 65
   257
 75
     1
175
     1
 42
1.0
 92
        9
 66
     7
 43
1.0
 76
     1
 77
     6
 78
     2
 67
     7
 79
     5
170
     0
171
     0
290
     0
174
     0
 93
        1
 44
0.0
173
     0
291
     1
 45
0.0
1001
ACAD
1000
AcDbSavedByObjectVersion
1070
     0
  0
VISUALSTYLE
  5
106ABC9
102
{ACAD_REACTORS
330
106ABC0
102
}
102
{ACAD_XDICTIONARY
360
106AC45
102
}
330
106ABC0
100
AcDbVisualStyle
  2
Realistic
 70
     8
 71
     2
 72
     3
 73
     0
 90
        2
 40
0.6
 41
30.0
 62
     5
 63
     7
 74
     0
 91
        0
 64
     7
 65
   257
 75
     1
175
     1
 42
1.0
 92
        8
 66
   257
 43
1.0
 76
     1
 77
     6
 78
     2
 67
     7
 79
     3
170
     0
171
     0
290
     0
174
     0
 93
       13
 44
0.0
173
     0
291
     0
 45
0.0
1001
ACAD
1000
AcDbSavedByObjectVersion
1070
     0
  0
VISUALSTYLE
  5
106ABD8
102
{ACAD_REACTORS
330
106ABC0
102
}
102
{ACAD_XDICTIONARY
360
106AC63
102
}
330
106ABC0
100
AcDbVisualStyle
  2
Shaded
 70
    27
 71
     2
 72
     2
 73
     1
 90
        2
 40
0.6
 41
30.0
 62
     5
 63
     7
 74
     0
 91
        4
 64
     7
 65
   257
 75
     1
175
     1
 42
1.0
 92
        8
 66
   257
 43
1.0
 76
     1
 77
     6
 78
     2
 67
     8
 79
     3
170
     0
171
     0
290
     0
174
     0
 93
        5
 44
0.0
173
     0
291
     0
 45
0.0
1001
ACAD
1000
AcDbSavedByObjectVersion
1070
     0
  0
VISUALSTYLE
  5
106ABD7
102
{ACAD_REACTORS
330
106ABC0
102
}
102
{ACAD_XDICTIONARY
360
106AC61
102
}
330
106ABC0
100
AcDbVisualStyle
  2
Shaded with edges
 70
    26
 71
     2
 72
     2
 73
     1
 90
        2
 40
0.6
 41
30.0
 62
     5
 63
     7
 74
     1
 91
       10
 64
     7
 65
   257
 75
     2
175
     1
 42
1.0
 92
        8
 66
   257
 43
1.0
 76
     1
 77
     6
 78
     2
 67
     7
 79
     3
170
     0
171
     0
290
     0
174
     0
 93
        5
 44
0.0
173
     0
291
     0
 45
0.0
1001
ACAD
1000
AcDbSavedByObjectVersion
1070
     0
  0
VISUALSTYLE
  5
106ABD4
102
{ACAD_REACTORS
330
106ABC0
102
}
102
{ACAD_XDICTIONARY
360
106AC5B
102
}
330
106ABC0
100
AcDbVisualStyle
  2
Shades of Gray
 70
    23
 71
     2
 72
     2
 73
     3
 90
        0
 40
0.6
 41
30.0
 62
     5
 63
     7
 74
     2
 91
        2
 64
     7
 65
     7
 75
     1
175
     1
 42
40.0
 92
        8
 66
     7
 43
1.0
 76
     1
 77
     6
 78
     2
 67
     7
 79
     3
170
     0
171
     0
290
     0
174
     0
 93
        1
 44
0.0
173
     0
291
     0
 45
0.0
1001
ACAD
1000
AcDbSavedByObjectVersion
1070
     0
  0
VISUALSTYLE
  5
106ABD5
102
{ACAD_REACTORS
330
106ABC0
102
}
102
{ACAD_XDICTIONARY
360
106AC5D
102
}
330
106ABC0
100
AcDbVisualStyle
  2
Sketchy
 70
    24
 71
     1
 72
     2
 73
     2
 90
        0
 40
0.6
 41
30.0
 62
     5
 63
     7
 74
     2
 91
        2
 64
     7
 65
     7
 75
     1
175
     1
 42
40.0
 92
       11
 66
     7
 43
1.0
 76
     1
 77
     6
 78
     2
 67
     7
 79
     6
170
     0
171
     0
290
     0
174
     0
 93
        1
 44
0.0
173
     0
291
     0
 45
0.0
1001
ACAD
1000
AcDbSavedByObjectVersion
1070
     0
  0
VISUALSTYLE
  5
106ABCD
102
{ACAD_REACTORS
330
106ABC0
102
}
102
{ACAD_XDICTIONARY
360
106AC4D
102
}
330
106ABC0
100
AcDbVisualStyle
  2
Thicken
 70
    13
 71
     2
 72
     2
 73
     0
 90
        0
 40
0.6
 41
30.0
 62
     5
 63
     7
 74
     1
 91
        4
 64
     7
 65
   257
 75
     1
175
     1
 42
1.0
 92
       12
 66
     7
 43
1.0
 76
     1
 77
     6
 78
     2
 67
     7
 79
     5
170
     0
171
     0
290
     0
174
     0
 93
        1
 44
0.0
173
     0
291
     1
 45
0.0
1001
ACAD
1000
AcDbSavedByObjectVersion
1070
     0
  0
VISUALSTYLE
  5
106ABC6
102
{ACAD_REACTORS
330
106ABC0
102
}
102
{ACAD_XDICTIONARY
360
106AC3F
102
}
330
106ABC0
100
AcDbVisualStyle
  2
Wireframe
 70
     5
 71
     0
 72
     2
 73
     0
 90
        0
 40
0.6
 41
30.0
 62
     5
 63
     7
 74
     1
 91
        4
 64
     7
 65
   257
 75
     1
175
     1
 42
1.0
 92
        0
 66
   257
 43
1.0
 76
     1
 77
     6
 78
     2
 67
     7
 79
     3
170
     0
171
     0
290
     0
174
     0
 93
        1
 44
0.0
173
     0
291
     0
 45
0.0
1001
ACAD
1000
AcDbSavedByObjectVersion
1070
     0
  0
VISUALSTYLE
  5
106ABD6
102
{ACAD_REACTORS
330
106ABC0
102
}
102
{ACAD_XDICTIONARY
360
106AC5F
102
}
330
106ABC0
100
AcDbVisualStyle
  2
X-Ray
 70
    25
 71
     2
 72
     2
 73
     1
 90
        1
 40
0.5
 41
30.0
 62
     5
 63
     7
 74
     1
 91
        0
 64
     7
 65
   257
 75
     1
175
     1
 42
1.0
 92
        8
 66
     7
 43
1.0
 76
     1
 77
     6
 78
     2
 67
     7
 79
     3
170
     0
171
     0
290
     0
174
     0
 93
       13
 44
0.0
173
     0
291
     0
 45
0.0
1001
ACAD
1000
AcDbSavedByObjectVersion
1070
     0
  0
DICTIONARYVAR
  5
106AC2D
102
{ACAD_REACTORS
330
106AC21
102
}
330
106AC21
100
DictionaryVariables
280
     0
  1
1:1
  0
DICTIONARYVAR
  5
106AC23
102
{ACAD_REACTORS
330
106AC21
102
}
330
106AC21
100
DictionaryVariables
280
     0
  1
Standard
  0
DICTIONARYVAR
  5
106AC22
102
{ACAD_REACTORS
330
106AC21
102
}
330
106AC21
100
DictionaryVariables
280
     0
  1
Standard
  0
DICTIONARYVAR
  5
106AC26
102
{ACAD_REACTORS
330
106AC21
102
}
330
106AC21
100
DictionaryVariables
280
     0
  1
2
  0
DICTIONARYVAR
  5
106AC27
102
{ACAD_REACTORS
330
106AC21
102
}
330
106AC21
100
DictionaryVariables
280
     0
  1
1
  0
DICTIONARYVAR
  5
106AC2E
102
{ACAD_REACTORS
330
106AC21
102
}
330
106AC21
100
DictionaryVariables
280
     0
  1
1
  0
DICTIONARY
  5
106AC31
330
106ABBE
100
AcDbDictionary
280
     1
281
     1
  3
ACAD_XREC_ROUNDTRIP
360
106AC32
  0
DICTIONARY
  5
106AC2F
330
106ABBD
100
AcDbDictionary
280
     1
281
     1
  3
ACAD_XREC_ROUNDTRIP
360
106AC30
  0
DICTIONARY
  5
106AC33
330
106ABBF
100
AcDbDictionary
280
     1
281
     1
  3
ACAD_XREC_ROUNDTRIP
360
106AC34
  0
DICTIONARY
  5
106AC66
330
106ABDC
100
AcDbDictionary
280
     1
281
     1
  3
ACAD_XREC_ROUNDTRIP
360
106AC67
  0
DICTIONARY
  5
106AC3D
330
106ABC5
100
AcDbDictionary
280
     1
281
     1
  3
ACAD_XREC_ROUNDTRIP
360
106AC3E
  0
DICTIONARY
  5
106AC43
330
106ABC8
100
AcDbDictionary
280
     1
281
     1
  3
ACAD_XREC_ROUNDTRIP
360
106AC44
  0
DICTIONARY
  5
106AC4B
330
106ABCC
100
AcDbDictionary
280
     1
281
     1
  3
ACAD_XREC_ROUNDTRIP
360
106AC4C
  0
DICTIONARY
  5
106AC53
330
106ABD0
100
AcDbDictionary
280
     1
281
     1
  3
ACAD_XREC_ROUNDTRIP
360
106AC54
  0
DICTIONARY
  5
106AC47
330
106ABCA
100
AcDbDictionary
280
     1
281
     1
  3
ACAD_XREC_ROUNDTRIP
360
106AC48
  0
DICTIONARY
  5
106AC49
330
106ABCB
100
AcDbDictionary
280
     1
281
     1
  3
ACAD_XREC_ROUNDTRIP
360
106AC4A
  0
DICTIONARY
  5
106AC59
330
106ABD3
100
AcDbDictionary
280
     1
281
     1
  3
ACAD_XREC_ROUNDTRIP
360
106AC5A
  0
DICTIONARY
  5
106AC51
330
106ABCF
100
AcDbDictionary
280
     1
281
     1
  3
ACAD_XREC_ROUNDTRIP
360
106AC52
  0
DICTIONARY
  5
106AC35
330
106ABC1
100
AcDbDictionary
280
     1
281
     1
  3
ACAD_XREC_ROUNDTRIP
360
106AC36
  0
DICTIONARY
  5
106AC37
330
106ABC2
100
AcDbDictionary
280
     1
281
     1
  3
ACAD_XREC_ROUNDTRIP
360
106AC38
  0
DICTIONARY
  5
106AC39
330
106ABC3
100
AcDbDictionary
280
     1
281
     1
  3
ACAD_XREC_ROUNDTRIP
360
106AC3A
  0
DICTIONARY
  5
106AC3B
330
106ABC4
100
AcDbDictionary
280
     1
281
     1
  3
ACAD_XREC_ROUNDTRIP
360
106AC3C
  0
DICTIONARY
  5
106AC41
330
106ABC7
100
AcDbDictionary
280
     1
281
     1
  3
ACAD_XREC_ROUNDTRIP
360
106AC42
  0
DICTIONARY
  5
106AC55
330
106ABD1
100
AcDbDictionary
280
     1
281
     1
  3
ACAD_XREC_ROUNDTRIP
360
106AC56
  0
DICTIONARY
  5
106AC4F
330
106ABCE
100
AcDbDictionary
280
     1
281
     1
  3
ACAD_XREC_ROUNDTRIP
360
106AC50
  0
DICTIONARY
  5
106AC57
330
106ABD2
100
AcDbDictionary
280
     1
281
     1
  3
ACAD_XREC_ROUNDTRIP
360
106AC58
  0
DICTIONARY
  5
106AC45
330
106ABC9
100
AcDbDictionary
280
     1
281
     1
  3
ACAD_XREC_ROUNDTRIP
360
106AC46
  0
DICTIONARY
  5
106AC63
330
106ABD8
100
AcDbDictionary
280
     1
281
     1
  3
ACAD_XREC_ROUNDTRIP
360
106AC64
  0
DICTIONARY
  5
106AC61
330
106ABD7
100
AcDbDictionary
280
     1
281
     1
  3
ACAD_XREC_ROUNDTRIP
360
106AC62
  0
DICTIONARY
  5
106AC5B
330
106ABD4
100
AcDbDictionary
280
     1
281
     1
  3
ACAD_XREC_ROUNDTRIP
360
106AC5C
  0
DICTIONARY
  5
106AC5D
330
106ABD5
100
AcDbDictionary
280
     1
281
     1
  3
ACAD_XREC_ROUNDTRIP
360
106AC5E
  0
DICTIONARY
  5
106AC4D
330
106ABCD
100
AcDbDictionary
280
     1
281
     1
  3
ACAD_XREC_ROUNDTRIP
360
106AC4E
  0
DICTIONARY
  5
106AC3F
330
106ABC6
100
AcDbDictionary
280
     1
281
     1
  3
ACAD_XREC_ROUNDTRIP
360
106AC40
  0
DICTIONARY
  5
106AC5F
330
106ABD6
100
AcDbDictionary
280
     1
281
     1
  3
ACAD_XREC_ROUNDTRIP
360
106AC60
  0
XRECORD
  5
106AC32
102
{ACAD_REACTORS
330
106AC31
102
}
330
106AC31
100
AcDbXrecord
280
     1
102
MATERIAL
148
0.0
149
0.0
149
0.0
 93
        0
 94
      127
282
     0
 72
     1
 77
     1
171
     1
175
     1
179
     1
273
     0
  0
XRECORD
  5
106AC30
102
{ACAD_REACTORS
330
106AC2F
102
}
330
106AC2F
100
AcDbXrecord
280
     1
102
MATERIAL
148
0.0
149
0.0
149
0.0
 93
        0
 94
      127
282
     0
 72
     1
 77
     1
171
     1
175
     1
179
     1
273
     0
  0
XRECORD
  5
106AC34
102
{ACAD_REACTORS
330
106AC33
102
}
330
106AC33
100
AcDbXrecord
280
     1
102
MATERIAL
148
0.0
149
0.0
149
0.0
 93
        0
 94
      127
282
     0
 72
     1
 77
     1
171
     1
175
     1
179
     1
273
     0
  0
XRECORD
  5
106AC67
102
{ACAD_REACTORS
330
106AC66
102
}
330
106AC66
100
AcDbXrecord
280
     1
102
ACAD_ROUNDTRIP_2010_MLEADER_STYLE
  0
XRECORD
  5
106AC3E
102
{ACAD_REACTORS
330
106AC3D
102
}
330
106AC3D
100
AcDbXrecord
280
     1
102
RTVSPropertyOp0
 70
     1
102
RTVSPropertyOp1
 70
     1
102
RTVSPropertyOp2
 70
     1
102
RTVSPropertyOp3
 70
     1
102
RTVSPropertyOp4
 70
     1
102
RTVSPropertyOp5
 70
     1
102
RTVSPropertyOp6
 70
     1
102
RTVSPropertyOp7
 70
     1
102
RTVSPropertyOp8
 70
     1
102
RTVSPropertyOp9
 70
     1
102
RTVSPropertyOp10
 70
     1
102
RTVSPropertyOp11
 70
     1
102
RTVSPropertyOp12
 70
     1
102
RTVSPropertyOp13
 70
     1
102
RTVSPropertyOp14
 70
     1
102
RTVSPropertyOp15
 70
     1
102
RTVSPropertyOp16
 70
     1
102
RTVSPropertyOp17
 70
     1
102
RTVSPropertyOp18
 70
     1
102
RTVSPropertyOp19
 70
     1
102
RTVSPropertyOp20
 70
     1
102
RTVSPropertyOp21
 70
     1
102
RTVSPropertyOp22
 70
     1
102
RTVSPropertyOp23
 70
     1
102
RTVSPropertyOp24
 70
     1
102
RTVSPropertyOp25
 70
     1
102
RTVSPropertyOp26
 70
     1
102
RTVSPropertyOp27
 70
     1
102
RTVSPropertyOp28
 70
     1
102
RTVSPropertyOp29
 70
     1
102
RTVSPropertyOp30
 70
     1
102
RTVSPropertyOp31
 70
     1
102
RTVSPropertyOp32
 70
     1
102
RTVSPropertyOp33
 70
     1
102
RTVSPropertyOp34
 70
     1
102
RTVSPropertyOp35
 70
     1
102
RTVSPropertyOp36
 70
     1
102
RTVSPropertyOp37
 70
     1
102
RTVSPropertyOp38
 70
     1
102
RTVSPropertyOp39
 70
     1
102
RTVSPropertyOp40
 70
     1
102
RTVSPropertyOp41
 70
     1
102
RTVSPropertyOp42
 70
     1
102
RTVSPropertyOp43
 70
     1
102
RTVSPropertyOp44
 70
     1
102
RTVSPropertyOp45
 70
     1
102
RTVSPropertyOp46
 70
     1
102
RTVSPropertyOp47
 70
     1
102
RTVSPropertyOp48
 70
     1
102
RTVSPropertyOp49
 70
     1
102
RTVSPropertyOp50
 70
     1
102
RTVSPropertyOp51
 70
     0
102
RTVSPropertyOp52
 70
     0
102
RTVSPropertyOp53
 70
     1
102
RTVSPropertyOp54
 70
     1
102
RTVSPropertyOp55
 70
     1
102
RTVSPropertyOp56
 70
     1
102
RTVSPropertyOp57
 70
     1
102
RTVSPost2010Prop28
280
     1
102
RTVSPost2010PropOp28
 70
     1
102
RTVSPost2010Prop29
280
     1
102
RTVSPost2010PropOp29
 70
     1
102
RTVSPost2010Prop30
280
     0
102
RTVSPost2010PropOp30
 70
     1
102
RTVSPost2010Prop31
280
     0
102
RTVSPost2010PropOp31
 70
     1
102
RTVSPost2010Prop32
280
     0
102
RTVSPost2010PropOp32
 70
     1
102
RTVSPost2010Prop33
280
     0
102
RTVSPost2010PropOp33
 70
     1
102
RTVSPost2010Prop34
280
     0
102
RTVSPost2010PropOp34
 70
     1
102
RTVSPost2010Prop35
280
     0
102
RTVSPost2010PropOp35
 70
     1
102
RTVSPost2010Prop36
280
     0
102
RTVSPost2010PropOp36
 70
     1
102
RTVSPost2010Prop37
 90
       50
102
RTVSPost2010PropOp37
 70
     1
102
RTVSPost2010Prop38
140
0.0
102
RTVSPost2010PropOp38
 70
     1
102
RTVSPost2010Prop39
140
1.0
102
RTVSPost2010PropOp39
 70
     1
102
RTVSPost2010Prop40
 90
        0
102
RTVSPost2010PropOp40
 70
     1
102
RTVSPost2010Prop41ColorIndex
 90
       18
102
RTVSPost2010Prop41ColorRGB
 90
        0
102
RTVSPost2010PropOp41
 70
     1
102
RTVSPost2010Prop42
 90
       50
102
RTVSPost2010PropOp42
 70
     1
102
RTVSPost2010Prop43
 90
        3
102
RTVSPost2010PropOp43
 70
     1
102
RTVSPost2010Prop44ColorIndex
 90
        5
102
RTVSPost2010Prop44ColorRGB
 90
      255
102
RTVSPost2010PropOp44
 70
     1
102
RTVSPost2010Prop45
280
     0
102
RTVSPost2010PropOp45
 70
     1
102
RTVSPost2010Prop46
 90
       50
102
RTVSPost2010PropOp46
 70
     1
102
RTVSPost2010Prop47
 90
       50
102
RTVSPost2010PropOp47
 70
     1
102
RTVSPost2010Prop48
 90
       50
102
RTVSPost2010PropOp48
 70
     1
102
RTVSPost2010Prop49
280
     0
102
RTVSPost2010PropOp49
 70
     1
102
RTVSPost2010Prop50
 90
       50
102
RTVSPost2010PropOp50
 70
     1
102
RTVSPost2010Prop51ColorIndex
 90
      256
102
RTVSPost2010Prop51ColorRGB
 90
-16777216
102
RTVSPost2010PropOp51
 70
     0
102
RTVSPost2010Prop52
140
1.0
102
RTVSPost2010PropOp52
 70
     0
102
RTVSPost2010Prop53
 90
        2
102
RTVSPost2010PropOp53
 70
     1
102
RTVSPost2010Prop54
  1
strokes_ogs.tif
102
RTVSPost2010PropOp54
 70
     1
102
RTVSPost2010Prop55
280
     0
102
RTVSPost2010PropOp55
 70
     1
102
RTVSPost2010Prop56
140
1.0
102
RTVSPost2010PropOp56
 70
     1
102
RTVSPost2010Prop57
140
1.0
102
RTVSPost2010PropOp57
 70
     1
  0
XRECORD
  5
106AC44
102
{ACAD_REACTORS
330
106AC43
102
}
330
106AC43
100
AcDbXrecord
280
     1
102
RTVSPropertyOp0
 70
     1
102
RTVSPropertyOp1
 70
     1
102
RTVSPropertyOp2
 70
     1
102
RTVSPropertyOp3
 70
     1
102
RTVSPropertyOp4
 70
     1
102
RTVSPropertyOp5
 70
     1
102
RTVSPropertyOp6
 70
     1
102
RTVSPropertyOp7
 70
     1
102
RTVSPropertyOp8
 70
     1
102
RTVSPropertyOp9
 70
     1
102
RTVSPropertyOp10
 70
     1
102
RTVSPropertyOp11
 70
     1
102
RTVSPropertyOp12
 70
     1
102
RTVSPropertyOp13
 70
     1
102
RTVSPropertyOp14
 70
     1
102
RTVSPropertyOp15
 70
     1
102
RTVSPropertyOp16
 70
     1
102
RTVSPropertyOp17
 70
     1
102
RTVSPropertyOp18
 70
     1
102
RTVSPropertyOp19
 70
     1
102
RTVSPropertyOp20
 70
     1
102
RTVSPropertyOp21
 70
     1
102
RTVSPropertyOp22
 70
     1
102
RTVSPropertyOp23
 70
     1
102
RTVSPropertyOp24
 70
     1
102
RTVSPropertyOp25
 70
     1
102
RTVSPropertyOp26
 70
     1
102
RTVSPropertyOp27
 70
     1
102
RTVSPropertyOp28
 70
     1
102
RTVSPropertyOp29
 70
     1
102
RTVSPropertyOp30
 70
     1
102
RTVSPropertyOp31
 70
     1
102
RTVSPropertyOp32
 70
     1
102
RTVSPropertyOp33
 70
     1
102
RTVSPropertyOp34
 70
     1
102
RTVSPropertyOp35
 70
     1
102
RTVSPropertyOp36
 70
     1
102
RTVSPropertyOp37
 70
     1
102
RTVSPropertyOp38
 70
     1
102
RTVSPropertyOp39
 70
     1
102
RTVSPropertyOp40
 70
     1
102
RTVSPropertyOp41
 70
     1
102
RTVSPropertyOp42
 70
     1
102
RTVSPropertyOp43
 70
     1
102
RTVSPropertyOp44
 70
     1
102
RTVSPropertyOp45
 70
     1
102
RTVSPropertyOp46
 70
     1
102
RTVSPropertyOp47
 70
     1
102
RTVSPropertyOp48
 70
     1
102
RTVSPropertyOp49
 70
     1
102
RTVSPropertyOp50
 70
     1
102
RTVSPropertyOp51
 70
     0
102
RTVSPropertyOp52
 70
     0
102
RTVSPropertyOp53
 70
     1
102
RTVSPropertyOp54
 70
     1
102
RTVSPropertyOp55
 70
     1
102
RTVSPropertyOp56
 70
     1
102
RTVSPropertyOp57
 70
     1
102
RTVSPost2010Prop28
280
     0
102
RTVSPost2010PropOp28
 70
     1
102
RTVSPost2010Prop29
280
     1
102
RTVSPost2010PropOp29
 70
     1
102
RTVSPost2010Prop30
280
     1
102
RTVSPost2010PropOp30
 70
     1
102
RTVSPost2010Prop31
280
     0
102
RTVSPost2010PropOp31
 70
     1
102
RTVSPost2010Prop32
280
     0
102
RTVSPost2010PropOp32
 70
     1
102
RTVSPost2010Prop33
280
     0
102
RTVSPost2010PropOp33
 70
     1
102
RTVSPost2010Prop34
280
     0
102
RTVSPost2010PropOp34
 70
     1
102
RTVSPost2010Prop35
280
     0
102
RTVSPost2010PropOp35
 70
     1
102
RTVSPost2010Prop36
280
     0
102
RTVSPost2010PropOp36
 70
     1
102
RTVSPost2010Prop37
 90
       50
102
RTVSPost2010PropOp37
 70
     1
102
RTVSPost2010Prop38
140
0.0
102
RTVSPost2010PropOp38
 70
     1
102
RTVSPost2010Prop39
140
1.0
102
RTVSPost2010PropOp39
 70
     1
102
RTVSPost2010Prop40
 90
        0
102
RTVSPost2010PropOp40
 70
     1
102
RTVSPost2010Prop41ColorIndex
 90
       18
102
RTVSPost2010Prop41ColorRGB
 90
        0
102
RTVSPost2010PropOp41
 70
     1
102
RTVSPost2010Prop42
 90
       50
102
RTVSPost2010PropOp42
 70
     1
102
RTVSPost2010Prop43
 90
        3
102
RTVSPost2010PropOp43
 70
     1
102
RTVSPost2010Prop44ColorIndex
 90
        5
102
RTVSPost2010Prop44ColorRGB
 90
      255
102
RTVSPost2010PropOp44
 70
     1
102
RTVSPost2010Prop45
280
     0
102
RTVSPost2010PropOp45
 70
     1
102
RTVSPost2010Prop46
 90
       50
102
RTVSPost2010PropOp46
 70
     1
102
RTVSPost2010Prop47
 90
       50
102
RTVSPost2010PropOp47
 70
     1
102
RTVSPost2010Prop48
 90
       50
102
RTVSPost2010PropOp48
 70
     1
102
RTVSPost2010Prop49
280
     0
102
RTVSPost2010PropOp49
 70
     1
102
RTVSPost2010Prop50
 90
       50
102
RTVSPost2010PropOp50
 70
     1
102
RTVSPost2010Prop51ColorIndex
 90
      256
102
RTVSPost2010Prop51ColorRGB
 90
-16777216
102
RTVSPost2010PropOp51
 70
     0
102
RTVSPost2010Prop52
140
1.0
102
RTVSPost2010PropOp52
 70
     0
102
RTVSPost2010Prop53
 90
        2
102
RTVSPost2010PropOp53
 70
     1
102
RTVSPost2010Prop54
  1
strokes_ogs.tif
102
RTVSPost2010PropOp54
 70
     1
102
RTVSPost2010Prop55
280
     0
102
RTVSPost2010PropOp55
 70
     1
102
RTVSPost2010Prop56
140
1.0
102
RTVSPost2010PropOp56
 70
     1
102
RTVSPost2010Prop57
140
1.0
102
RTVSPost2010PropOp57
 70
     1
  0
XRECORD
  5
106AC4C
102
{ACAD_REACTORS
330
106AC4B
102
}
330
106AC4B
100
AcDbXrecord
280
     1
102
RTVSPropertyOp0
 70
     1
102
RTVSPropertyOp1
 70
     1
102
RTVSPropertyOp2
 70
     1
102
RTVSPropertyOp3
 70
     1
102
RTVSPropertyOp4
 70
     1
102
RTVSPropertyOp5
 70
     1
102
RTVSPropertyOp6
 70
     1
102
RTVSPropertyOp7
 70
     1
102
RTVSPropertyOp8
 70
     1
102
RTVSPropertyOp9
 70
     1
102
RTVSPropertyOp10
 70
     1
102
RTVSPropertyOp11
 70
     1
102
RTVSPropertyOp12
 70
     1
102
RTVSPropertyOp13
 70
     1
102
RTVSPropertyOp14
 70
     1
102
RTVSPropertyOp15
 70
     1
102
RTVSPropertyOp16
 70
     1
102
RTVSPropertyOp17
 70
     1
102
RTVSPropertyOp18
 70
     1
102
RTVSPropertyOp19
 70
     1
102
RTVSPropertyOp20
 70
     1
102
RTVSPropertyOp21
 70
     1
102
RTVSPropertyOp22
 70
     1
102
RTVSPropertyOp23
 70
     1
102
RTVSPropertyOp24
 70
     1
102
RTVSPropertyOp25
 70
     1
102
RTVSPropertyOp26
 70
     1
102
RTVSPropertyOp27
 70
     1
102
RTVSPropertyOp28
 70
     1
102
RTVSPropertyOp29
 70
     1
102
RTVSPropertyOp30
 70
     1
102
RTVSPropertyOp31
 70
     1
102
RTVSPropertyOp32
 70
     1
102
RTVSPropertyOp33
 70
     1
102
RTVSPropertyOp34
 70
     1
102
RTVSPropertyOp35
 70
     1
102
RTVSPropertyOp36
 70
     1
102
RTVSPropertyOp37
 70
     1
102
RTVSPropertyOp38
 70
     1
102
RTVSPropertyOp39
 70
     1
102
RTVSPropertyOp40
 70
     1
102
RTVSPropertyOp41
 70
     1
102
RTVSPropertyOp42
 70
     1
102
RTVSPropertyOp43
 70
     1
102
RTVSPropertyOp44
 70
     1
102
RTVSPropertyOp45
 70
     1
102
RTVSPropertyOp46
 70
     1
102
RTVSPropertyOp47
 70
     1
102
RTVSPropertyOp48
 70
     1
102
RTVSPropertyOp49
 70
     1
102
RTVSPropertyOp50
 70
     1
102
RTVSPropertyOp51
 70
     0
102
RTVSPropertyOp52
 70
     0
102
RTVSPropertyOp53
 70
     1
102
RTVSPropertyOp54
 70
     1
102
RTVSPropertyOp55
 70
     1
102
RTVSPropertyOp56
 70
     1
102
RTVSPropertyOp57
 70
     1
102
RTVSPost2010Prop28
280
     0
102
RTVSPost2010PropOp28
 70
     1
102
RTVSPost2010Prop29
280
     1
102
RTVSPost2010PropOp29
 70
     1
102
RTVSPost2010Prop30
280
     1
102
RTVSPost2010PropOp30
 70
     1
102
RTVSPost2010Prop31
280
     0
102
RTVSPost2010PropOp31
 70
     1
102
RTVSPost2010Prop32
280
     0
102
RTVSPost2010PropOp32
 70
     1
102
RTVSPost2010Prop33
280
     0
102
RTVSPost2010PropOp33
 70
     1
102
RTVSPost2010Prop34
280
     0
102
RTVSPost2010PropOp34
 70
     1
102
RTVSPost2010Prop35
280
     0
102
RTVSPost2010PropOp35
 70
     1
102
RTVSPost2010Prop36
280
     0
102
RTVSPost2010PropOp36
 70
     1
102
RTVSPost2010Prop37
 90
       50
102
RTVSPost2010PropOp37
 70
     1
102
RTVSPost2010Prop38
140
0.0
102
RTVSPost2010PropOp38
 70
     1
102
RTVSPost2010Prop39
140
1.0
102
RTVSPost2010PropOp39
 70
     1
102
RTVSPost2010Prop40
 90
        0
102
RTVSPost2010PropOp40
 70
     1
102
RTVSPost2010Prop41ColorIndex
 90
       18
102
RTVSPost2010Prop41ColorRGB
 90
        0
102
RTVSPost2010PropOp41
 70
     1
102
RTVSPost2010Prop42
 90
       50
102
RTVSPost2010PropOp42
 70
     1
102
RTVSPost2010Prop43
 90
        3
102
RTVSPost2010PropOp43
 70
     1
102
RTVSPost2010Prop44ColorIndex
 90
        5
102
RTVSPost2010Prop44ColorRGB
 90
      255
102
RTVSPost2010PropOp44
 70
     1
102
RTVSPost2010Prop45
280
     0
102
RTVSPost2010PropOp45
 70
     1
102
RTVSPost2010Prop46
 90
       50
102
RTVSPost2010PropOp46
 70
     1
102
RTVSPost2010Prop47
 90
       50
102
RTVSPost2010PropOp47
 70
     1
102
RTVSPost2010Prop48
 90
       50
102
RTVSPost2010PropOp48
 70
     1
102
RTVSPost2010Prop49
280
     0
102
RTVSPost2010PropOp49
 70
     1
102
RTVSPost2010Prop50
 90
       50
102
RTVSPost2010PropOp50
 70
     1
102
RTVSPost2010Prop51ColorIndex
 90
      256
102
RTVSPost2010Prop51ColorRGB
 90
-16777216
102
RTVSPost2010PropOp51
 70
     0
102
RTVSPost2010Prop52
140
1.0
102
RTVSPost2010PropOp52
 70
     0
102
RTVSPost2010Prop53
 90
        2
102
RTVSPost2010PropOp53
 70
     1
102
RTVSPost2010Prop54
  1
strokes_ogs.tif
102
RTVSPost2010PropOp54
 70
     1
102
RTVSPost2010Prop55
280
     0
102
RTVSPost2010PropOp55
 70
     1
102
RTVSPost2010Prop56
140
1.0
102
RTVSPost2010PropOp56
 70
     1
102
RTVSPost2010Prop57
140
1.0
102
RTVSPost2010PropOp57
 70
     1
  0
XRECORD
  5
106AC54
102
{ACAD_REACTORS
330
106AC53
102
}
330
106AC53
100
AcDbXrecord
280
     1
102
RTVSPropertyOp0
 70
     1
102
RTVSPropertyOp1
 70
     1
102
RTVSPropertyOp2
 70
     1
102
RTVSPropertyOp3
 70
     1
102
RTVSPropertyOp4
 70
     1
102
RTVSPropertyOp5
 70
     1
102
RTVSPropertyOp6
 70
     1
102
RTVSPropertyOp7
 70
     1
102
RTVSPropertyOp8
 70
     1
102
RTVSPropertyOp9
 70
     1
102
RTVSPropertyOp10
 70
     1
102
RTVSPropertyOp11
 70
     1
102
RTVSPropertyOp12
 70
     1
102
RTVSPropertyOp13
 70
     1
102
RTVSPropertyOp14
 70
     1
102
RTVSPropertyOp15
 70
     1
102
RTVSPropertyOp16
 70
     1
102
RTVSPropertyOp17
 70
     1
102
RTVSPropertyOp18
 70
     1
102
RTVSPropertyOp19
 70
     1
102
RTVSPropertyOp20
 70
     1
102
RTVSPropertyOp21
 70
     1
102
RTVSPropertyOp22
 70
     1
102
RTVSPropertyOp23
 70
     1
102
RTVSPropertyOp24
 70
     1
102
RTVSPropertyOp25
 70
     1
102
RTVSPropertyOp26
 70
     1
102
RTVSPropertyOp27
 70
     1
102
RTVSPropertyOp28
 70
     1
102
RTVSPropertyOp29
 70
     1
102
RTVSPropertyOp30
 70
     1
102
RTVSPropertyOp31
 70
     1
102
RTVSPropertyOp32
 70
     1
102
RTVSPropertyOp33
 70
     1
102
RTVSPropertyOp34
 70
     1
102
RTVSPropertyOp35
 70
     1
102
RTVSPropertyOp36
 70
     1
102
RTVSPropertyOp37
 70
     1
102
RTVSPropertyOp38
 70
     1
102
RTVSPropertyOp39
 70
     1
102
RTVSPropertyOp40
 70
     1
102
RTVSPropertyOp41
 70
     1
102
RTVSPropertyOp42
 70
     1
102
RTVSPropertyOp43
 70
     1
102
RTVSPropertyOp44
 70
     1
102
RTVSPropertyOp45
 70
     1
102
RTVSPropertyOp46
 70
     1
102
RTVSPropertyOp47
 70
     1
102
RTVSPropertyOp48
 70
     1
102
RTVSPropertyOp49
 70
     1
102
RTVSPropertyOp50
 70
     1
102
RTVSPropertyOp51
 70
     0
102
RTVSPropertyOp52
 70
     0
102
RTVSPropertyOp53
 70
     1
102
RTVSPropertyOp54
 70
     1
102
RTVSPropertyOp55
 70
     1
102
RTVSPropertyOp56
 70
     1
102
RTVSPropertyOp57
 70
     1
102
RTVSPost2010Prop28
280
     0
102
RTVSPost2010PropOp28
 70
     1
102
RTVSPost2010Prop29
280
     1
102
RTVSPost2010PropOp29
 70
     1
102
RTVSPost2010Prop30
280
     1
102
RTVSPost2010PropOp30
 70
     1
102
RTVSPost2010Prop31
280
     0
102
RTVSPost2010PropOp31
 70
     1
102
RTVSPost2010Prop32
280
     0
102
RTVSPost2010PropOp32
 70
     1
102
RTVSPost2010Prop33
280
     0
102
RTVSPost2010PropOp33
 70
     1
102
RTVSPost2010Prop34
280
     0
102
RTVSPost2010PropOp34
 70
     1
102
RTVSPost2010Prop35
280
     0
102
RTVSPost2010PropOp35
 70
     1
102
RTVSPost2010Prop36
280
     0
102
RTVSPost2010PropOp36
 70
     1
102
RTVSPost2010Prop37
 90
       50
102
RTVSPost2010PropOp37
 70
     1
102
RTVSPost2010Prop38
140
0.0
102
RTVSPost2010PropOp38
 70
     1
102
RTVSPost2010Prop39
140
1.0
102
RTVSPost2010PropOp39
 70
     1
102
RTVSPost2010Prop40
 90
        0
102
RTVSPost2010PropOp40
 70
     1
102
RTVSPost2010Prop41ColorIndex
 90
       18
102
RTVSPost2010Prop41ColorRGB
 90
        0
102
RTVSPost2010PropOp41
 70
     1
102
RTVSPost2010Prop42
 90
       50
102
RTVSPost2010PropOp42
 70
     1
102
RTVSPost2010Prop43
 90
        3
102
RTVSPost2010PropOp43
 70
     1
102
RTVSPost2010Prop44ColorIndex
 90
        5
102
RTVSPost2010Prop44ColorRGB
 90
      255
102
RTVSPost2010PropOp44
 70
     1
102
RTVSPost2010Prop45
280
     0
102
RTVSPost2010PropOp45
 70
     1
102
RTVSPost2010Prop46
 90
       50
102
RTVSPost2010PropOp46
 70
     1
102
RTVSPost2010Prop47
 90
       50
102
RTVSPost2010PropOp47
 70
     1
102
RTVSPost2010Prop48
 90
       50
102
RTVSPost2010PropOp48
 70
     1
102
RTVSPost2010Prop49
280
     0
102
RTVSPost2010PropOp49
 70
     1
102
RTVSPost2010Prop50
 90
       50
102
RTVSPost2010PropOp50
 70
     1
102
RTVSPost2010Prop51ColorIndex
 90
      256
102
RTVSPost2010Prop51ColorRGB
 90
-16777216
102
RTVSPost2010PropOp51
 70
     0
102
RTVSPost2010Prop52
140
1.0
102
RTVSPost2010PropOp52
 70
     0
102
RTVSPost2010Prop53
 90
        2
102
RTVSPost2010PropOp53
 70
     1
102
RTVSPost2010Prop54
  1
strokes_ogs.tif
102
RTVSPost2010PropOp54
 70
     1
102
RTVSPost2010Prop55
280
     0
102
RTVSPost2010PropOp55
 70
     1
102
RTVSPost2010Prop56
140
1.0
102
RTVSPost2010PropOp56
 70
     1
102
RTVSPost2010Prop57
140
1.0
102
RTVSPost2010PropOp57
 70
     1
  0
XRECORD
  5
106AC48
102
{ACAD_REACTORS
330
106AC47
102
}
330
106AC47
100
AcDbXrecord
280
     1
102
RTVSPropertyOp0
 70
     1
102
RTVSPropertyOp1
 70
     1
102
RTVSPropertyOp2
 70
     1
102
RTVSPropertyOp3
 70
     1
102
RTVSPropertyOp4
 70
     1
102
RTVSPropertyOp5
 70
     1
102
RTVSPropertyOp6
 70
     1
102
RTVSPropertyOp7
 70
     1
102
RTVSPropertyOp8
 70
     1
102
RTVSPropertyOp9
 70
     1
102
RTVSPropertyOp10
 70
     1
102
RTVSPropertyOp11
 70
     1
102
RTVSPropertyOp12
 70
     1
102
RTVSPropertyOp13
 70
     1
102
RTVSPropertyOp14
 70
     1
102
RTVSPropertyOp15
 70
     1
102
RTVSPropertyOp16
 70
     1
102
RTVSPropertyOp17
 70
     1
102
RTVSPropertyOp18
 70
     1
102
RTVSPropertyOp19
 70
     1
102
RTVSPropertyOp20
 70
     1
102
RTVSPropertyOp21
 70
     1
102
RTVSPropertyOp22
 70
     1
102
RTVSPropertyOp23
 70
     1
102
RTVSPropertyOp24
 70
     1
102
RTVSPropertyOp25
 70
     1
102
RTVSPropertyOp26
 70
     1
102
RTVSPropertyOp27
 70
     1
102
RTVSPropertyOp28
 70
     1
102
RTVSPropertyOp29
 70
     1
102
RTVSPropertyOp30
 70
     1
102
RTVSPropertyOp31
 70
     1
102
RTVSPropertyOp32
 70
     1
102
RTVSPropertyOp33
 70
     1
102
RTVSPropertyOp34
 70
     1
102
RTVSPropertyOp35
 70
     1
102
RTVSPropertyOp36
 70
     1
102
RTVSPropertyOp37
 70
     1
102
RTVSPropertyOp38
 70
     1
102
RTVSPropertyOp39
 70
     1
102
RTVSPropertyOp40
 70
     1
102
RTVSPropertyOp41
 70
     1
102
RTVSPropertyOp42
 70
     1
102
RTVSPropertyOp43
 70
     1
102
RTVSPropertyOp44
 70
     1
102
RTVSPropertyOp45
 70
     1
102
RTVSPropertyOp46
 70
     1
102
RTVSPropertyOp47
 70
     1
102
RTVSPropertyOp48
 70
     1
102
RTVSPropertyOp49
 70
     1
102
RTVSPropertyOp50
 70
     1
102
RTVSPropertyOp51
 70
     0
102
RTVSPropertyOp52
 70
     0
102
RTVSPropertyOp53
 70
     1
102
RTVSPropertyOp54
 70
     1
102
RTVSPropertyOp55
 70
     1
102
RTVSPropertyOp56
 70
     1
102
RTVSPropertyOp57
 70
     1
102
RTVSPost2010Prop28
280
     0
102
RTVSPost2010PropOp28
 70
     1
102
RTVSPost2010Prop29
280
     1
102
RTVSPost2010PropOp29
 70
     1
102
RTVSPost2010Prop30
280
     1
102
RTVSPost2010PropOp30
 70
     1
102
RTVSPost2010Prop31
280
     0
102
RTVSPost2010PropOp31
 70
     1
102
RTVSPost2010Prop32
280
     0
102
RTVSPost2010PropOp32
 70
     1
102
RTVSPost2010Prop33
280
     0
102
RTVSPost2010PropOp33
 70
     1
102
RTVSPost2010Prop34
280
     0
102
RTVSPost2010PropOp34
 70
     1
102
RTVSPost2010Prop35
280
     0
102
RTVSPost2010PropOp35
 70
     1
102
RTVSPost2010Prop36
280
     0
102
RTVSPost2010PropOp36
 70
     1
102
RTVSPost2010Prop37
 90
       50
102
RTVSPost2010PropOp37
 70
     1
102
RTVSPost2010Prop38
140
0.0
102
RTVSPost2010PropOp38
 70
     1
102
RTVSPost2010Prop39
140
1.0
102
RTVSPost2010PropOp39
 70
     1
102
RTVSPost2010Prop40
 90
        0
102
RTVSPost2010PropOp40
 70
     1
102
RTVSPost2010Prop41ColorIndex
 90
       18
102
RTVSPost2010Prop41ColorRGB
 90
        0
102
RTVSPost2010PropOp41
 70
     1
102
RTVSPost2010Prop42
 90
       50
102
RTVSPost2010PropOp42
 70
     1
102
RTVSPost2010Prop43
 90
        3
102
RTVSPost2010PropOp43
 70
     1
102
RTVSPost2010Prop44ColorIndex
 90
        5
102
RTVSPost2010Prop44ColorRGB
 90
      255
102
RTVSPost2010PropOp44
 70
     1
102
RTVSPost2010Prop45
280
     0
102
RTVSPost2010PropOp45
 70
     1
102
RTVSPost2010Prop46
 90
       50
102
RTVSPost2010PropOp46
 70
     1
102
RTVSPost2010Prop47
 90
       50
102
RTVSPost2010PropOp47
 70
     1
102
RTVSPost2010Prop48
 90
       50
102
RTVSPost2010PropOp48
 70
     1
102
RTVSPost2010Prop49
280
     0
102
RTVSPost2010PropOp49
 70
     1
102
RTVSPost2010Prop50
 90
       50
102
RTVSPost2010PropOp50
 70
     1
102
RTVSPost2010Prop51ColorIndex
 90
      256
102
RTVSPost2010Prop51ColorRGB
 90
-16777216
102
RTVSPost2010PropOp51
 70
     0
102
RTVSPost2010Prop52
140
1.0
102
RTVSPost2010PropOp52
 70
     0
102
RTVSPost2010Prop53
 90
        2
102
RTVSPost2010PropOp53
 70
     1
102
RTVSPost2010Prop54
  1
strokes_ogs.tif
102
RTVSPost2010PropOp54
 70
     1
102
RTVSPost2010Prop55
280
     0
102
RTVSPost2010PropOp55
 70
     1
102
RTVSPost2010Prop56
140
1.0
102
RTVSPost2010PropOp56
 70
     1
102
RTVSPost2010Prop57
140
1.0
102
RTVSPost2010PropOp57
 70
     1
  0
XRECORD
  5
106AC4A
102
{ACAD_REACTORS
330
106AC49
102
}
330
106AC49
100
AcDbXrecord
280
     1
102
RTVSPropertyOp0
 70
     1
102
RTVSPropertyOp1
 70
     1
102
RTVSPropertyOp2
 70
     1
102
RTVSPropertyOp3
 70
     1
102
RTVSPropertyOp4
 70
     1
102
RTVSPropertyOp5
 70
     1
102
RTVSPropertyOp6
 70
     1
102
RTVSPropertyOp7
 70
     1
102
RTVSPropertyOp8
 70
     1
102
RTVSPropertyOp9
 70
     1
102
RTVSPropertyOp10
 70
     1
102
RTVSPropertyOp11
 70
     1
102
RTVSPropertyOp12
 70
     1
102
RTVSPropertyOp13
 70
     1
102
RTVSPropertyOp14
 70
     1
102
RTVSPropertyOp15
 70
     1
102
RTVSPropertyOp16
 70
     1
102
RTVSPropertyOp17
 70
     1
102
RTVSPropertyOp18
 70
     1
102
RTVSPropertyOp19
 70
     1
102
RTVSPropertyOp20
 70
     1
102
RTVSPropertyOp21
 70
     1
102
RTVSPropertyOp22
 70
     1
102
RTVSPropertyOp23
 70
     1
102
RTVSPropertyOp24
 70
     1
102
RTVSPropertyOp25
 70
     1
102
RTVSPropertyOp26
 70
     1
102
RTVSPropertyOp27
 70
     1
102
RTVSPropertyOp28
 70
     1
102
RTVSPropertyOp29
 70
     1
102
RTVSPropertyOp30
 70
     1
102
RTVSPropertyOp31
 70
     1
102
RTVSPropertyOp32
 70
     1
102
RTVSPropertyOp33
 70
     1
102
RTVSPropertyOp34
 70
     1
102
RTVSPropertyOp35
 70
     1
102
RTVSPropertyOp36
 70
     1
102
RTVSPropertyOp37
 70
     1
102
RTVSPropertyOp38
 70
     1
102
RTVSPropertyOp39
 70
     1
102
RTVSPropertyOp40
 70
     1
102
RTVSPropertyOp41
 70
     1
102
RTVSPropertyOp42
 70
     1
102
RTVSPropertyOp43
 70
     1
102
RTVSPropertyOp44
 70
     1
102
RTVSPropertyOp45
 70
     1
102
RTVSPropertyOp46
 70
     1
102
RTVSPropertyOp47
 70
     1
102
RTVSPropertyOp48
 70
     1
102
RTVSPropertyOp49
 70
     1
102
RTVSPropertyOp50
 70
     1
102
RTVSPropertyOp51
 70
     0
102
RTVSPropertyOp52
 70
     0
102
RTVSPropertyOp53
 70
     1
102
RTVSPropertyOp54
 70
     1
102
RTVSPropertyOp55
 70
     1
102
RTVSPropertyOp56
 70
     1
102
RTVSPropertyOp57
 70
     1
102
RTVSPost2010Prop28
280
     0
102
RTVSPost2010PropOp28
 70
     1
102
RTVSPost2010Prop29
280
     1
102
RTVSPost2010PropOp29
 70
     1
102
RTVSPost2010Prop30
280
     1
102
RTVSPost2010PropOp30
 70
     1
102
RTVSPost2010Prop31
280
     0
102
RTVSPost2010PropOp31
 70
     1
102
RTVSPost2010Prop32
280
     0
102
RTVSPost2010PropOp32
 70
     1
102
RTVSPost2010Prop33
280
     0
102
RTVSPost2010PropOp33
 70
     1
102
RTVSPost2010Prop34
280
     0
102
RTVSPost2010PropOp34
 70
     1
102
RTVSPost2010Prop35
280
     0
102
RTVSPost2010PropOp35
 70
     1
102
RTVSPost2010Prop36
280
     0
102
RTVSPost2010PropOp36
 70
     1
102
RTVSPost2010Prop37
 90
       50
102
RTVSPost2010PropOp37
 70
     1
102
RTVSPost2010Prop38
140
0.0
102
RTVSPost2010PropOp38
 70
     1
102
RTVSPost2010Prop39
140
1.0
102
RTVSPost2010PropOp39
 70
     1
102
RTVSPost2010Prop40
 90
        0
102
RTVSPost2010PropOp40
 70
     1
102
RTVSPost2010Prop41ColorIndex
 90
       18
102
RTVSPost2010Prop41ColorRGB
 90
        0
102
RTVSPost2010PropOp41
 70
     1
102
RTVSPost2010Prop42
 90
       50
102
RTVSPost2010PropOp42
 70
     1
102
RTVSPost2010Prop43
 90
        3
102
RTVSPost2010PropOp43
 70
     1
102
RTVSPost2010Prop44ColorIndex
 90
        5
102
RTVSPost2010Prop44ColorRGB
 90
      255
102
RTVSPost2010PropOp44
 70
     1
102
RTVSPost2010Prop45
280
     0
102
RTVSPost2010PropOp45
 70
     1
102
RTVSPost2010Prop46
 90
       50
102
RTVSPost2010PropOp46
 70
     1
102
RTVSPost2010Prop47
 90
       50
102
RTVSPost2010PropOp47
 70
     1
102
RTVSPost2010Prop48
 90
       50
102
RTVSPost2010PropOp48
 70
     1
102
RTVSPost2010Prop49
280
     0
102
RTVSPost2010PropOp49
 70
     1
102
RTVSPost2010Prop50
 90
       50
102
RTVSPost2010PropOp50
 70
     1
102
RTVSPost2010Prop51ColorIndex
 90
      256
102
RTVSPost2010Prop51ColorRGB
 90
-16777216
102
RTVSPost2010PropOp51
 70
     0
102
RTVSPost2010Prop52
140
1.0
102
RTVSPost2010PropOp52
 70
     0
102
RTVSPost2010Prop53
 90
        2
102
RTVSPost2010PropOp53
 70
     1
102
RTVSPost2010Prop54
  1
strokes_ogs.tif
102
RTVSPost2010PropOp54
 70
     1
102
RTVSPost2010Prop55
280
     0
102
RTVSPost2010PropOp55
 70
     1
102
RTVSPost2010Prop56
140
1.0
102
RTVSPost2010PropOp56
 70
     1
102
RTVSPost2010Prop57
140
1.0
102
RTVSPost2010PropOp57
 70
     1
  0
XRECORD
  5
106AC5A
102
{ACAD_REACTORS
330
106AC59
102
}
330
106AC59
100
AcDbXrecord
280
     1
102
RTVSPropertyOp0
 70
     0
102
RTVSPropertyOp1
 70
     0
102
RTVSPropertyOp2
 70
     0
102
RTVSPropertyOp3
 70
     0
102
RTVSPropertyOp4
 70
     0
102
RTVSPropertyOp5
 70
     0
102
RTVSPropertyOp6
 70
     0
102
RTVSPropertyOp7
 70
     0
102
RTVSPropertyOp8
 70
     0
102
RTVSPropertyOp9
 70
     0
102
RTVSPropertyOp10
 70
     0
102
RTVSPropertyOp11
 70
     0
102
RTVSPropertyOp12
 70
     0
102
RTVSPropertyOp13
 70
     0
102
RTVSPropertyOp14
 70
     2
102
RTVSPropertyOp15
 70
     0
102
RTVSPropertyOp16
 70
     0
102
RTVSPropertyOp17
 70
     0
102
RTVSPropertyOp18
 70
     0
102
RTVSPropertyOp19
 70
     0
102
RTVSPropertyOp20
 70
     0
102
RTVSPropertyOp21
 70
     0
102
RTVSPropertyOp22
 70
     0
102
RTVSPropertyOp23
 70
     0
102
RTVSPropertyOp24
 70
     0
102
RTVSPropertyOp25
 70
     0
102
RTVSPropertyOp26
 70
     0
102
RTVSPropertyOp27
 70
     0
102
RTVSPropertyOp28
 70
     0
102
RTVSPropertyOp29
 70
     0
102
RTVSPropertyOp30
 70
     0
102
RTVSPropertyOp31
 70
     0
102
RTVSPropertyOp32
 70
     0
102
RTVSPropertyOp33
 70
     0
102
RTVSPropertyOp34
 70
     0
102
RTVSPropertyOp35
 70
     0
102
RTVSPropertyOp36
 70
     0
102
RTVSPropertyOp37
 70
     0
102
RTVSPropertyOp38
 70
     0
102
RTVSPropertyOp39
 70
     0
102
RTVSPropertyOp40
 70
     0
102
RTVSPropertyOp41
 70
     0
102
RTVSPropertyOp42
 70
     0
102
RTVSPropertyOp43
 70
     0
102
RTVSPropertyOp44
 70
     0
102
RTVSPropertyOp45
 70
     0
102
RTVSPropertyOp46
 70
     0
102
RTVSPropertyOp47
 70
     0
102
RTVSPropertyOp48
 70
     0
102
RTVSPropertyOp49
 70
     0
102
RTVSPropertyOp50
 70
     0
102
RTVSPropertyOp51
 70
     0
102
RTVSPropertyOp52
 70
     0
102
RTVSPropertyOp53
 70
     0
102
RTVSPropertyOp54
 70
     0
102
RTVSPropertyOp55
 70
     0
102
RTVSPropertyOp56
 70
     0
102
RTVSPropertyOp57
 70
     0
102
RTVSPost2010Prop28
280
     0
102
RTVSPost2010PropOp28
 70
     0
102
RTVSPost2010Prop29
280
     1
102
RTVSPost2010PropOp29
 70
     0
102
RTVSPost2010Prop30
280
     1
102
RTVSPost2010PropOp30
 70
     0
102
RTVSPost2010Prop31
280
     0
102
RTVSPost2010PropOp31
 70
     0
102
RTVSPost2010Prop32
280
     0
102
RTVSPost2010PropOp32
 70
     0
102
RTVSPost2010Prop33
280
     0
102
RTVSPost2010PropOp33
 70
     0
102
RTVSPost2010Prop34
280
     0
102
RTVSPost2010PropOp34
 70
     0
102
RTVSPost2010Prop35
280
     0
102
RTVSPost2010PropOp35
 70
     0
102
RTVSPost2010Prop36
280
     0
102
RTVSPost2010PropOp36
 70
     0
102
RTVSPost2010Prop37
 90
       50
102
RTVSPost2010PropOp37
 70
     0
102
RTVSPost2010Prop38
140
0.0
102
RTVSPost2010PropOp38
 70
     0
102
RTVSPost2010Prop39
140
1.0
102
RTVSPost2010PropOp39
 70
     0
102
RTVSPost2010Prop40
 90
        0
102
RTVSPost2010PropOp40
 70
     0
102
RTVSPost2010Prop41ColorIndex
 90
       18
102
RTVSPost2010Prop41ColorRGB
 90
        0
102
RTVSPost2010PropOp41
 70
     0
102
RTVSPost2010Prop42
 90
       50
102
RTVSPost2010PropOp42
 70
     0
102
RTVSPost2010Prop43
 90
        3
102
RTVSPost2010PropOp43
 70
     0
102
RTVSPost2010Prop44ColorIndex
 90
        5
102
RTVSPost2010Prop44ColorRGB
 90
      255
102
RTVSPost2010PropOp44
 70
     0
102
RTVSPost2010Prop45
280
     0
102
RTVSPost2010PropOp45
 70
     0
102
RTVSPost2010Prop46
 90
       50
102
RTVSPost2010PropOp46
 70
     0
102
RTVSPost2010Prop47
 90
       50
102
RTVSPost2010PropOp47
 70
     0
102
RTVSPost2010Prop48
 90
       50
102
RTVSPost2010PropOp48
 70
     0
102
RTVSPost2010Prop49
280
     0
102
RTVSPost2010PropOp49
 70
     0
102
RTVSPost2010Prop50
 90
       50
102
RTVSPost2010PropOp50
 70
     0
102
RTVSPost2010Prop51ColorIndex
 90
      256
102
RTVSPost2010Prop51ColorRGB
 90
-16777216
102
RTVSPost2010PropOp51
 70
     0
102
RTVSPost2010Prop52
140
1.0
102
RTVSPost2010PropOp52
 70
     0
102
RTVSPost2010Prop53
 90
        2
102
RTVSPost2010PropOp53
 70
     0
102
RTVSPost2010Prop54
  1
strokes_ogs.tif
102
RTVSPost2010PropOp54
 70
     0
102
RTVSPost2010Prop55
280
     0
102
RTVSPost2010PropOp55
 70
     0
102
RTVSPost2010Prop56
140
1.0
102
RTVSPost2010PropOp56
 70
     0
102
RTVSPost2010Prop57
140
1.0
102
RTVSPost2010PropOp57
 70
     0
  0
XRECORD
  5
106AC52
102
{ACAD_REACTORS
330
106AC51
102
}
330
106AC51
100
AcDbXrecord
280
     1
102
RTVSPropertyOp0
 70
     1
102
RTVSPropertyOp1
 70
     1
102
RTVSPropertyOp2
 70
     1
102
RTVSPropertyOp3
 70
     1
102
RTVSPropertyOp4
 70
     1
102
RTVSPropertyOp5
 70
     1
102
RTVSPropertyOp6
 70
     1
102
RTVSPropertyOp7
 70
     1
102
RTVSPropertyOp8
 70
     1
102
RTVSPropertyOp9
 70
     1
102
RTVSPropertyOp10
 70
     1
102
RTVSPropertyOp11
 70
     1
102
RTVSPropertyOp12
 70
     1
102
RTVSPropertyOp13
 70
     1
102
RTVSPropertyOp14
 70
     1
102
RTVSPropertyOp15
 70
     1
102
RTVSPropertyOp16
 70
     1
102
RTVSPropertyOp17
 70
     1
102
RTVSPropertyOp18
 70
     1
102
RTVSPropertyOp19
 70
     1
102
RTVSPropertyOp20
 70
     1
102
RTVSPropertyOp21
 70
     1
102
RTVSPropertyOp22
 70
     1
102
RTVSPropertyOp23
 70
     1
102
RTVSPropertyOp24
 70
     1
102
RTVSPropertyOp25
 70
     1
102
RTVSPropertyOp26
 70
     1
102
RTVSPropertyOp27
 70
     1
102
RTVSPropertyOp28
 70
     1
102
RTVSPropertyOp29
 70
     1
102
RTVSPropertyOp30
 70
     1
102
RTVSPropertyOp31
 70
     1
102
RTVSPropertyOp32
 70
     1
102
RTVSPropertyOp33
 70
     1
102
RTVSPropertyOp34
 70
     1
102
RTVSPropertyOp35
 70
     1
102
RTVSPropertyOp36
 70
     1
102
RTVSPropertyOp37
 70
     1
102
RTVSPropertyOp38
 70
     1
102
RTVSPropertyOp39
 70
     1
102
RTVSPropertyOp40
 70
     1
102
RTVSPropertyOp41
 70
     1
102
RTVSPropertyOp42
 70
     1
102
RTVSPropertyOp43
 70
     1
102
RTVSPropertyOp44
 70
     1
102
RTVSPropertyOp45
 70
     1
102
RTVSPropertyOp46
 70
     1
102
RTVSPropertyOp47
 70
     1
102
RTVSPropertyOp48
 70
     1
102
RTVSPropertyOp49
 70
     1
102
RTVSPropertyOp50
 70
     1
102
RTVSPropertyOp51
 70
     0
102
RTVSPropertyOp52
 70
     0
102
RTVSPropertyOp53
 70
     1
102
RTVSPropertyOp54
 70
     1
102
RTVSPropertyOp55
 70
     1
102
RTVSPropertyOp56
 70
     1
102
RTVSPropertyOp57
 70
     1
102
RTVSPost2010Prop28
280
     0
102
RTVSPost2010PropOp28
 70
     1
102
RTVSPost2010Prop29
280
     1
102
RTVSPost2010PropOp29
 70
     1
102
RTVSPost2010Prop30
280
     1
102
RTVSPost2010PropOp30
 70
     1
102
RTVSPost2010Prop31
280
     0
102
RTVSPost2010PropOp31
 70
     1
102
RTVSPost2010Prop32
280
     0
102
RTVSPost2010PropOp32
 70
     1
102
RTVSPost2010Prop33
280
     0
102
RTVSPost2010PropOp33
 70
     1
102
RTVSPost2010Prop34
280
     0
102
RTVSPost2010PropOp34
 70
     1
102
RTVSPost2010Prop35
280
     0
102
RTVSPost2010PropOp35
 70
     1
102
RTVSPost2010Prop36
280
     0
102
RTVSPost2010PropOp36
 70
     1
102
RTVSPost2010Prop37
 90
       50
102
RTVSPost2010PropOp37
 70
     1
102
RTVSPost2010Prop38
140
0.0
102
RTVSPost2010PropOp38
 70
     1
102
RTVSPost2010Prop39
140
1.0
102
RTVSPost2010PropOp39
 70
     1
102
RTVSPost2010Prop40
 90
        0
102
RTVSPost2010PropOp40
 70
     1
102
RTVSPost2010Prop41ColorIndex
 90
       18
102
RTVSPost2010Prop41ColorRGB
 90
        0
102
RTVSPost2010PropOp41
 70
     1
102
RTVSPost2010Prop42
 90
       50
102
RTVSPost2010PropOp42
 70
     1
102
RTVSPost2010Prop43
 90
        3
102
RTVSPost2010PropOp43
 70
     1
102
RTVSPost2010Prop44ColorIndex
 90
        5
102
RTVSPost2010Prop44ColorRGB
 90
      255
102
RTVSPost2010PropOp44
 70
     1
102
RTVSPost2010Prop45
280
     0
102
RTVSPost2010PropOp45
 70
     1
102
RTVSPost2010Prop46
 90
       50
102
RTVSPost2010PropOp46
 70
     1
102
RTVSPost2010Prop47
 90
       50
102
RTVSPost2010PropOp47
 70
     1
102
RTVSPost2010Prop48
 90
       50
102
RTVSPost2010PropOp48
 70
     1
102
RTVSPost2010Prop49
280
     0
102
RTVSPost2010PropOp49
 70
     1
102
RTVSPost2010Prop50
 90
       50
102
RTVSPost2010PropOp50
 70
     1
102
RTVSPost2010Prop51ColorIndex
 90
      256
102
RTVSPost2010Prop51ColorRGB
 90
-16777216
102
RTVSPost2010PropOp51
 70
     0
102
RTVSPost2010Prop52
140
1.0
102
RTVSPost2010PropOp52
 70
     0
102
RTVSPost2010Prop53
 90
        2
102
RTVSPost2010PropOp53
 70
     1
102
RTVSPost2010Prop54
  1
strokes_ogs.tif
102
RTVSPost2010PropOp54
 70
     1
102
RTVSPost2010Prop55
280
     0
102
RTVSPost2010PropOp55
 70
     1
102
RTVSPost2010Prop56
140
1.0
102
RTVSPost2010PropOp56
 70
     1
102
RTVSPost2010Prop57
140
1.0
102
RTVSPost2010PropOp57
 70
     1
  0
XRECORD
  5
106AC36
102
{ACAD_REACTORS
330
106AC35
102
}
330
106AC35
100
AcDbXrecord
280
     1
102
RTVSPropertyOp0
 70
     1
102
RTVSPropertyOp1
 70
     1
102
RTVSPropertyOp2
 70
     1
102
RTVSPropertyOp3
 70
     1
102
RTVSPropertyOp4
 70
     1
102
RTVSPropertyOp5
 70
     1
102
RTVSPropertyOp6
 70
     1
102
RTVSPropertyOp7
 70
     1
102
RTVSPropertyOp8
 70
     1
102
RTVSPropertyOp9
 70
     1
102
RTVSPropertyOp10
 70
     1
102
RTVSPropertyOp11
 70
     1
102
RTVSPropertyOp12
 70
     1
102
RTVSPropertyOp13
 70
     1
102
RTVSPropertyOp14
 70
     1
102
RTVSPropertyOp15
 70
     1
102
RTVSPropertyOp16
 70
     1
102
RTVSPropertyOp17
 70
     1
102
RTVSPropertyOp18
 70
     1
102
RTVSPropertyOp19
 70
     1
102
RTVSPropertyOp20
 70
     1
102
RTVSPropertyOp21
 70
     1
102
RTVSPropertyOp22
 70
     1
102
RTVSPropertyOp23
 70
     1
102
RTVSPropertyOp24
 70
     1
102
RTVSPropertyOp25
 70
     1
102
RTVSPropertyOp26
 70
     1
102
RTVSPropertyOp27
 70
     1
102
RTVSPropertyOp28
 70
     1
102
RTVSPropertyOp29
 70
     1
102
RTVSPropertyOp30
 70
     1
102
RTVSPropertyOp31
 70
     1
102
RTVSPropertyOp32
 70
     1
102
RTVSPropertyOp33
 70
     1
102
RTVSPropertyOp34
 70
     1
102
RTVSPropertyOp35
 70
     1
102
RTVSPropertyOp36
 70
     1
102
RTVSPropertyOp37
 70
     1
102
RTVSPropertyOp38
 70
     1
102
RTVSPropertyOp39
 70
     1
102
RTVSPropertyOp40
 70
     1
102
RTVSPropertyOp41
 70
     1
102
RTVSPropertyOp42
 70
     1
102
RTVSPropertyOp43
 70
     1
102
RTVSPropertyOp44
 70
     1
102
RTVSPropertyOp45
 70
     1
102
RTVSPropertyOp46
 70
     1
102
RTVSPropertyOp47
 70
     1
102
RTVSPropertyOp48
 70
     1
102
RTVSPropertyOp49
 70
     1
102
RTVSPropertyOp50
 70
     1
102
RTVSPropertyOp51
 70
     0
102
RTVSPropertyOp52
 70
     0
102
RTVSPropertyOp53
 70
     1
102
RTVSPropertyOp54
 70
     1
102
RTVSPropertyOp55
 70
     1
102
RTVSPropertyOp56
 70
     1
102
RTVSPropertyOp57
 70
     1
102
RTVSPost2010Prop28
280
     0
102
RTVSPost2010PropOp28
 70
     1
102
RTVSPost2010Prop29
280
     1
102
RTVSPost2010PropOp29
 70
     1
102
RTVSPost2010Prop30
280
     1
102
RTVSPost2010PropOp30
 70
     1
102
RTVSPost2010Prop31
280
     0
102
RTVSPost2010PropOp31
 70
     1
102
RTVSPost2010Prop32
280
     0
102
RTVSPost2010PropOp32
 70
     1
102
RTVSPost2010Prop33
280
     0
102
RTVSPost2010PropOp33
 70
     1
102
RTVSPost2010Prop34
280
     0
102
RTVSPost2010PropOp34
 70
     1
102
RTVSPost2010Prop35
280
     0
102
RTVSPost2010PropOp35
 70
     1
102
RTVSPost2010Prop36
280
     0
102
RTVSPost2010PropOp36
 70
     1
102
RTVSPost2010Prop37
 90
       50
102
RTVSPost2010PropOp37
 70
     1
102
RTVSPost2010Prop38
140
0.0
102
RTVSPost2010PropOp38
 70
     1
102
RTVSPost2010Prop39
140
1.0
102
RTVSPost2010PropOp39
 70
     1
102
RTVSPost2010Prop40
 90
        0
102
RTVSPost2010PropOp40
 70
     1
102
RTVSPost2010Prop41ColorIndex
 90
       18
102
RTVSPost2010Prop41ColorRGB
 90
        0
102
RTVSPost2010PropOp41
 70
     1
102
RTVSPost2010Prop42
 90
       50
102
RTVSPost2010PropOp42
 70
     1
102
RTVSPost2010Prop43
 90
        3
102
RTVSPost2010PropOp43
 70
     1
102
RTVSPost2010Prop44ColorIndex
 90
        5
102
RTVSPost2010Prop44ColorRGB
 90
      255
102
RTVSPost2010PropOp44
 70
     1
102
RTVSPost2010Prop45
280
     0
102
RTVSPost2010PropOp45
 70
     1
102
RTVSPost2010Prop46
 90
       50
102
RTVSPost2010PropOp46
 70
     1
102
RTVSPost2010Prop47
 90
       50
102
RTVSPost2010PropOp47
 70
     1
102
RTVSPost2010Prop48
 90
       50
102
RTVSPost2010PropOp48
 70
     1
102
RTVSPost2010Prop49
280
     0
102
RTVSPost2010PropOp49
 70
     1
102
RTVSPost2010Prop50
 90
       50
102
RTVSPost2010PropOp50
 70
     1
102
RTVSPost2010Prop51ColorIndex
 90
      256
102
RTVSPost2010Prop51ColorRGB
 90
-16777216
102
RTVSPost2010PropOp51
 70
     0
102
RTVSPost2010Prop52
140
1.0
102
RTVSPost2010PropOp52
 70
     0
102
RTVSPost2010Prop53
 90
        2
102
RTVSPost2010PropOp53
 70
     1
102
RTVSPost2010Prop54
  1
strokes_ogs.tif
102
RTVSPost2010PropOp54
 70
     1
102
RTVSPost2010Prop55
280
     0
102
RTVSPost2010PropOp55
 70
     1
102
RTVSPost2010Prop56
140
1.0
102
RTVSPost2010PropOp56
 70
     1
102
RTVSPost2010Prop57
140
1.0
102
RTVSPost2010PropOp57
 70
     1
  0
XRECORD
  5
106AC38
102
{ACAD_REACTORS
330
106AC37
102
}
330
106AC37
100
AcDbXrecord
280
     1
102
RTVSPropertyOp0
 70
     1
102
RTVSPropertyOp1
 70
     1
102
RTVSPropertyOp2
 70
     1
102
RTVSPropertyOp3
 70
     1
102
RTVSPropertyOp4
 70
     1
102
RTVSPropertyOp5
 70
     1
102
RTVSPropertyOp6
 70
     1
102
RTVSPropertyOp7
 70
     1
102
RTVSPropertyOp8
 70
     1
102
RTVSPropertyOp9
 70
     1
102
RTVSPropertyOp10
 70
     1
102
RTVSPropertyOp11
 70
     1
102
RTVSPropertyOp12
 70
     1
102
RTVSPropertyOp13
 70
     1
102
RTVSPropertyOp14
 70
     1
102
RTVSPropertyOp15
 70
     1
102
RTVSPropertyOp16
 70
     1
102
RTVSPropertyOp17
 70
     1
102
RTVSPropertyOp18
 70
     1
102
RTVSPropertyOp19
 70
     1
102
RTVSPropertyOp20
 70
     1
102
RTVSPropertyOp21
 70
     1
102
RTVSPropertyOp22
 70
     1
102
RTVSPropertyOp23
 70
     1
102
RTVSPropertyOp24
 70
     1
102
RTVSPropertyOp25
 70
     1
102
RTVSPropertyOp26
 70
     1
102
RTVSPropertyOp27
 70
     1
102
RTVSPropertyOp28
 70
     1
102
RTVSPropertyOp29
 70
     1
102
RTVSPropertyOp30
 70
     1
102
RTVSPropertyOp31
 70
     1
102
RTVSPropertyOp32
 70
     1
102
RTVSPropertyOp33
 70
     1
102
RTVSPropertyOp34
 70
     1
102
RTVSPropertyOp35
 70
     1
102
RTVSPropertyOp36
 70
     1
102
RTVSPropertyOp37
 70
     1
102
RTVSPropertyOp38
 70
     1
102
RTVSPropertyOp39
 70
     1
102
RTVSPropertyOp40
 70
     1
102
RTVSPropertyOp41
 70
     1
102
RTVSPropertyOp42
 70
     1
102
RTVSPropertyOp43
 70
     1
102
RTVSPropertyOp44
 70
     1
102
RTVSPropertyOp45
 70
     1
102
RTVSPropertyOp46
 70
     1
102
RTVSPropertyOp47
 70
     1
102
RTVSPropertyOp48
 70
     1
102
RTVSPropertyOp49
 70
     1
102
RTVSPropertyOp50
 70
     1
102
RTVSPropertyOp51
 70
     0
102
RTVSPropertyOp52
 70
     0
102
RTVSPropertyOp53
 70
     1
102
RTVSPropertyOp54
 70
     1
102
RTVSPropertyOp55
 70
     1
102
RTVSPropertyOp56
 70
     1
102
RTVSPropertyOp57
 70
     1
102
RTVSPost2010Prop28
280
     0
102
RTVSPost2010PropOp28
 70
     1
102
RTVSPost2010Prop29
280
     1
102
RTVSPost2010PropOp29
 70
     1
102
RTVSPost2010Prop30
280
     1
102
RTVSPost2010PropOp30
 70
     1
102
RTVSPost2010Prop31
280
     0
102
RTVSPost2010PropOp31
 70
     1
102
RTVSPost2010Prop32
280
     0
102
RTVSPost2010PropOp32
 70
     1
102
RTVSPost2010Prop33
280
     0
102
RTVSPost2010PropOp33
 70
     1
102
RTVSPost2010Prop34
280
     0
102
RTVSPost2010PropOp34
 70
     1
102
RTVSPost2010Prop35
280
     0
102
RTVSPost2010PropOp35
 70
     1
102
RTVSPost2010Prop36
280
     0
102
RTVSPost2010PropOp36
 70
     1
102
RTVSPost2010Prop37
 90
       50
102
RTVSPost2010PropOp37
 70
     1
102
RTVSPost2010Prop38
140
0.0
102
RTVSPost2010PropOp38
 70
     1
102
RTVSPost2010Prop39
140
1.0
102
RTVSPost2010PropOp39
 70
     1
102
RTVSPost2010Prop40
 90
        0
102
RTVSPost2010PropOp40
 70
     1
102
RTVSPost2010Prop41ColorIndex
 90
       18
102
RTVSPost2010Prop41ColorRGB
 90
        0
102
RTVSPost2010PropOp41
 70
     1
102
RTVSPost2010Prop42
 90
       50
102
RTVSPost2010PropOp42
 70
     1
102
RTVSPost2010Prop43
 90
        3
102
RTVSPost2010PropOp43
 70
     1
102
RTVSPost2010Prop44ColorIndex
 90
        5
102
RTVSPost2010Prop44ColorRGB
 90
      255
102
RTVSPost2010PropOp44
 70
     1
102
RTVSPost2010Prop45
280
     0
102
RTVSPost2010PropOp45
 70
     1
102
RTVSPost2010Prop46
 90
       50
102
RTVSPost2010PropOp46
 70
     1
102
RTVSPost2010Prop47
 90
       50
102
RTVSPost2010PropOp47
 70
     1
102
RTVSPost2010Prop48
 90
       50
102
RTVSPost2010PropOp48
 70
     1
102
RTVSPost2010Prop49
280
     0
102
RTVSPost2010PropOp49
 70
     1
102
RTVSPost2010Prop50
 90
       50
102
RTVSPost2010PropOp50
 70
     1
102
RTVSPost2010Prop51ColorIndex
 90
      256
102
RTVSPost2010Prop51ColorRGB
 90
-16777216
102
RTVSPost2010PropOp51
 70
     0
102
RTVSPost2010Prop52
140
1.0
102
RTVSPost2010PropOp52
 70
     0
102
RTVSPost2010Prop53
 90
        2
102
RTVSPost2010PropOp53
 70
     1
102
RTVSPost2010Prop54
  1
strokes_ogs.tif
102
RTVSPost2010PropOp54
 70
     1
102
RTVSPost2010Prop55
280
     0
102
RTVSPost2010PropOp55
 70
     1
102
RTVSPost2010Prop56
140
1.0
102
RTVSPost2010PropOp56
 70
     1
102
RTVSPost2010Prop57
140
1.0
102
RTVSPost2010PropOp57
 70
     1
  0
XRECORD
  5
106AC3A
102
{ACAD_REACTORS
330
106AC39
102
}
330
106AC39
100
AcDbXrecord
280
     1
102
RTVSPropertyOp0
 70
     1
102
RTVSPropertyOp1
 70
     1
102
RTVSPropertyOp2
 70
     1
102
RTVSPropertyOp3
 70
     1
102
RTVSPropertyOp4
 70
     1
102
RTVSPropertyOp5
 70
     1
102
RTVSPropertyOp6
 70
     1
102
RTVSPropertyOp7
 70
     1
102
RTVSPropertyOp8
 70
     1
102
RTVSPropertyOp9
 70
     1
102
RTVSPropertyOp10
 70
     1
102
RTVSPropertyOp11
 70
     1
102
RTVSPropertyOp12
 70
     1
102
RTVSPropertyOp13
 70
     1
102
RTVSPropertyOp14
 70
     1
102
RTVSPropertyOp15
 70
     1
102
RTVSPropertyOp16
 70
     1
102
RTVSPropertyOp17
 70
     1
102
RTVSPropertyOp18
 70
     1
102
RTVSPropertyOp19
 70
     1
102
RTVSPropertyOp20
 70
     1
102
RTVSPropertyOp21
 70
     1
102
RTVSPropertyOp22
 70
     1
102
RTVSPropertyOp23
 70
     1
102
RTVSPropertyOp24
 70
     1
102
RTVSPropertyOp25
 70
     1
102
RTVSPropertyOp26
 70
     1
102
RTVSPropertyOp27
 70
     1
102
RTVSPropertyOp28
 70
     1
102
RTVSPropertyOp29
 70
     1
102
RTVSPropertyOp30
 70
     1
102
RTVSPropertyOp31
 70
     1
102
RTVSPropertyOp32
 70
     1
102
RTVSPropertyOp33
 70
     1
102
RTVSPropertyOp34
 70
     1
102
RTVSPropertyOp35
 70
     1
102
RTVSPropertyOp36
 70
     1
102
RTVSPropertyOp37
 70
     1
102
RTVSPropertyOp38
 70
     1
102
RTVSPropertyOp39
 70
     1
102
RTVSPropertyOp40
 70
     1
102
RTVSPropertyOp41
 70
     1
102
RTVSPropertyOp42
 70
     1
102
RTVSPropertyOp43
 70
     1
102
RTVSPropertyOp44
 70
     1
102
RTVSPropertyOp45
 70
     1
102
RTVSPropertyOp46
 70
     1
102
RTVSPropertyOp47
 70
     1
102
RTVSPropertyOp48
 70
     1
102
RTVSPropertyOp49
 70
     1
102
RTVSPropertyOp50
 70
     1
102
RTVSPropertyOp51
 70
     0
102
RTVSPropertyOp52
 70
     0
102
RTVSPropertyOp53
 70
     1
102
RTVSPropertyOp54
 70
     1
102
RTVSPropertyOp55
 70
     1
102
RTVSPropertyOp56
 70
     1
102
RTVSPropertyOp57
 70
     1
102
RTVSPost2010Prop28
280
     0
102
RTVSPost2010PropOp28
 70
     1
102
RTVSPost2010Prop29
280
     1
102
RTVSPost2010PropOp29
 70
     1
102
RTVSPost2010Prop30
280
     1
102
RTVSPost2010PropOp30
 70
     1
102
RTVSPost2010Prop31
280
     0
102
RTVSPost2010PropOp31
 70
     1
102
RTVSPost2010Prop32
280
     0
102
RTVSPost2010PropOp32
 70
     1
102
RTVSPost2010Prop33
280
     0
102
RTVSPost2010PropOp33
 70
     1
102
RTVSPost2010Prop34
280
     0
102
RTVSPost2010PropOp34
 70
     1
102
RTVSPost2010Prop35
280
     0
102
RTVSPost2010PropOp35
 70
     1
102
RTVSPost2010Prop36
280
     0
102
RTVSPost2010PropOp36
 70
     1
102
RTVSPost2010Prop37
 90
       50
102
RTVSPost2010PropOp37
 70
     1
102
RTVSPost2010Prop38
140
0.0
102
RTVSPost2010PropOp38
 70
     1
102
RTVSPost2010Prop39
140
1.0
102
RTVSPost2010PropOp39
 70
     1
102
RTVSPost2010Prop40
 90
        0
102
RTVSPost2010PropOp40
 70
     1
102
RTVSPost2010Prop41ColorIndex
 90
       18
102
RTVSPost2010Prop41ColorRGB
 90
        0
102
RTVSPost2010PropOp41
 70
     1
102
RTVSPost2010Prop42
 90
       50
102
RTVSPost2010PropOp42
 70
     1
102
RTVSPost2010Prop43
 90
        3
102
RTVSPost2010PropOp43
 70
     1
102
RTVSPost2010Prop44ColorIndex
 90
        5
102
RTVSPost2010Prop44ColorRGB
 90
      255
102
RTVSPost2010PropOp44
 70
     1
102
RTVSPost2010Prop45
280
     0
102
RTVSPost2010PropOp45
 70
     1
102
RTVSPost2010Prop46
 90
       50
102
RTVSPost2010PropOp46
 70
     1
102
RTVSPost2010Prop47
 90
       50
102
RTVSPost2010PropOp47
 70
     1
102
RTVSPost2010Prop48
 90
       50
102
RTVSPost2010PropOp48
 70
     1
102
RTVSPost2010Prop49
280
     0
102
RTVSPost2010PropOp49
 70
     1
102
RTVSPost2010Prop50
 90
       50
102
RTVSPost2010PropOp50
 70
     1
102
RTVSPost2010Prop51ColorIndex
 90
      256
102
RTVSPost2010Prop51ColorRGB
 90
-16777216
102
RTVSPost2010PropOp51
 70
     0
102
RTVSPost2010Prop52
140
1.0
102
RTVSPost2010PropOp52
 70
     0
102
RTVSPost2010Prop53
 90
        2
102
RTVSPost2010PropOp53
 70
     1
102
RTVSPost2010Prop54
  1
strokes_ogs.tif
102
RTVSPost2010PropOp54
 70
     1
102
RTVSPost2010Prop55
280
     0
102
RTVSPost2010PropOp55
 70
     1
102
RTVSPost2010Prop56
140
1.0
102
RTVSPost2010PropOp56
 70
     1
102
RTVSPost2010Prop57
140
1.0
102
RTVSPost2010PropOp57
 70
     1
  0
XRECORD
  5
106AC3C
102
{ACAD_REACTORS
330
106AC3B
102
}
330
106AC3B
100
AcDbXrecord
280
     1
102
RTVSPropertyOp0
 70
     1
102
RTVSPropertyOp1
 70
     1
102
RTVSPropertyOp2
 70
     1
102
RTVSPropertyOp3
 70
     1
102
RTVSPropertyOp4
 70
     1
102
RTVSPropertyOp5
 70
     1
102
RTVSPropertyOp6
 70
     1
102
RTVSPropertyOp7
 70
     1
102
RTVSPropertyOp8
 70
     1
102
RTVSPropertyOp9
 70
     1
102
RTVSPropertyOp10
 70
     1
102
RTVSPropertyOp11
 70
     1
102
RTVSPropertyOp12
 70
     1
102
RTVSPropertyOp13
 70
     1
102
RTVSPropertyOp14
 70
     1
102
RTVSPropertyOp15
 70
     1
102
RTVSPropertyOp16
 70
     1
102
RTVSPropertyOp17
 70
     1
102
RTVSPropertyOp18
 70
     1
102
RTVSPropertyOp19
 70
     1
102
RTVSPropertyOp20
 70
     1
102
RTVSPropertyOp21
 70
     1
102
RTVSPropertyOp22
 70
     1
102
RTVSPropertyOp23
 70
     1
102
RTVSPropertyOp24
 70
     1
102
RTVSPropertyOp25
 70
     1
102
RTVSPropertyOp26
 70
     1
102
RTVSPropertyOp27
 70
     1
102
RTVSPropertyOp28
 70
     1
102
RTVSPropertyOp29
 70
     1
102
RTVSPropertyOp30
 70
     1
102
RTVSPropertyOp31
 70
     1
102
RTVSPropertyOp32
 70
     1
102
RTVSPropertyOp33
 70
     1
102
RTVSPropertyOp34
 70
     1
102
RTVSPropertyOp35
 70
     1
102
RTVSPropertyOp36
 70
     1
102
RTVSPropertyOp37
 70
     1
102
RTVSPropertyOp38
 70
     1
102
RTVSPropertyOp39
 70
     1
102
RTVSPropertyOp40
 70
     1
102
RTVSPropertyOp41
 70
     1
102
RTVSPropertyOp42
 70
     1
102
RTVSPropertyOp43
 70
     1
102
RTVSPropertyOp44
 70
     1
102
RTVSPropertyOp45
 70
     1
102
RTVSPropertyOp46
 70
     1
102
RTVSPropertyOp47
 70
     1
102
RTVSPropertyOp48
 70
     1
102
RTVSPropertyOp49
 70
     1
102
RTVSPropertyOp50
 70
     1
102
RTVSPropertyOp51
 70
     0
102
RTVSPropertyOp52
 70
     0
102
RTVSPropertyOp53
 70
     1
102
RTVSPropertyOp54
 70
     1
102
RTVSPropertyOp55
 70
     1
102
RTVSPropertyOp56
 70
     1
102
RTVSPropertyOp57
 70
     1
102
RTVSPost2010Prop28
280
     0
102
RTVSPost2010PropOp28
 70
     1
102
RTVSPost2010Prop29
280
     1
102
RTVSPost2010PropOp29
 70
     1
102
RTVSPost2010Prop30
280
     1
102
RTVSPost2010PropOp30
 70
     1
102
RTVSPost2010Prop31
280
     0
102
RTVSPost2010PropOp31
 70
     1
102
RTVSPost2010Prop32
280
     0
102
RTVSPost2010PropOp32
 70
     1
102
RTVSPost2010Prop33
280
     0
102
RTVSPost2010PropOp33
 70
     1
102
RTVSPost2010Prop34
280
     0
102
RTVSPost2010PropOp34
 70
     1
102
RTVSPost2010Prop35
280
     0
102
RTVSPost2010PropOp35
 70
     1
102
RTVSPost2010Prop36
280
     0
102
RTVSPost2010PropOp36
 70
     1
102
RTVSPost2010Prop37
 90
       50
102
RTVSPost2010PropOp37
 70
     1
102
RTVSPost2010Prop38
140
0.0
102
RTVSPost2010PropOp38
 70
     1
102
RTVSPost2010Prop39
140
1.0
102
RTVSPost2010PropOp39
 70
     1
102
RTVSPost2010Prop40
 90
        0
102
RTVSPost2010PropOp40
 70
     1
102
RTVSPost2010Prop41ColorIndex
 90
       18
102
RTVSPost2010Prop41ColorRGB
 90
        0
102
RTVSPost2010PropOp41
 70
     1
102
RTVSPost2010Prop42
 90
       50
102
RTVSPost2010PropOp42
 70
     1
102
RTVSPost2010Prop43
 90
        3
102
RTVSPost2010PropOp43
 70
     1
102
RTVSPost2010Prop44ColorIndex
 90
        5
102
RTVSPost2010Prop44ColorRGB
 90
      255
102
RTVSPost2010PropOp44
 70
     1
102
RTVSPost2010Prop45
280
     0
102
RTVSPost2010PropOp45
 70
     1
102
RTVSPost2010Prop46
 90
       50
102
RTVSPost2010PropOp46
 70
     1
102
RTVSPost2010Prop47
 90
       50
102
RTVSPost2010PropOp47
 70
     1
102
RTVSPost2010Prop48
 90
       50
102
RTVSPost2010PropOp48
 70
     1
102
RTVSPost2010Prop49
280
     0
102
RTVSPost2010PropOp49
 70
     1
102
RTVSPost2010Prop50
 90
       50
102
RTVSPost2010PropOp50
 70
     1
102
RTVSPost2010Prop51ColorIndex
 90
      256
102
RTVSPost2010Prop51ColorRGB
 90
-16777216
102
RTVSPost2010PropOp51
 70
     0
102
RTVSPost2010Prop52
140
1.0
102
RTVSPost2010PropOp52
 70
     0
102
RTVSPost2010Prop53
 90
        2
102
RTVSPost2010PropOp53
 70
     1
102
RTVSPost2010Prop54
  1
strokes_ogs.tif
102
RTVSPost2010PropOp54
 70
     1
102
RTVSPost2010Prop55
280
     0
102
RTVSPost2010PropOp55
 70
     1
102
RTVSPost2010Prop56
140
1.0
102
RTVSPost2010PropOp56
 70
     1
102
RTVSPost2010Prop57
140
1.0
102
RTVSPost2010PropOp57
 70
     1
  0
XRECORD
  5
106AC42
102
{ACAD_REACTORS
330
106AC41
102
}
330
106AC41
100
AcDbXrecord
280
     1
102
RTVSPropertyOp0
 70
     1
102
RTVSPropertyOp1
 70
     1
102
RTVSPropertyOp2
 70
     1
102
RTVSPropertyOp3
 70
     1
102
RTVSPropertyOp4
 70
     1
102
RTVSPropertyOp5
 70
     1
102
RTVSPropertyOp6
 70
     1
102
RTVSPropertyOp7
 70
     1
102
RTVSPropertyOp8
 70
     1
102
RTVSPropertyOp9
 70
     1
102
RTVSPropertyOp10
 70
     1
102
RTVSPropertyOp11
 70
     1
102
RTVSPropertyOp12
 70
     1
102
RTVSPropertyOp13
 70
     1
102
RTVSPropertyOp14
 70
     1
102
RTVSPropertyOp15
 70
     1
102
RTVSPropertyOp16
 70
     1
102
RTVSPropertyOp17
 70
     1
102
RTVSPropertyOp18
 70
     1
102
RTVSPropertyOp19
 70
     1
102
RTVSPropertyOp20
 70
     1
102
RTVSPropertyOp21
 70
     1
102
RTVSPropertyOp22
 70
     1
102
RTVSPropertyOp23
 70
     1
102
RTVSPropertyOp24
 70
     1
102
RTVSPropertyOp25
 70
     1
102
RTVSPropertyOp26
 70
     1
102
RTVSPropertyOp27
 70
     1
102
RTVSPropertyOp28
 70
     1
102
RTVSPropertyOp29
 70
     1
102
RTVSPropertyOp30
 70
     1
102
RTVSPropertyOp31
 70
     1
102
RTVSPropertyOp32
 70
     1
102
RTVSPropertyOp33
 70
     1
102
RTVSPropertyOp34
 70
     1
102
RTVSPropertyOp35
 70
     1
102
RTVSPropertyOp36
 70
     1
102
RTVSPropertyOp37
 70
     1
102
RTVSPropertyOp38
 70
     1
102
RTVSPropertyOp39
 70
     1
102
RTVSPropertyOp40
 70
     1
102
RTVSPropertyOp41
 70
     1
102
RTVSPropertyOp42
 70
     1
102
RTVSPropertyOp43
 70
     1
102
RTVSPropertyOp44
 70
     1
102
RTVSPropertyOp45
 70
     1
102
RTVSPropertyOp46
 70
     1
102
RTVSPropertyOp47
 70
     1
102
RTVSPropertyOp48
 70
     1
102
RTVSPropertyOp49
 70
     1
102
RTVSPropertyOp50
 70
     1
102
RTVSPropertyOp51
 70
     0
102
RTVSPropertyOp52
 70
     0
102
RTVSPropertyOp53
 70
     1
102
RTVSPropertyOp54
 70
     1
102
RTVSPropertyOp55
 70
     1
102
RTVSPropertyOp56
 70
     1
102
RTVSPropertyOp57
 70
     1
102
RTVSPost2010Prop28
280
     0
102
RTVSPost2010PropOp28
 70
     1
102
RTVSPost2010Prop29
280
     1
102
RTVSPost2010PropOp29
 70
     1
102
RTVSPost2010Prop30
280
     1
102
RTVSPost2010PropOp30
 70
     1
102
RTVSPost2010Prop31
280
     0
102
RTVSPost2010PropOp31
 70
     1
102
RTVSPost2010Prop32
280
     0
102
RTVSPost2010PropOp32
 70
     1
102
RTVSPost2010Prop33
280
     0
102
RTVSPost2010PropOp33
 70
     1
102
RTVSPost2010Prop34
280
     0
102
RTVSPost2010PropOp34
 70
     1
102
RTVSPost2010Prop35
280
     0
102
RTVSPost2010PropOp35
 70
     1
102
RTVSPost2010Prop36
280
     0
102
RTVSPost2010PropOp36
 70
     1
102
RTVSPost2010Prop37
 90
       50
102
RTVSPost2010PropOp37
 70
     1
102
RTVSPost2010Prop38
140
0.0
102
RTVSPost2010PropOp38
 70
     1
102
RTVSPost2010Prop39
140
1.0
102
RTVSPost2010PropOp39
 70
     1
102
RTVSPost2010Prop40
 90
        0
102
RTVSPost2010PropOp40
 70
     1
102
RTVSPost2010Prop41ColorIndex
 90
       18
102
RTVSPost2010Prop41ColorRGB
 90
        0
102
RTVSPost2010PropOp41
 70
     1
102
RTVSPost2010Prop42
 90
       50
102
RTVSPost2010PropOp42
 70
     1
102
RTVSPost2010Prop43
 90
        3
102
RTVSPost2010PropOp43
 70
     1
102
RTVSPost2010Prop44ColorIndex
 90
        5
102
RTVSPost2010Prop44ColorRGB
 90
      255
102
RTVSPost2010PropOp44
 70
     1
102
RTVSPost2010Prop45
280
     0
102
RTVSPost2010PropOp45
 70
     1
102
RTVSPost2010Prop46
 90
       50
102
RTVSPost2010PropOp46
 70
     1
102
RTVSPost2010Prop47
 90
       50
102
RTVSPost2010PropOp47
 70
     1
102
RTVSPost2010Prop48
 90
       50
102
RTVSPost2010PropOp48
 70
     1
102
RTVSPost2010Prop49
280
     0
102
RTVSPost2010PropOp49
 70
     1
102
RTVSPost2010Prop50
 90
       50
102
RTVSPost2010PropOp50
 70
     1
102
RTVSPost2010Prop51ColorIndex
 90
      256
102
RTVSPost2010Prop51ColorRGB
 90
-16777216
102
RTVSPost2010PropOp51
 70
     0
102
RTVSPost2010Prop52
140
1.0
102
RTVSPost2010PropOp52
 70
     0
102
RTVSPost2010Prop53
 90
        2
102
RTVSPost2010PropOp53
 70
     1
102
RTVSPost2010Prop54
  1
strokes_ogs.tif
102
RTVSPost2010PropOp54
 70
     1
102
RTVSPost2010Prop55
280
     0
102
RTVSPost2010PropOp55
 70
     1
102
RTVSPost2010Prop56
140
1.0
102
RTVSPost2010PropOp56
 70
     1
102
RTVSPost2010Prop57
140
1.0
102
RTVSPost2010PropOp57
 70
     1
  0
XRECORD
  5
106AC56
102
{ACAD_REACTORS
330
106AC55
102
}
330
106AC55
100
AcDbXrecord
280
     1
102
RTVSPropertyOp0
 70
     0
102
RTVSPropertyOp1
 70
     0
102
RTVSPropertyOp2
 70
     0
102
RTVSPropertyOp3
 70
     0
102
RTVSPropertyOp4
 70
     0
102
RTVSPropertyOp5
 70
     0
102
RTVSPropertyOp6
 70
     0
102
RTVSPropertyOp7
 70
     0
102
RTVSPropertyOp8
 70
     0
102
RTVSPropertyOp9
 70
     0
102
RTVSPropertyOp10
 70
     0
102
RTVSPropertyOp11
 70
     0
102
RTVSPropertyOp12
 70
     0
102
RTVSPropertyOp13
 70
     0
102
RTVSPropertyOp14
 70
     2
102
RTVSPropertyOp15
 70
     0
102
RTVSPropertyOp16
 70
     0
102
RTVSPropertyOp17
 70
     0
102
RTVSPropertyOp18
 70
     0
102
RTVSPropertyOp19
 70
     0
102
RTVSPropertyOp20
 70
     0
102
RTVSPropertyOp21
 70
     0
102
RTVSPropertyOp22
 70
     0
102
RTVSPropertyOp23
 70
     0
102
RTVSPropertyOp24
 70
     0
102
RTVSPropertyOp25
 70
     0
102
RTVSPropertyOp26
 70
     0
102
RTVSPropertyOp27
 70
     0
102
RTVSPropertyOp28
 70
     0
102
RTVSPropertyOp29
 70
     0
102
RTVSPropertyOp30
 70
     0
102
RTVSPropertyOp31
 70
     0
102
RTVSPropertyOp32
 70
     0
102
RTVSPropertyOp33
 70
     0
102
RTVSPropertyOp34
 70
     0
102
RTVSPropertyOp35
 70
     0
102
RTVSPropertyOp36
 70
     0
102
RTVSPropertyOp37
 70
     0
102
RTVSPropertyOp38
 70
     0
102
RTVSPropertyOp39
 70
     0
102
RTVSPropertyOp40
 70
     0
102
RTVSPropertyOp41
 70
     0
102
RTVSPropertyOp42
 70
     0
102
RTVSPropertyOp43
 70
     0
102
RTVSPropertyOp44
 70
     0
102
RTVSPropertyOp45
 70
     0
102
RTVSPropertyOp46
 70
     0
102
RTVSPropertyOp47
 70
     0
102
RTVSPropertyOp48
 70
     0
102
RTVSPropertyOp49
 70
     0
102
RTVSPropertyOp50
 70
     0
102
RTVSPropertyOp51
 70
     0
102
RTVSPropertyOp52
 70
     0
102
RTVSPropertyOp53
 70
     0
102
RTVSPropertyOp54
 70
     0
102
RTVSPropertyOp55
 70
     0
102
RTVSPropertyOp56
 70
     0
102
RTVSPropertyOp57
 70
     0
102
RTVSPost2010Prop28
280
     0
102
RTVSPost2010PropOp28
 70
     0
102
RTVSPost2010Prop29
280
     1
102
RTVSPost2010PropOp29
 70
     0
102
RTVSPost2010Prop30
280
     1
102
RTVSPost2010PropOp30
 70
     0
102
RTVSPost2010Prop31
280
     0
102
RTVSPost2010PropOp31
 70
     0
102
RTVSPost2010Prop32
280
     0
102
RTVSPost2010PropOp32
 70
     0
102
RTVSPost2010Prop33
280
     0
102
RTVSPost2010PropOp33
 70
     0
102
RTVSPost2010Prop34
280
     0
102
RTVSPost2010PropOp34
 70
     0
102
RTVSPost2010Prop35
280
     0
102
RTVSPost2010PropOp35
 70
     0
102
RTVSPost2010Prop36
280
     0
102
RTVSPost2010PropOp36
 70
     0
102
RTVSPost2010Prop37
 90
       50
102
RTVSPost2010PropOp37
 70
     0
102
RTVSPost2010Prop38
140
0.0
102
RTVSPost2010PropOp38
 70
     0
102
RTVSPost2010Prop39
140
1.0
102
RTVSPost2010PropOp39
 70
     0
102
RTVSPost2010Prop40
 90
        0
102
RTVSPost2010PropOp40
 70
     0
102
RTVSPost2010Prop41ColorIndex
 90
       18
102
RTVSPost2010Prop41ColorRGB
 90
        0
102
RTVSPost2010PropOp41
 70
     0
102
RTVSPost2010Prop42
 90
       50
102
RTVSPost2010PropOp42
 70
     0
102
RTVSPost2010Prop43
 90
        3
102
RTVSPost2010PropOp43
 70
     0
102
RTVSPost2010Prop44ColorIndex
 90
        5
102
RTVSPost2010Prop44ColorRGB
 90
      255
102
RTVSPost2010PropOp44
 70
     0
102
RTVSPost2010Prop45
280
     0
102
RTVSPost2010PropOp45
 70
     0
102
RTVSPost2010Prop46
 90
       50
102
RTVSPost2010PropOp46
 70
     0
102
RTVSPost2010Prop47
 90
       50
102
RTVSPost2010PropOp47
 70
     0
102
RTVSPost2010Prop48
 90
       50
102
RTVSPost2010PropOp48
 70
     0
102
RTVSPost2010Prop49
280
     0
102
RTVSPost2010PropOp49
 70
     0
102
RTVSPost2010Prop50
 90
       50
102
RTVSPost2010PropOp50
 70
     0
102
RTVSPost2010Prop51ColorIndex
 90
      256
102
RTVSPost2010Prop51ColorRGB
 90
-16777216
102
RTVSPost2010PropOp51
 70
     0
102
RTVSPost2010Prop52
140
1.0
102
RTVSPost2010PropOp52
 70
     0
102
RTVSPost2010Prop53
 90
        2
102
RTVSPost2010PropOp53
 70
     0
102
RTVSPost2010Prop54
  1
strokes_ogs.tif
102
RTVSPost2010PropOp54
 70
     0
102
RTVSPost2010Prop55
280
     0
102
RTVSPost2010PropOp55
 70
     0
102
RTVSPost2010Prop56
140
1.0
102
RTVSPost2010PropOp56
 70
     0
102
RTVSPost2010Prop57
140
1.0
102
RTVSPost2010PropOp57
 70
     0
  0
XRECORD
  5
106AC50
102
{ACAD_REACTORS
330
106AC4F
102
}
330
106AC4F
100
AcDbXrecord
280
     1
102
RTVSPropertyOp0
 70
     1
102
RTVSPropertyOp1
 70
     1
102
RTVSPropertyOp2
 70
     1
102
RTVSPropertyOp3
 70
     1
102
RTVSPropertyOp4
 70
     1
102
RTVSPropertyOp5
 70
     1
102
RTVSPropertyOp6
 70
     1
102
RTVSPropertyOp7
 70
     1
102
RTVSPropertyOp8
 70
     1
102
RTVSPropertyOp9
 70
     1
102
RTVSPropertyOp10
 70
     1
102
RTVSPropertyOp11
 70
     1
102
RTVSPropertyOp12
 70
     1
102
RTVSPropertyOp13
 70
     1
102
RTVSPropertyOp14
 70
     1
102
RTVSPropertyOp15
 70
     1
102
RTVSPropertyOp16
 70
     1
102
RTVSPropertyOp17
 70
     1
102
RTVSPropertyOp18
 70
     1
102
RTVSPropertyOp19
 70
     1
102
RTVSPropertyOp20
 70
     1
102
RTVSPropertyOp21
 70
     1
102
RTVSPropertyOp22
 70
     1
102
RTVSPropertyOp23
 70
     1
102
RTVSPropertyOp24
 70
     1
102
RTVSPropertyOp25
 70
     1
102
RTVSPropertyOp26
 70
     1
102
RTVSPropertyOp27
 70
     1
102
RTVSPropertyOp28
 70
     1
102
RTVSPropertyOp29
 70
     1
102
RTVSPropertyOp30
 70
     1
102
RTVSPropertyOp31
 70
     1
102
RTVSPropertyOp32
 70
     1
102
RTVSPropertyOp33
 70
     1
102
RTVSPropertyOp34
 70
     1
102
RTVSPropertyOp35
 70
     1
102
RTVSPropertyOp36
 70
     1
102
RTVSPropertyOp37
 70
     1
102
RTVSPropertyOp38
 70
     1
102
RTVSPropertyOp39
 70
     1
102
RTVSPropertyOp40
 70
     1
102
RTVSPropertyOp41
 70
     1
102
RTVSPropertyOp42
 70
     1
102
RTVSPropertyOp43
 70
     1
102
RTVSPropertyOp44
 70
     1
102
RTVSPropertyOp45
 70
     1
102
RTVSPropertyOp46
 70
     1
102
RTVSPropertyOp47
 70
     1
102
RTVSPropertyOp48
 70
     1
102
RTVSPropertyOp49
 70
     1
102
RTVSPropertyOp50
 70
     1
102
RTVSPropertyOp51
 70
     0
102
RTVSPropertyOp52
 70
     0
102
RTVSPropertyOp53
 70
     1
102
RTVSPropertyOp54
 70
     1
102
RTVSPropertyOp55
 70
     1
102
RTVSPropertyOp56
 70
     1
102
RTVSPropertyOp57
 70
     1
102
RTVSPost2010Prop28
280
     0
102
RTVSPost2010PropOp28
 70
     1
102
RTVSPost2010Prop29
280
     1
102
RTVSPost2010PropOp29
 70
     1
102
RTVSPost2010Prop30
280
     1
102
RTVSPost2010PropOp30
 70
     1
102
RTVSPost2010Prop31
280
     0
102
RTVSPost2010PropOp31
 70
     1
102
RTVSPost2010Prop32
280
     0
102
RTVSPost2010PropOp32
 70
     1
102
RTVSPost2010Prop33
280
     0
102
RTVSPost2010PropOp33
 70
     1
102
RTVSPost2010Prop34
280
     0
102
RTVSPost2010PropOp34
 70
     1
102
RTVSPost2010Prop35
280
     0
102
RTVSPost2010PropOp35
 70
     1
102
RTVSPost2010Prop36
280
     0
102
RTVSPost2010PropOp36
 70
     1
102
RTVSPost2010Prop37
 90
       50
102
RTVSPost2010PropOp37
 70
     1
102
RTVSPost2010Prop38
140
0.0
102
RTVSPost2010PropOp38
 70
     1
102
RTVSPost2010Prop39
140
1.0
102
RTVSPost2010PropOp39
 70
     1
102
RTVSPost2010Prop40
 90
        0
102
RTVSPost2010PropOp40
 70
     1
102
RTVSPost2010Prop41ColorIndex
 90
       18
102
RTVSPost2010Prop41ColorRGB
 90
        0
102
RTVSPost2010PropOp41
 70
     1
102
RTVSPost2010Prop42
 90
       50
102
RTVSPost2010PropOp42
 70
     1
102
RTVSPost2010Prop43
 90
        3
102
RTVSPost2010PropOp43
 70
     1
102
RTVSPost2010Prop44ColorIndex
 90
        5
102
RTVSPost2010Prop44ColorRGB
 90
      255
102
RTVSPost2010PropOp44
 70
     1
102
RTVSPost2010Prop45
280
     0
102
RTVSPost2010PropOp45
 70
     1
102
RTVSPost2010Prop46
 90
       50
102
RTVSPost2010PropOp46
 70
     1
102
RTVSPost2010Prop47
 90
       50
102
RTVSPost2010PropOp47
 70
     1
102
RTVSPost2010Prop48
 90
       50
102
RTVSPost2010PropOp48
 70
     1
102
RTVSPost2010Prop49
280
     0
102
RTVSPost2010PropOp49
 70
     1
102
RTVSPost2010Prop50
 90
       50
102
RTVSPost2010PropOp50
 70
     1
102
RTVSPost2010Prop51ColorIndex
 90
      256
102
RTVSPost2010Prop51ColorRGB
 90
-16777216
102
RTVSPost2010PropOp51
 70
     0
102
RTVSPost2010Prop52
140
1.0
102
RTVSPost2010PropOp52
 70
     0
102
RTVSPost2010Prop53
 90
        2
102
RTVSPost2010PropOp53
 70
     1
102
RTVSPost2010Prop54
  1
strokes_ogs.tif
102
RTVSPost2010PropOp54
 70
     1
102
RTVSPost2010Prop55
280
     0
102
RTVSPost2010PropOp55
 70
     1
102
RTVSPost2010Prop56
140
1.0
102
RTVSPost2010PropOp56
 70
     1
102
RTVSPost2010Prop57
140
1.0
102
RTVSPost2010PropOp57
 70
     1
  0
XRECORD
  5
106AC58
102
{ACAD_REACTORS
330
106AC57
102
}
330
106AC57
100
AcDbXrecord
280
     1
102
RTVSPropertyOp0
 70
     0
102
RTVSPropertyOp1
 70
     0
102
RTVSPropertyOp2
 70
     0
102
RTVSPropertyOp3
 70
     0
102
RTVSPropertyOp4
 70
     0
102
RTVSPropertyOp5
 70
     0
102
RTVSPropertyOp6
 70
     0
102
RTVSPropertyOp7
 70
     0
102
RTVSPropertyOp8
 70
     0
102
RTVSPropertyOp9
 70
     0
102
RTVSPropertyOp10
 70
     0
102
RTVSPropertyOp11
 70
     0
102
RTVSPropertyOp12
 70
     0
102
RTVSPropertyOp13
 70
     0
102
RTVSPropertyOp14
 70
     2
102
RTVSPropertyOp15
 70
     0
102
RTVSPropertyOp16
 70
     0
102
RTVSPropertyOp17
 70
     0
102
RTVSPropertyOp18
 70
     0
102
RTVSPropertyOp19
 70
     0
102
RTVSPropertyOp20
 70
     0
102
RTVSPropertyOp21
 70
     0
102
RTVSPropertyOp22
 70
     0
102
RTVSPropertyOp23
 70
     0
102
RTVSPropertyOp24
 70
     0
102
RTVSPropertyOp25
 70
     0
102
RTVSPropertyOp26
 70
     0
102
RTVSPropertyOp27
 70
     0
102
RTVSPropertyOp28
 70
     0
102
RTVSPropertyOp29
 70
     0
102
RTVSPropertyOp30
 70
     0
102
RTVSPropertyOp31
 70
     0
102
RTVSPropertyOp32
 70
     0
102
RTVSPropertyOp33
 70
     0
102
RTVSPropertyOp34
 70
     0
102
RTVSPropertyOp35
 70
     0
102
RTVSPropertyOp36
 70
     0
102
RTVSPropertyOp37
 70
     0
102
RTVSPropertyOp38
 70
     0
102
RTVSPropertyOp39
 70
     0
102
RTVSPropertyOp40
 70
     0
102
RTVSPropertyOp41
 70
     0
102
RTVSPropertyOp42
 70
     0
102
RTVSPropertyOp43
 70
     0
102
RTVSPropertyOp44
 70
     0
102
RTVSPropertyOp45
 70
     0
102
RTVSPropertyOp46
 70
     0
102
RTVSPropertyOp47
 70
     0
102
RTVSPropertyOp48
 70
     0
102
RTVSPropertyOp49
 70
     0
102
RTVSPropertyOp50
 70
     0
102
RTVSPropertyOp51
 70
     0
102
RTVSPropertyOp52
 70
     0
102
RTVSPropertyOp53
 70
     0
102
RTVSPropertyOp54
 70
     0
102
RTVSPropertyOp55
 70
     0
102
RTVSPropertyOp56
 70
     0
102
RTVSPropertyOp57
 70
     0
102
RTVSPost2010Prop28
280
     0
102
RTVSPost2010PropOp28
 70
     0
102
RTVSPost2010Prop29
280
     1
102
RTVSPost2010PropOp29
 70
     0
102
RTVSPost2010Prop30
280
     1
102
RTVSPost2010PropOp30
 70
     0
102
RTVSPost2010Prop31
280
     0
102
RTVSPost2010PropOp31
 70
     0
102
RTVSPost2010Prop32
280
     0
102
RTVSPost2010PropOp32
 70
     0
102
RTVSPost2010Prop33
280
     0
102
RTVSPost2010PropOp33
 70
     0
102
RTVSPost2010Prop34
280
     0
102
RTVSPost2010PropOp34
 70
     0
102
RTVSPost2010Prop35
280
     0
102
RTVSPost2010PropOp35
 70
     0
102
RTVSPost2010Prop36
280
     0
102
RTVSPost2010PropOp36
 70
     0
102
RTVSPost2010Prop37
 90
       50
102
RTVSPost2010PropOp37
 70
     0
102
RTVSPost2010Prop38
140
0.0
102
RTVSPost2010PropOp38
 70
     0
102
RTVSPost2010Prop39
140
1.0
102
RTVSPost2010PropOp39
 70
     0
102
RTVSPost2010Prop40
 90
        0
102
RTVSPost2010PropOp40
 70
     0
102
RTVSPost2010Prop41ColorIndex
 90
       18
102
RTVSPost2010Prop41ColorRGB
 90
        0
102
RTVSPost2010PropOp41
 70
     0
102
RTVSPost2010Prop42
 90
       50
102
RTVSPost2010PropOp42
 70
     0
102
RTVSPost2010Prop43
 90
        3
102
RTVSPost2010PropOp43
 70
     0
102
RTVSPost2010Prop44ColorIndex
 90
        5
102
RTVSPost2010Prop44ColorRGB
 90
      255
102
RTVSPost2010PropOp44
 70
     0
102
RTVSPost2010Prop45
280
     0
102
RTVSPost2010PropOp45
 70
     0
102
RTVSPost2010Prop46
 90
       50
102
RTVSPost2010PropOp46
 70
     0
102
RTVSPost2010Prop47
 90
       50
102
RTVSPost2010PropOp47
 70
     0
102
RTVSPost2010Prop48
 90
       50
102
RTVSPost2010PropOp48
 70
     0
102
RTVSPost2010Prop49
280
     0
102
RTVSPost2010PropOp49
 70
     0
102
RTVSPost2010Prop50
 90
       50
102
RTVSPost2010PropOp50
 70
     0
102
RTVSPost2010Prop51ColorIndex
 90
      256
102
RTVSPost2010Prop51ColorRGB
 90
-16777216
102
RTVSPost2010PropOp51
 70
     0
102
RTVSPost2010Prop52
140
1.0
102
RTVSPost2010PropOp52
 70
     0
102
RTVSPost2010Prop53
 90
        2
102
RTVSPost2010PropOp53
 70
     0
102
RTVSPost2010Prop54
  1
strokes_ogs.tif
102
RTVSPost2010PropOp54
 70
     0
102
RTVSPost2010Prop55
280
     0
102
RTVSPost2010PropOp55
 70
     0
102
RTVSPost2010Prop56
140
1.0
102
RTVSPost2010PropOp56
 70
     0
102
RTVSPost2010Prop57
140
1.0
102
RTVSPost2010PropOp57
 70
     0
  0
XRECORD
  5
106AC46
102
{ACAD_REACTORS
330
106AC45
102
}
330
106AC45
100
AcDbXrecord
280
     1
102
RTVSPropertyOp0
 70
     1
102
RTVSPropertyOp1
 70
     1
102
RTVSPropertyOp2
 70
     1
102
RTVSPropertyOp3
 70
     1
102
RTVSPropertyOp4
 70
     1
102
RTVSPropertyOp5
 70
     1
102
RTVSPropertyOp6
 70
     1
102
RTVSPropertyOp7
 70
     1
102
RTVSPropertyOp8
 70
     1
102
RTVSPropertyOp9
 70
     1
102
RTVSPropertyOp10
 70
     1
102
RTVSPropertyOp11
 70
     1
102
RTVSPropertyOp12
 70
     1
102
RTVSPropertyOp13
 70
     1
102
RTVSPropertyOp14
 70
     1
102
RTVSPropertyOp15
 70
     1
102
RTVSPropertyOp16
 70
     1
102
RTVSPropertyOp17
 70
     1
102
RTVSPropertyOp18
 70
     1
102
RTVSPropertyOp19
 70
     1
102
RTVSPropertyOp20
 70
     1
102
RTVSPropertyOp21
 70
     1
102
RTVSPropertyOp22
 70
     1
102
RTVSPropertyOp23
 70
     1
102
RTVSPropertyOp24
 70
     1
102
RTVSPropertyOp25
 70
     1
102
RTVSPropertyOp26
 70
     1
102
RTVSPropertyOp27
 70
     1
102
RTVSPropertyOp28
 70
     1
102
RTVSPropertyOp29
 70
     1
102
RTVSPropertyOp30
 70
     1
102
RTVSPropertyOp31
 70
     1
102
RTVSPropertyOp32
 70
     1
102
RTVSPropertyOp33
 70
     1
102
RTVSPropertyOp34
 70
     1
102
RTVSPropertyOp35
 70
     1
102
RTVSPropertyOp36
 70
     1
102
RTVSPropertyOp37
 70
     1
102
RTVSPropertyOp38
 70
     1
102
RTVSPropertyOp39
 70
     1
102
RTVSPropertyOp40
 70
     1
102
RTVSPropertyOp41
 70
     1
102
RTVSPropertyOp42
 70
     1
102
RTVSPropertyOp43
 70
     1
102
RTVSPropertyOp44
 70
     1
102
RTVSPropertyOp45
 70
     1
102
RTVSPropertyOp46
 70
     1
102
RTVSPropertyOp47
 70
     1
102
RTVSPropertyOp48
 70
     1
102
RTVSPropertyOp49
 70
     1
102
RTVSPropertyOp50
 70
     1
102
RTVSPropertyOp51
 70
     0
102
RTVSPropertyOp52
 70
     0
102
RTVSPropertyOp53
 70
     1
102
RTVSPropertyOp54
 70
     1
102
RTVSPropertyOp55
 70
     1
102
RTVSPropertyOp56
 70
     1
102
RTVSPropertyOp57
 70
     1
102
RTVSPost2010Prop28
280
     0
102
RTVSPost2010PropOp28
 70
     1
102
RTVSPost2010Prop29
280
     1
102
RTVSPost2010PropOp29
 70
     1
102
RTVSPost2010Prop30
280
     1
102
RTVSPost2010PropOp30
 70
     1
102
RTVSPost2010Prop31
280
     0
102
RTVSPost2010PropOp31
 70
     1
102
RTVSPost2010Prop32
280
     0
102
RTVSPost2010PropOp32
 70
     1
102
RTVSPost2010Prop33
280
     0
102
RTVSPost2010PropOp33
 70
     1
102
RTVSPost2010Prop34
280
     0
102
RTVSPost2010PropOp34
 70
     1
102
RTVSPost2010Prop35
280
     0
102
RTVSPost2010PropOp35
 70
     1
102
RTVSPost2010Prop36
280
     0
102
RTVSPost2010PropOp36
 70
     1
102
RTVSPost2010Prop37
 90
       50
102
RTVSPost2010PropOp37
 70
     1
102
RTVSPost2010Prop38
140
0.0
102
RTVSPost2010PropOp38
 70
     1
102
RTVSPost2010Prop39
140
1.0
102
RTVSPost2010PropOp39
 70
     1
102
RTVSPost2010Prop40
 90
        0
102
RTVSPost2010PropOp40
 70
     1
102
RTVSPost2010Prop41ColorIndex
 90
       18
102
RTVSPost2010Prop41ColorRGB
 90
        0
102
RTVSPost2010PropOp41
 70
     1
102
RTVSPost2010Prop42
 90
       50
102
RTVSPost2010PropOp42
 70
     1
102
RTVSPost2010Prop43
 90
        3
102
RTVSPost2010PropOp43
 70
     1
102
RTVSPost2010Prop44ColorIndex
 90
        5
102
RTVSPost2010Prop44ColorRGB
 90
      255
102
RTVSPost2010PropOp44
 70
     1
102
RTVSPost2010Prop45
280
     0
102
RTVSPost2010PropOp45
 70
     1
102
RTVSPost2010Prop46
 90
       50
102
RTVSPost2010PropOp46
 70
     1
102
RTVSPost2010Prop47
 90
       50
102
RTVSPost2010PropOp47
 70
     1
102
RTVSPost2010Prop48
 90
       50
102
RTVSPost2010PropOp48
 70
     1
102
RTVSPost2010Prop49
280
     0
102
RTVSPost2010PropOp49
 70
     1
102
RTVSPost2010Prop50
 90
       50
102
RTVSPost2010PropOp50
 70
     1
102
RTVSPost2010Prop51ColorIndex
 90
      256
102
RTVSPost2010Prop51ColorRGB
 90
-16777216
102
RTVSPost2010PropOp51
 70
     0
102
RTVSPost2010Prop52
140
1.0
102
RTVSPost2010PropOp52
 70
     0
102
RTVSPost2010Prop53
 90
        2
102
RTVSPost2010PropOp53
 70
     1
102
RTVSPost2010Prop54
  1
strokes_ogs.tif
102
RTVSPost2010PropOp54
 70
     1
102
RTVSPost2010Prop55
280
     0
102
RTVSPost2010PropOp55
 70
     1
102
RTVSPost2010Prop56
140
1.0
102
RTVSPost2010PropOp56
 70
     1
102
RTVSPost2010Prop57
140
1.0
102
RTVSPost2010PropOp57
 70
     1
  0
XRECORD
  5
106AC64
102
{ACAD_REACTORS
330
106AC63
102
}
330
106AC63
100
AcDbXrecord
280
     1
102
RTVSPropertyOp0
 70
     1
102
RTVSPropertyOp1
 70
     1
102
RTVSPropertyOp2
 70
     1
102
RTVSPropertyOp3
 70
     1
102
RTVSPropertyOp4
 70
     1
102
RTVSPropertyOp5
 70
     1
102
RTVSPropertyOp6
 70
     1
102
RTVSPropertyOp7
 70
     1
102
RTVSPropertyOp8
 70
     1
102
RTVSPropertyOp9
 70
     1
102
RTVSPropertyOp10
 70
     1
102
RTVSPropertyOp11
 70
     1
102
RTVSPropertyOp12
 70
     1
102
RTVSPropertyOp13
 70
     1
102
RTVSPropertyOp14
 70
     1
102
RTVSPropertyOp15
 70
     1
102
RTVSPropertyOp16
 70
     1
102
RTVSPropertyOp17
 70
     1
102
RTVSPropertyOp18
 70
     1
102
RTVSPropertyOp19
 70
     1
102
RTVSPropertyOp20
 70
     1
102
RTVSPropertyOp21
 70
     1
102
RTVSPropertyOp22
 70
     1
102
RTVSPropertyOp23
 70
     1
102
RTVSPropertyOp24
 70
     1
102
RTVSPropertyOp25
 70
     1
102
RTVSPropertyOp26
 70
     1
102
RTVSPropertyOp27
 70
     1
102
RTVSPropertyOp28
 70
     1
102
RTVSPropertyOp29
 70
     1
102
RTVSPropertyOp30
 70
     1
102
RTVSPropertyOp31
 70
     1
102
RTVSPropertyOp32
 70
     1
102
RTVSPropertyOp33
 70
     1
102
RTVSPropertyOp34
 70
     1
102
RTVSPropertyOp35
 70
     1
102
RTVSPropertyOp36
 70
     1
102
RTVSPropertyOp37
 70
     1
102
RTVSPropertyOp38
 70
     1
102
RTVSPropertyOp39
 70
     1
102
RTVSPropertyOp40
 70
     1
102
RTVSPropertyOp41
 70
     1
102
RTVSPropertyOp42
 70
     1
102
RTVSPropertyOp43
 70
     1
102
RTVSPropertyOp44
 70
     1
102
RTVSPropertyOp45
 70
     1
102
RTVSPropertyOp46
 70
     1
102
RTVSPropertyOp47
 70
     1
102
RTVSPropertyOp48
 70
     1
102
RTVSPropertyOp49
 70
     1
102
RTVSPropertyOp50
 70
     1
102
RTVSPropertyOp51
 70
     0
102
RTVSPropertyOp52
 70
     0
102
RTVSPropertyOp53
 70
     1
102
RTVSPropertyOp54
 70
     1
102
RTVSPropertyOp55
 70
     1
102
RTVSPropertyOp56
 70
     1
102
RTVSPropertyOp57
 70
     1
102
RTVSPost2010Prop28
280
     0
102
RTVSPost2010PropOp28
 70
     1
102
RTVSPost2010Prop29
280
     1
102
RTVSPost2010PropOp29
 70
     1
102
RTVSPost2010Prop30
280
     1
102
RTVSPost2010PropOp30
 70
     1
102
RTVSPost2010Prop31
280
     0
102
RTVSPost2010PropOp31
 70
     1
102
RTVSPost2010Prop32
280
     0
102
RTVSPost2010PropOp32
 70
     1
102
RTVSPost2010Prop33
280
     0
102
RTVSPost2010PropOp33
 70
     1
102
RTVSPost2010Prop34
280
     0
102
RTVSPost2010PropOp34
 70
     1
102
RTVSPost2010Prop35
280
     0
102
RTVSPost2010PropOp35
 70
     1
102
RTVSPost2010Prop36
280
     0
102
RTVSPost2010PropOp36
 70
     1
102
RTVSPost2010Prop37
 90
       50
102
RTVSPost2010PropOp37
 70
     1
102
RTVSPost2010Prop38
140
0.0
102
RTVSPost2010PropOp38
 70
     1
102
RTVSPost2010Prop39
140
1.0
102
RTVSPost2010PropOp39
 70
     1
102
RTVSPost2010Prop40
 90
        0
102
RTVSPost2010PropOp40
 70
     1
102
RTVSPost2010Prop41ColorIndex
 90
       18
102
RTVSPost2010Prop41ColorRGB
 90
        0
102
RTVSPost2010PropOp41
 70
     1
102
RTVSPost2010Prop42
 90
       50
102
RTVSPost2010PropOp42
 70
     1
102
RTVSPost2010Prop43
 90
        3
102
RTVSPost2010PropOp43
 70
     1
102
RTVSPost2010Prop44ColorIndex
 90
        5
102
RTVSPost2010Prop44ColorRGB
 90
      255
102
RTVSPost2010PropOp44
 70
     1
102
RTVSPost2010Prop45
280
     0
102
RTVSPost2010PropOp45
 70
     1
102
RTVSPost2010Prop46
 90
       50
102
RTVSPost2010PropOp46
 70
     1
102
RTVSPost2010Prop47
 90
       50
102
RTVSPost2010PropOp47
 70
     1
102
RTVSPost2010Prop48
 90
       50
102
RTVSPost2010PropOp48
 70
     1
102
RTVSPost2010Prop49
280
     0
102
RTVSPost2010PropOp49
 70
     1
102
RTVSPost2010Prop50
 90
       50
102
RTVSPost2010PropOp50
 70
     1
102
RTVSPost2010Prop51ColorIndex
 90
      256
102
RTVSPost2010Prop51ColorRGB
 90
-16777216
102
RTVSPost2010PropOp51
 70
     0
102
RTVSPost2010Prop52
140
1.0
102
RTVSPost2010PropOp52
 70
     0
102
RTVSPost2010Prop53
 90
        2
102
RTVSPost2010PropOp53
 70
     1
102
RTVSPost2010Prop54
  1
strokes_ogs.tif
102
RTVSPost2010PropOp54
 70
     1
102
RTVSPost2010Prop55
280
     0
102
RTVSPost2010PropOp55
 70
     1
102
RTVSPost2010Prop56
140
1.0
102
RTVSPost2010PropOp56
 70
     1
102
RTVSPost2010Prop57
140
1.0
102
RTVSPost2010PropOp57
 70
     1
  0
XRECORD
  5
106AC62
102
{ACAD_REACTORS
330
106AC61
102
}
330
106AC61
100
AcDbXrecord
280
     1
102
RTVSPropertyOp0
 70
     1
102
RTVSPropertyOp1
 70
     1
102
RTVSPropertyOp2
 70
     1
102
RTVSPropertyOp3
 70
     1
102
RTVSPropertyOp4
 70
     1
102
RTVSPropertyOp5
 70
     1
102
RTVSPropertyOp6
 70
     1
102
RTVSPropertyOp7
 70
     1
102
RTVSPropertyOp8
 70
     1
102
RTVSPropertyOp9
 70
     1
102
RTVSPropertyOp10
 70
     1
102
RTVSPropertyOp11
 70
     1
102
RTVSPropertyOp12
 70
     1
102
RTVSPropertyOp13
 70
     1
102
RTVSPropertyOp14
 70
     1
102
RTVSPropertyOp15
 70
     1
102
RTVSPropertyOp16
 70
     1
102
RTVSPropertyOp17
 70
     1
102
RTVSPropertyOp18
 70
     1
102
RTVSPropertyOp19
 70
     1
102
RTVSPropertyOp20
 70
     1
102
RTVSPropertyOp21
 70
     1
102
RTVSPropertyOp22
 70
     1
102
RTVSPropertyOp23
 70
     1
102
RTVSPropertyOp24
 70
     1
102
RTVSPropertyOp25
 70
     1
102
RTVSPropertyOp26
 70
     1
102
RTVSPropertyOp27
 70
     1
102
RTVSPropertyOp28
 70
     1
102
RTVSPropertyOp29
 70
     1
102
RTVSPropertyOp30
 70
     1
102
RTVSPropertyOp31
 70
     1
102
RTVSPropertyOp32
 70
     1
102
RTVSPropertyOp33
 70
     1
102
RTVSPropertyOp34
 70
     1
102
RTVSPropertyOp35
 70
     1
102
RTVSPropertyOp36
 70
     1
102
RTVSPropertyOp37
 70
     1
102
RTVSPropertyOp38
 70
     1
102
RTVSPropertyOp39
 70
     1
102
RTVSPropertyOp40
 70
     1
102
RTVSPropertyOp41
 70
     1
102
RTVSPropertyOp42
 70
     1
102
RTVSPropertyOp43
 70
     1
102
RTVSPropertyOp44
 70
     1
102
RTVSPropertyOp45
 70
     1
102
RTVSPropertyOp46
 70
     1
102
RTVSPropertyOp47
 70
     1
102
RTVSPropertyOp48
 70
     1
102
RTVSPropertyOp49
 70
     1
102
RTVSPropertyOp50
 70
     1
102
RTVSPropertyOp51
 70
     0
102
RTVSPropertyOp52
 70
     0
102
RTVSPropertyOp53
 70
     1
102
RTVSPropertyOp54
 70
     1
102
RTVSPropertyOp55
 70
     1
102
RTVSPropertyOp56
 70
     1
102
RTVSPropertyOp57
 70
     1
102
RTVSPost2010Prop28
280
     0
102
RTVSPost2010PropOp28
 70
     1
102
RTVSPost2010Prop29
280
     1
102
RTVSPost2010PropOp29
 70
     1
102
RTVSPost2010Prop30
280
     1
102
RTVSPost2010PropOp30
 70
     1
102
RTVSPost2010Prop31
280
     0
102
RTVSPost2010PropOp31
 70
     1
102
RTVSPost2010Prop32
280
     0
102
RTVSPost2010PropOp32
 70
     1
102
RTVSPost2010Prop33
280
     0
102
RTVSPost2010PropOp33
 70
     1
102
RTVSPost2010Prop34
280
     0
102
RTVSPost2010PropOp34
 70
     1
102
RTVSPost2010Prop35
280
     0
102
RTVSPost2010PropOp35
 70
     1
102
RTVSPost2010Prop36
280
     0
102
RTVSPost2010PropOp36
 70
     1
102
RTVSPost2010Prop37
 90
       50
102
RTVSPost2010PropOp37
 70
     1
102
RTVSPost2010Prop38
140
0.0
102
RTVSPost2010PropOp38
 70
     1
102
RTVSPost2010Prop39
140
1.0
102
RTVSPost2010PropOp39
 70
     1
102
RTVSPost2010Prop40
 90
        0
102
RTVSPost2010PropOp40
 70
     1
102
RTVSPost2010Prop41ColorIndex
 90
       18
102
RTVSPost2010Prop41ColorRGB
 90
        0
102
RTVSPost2010PropOp41
 70
     1
102
RTVSPost2010Prop42
 90
       50
102
RTVSPost2010PropOp42
 70
     1
102
RTVSPost2010Prop43
 90
        3
102
RTVSPost2010PropOp43
 70
     1
102
RTVSPost2010Prop44ColorIndex
 90
        5
102
RTVSPost2010Prop44ColorRGB
 90
      255
102
RTVSPost2010PropOp44
 70
     1
102
RTVSPost2010Prop45
280
     0
102
RTVSPost2010PropOp45
 70
     1
102
RTVSPost2010Prop46
 90
       50
102
RTVSPost2010PropOp46
 70
     1
102
RTVSPost2010Prop47
 90
       50
102
RTVSPost2010PropOp47
 70
     1
102
RTVSPost2010Prop48
 90
       50
102
RTVSPost2010PropOp48
 70
     1
102
RTVSPost2010Prop49
280
     0
102
RTVSPost2010PropOp49
 70
     1
102
RTVSPost2010Prop50
 90
       50
102
RTVSPost2010PropOp50
 70
     1
102
RTVSPost2010Prop51ColorIndex
 90
      256
102
RTVSPost2010Prop51ColorRGB
 90
-16777216
102
RTVSPost2010PropOp51
 70
     0
102
RTVSPost2010Prop52
140
1.0
102
RTVSPost2010PropOp52
 70
     0
102
RTVSPost2010Prop53
 90
        2
102
RTVSPost2010PropOp53
 70
     1
102
RTVSPost2010Prop54
  1
strokes_ogs.tif
102
RTVSPost2010PropOp54
 70
     1
102
RTVSPost2010Prop55
280
     0
102
RTVSPost2010PropOp55
 70
     1
102
RTVSPost2010Prop56
140
1.0
102
RTVSPost2010PropOp56
 70
     1
102
RTVSPost2010Prop57
140
1.0
102
RTVSPost2010PropOp57
 70
     1
  0
XRECORD
  5
106AC5C
102
{ACAD_REACTORS
330
106AC5B
102
}
330
106AC5B
100
AcDbXrecord
280
     1
102
RTVSPropertyOp0
 70
     1
102
RTVSPropertyOp1
 70
     1
102
RTVSPropertyOp2
 70
     1
102
RTVSPropertyOp3
 70
     1
102
RTVSPropertyOp4
 70
     1
102
RTVSPropertyOp5
 70
     1
102
RTVSPropertyOp6
 70
     1
102
RTVSPropertyOp7
 70
     1
102
RTVSPropertyOp8
 70
     1
102
RTVSPropertyOp9
 70
     1
102
RTVSPropertyOp10
 70
     1
102
RTVSPropertyOp11
 70
     1
102
RTVSPropertyOp12
 70
     1
102
RTVSPropertyOp13
 70
     1
102
RTVSPropertyOp14
 70
     1
102
RTVSPropertyOp15
 70
     1
102
RTVSPropertyOp16
 70
     1
102
RTVSPropertyOp17
 70
     1
102
RTVSPropertyOp18
 70
     1
102
RTVSPropertyOp19
 70
     1
102
RTVSPropertyOp20
 70
     1
102
RTVSPropertyOp21
 70
     1
102
RTVSPropertyOp22
 70
     1
102
RTVSPropertyOp23
 70
     1
102
RTVSPropertyOp24
 70
     1
102
RTVSPropertyOp25
 70
     1
102
RTVSPropertyOp26
 70
     1
102
RTVSPropertyOp27
 70
     1
102
RTVSPropertyOp28
 70
     1
102
RTVSPropertyOp29
 70
     1
102
RTVSPropertyOp30
 70
     1
102
RTVSPropertyOp31
 70
     1
102
RTVSPropertyOp32
 70
     1
102
RTVSPropertyOp33
 70
     1
102
RTVSPropertyOp34
 70
     1
102
RTVSPropertyOp35
 70
     1
102
RTVSPropertyOp36
 70
     1
102
RTVSPropertyOp37
 70
     1
102
RTVSPropertyOp38
 70
     1
102
RTVSPropertyOp39
 70
     1
102
RTVSPropertyOp40
 70
     1
102
RTVSPropertyOp41
 70
     1
102
RTVSPropertyOp42
 70
     1
102
RTVSPropertyOp43
 70
     1
102
RTVSPropertyOp44
 70
     1
102
RTVSPropertyOp45
 70
     1
102
RTVSPropertyOp46
 70
     1
102
RTVSPropertyOp47
 70
     1
102
RTVSPropertyOp48
 70
     1
102
RTVSPropertyOp49
 70
     1
102
RTVSPropertyOp50
 70
     1
102
RTVSPropertyOp51
 70
     0
102
RTVSPropertyOp52
 70
     0
102
RTVSPropertyOp53
 70
     1
102
RTVSPropertyOp54
 70
     1
102
RTVSPropertyOp55
 70
     1
102
RTVSPropertyOp56
 70
     1
102
RTVSPropertyOp57
 70
     1
102
RTVSPost2010Prop28
280
     0
102
RTVSPost2010PropOp28
 70
     1
102
RTVSPost2010Prop29
280
     1
102
RTVSPost2010PropOp29
 70
     1
102
RTVSPost2010Prop30
280
     1
102
RTVSPost2010PropOp30
 70
     1
102
RTVSPost2010Prop31
280
     0
102
RTVSPost2010PropOp31
 70
     1
102
RTVSPost2010Prop32
280
     0
102
RTVSPost2010PropOp32
 70
     1
102
RTVSPost2010Prop33
280
     0
102
RTVSPost2010PropOp33
 70
     1
102
RTVSPost2010Prop34
280
     0
102
RTVSPost2010PropOp34
 70
     1
102
RTVSPost2010Prop35
280
     0
102
RTVSPost2010PropOp35
 70
     1
102
RTVSPost2010Prop36
280
     0
102
RTVSPost2010PropOp36
 70
     1
102
RTVSPost2010Prop37
 90
       50
102
RTVSPost2010PropOp37
 70
     1
102
RTVSPost2010Prop38
140
0.0
102
RTVSPost2010PropOp38
 70
     1
102
RTVSPost2010Prop39
140
1.0
102
RTVSPost2010PropOp39
 70
     1
102
RTVSPost2010Prop40
 90
        0
102
RTVSPost2010PropOp40
 70
     1
102
RTVSPost2010Prop41ColorIndex
 90
       18
102
RTVSPost2010Prop41ColorRGB
 90
        0
102
RTVSPost2010PropOp41
 70
     1
102
RTVSPost2010Prop42
 90
       50
102
RTVSPost2010PropOp42
 70
     1
102
RTVSPost2010Prop43
 90
        3
102
RTVSPost2010PropOp43
 70
     1
102
RTVSPost2010Prop44ColorIndex
 90
        5
102
RTVSPost2010Prop44ColorRGB
 90
      255
102
RTVSPost2010PropOp44
 70
     1
102
RTVSPost2010Prop45
280
     0
102
RTVSPost2010PropOp45
 70
     1
102
RTVSPost2010Prop46
 90
       50
102
RTVSPost2010PropOp46
 70
     1
102
RTVSPost2010Prop47
 90
       50
102
RTVSPost2010PropOp47
 70
     1
102
RTVSPost2010Prop48
 90
       50
102
RTVSPost2010PropOp48
 70
     1
102
RTVSPost2010Prop49
280
     0
102
RTVSPost2010PropOp49
 70
     1
102
RTVSPost2010Prop50
 90
       50
102
RTVSPost2010PropOp50
 70
     1
102
RTVSPost2010Prop51ColorIndex
 90
      256
102
RTVSPost2010Prop51ColorRGB
 90
-16777216
102
RTVSPost2010PropOp51
 70
     0
102
RTVSPost2010Prop52
140
1.0
102
RTVSPost2010PropOp52
 70
     0
102
RTVSPost2010Prop53
 90
        2
102
RTVSPost2010PropOp53
 70
     1
102
RTVSPost2010Prop54
  1
strokes_ogs.tif
102
RTVSPost2010PropOp54
 70
     1
102
RTVSPost2010Prop55
280
     0
102
RTVSPost2010PropOp55
 70
     1
102
RTVSPost2010Prop56
140
1.0
102
RTVSPost2010PropOp56
 70
     1
102
RTVSPost2010Prop57
140
1.0
102
RTVSPost2010PropOp57
 70
     1
  0
XRECORD
  5
106AC5E
102
{ACAD_REACTORS
330
106AC5D
102
}
330
106AC5D
100
AcDbXrecord
280
     1
102
RTVSPropertyOp0
 70
     1
102
RTVSPropertyOp1
 70
     1
102
RTVSPropertyOp2
 70
     1
102
RTVSPropertyOp3
 70
     1
102
RTVSPropertyOp4
 70
     1
102
RTVSPropertyOp5
 70
     1
102
RTVSPropertyOp6
 70
     1
102
RTVSPropertyOp7
 70
     1
102
RTVSPropertyOp8
 70
     1
102
RTVSPropertyOp9
 70
     1
102
RTVSPropertyOp10
 70
     1
102
RTVSPropertyOp11
 70
     1
102
RTVSPropertyOp12
 70
     1
102
RTVSPropertyOp13
 70
     1
102
RTVSPropertyOp14
 70
     1
102
RTVSPropertyOp15
 70
     1
102
RTVSPropertyOp16
 70
     1
102
RTVSPropertyOp17
 70
     1
102
RTVSPropertyOp18
 70
     1
102
RTVSPropertyOp19
 70
     1
102
RTVSPropertyOp20
 70
     1
102
RTVSPropertyOp21
 70
     1
102
RTVSPropertyOp22
 70
     1
102
RTVSPropertyOp23
 70
     1
102
RTVSPropertyOp24
 70
     1
102
RTVSPropertyOp25
 70
     1
102
RTVSPropertyOp26
 70
     1
102
RTVSPropertyOp27
 70
     1
102
RTVSPropertyOp28
 70
     1
102
RTVSPropertyOp29
 70
     1
102
RTVSPropertyOp30
 70
     1
102
RTVSPropertyOp31
 70
     1
102
RTVSPropertyOp32
 70
     1
102
RTVSPropertyOp33
 70
     1
102
RTVSPropertyOp34
 70
     1
102
RTVSPropertyOp35
 70
     1
102
RTVSPropertyOp36
 70
     1
102
RTVSPropertyOp37
 70
     1
102
RTVSPropertyOp38
 70
     1
102
RTVSPropertyOp39
 70
     1
102
RTVSPropertyOp40
 70
     1
102
RTVSPropertyOp41
 70
     1
102
RTVSPropertyOp42
 70
     1
102
RTVSPropertyOp43
 70
     1
102
RTVSPropertyOp44
 70
     1
102
RTVSPropertyOp45
 70
     1
102
RTVSPropertyOp46
 70
     1
102
RTVSPropertyOp47
 70
     1
102
RTVSPropertyOp48
 70
     1
102
RTVSPropertyOp49
 70
     1
102
RTVSPropertyOp50
 70
     1
102
RTVSPropertyOp51
 70
     0
102
RTVSPropertyOp52
 70
     0
102
RTVSPropertyOp53
 70
     1
102
RTVSPropertyOp54
 70
     1
102
RTVSPropertyOp55
 70
     1
102
RTVSPropertyOp56
 70
     1
102
RTVSPropertyOp57
 70
     1
102
RTVSPost2010Prop28
280
     0
102
RTVSPost2010PropOp28
 70
     1
102
RTVSPost2010Prop29
280
     1
102
RTVSPost2010PropOp29
 70
     1
102
RTVSPost2010Prop30
280
     1
102
RTVSPost2010PropOp30
 70
     1
102
RTVSPost2010Prop31
280
     0
102
RTVSPost2010PropOp31
 70
     1
102
RTVSPost2010Prop32
280
     0
102
RTVSPost2010PropOp32
 70
     1
102
RTVSPost2010Prop33
280
     0
102
RTVSPost2010PropOp33
 70
     1
102
RTVSPost2010Prop34
280
     0
102
RTVSPost2010PropOp34
 70
     1
102
RTVSPost2010Prop35
280
     0
102
RTVSPost2010PropOp35
 70
     1
102
RTVSPost2010Prop36
280
     0
102
RTVSPost2010PropOp36
 70
     1
102
RTVSPost2010Prop37
 90
       50
102
RTVSPost2010PropOp37
 70
     1
102
RTVSPost2010Prop38
140
0.0
102
RTVSPost2010PropOp38
 70
     1
102
RTVSPost2010Prop39
140
1.0
102
RTVSPost2010PropOp39
 70
     1
102
RTVSPost2010Prop40
 90
        0
102
RTVSPost2010PropOp40
 70
     1
102
RTVSPost2010Prop41ColorIndex
 90
       18
102
RTVSPost2010Prop41ColorRGB
 90
        0
102
RTVSPost2010PropOp41
 70
     1
102
RTVSPost2010Prop42
 90
       50
102
RTVSPost2010PropOp42
 70
     1
102
RTVSPost2010Prop43
 90
        3
102
RTVSPost2010PropOp43
 70
     1
102
RTVSPost2010Prop44ColorIndex
 90
        5
102
RTVSPost2010Prop44ColorRGB
 90
      255
102
RTVSPost2010PropOp44
 70
     1
102
RTVSPost2010Prop45
280
     0
102
RTVSPost2010PropOp45
 70
     1
102
RTVSPost2010Prop46
 90
       50
102
RTVSPost2010PropOp46
 70
     1
102
RTVSPost2010Prop47
 90
       50
102
RTVSPost2010PropOp47
 70
     1
102
RTVSPost2010Prop48
 90
       50
102
RTVSPost2010PropOp48
 70
     1
102
RTVSPost2010Prop49
280
     0
102
RTVSPost2010PropOp49
 70
     1
102
RTVSPost2010Prop50
 90
       50
102
RTVSPost2010PropOp50
 70
     1
102
RTVSPost2010Prop51ColorIndex
 90
      256
102
RTVSPost2010Prop51ColorRGB
 90
-16777216
102
RTVSPost2010PropOp51
 70
     0
102
RTVSPost2010Prop52
140
1.0
102
RTVSPost2010PropOp52
 70
     0
102
RTVSPost2010Prop53
 90
        2
102
RTVSPost2010PropOp53
 70
     1
102
RTVSPost2010Prop54
  1
strokes_ogs.tif
102
RTVSPost2010PropOp54
 70
     1
102
RTVSPost2010Prop55
280
     0
102
RTVSPost2010PropOp55
 70
     1
102
RTVSPost2010Prop56
140
1.0
102
RTVSPost2010PropOp56
 70
     1
102
RTVSPost2010Prop57
140
1.0
102
RTVSPost2010PropOp57
 70
     1
  0
XRECORD
  5
106AC4E
102
{ACAD_REACTORS
330
106AC4D
102
}
330
106AC4D
100
AcDbXrecord
280
     1
102
RTVSPropertyOp0
 70
     1
102
RTVSPropertyOp1
 70
     1
102
RTVSPropertyOp2
 70
     1
102
RTVSPropertyOp3
 70
     1
102
RTVSPropertyOp4
 70
     1
102
RTVSPropertyOp5
 70
     1
102
RTVSPropertyOp6
 70
     1
102
RTVSPropertyOp7
 70
     1
102
RTVSPropertyOp8
 70
     1
102
RTVSPropertyOp9
 70
     1
102
RTVSPropertyOp10
 70
     1
102
RTVSPropertyOp11
 70
     1
102
RTVSPropertyOp12
 70
     1
102
RTVSPropertyOp13
 70
     1
102
RTVSPropertyOp14
 70
     1
102
RTVSPropertyOp15
 70
     1
102
RTVSPropertyOp16
 70
     1
102
RTVSPropertyOp17
 70
     1
102
RTVSPropertyOp18
 70
     1
102
RTVSPropertyOp19
 70
     1
102
RTVSPropertyOp20
 70
     1
102
RTVSPropertyOp21
 70
     1
102
RTVSPropertyOp22
 70
     1
102
RTVSPropertyOp23
 70
     1
102
RTVSPropertyOp24
 70
     1
102
RTVSPropertyOp25
 70
     1
102
RTVSPropertyOp26
 70
     1
102
RTVSPropertyOp27
 70
     1
102
RTVSPropertyOp28
 70
     1
102
RTVSPropertyOp29
 70
     1
102
RTVSPropertyOp30
 70
     1
102
RTVSPropertyOp31
 70
     1
102
RTVSPropertyOp32
 70
     1
102
RTVSPropertyOp33
 70
     1
102
RTVSPropertyOp34
 70
     1
102
RTVSPropertyOp35
 70
     1
102
RTVSPropertyOp36
 70
     1
102
RTVSPropertyOp37
 70
     1
102
RTVSPropertyOp38
 70
     1
102
RTVSPropertyOp39
 70
     1
102
RTVSPropertyOp40
 70
     1
102
RTVSPropertyOp41
 70
     1
102
RTVSPropertyOp42
 70
     1
102
RTVSPropertyOp43
 70
     1
102
RTVSPropertyOp44
 70
     1
102
RTVSPropertyOp45
 70
     1
102
RTVSPropertyOp46
 70
     1
102
RTVSPropertyOp47
 70
     1
102
RTVSPropertyOp48
 70
     1
102
RTVSPropertyOp49
 70
     1
102
RTVSPropertyOp50
 70
     1
102
RTVSPropertyOp51
 70
     0
102
RTVSPropertyOp52
 70
     0
102
RTVSPropertyOp53
 70
     1
102
RTVSPropertyOp54
 70
     1
102
RTVSPropertyOp55
 70
     1
102
RTVSPropertyOp56
 70
     1
102
RTVSPropertyOp57
 70
     1
102
RTVSPost2010Prop28
280
     0
102
RTVSPost2010PropOp28
 70
     1
102
RTVSPost2010Prop29
280
     1
102
RTVSPost2010PropOp29
 70
     1
102
RTVSPost2010Prop30
280
     1
102
RTVSPost2010PropOp30
 70
     1
102
RTVSPost2010Prop31
280
     0
102
RTVSPost2010PropOp31
 70
     1
102
RTVSPost2010Prop32
280
     0
102
RTVSPost2010PropOp32
 70
     1
102
RTVSPost2010Prop33
280
     0
102
RTVSPost2010PropOp33
 70
     1
102
RTVSPost2010Prop34
280
     0
102
RTVSPost2010PropOp34
 70
     1
102
RTVSPost2010Prop35
280
     0
102
RTVSPost2010PropOp35
 70
     1
102
RTVSPost2010Prop36
280
     0
102
RTVSPost2010PropOp36
 70
     1
102
RTVSPost2010Prop37
 90
       50
102
RTVSPost2010PropOp37
 70
     1
102
RTVSPost2010Prop38
140
0.0
102
RTVSPost2010PropOp38
 70
     1
102
RTVSPost2010Prop39
140
1.0
102
RTVSPost2010PropOp39
 70
     1
102
RTVSPost2010Prop40
 90
        0
102
RTVSPost2010PropOp40
 70
     1
102
RTVSPost2010Prop41ColorIndex
 90
       18
102
RTVSPost2010Prop41ColorRGB
 90
        0
102
RTVSPost2010PropOp41
 70
     1
102
RTVSPost2010Prop42
 90
       50
102
RTVSPost2010PropOp42
 70
     1
102
RTVSPost2010Prop43
 90
        3
102
RTVSPost2010PropOp43
 70
     1
102
RTVSPost2010Prop44ColorIndex
 90
        5
102
RTVSPost2010Prop44ColorRGB
 90
      255
102
RTVSPost2010PropOp44
 70
     1
102
RTVSPost2010Prop45
280
     0
102
RTVSPost2010PropOp45
 70
     1
102
RTVSPost2010Prop46
 90
       50
102
RTVSPost2010PropOp46
 70
     1
102
RTVSPost2010Prop47
 90
       50
102
RTVSPost2010PropOp47
 70
     1
102
RTVSPost2010Prop48
 90
       50
102
RTVSPost2010PropOp48
 70
     1
102
RTVSPost2010Prop49
280
     0
102
RTVSPost2010PropOp49
 70
     1
102
RTVSPost2010Prop50
 90
       50
102
RTVSPost2010PropOp50
 70
     1
102
RTVSPost2010Prop51ColorIndex
 90
      256
102
RTVSPost2010Prop51ColorRGB
 90
-16777216
102
RTVSPost2010PropOp51
 70
     0
102
RTVSPost2010Prop52
140
1.0
102
RTVSPost2010PropOp52
 70
     0
102
RTVSPost2010Prop53
 90
        2
102
RTVSPost2010PropOp53
 70
     1
102
RTVSPost2010Prop54
  1
strokes_ogs.tif
102
RTVSPost2010PropOp54
 70
     1
102
RTVSPost2010Prop55
280
     0
102
RTVSPost2010PropOp55
 70
     1
102
RTVSPost2010Prop56
140
1.0
102
RTVSPost2010PropOp56
 70
     1
102
RTVSPost2010Prop57
140
1.0
102
RTVSPost2010PropOp57
 70
     1
  0
XRECORD
  5
106AC40
102
{ACAD_REACTORS
330
106AC3F
102
}
330
106AC3F
100
AcDbXrecord
280
     1
102
RTVSPropertyOp0
 70
     1
102
RTVSPropertyOp1
 70
     1
102
RTVSPropertyOp2
 70
     1
102
RTVSPropertyOp3
 70
     1
102
RTVSPropertyOp4
 70
     1
102
RTVSPropertyOp5
 70
     1
102
RTVSPropertyOp6
 70
     1
102
RTVSPropertyOp7
 70
     1
102
RTVSPropertyOp8
 70
     1
102
RTVSPropertyOp9
 70
     1
102
RTVSPropertyOp10
 70
     1
102
RTVSPropertyOp11
 70
     1
102
RTVSPropertyOp12
 70
     1
102
RTVSPropertyOp13
 70
     1
102
RTVSPropertyOp14
 70
     1
102
RTVSPropertyOp15
 70
     1
102
RTVSPropertyOp16
 70
     1
102
RTVSPropertyOp17
 70
     1
102
RTVSPropertyOp18
 70
     1
102
RTVSPropertyOp19
 70
     1
102
RTVSPropertyOp20
 70
     1
102
RTVSPropertyOp21
 70
     1
102
RTVSPropertyOp22
 70
     1
102
RTVSPropertyOp23
 70
     1
102
RTVSPropertyOp24
 70
     1
102
RTVSPropertyOp25
 70
     1
102
RTVSPropertyOp26
 70
     1
102
RTVSPropertyOp27
 70
     1
102
RTVSPropertyOp28
 70
     1
102
RTVSPropertyOp29
 70
     1
102
RTVSPropertyOp30
 70
     1
102
RTVSPropertyOp31
 70
     1
102
RTVSPropertyOp32
 70
     1
102
RTVSPropertyOp33
 70
     1
102
RTVSPropertyOp34
 70
     1
102
RTVSPropertyOp35
 70
     1
102
RTVSPropertyOp36
 70
     1
102
RTVSPropertyOp37
 70
     1
102
RTVSPropertyOp38
 70
     1
102
RTVSPropertyOp39
 70
     1
102
RTVSPropertyOp40
 70
     1
102
RTVSPropertyOp41
 70
     1
102
RTVSPropertyOp42
 70
     1
102
RTVSPropertyOp43
 70
     1
102
RTVSPropertyOp44
 70
     1
102
RTVSPropertyOp45
 70
     1
102
RTVSPropertyOp46
 70
     1
102
RTVSPropertyOp47
 70
     1
102
RTVSPropertyOp48
 70
     1
102
RTVSPropertyOp49
 70
     1
102
RTVSPropertyOp50
 70
     1
102
RTVSPropertyOp51
 70
     0
102
RTVSPropertyOp52
 70
     0
102
RTVSPropertyOp53
 70
     1
102
RTVSPropertyOp54
 70
     1
102
RTVSPropertyOp55
 70
     1
102
RTVSPropertyOp56
 70
     1
102
RTVSPropertyOp57
 70
     1
102
RTVSPost2010Prop28
280
     0
102
RTVSPost2010PropOp28
 70
     1
102
RTVSPost2010Prop29
280
     1
102
RTVSPost2010PropOp29
 70
     1
102
RTVSPost2010Prop30
280
     1
102
RTVSPost2010PropOp30
 70
     1
102
RTVSPost2010Prop31
280
     0
102
RTVSPost2010PropOp31
 70
     1
102
RTVSPost2010Prop32
280
     0
102
RTVSPost2010PropOp32
 70
     1
102
RTVSPost2010Prop33
280
     0
102
RTVSPost2010PropOp33
 70
     1
102
RTVSPost2010Prop34
280
     0
102
RTVSPost2010PropOp34
 70
     1
102
RTVSPost2010Prop35
280
     0
102
RTVSPost2010PropOp35
 70
     1
102
RTVSPost2010Prop36
280
     0
102
RTVSPost2010PropOp36
 70
     1
102
RTVSPost2010Prop37
 90
       50
102
RTVSPost2010PropOp37
 70
     1
102
RTVSPost2010Prop38
140
0.0
102
RTVSPost2010PropOp38
 70
     1
102
RTVSPost2010Prop39
140
1.0
102
RTVSPost2010PropOp39
 70
     1
102
RTVSPost2010Prop40
 90
        0
102
RTVSPost2010PropOp40
 70
     1
102
RTVSPost2010Prop41ColorIndex
 90
       18
102
RTVSPost2010Prop41ColorRGB
 90
        0
102
RTVSPost2010PropOp41
 70
     1
102
RTVSPost2010Prop42
 90
       50
102
RTVSPost2010PropOp42
 70
     1
102
RTVSPost2010Prop43
 90
        3
102
RTVSPost2010PropOp43
 70
     1
102
RTVSPost2010Prop44ColorIndex
 90
        5
102
RTVSPost2010Prop44ColorRGB
 90
      255
102
RTVSPost2010PropOp44
 70
     1
102
RTVSPost2010Prop45
280
     0
102
RTVSPost2010PropOp45
 70
     1
102
RTVSPost2010Prop46
 90
       50
102
RTVSPost2010PropOp46
 70
     1
102
RTVSPost2010Prop47
 90
       50
102
RTVSPost2010PropOp47
 70
     1
102
RTVSPost2010Prop48
 90
       50
102
RTVSPost2010PropOp48
 70
     1
102
RTVSPost2010Prop49
280
     0
102
RTVSPost2010PropOp49
 70
     1
102
RTVSPost2010Prop50
 90
       50
102
RTVSPost2010PropOp50
 70
     1
102
RTVSPost2010Prop51ColorIndex
 90
      256
102
RTVSPost2010Prop51ColorRGB
 90
-16777216
102
RTVSPost2010PropOp51
 70
     0
102
RTVSPost2010Prop52
140
1.0
102
RTVSPost2010PropOp52
 70
     0
102
RTVSPost2010Prop53
 90
        2
102
RTVSPost2010PropOp53
 70
     1
102
RTVSPost2010Prop54
  1
strokes_ogs.tif
102
RTVSPost2010PropOp54
 70
     1
102
RTVSPost2010Prop55
280
     0
102
RTVSPost2010PropOp55
 70
     1
102
RTVSPost2010Prop56
140
1.0
102
RTVSPost2010PropOp56
 70
     1
102
RTVSPost2010Prop57
140
1.0
102
RTVSPost2010PropOp57
 70
     1
  0
XRECORD
  5
106AC60
102
{ACAD_REACTORS
330
106AC5F
102
}
330
106AC5F
100
AcDbXrecord
280
     1
102
RTVSPropertyOp0
 70
     1
102
RTVSPropertyOp1
 70
     1
102
RTVSPropertyOp2
 70
     1
102
RTVSPropertyOp3
 70
     1
102
RTVSPropertyOp4
 70
     1
102
RTVSPropertyOp5
 70
     1
102
RTVSPropertyOp6
 70
     1
102
RTVSPropertyOp7
 70
     1
102
RTVSPropertyOp8
 70
     1
102
RTVSPropertyOp9
 70
     1
102
RTVSPropertyOp10
 70
     1
102
RTVSPropertyOp11
 70
     1
102
RTVSPropertyOp12
 70
     1
102
RTVSPropertyOp13
 70
     1
102
RTVSPropertyOp14
 70
     1
102
RTVSPropertyOp15
 70
     1
102
RTVSPropertyOp16
 70
     1
102
RTVSPropertyOp17
 70
     1
102
RTVSPropertyOp18
 70
     1
102
RTVSPropertyOp19
 70
     1
102
RTVSPropertyOp20
 70
     1
102
RTVSPropertyOp21
 70
     1
102
RTVSPropertyOp22
 70
     1
102
RTVSPropertyOp23
 70
     1
102
RTVSPropertyOp24
 70
     1
102
RTVSPropertyOp25
 70
     1
102
RTVSPropertyOp26
 70
     1
102
RTVSPropertyOp27
 70
     1
102
RTVSPropertyOp28
 70
     1
102
RTVSPropertyOp29
 70
     1
102
RTVSPropertyOp30
 70
     1
102
RTVSPropertyOp31
 70
     1
102
RTVSPropertyOp32
 70
     1
102
RTVSPropertyOp33
 70
     1
102
RTVSPropertyOp34
 70
     1
102
RTVSPropertyOp35
 70
     1
102
RTVSPropertyOp36
 70
     1
102
RTVSPropertyOp37
 70
     1
102
RTVSPropertyOp38
 70
     1
102
RTVSPropertyOp39
 70
     1
102
RTVSPropertyOp40
 70
     1
102
RTVSPropertyOp41
 70
     1
102
RTVSPropertyOp42
 70
     1
102
RTVSPropertyOp43
 70
     1
102
RTVSPropertyOp44
 70
     1
102
RTVSPropertyOp45
 70
     1
102
RTVSPropertyOp46
 70
     1
102
RTVSPropertyOp47
 70
     1
102
RTVSPropertyOp48
 70
     1
102
RTVSPropertyOp49
 70
     1
102
RTVSPropertyOp50
 70
     1
102
RTVSPropertyOp51
 70
     0
102
RTVSPropertyOp52
 70
     0
102
RTVSPropertyOp53
 70
     1
102
RTVSPropertyOp54
 70
     1
102
RTVSPropertyOp55
 70
     1
102
RTVSPropertyOp56
 70
     1
102
RTVSPropertyOp57
 70
     1
102
RTVSPost2010Prop28
280
     0
102
RTVSPost2010PropOp28
 70
     1
102
RTVSPost2010Prop29
280
     1
102
RTVSPost2010PropOp29
 70
     1
102
RTVSPost2010Prop30
280
     1
102
RTVSPost2010PropOp30
 70
     1
102
RTVSPost2010Prop31
280
     0
102
RTVSPost2010PropOp31
 70
     1
102
RTVSPost2010Prop32
280
     0
102
RTVSPost2010PropOp32
 70
     1
102
RTVSPost2010Prop33
280
     0
102
RTVSPost2010PropOp33
 70
     1
102
RTVSPost2010Prop34
280
     0
102
RTVSPost2010PropOp34
 70
     1
102
RTVSPost2010Prop35
280
     0
102
RTVSPost2010PropOp35
 70
     1
102
RTVSPost2010Prop36
280
     0
102
RTVSPost2010PropOp36
 70
     1
102
RTVSPost2010Prop37
 90
       50
102
RTVSPost2010PropOp37
 70
     1
102
RTVSPost2010Prop38
140
0.0
102
RTVSPost2010PropOp38
 70
     1
102
RTVSPost2010Prop39
140
1.0
102
RTVSPost2010PropOp39
 70
     1
102
RTVSPost2010Prop40
 90
        0
102
RTVSPost2010PropOp40
 70
     1
102
RTVSPost2010Prop41ColorIndex
 90
       18
102
RTVSPost2010Prop41ColorRGB
 90
        0
102
RTVSPost2010PropOp41
 70
     1
102
RTVSPost2010Prop42
 90
       50
102
RTVSPost2010PropOp42
 70
     1
102
RTVSPost2010Prop43
 90
        3
102
RTVSPost2010PropOp43
 70
     1
102
RTVSPost2010Prop44ColorIndex
 90
        5
102
RTVSPost2010Prop44ColorRGB
 90
      255
102
RTVSPost2010PropOp44
 70
     1
102
RTVSPost2010Prop45
280
     0
102
RTVSPost2010PropOp45
 70
     1
102
RTVSPost2010Prop46
 90
       50
102
RTVSPost2010PropOp46
 70
     1
102
RTVSPost2010Prop47
 90
       50
102
RTVSPost2010PropOp47
 70
     1
102
RTVSPost2010Prop48
 90
       50
102
RTVSPost2010PropOp48
 70
     1
102
RTVSPost2010Prop49
280
     0
102
RTVSPost2010PropOp49
 70
     1
102
RTVSPost2010Prop50
 90
       50
102
RTVSPost2010PropOp50
 70
     1
102
RTVSPost2010Prop51ColorIndex
 90
      256
102
RTVSPost2010Prop51ColorRGB
 90
-16777216
102
RTVSPost2010PropOp51
 70
     0
102
RTVSPost2010Prop52
140
1.0
102
RTVSPost2010PropOp52
 70
     0
102
RTVSPost2010Prop53
 90
        2
102
RTVSPost2010PropOp53
 70
     1
102
RTVSPost2010Prop54
  1
strokes_ogs.tif
102
RTVSPost2010PropOp54
 70
     1
102
RTVSPost2010Prop55
280
     0
102
RTVSPost2010PropOp55
 70
     1
102
RTVSPost2010Prop56
140
1.0
102
RTVSPost2010PropOp56
 70
     1
102
RTVSPost2010Prop57
140
1.0
102
RTVSPost2010PropOp57
 70
     1
  0
ENDSEC
  0
EOF
