  0
SECTION
  2
HEADER
  9
$ACADVER
  1
AC1015
  9
$DWGCODEPAGE
  3
ANSI_932
  9
$HANDSEED
  5
106AB90
  0
ENDSEC
  0
SECTION
  2
CLASSES
  0
CLASS
  1
IMAGEDEF
  2
AcDbRasterImageDef
  3
ISM
  90
0
  91
4
  280
0
  281
0
  0
CLASS
  1
IMAGE
  2
AcDbRasterImage
  3
ISM
  90
127
  91
5
  280
0
  281
1
  0
CLASS
  1
IMAGEDEF_REACTOR
  2
AcDbRasterImageDefReactor
  3
ISM
  90
1
  91
4
  280
0
  281
0
  0
ENDSEC
  0
SECTION
  2
TABLES
  0
TABLE
  2
VPORT
  5
2
  330
0
  100
AcDbSymbolTable
  70
    0
  0
ENDTAB
  0
TABLE
  2
LTYPE
  5
3
  330
0
  100
AcDbSymbolTable
  70
    4
  0
LTYPE
  5
4
  330
3
  100
AcDbSymbolTableRecord
  100
AcDbLinetypeTableRecord
  2
ByBlock
  70
    0
  3

  72
65
  73
    0
  40
0
  0
LTYPE
  5
5
  330
3
  100
AcDbSymbolTableRecord
  100
AcDbLinetypeTableRecord
  2
ByLayer
  70
    0
  3

  72
65
  73
    0
  40
0
  0
LTYPE
  5
6
  330
3
  100
AcDbSymbolTableRecord
  100
AcDbLinetypeTableRecord
  2
CONTINUOUS
  70
    0
  3
Solid Line
  72
65
  73
    0
  40
0
  0
LTYPE
  5
7
  330
3
  100
AcDbSymbolTableRecord
  100
AcDbLinetypeTableRecord
  2
DASH
  70
    0
  3
Hidden
  72
65
  73
2
  40
2.5
  49
1.5
  74
0
  49
-1
  74
0
  0
LTYPE
  5
8
  330
3
  100
AcDbSymbolTableRecord
  100
AcDbLinetypeTableRecord
  2
LONGDASHDASH
  70
    0
  3
__ . __
  72
65
  73
    4
  40
7
  49
4
  74
    0
  49
-1
  74
    0
  49
1
  74
    0
  49
-1
  74
    0
  0
ENDTAB
  0
TABLE
  2
LAYER
  5
9
  330
0
  100
AcDbSymbolTable
  70
    40
  0
LAYER
  5
a
  330
9
  100
AcDbSymbolTableRecord
  100
AcDbLayerTableRecord
  2
0
  70
    0
  62
    0
  6
CONTINUOUS
  390
0
  0
LAYER
  5
c
  330
9
  100
AcDbSymbolTableRecord
  100
AcDbLayerTableRecord
  2
1
  70
    0
  62
    4
  6
CONTINUOUS
  370
50
  390
0
  0
LAYER
  5
d
  330
9
  100
AcDbSymbolTableRecord
  100
AcDbLayerTableRecord
  2
2
  70
    0
  62
    7
  6
CONTINUOUS
  370
25
  390
0
  0
LAYER
  5
f
  330
9
  100
AcDbSymbolTableRecord
  100
AcDbLayerTableRecord
  2
4
  70
    0
  62
    2
  6
LONGDASHDASH
  370
25
  390
0
  0
LAYER
  5
13
  330
9
  100
AcDbSymbolTableRecord
  100
AcDbLayerTableRecord
  2
SK1
  70
    0
  62
    4
  6
CONTINUOUS
  370
50
  390
0
  0
LAYER
  5
14
  330
9
  100
AcDbSymbolTableRecord
  100
AcDbLayerTableRecord
  2
SK2
  70
    0
  62
    7
  6
CONTINUOUS
  370
25
  390
0
  0
LAYER
  5
16
  330
9
  100
AcDbSymbolTableRecord
  100
AcDbLayerTableRecord
  2
SK4
  70
    0
  62
    2
  6
LONGDASHDASH
  370
25
  390
0
  0
LAYER
  5
21
  330
9
  100
AcDbSymbolTableRecord
  100
AcDbLayerTableRecord
  2
NOCUT
  70
    0
  62
    7
  6
CONTINUOUS
  370
25
  390
0
  0
LAYER
  5
22
  330
9
  100
AcDbSymbolTableRecord
  100
AcDbLayerTableRecord
  2
CUT
  70
    0
  62
    1
  6
CONTINUOUS
  370
25
  390
0
  0
LAYER
  5
26
  330
9
  100
AcDbSymbolTableRecord
  100
AcDbLayerTableRecord
  2
INFTOTAL
  70
    0
  62
    9
  6
CONTINUOUS
  370
18
  390
0
  0
ENDTAB
  0
TABLE
  2
STYLE
  5
27
  330
0
  100
AcDbSymbolTable
  70
    1
  0
STYLE
  5
28
  330
27
  100
AcDbSymbolTableRecord
  100
AcDbTextStyleTableRecord
  2
Monospac821 BT
  70
    0
  40
    3.5
  41
1
  50
0
  71
0
  42
3
  3

  4

  1001
ACAD
  1000
Monospac821 BT
  1071
256
  0
ENDTAB
  0
TABLE
  2
VIEW
  5
29
  330
0
  100
AcDbSymbolTable
  70
    0
  0
ENDTAB
  0
TABLE
  2
UCS
  5
2a
  330
0
  100
AcDbSymbolTable
  70
    0
  0
ENDTAB
  0
TABLE
  2
APPID
  5
2b
  330
0
  100
AcDbSymbolTable
  70
    1
  0
APPID
  5
2c
  330
2b
  100
AcDbSymbolTableRecord
  100
AcDbRegAppTableRecord
  2
ACAD
  70
    0
  0
ENDTAB
  0
TABLE
  2
DIMSTYLE
  5
2d
  330
0
  100
AcDbSymbolTable
  70
    1
  100
AcDbDimStyleTable
  0
DIMSTYLE
  105
2e
  330
2d
  100
AcDbSymbolTableRecord
  100
AcDbDimStyleTableRecord
  2
STANDARD
  70
    0
  41
    3
  42
0.5
  44
1
  73
0
  77
1
  78
1
  140
3.5
  141
2.5
  143
0.03937
  147
0.8
  172
1
  174
1
  178
0
  179
1
  271
2
  279
1
  284
1
  340
28
  0
ENDTAB
  0
TABLE
  2
BLOCK_RECORD
  5
2f
  330
0
  100
AcDbSymbolTable
  70
    2
  0
BLOCK_RECORD
  5
30
  330
2f
  100
AcDbSymbolTableRecord
  100
AcDbBlockTableRecord
  2
*Model_Space
  0
BLOCK_RECORD
  5
31
  330
2f
  100
AcDbSymbolTableRecord
  100
AcDbBlockTableRecord
  2
*Paper_Space
  0
BLOCK_RECORD
  5
cc
  330
2f
  100
AcDbSymbolTableRecord
  100
AcDbBlockTableRecord
  2
*Dcb
  340
0
  0
BLOCK_RECORD
  5
da
  330
2f
  100
AcDbSymbolTableRecord
  100
AcDbBlockTableRecord
  2
*Dd9
  340
0
  0
BLOCK_RECORD
  5
e8
  330
2f
  100
AcDbSymbolTableRecord
  100
AcDbBlockTableRecord
  2
*De7
  340
0
  0
BLOCK_RECORD
  5
f6
  330
2f
  100
AcDbSymbolTableRecord
  100
AcDbBlockTableRecord
  2
*Df5
  340
0
  0
BLOCK_RECORD
  5
104
  330
2f
  100
AcDbSymbolTableRecord
  100
AcDbBlockTableRecord
  2
*D103
  340
0
  0
BLOCK_RECORD
  5
10e
  330
2f
  100
AcDbSymbolTableRecord
  100
AcDbBlockTableRecord
  2
*D10d
  340
0
  0
BLOCK_RECORD
  5
11c
  330
2f
  100
AcDbSymbolTableRecord
  100
AcDbBlockTableRecord
  2
*D11b
  340
0
  0
BLOCK_RECORD
  5
12a
  330
2f
  100
AcDbSymbolTableRecord
  100
AcDbBlockTableRecord
  2
*D129
  340
0
  0
BLOCK_RECORD
  5
138
  330
2f
  100
AcDbSymbolTableRecord
  100
AcDbBlockTableRecord
  2
*D137
  340
0
  0
ENDTAB
  0
ENDSEC
  0
SECTION
  2
BLOCKS
  0
BLOCK
  5
32
  330
30
  100
AcDbEntity
  8
0
  100
AcDbBlockBegin
  2
*Model_Space
  70
    0
  10
0
  20
0
  30
0
  3
*Model_Space
  1

  0
ENDBLK
  5
33
  330
30
  100
AcDbEntity
  8
0
  100
AcDbBlockEnd
  0
BLOCK
  5
34
  330
31
  100
AcDbEntity
  8
0
  100
AcDbBlockBegin
  2
*Paper_Space
  70
    0
  10
0
  20
0
  30
0
  3
*Paper_Space
  1

  0
ENDBLK
  5
35
  330
31
  100
AcDbEntity
  8
0
  100
AcDbBlockEnd
  0
BLOCK
  5
ca
  330
cc
  100
AcDbEntity
  8
SK2
  100
AcDbBlockBegin
  2
*Dcb
  70
1
  10
0
  20
0
  30
0
  3
*Dcb
  1

  0
LINE
  5
cd
  330
cc
  100
AcDbEntity
  8
SK2
  100
AcDbLine
  10
0
  20
2.3
  30
0
  11
0
  21
15
  31
0
  0
LINE
  5
ce
  330
cc
  100
AcDbEntity
  8
SK2
  100
AcDbLine
  10
50
  20
0.55
  30
0
  11
50
  21
15
  31
0
  0
LINE
  5
cf
  330
cc
  100
AcDbEntity
  8
SK2
  100
AcDbLine
  10
0
  20
13
  30
0
  11
50
  21
13
  31
0
  0
SOLID
  5
d0
  330
cc
  100
AcDbEntity
  8
SK2
  100
AcDbTrace
  10
0
  20
13
  30
0
  11
2.478612
  21
13.326315
  31
0
  12
2.478612
  22
12.673685
  32
0
  13
2.478612
  23
12.673685
  33
0
  0
SOLID
  5
d1
  330
cc
  100
AcDbEntity
  8
SK2
  100
AcDbTrace
  10
50
  20
13
  30
0
  11
47.521388
  21
12.673685
  31
0
  12
47.521388
  22
13.326315
  32
0
  13
47.521388
  23
13.326315
  33
0
  0
MTEXT
  5
d2
  330
cc
  100
AcDbEntity
  8
SK2
  100
AcDbMText
  10
25
  20
13
  30
0
  11
1
  21
0
  31
0
  40
2
  41
0
  71
8
  72
1
  1
50
  0
POINT
  5
d3
  330
cc
  100
AcDbEntity
  8
SK2
  62
0
  100
AcDbPoint
  10
0
  20
2.3
  30
0
  0
POINT
  5
d4
  330
cc
  100
AcDbEntity
  8
SK2
  62
0
  100
AcDbPoint
  10
50
  20
0.55
  30
0
  0
POINT
  5
d5
  330
cc
  100
AcDbEntity
  8
SK2
  62
0
  100
AcDbPoint
  10
50
  20
13
  30
0
  0
ENDBLK
  5
d6
  330
cc
  100
AcDbEntity
  8
SK2
  100
AcDbBlockEnd
  0
BLOCK
  5
d8
  330
da
  100
AcDbEntity
  8
SK2
  100
AcDbBlockBegin
  2
*Dd9
  70
1
  10
0
  20
0
  30
0
  3
*Dd9
  1

  0
LINE
  5
db
  330
da
  100
AcDbEntity
  8
SK2
  100
AcDbLine
  10
0
  20
2.3
  30
0
  11
0
  21
8.61423
  31
0
  0
LINE
  5
dc
  330
da
  100
AcDbEntity
  8
SK2
  100
AcDbLine
  10
34.2
  20
3
  30
0
  11
34.2
  21
8.61423
  31
0
  0
LINE
  5
dd
  330
da
  100
AcDbEntity
  8
SK2
  100
AcDbLine
  10
0
  20
6.61423
  30
0
  11
34.2
  21
6.61423
  31
0
  0
SOLID
  5
de
  330
da
  100
AcDbEntity
  8
SK2
  100
AcDbTrace
  10
0
  20
6.61423
  30
0
  11
2.478612
  21
6.940545
  31
0
  12
2.478612
  22
6.287915
  32
0
  13
2.478612
  23
6.287915
  33
0
  0
SOLID
  5
df
  330
da
  100
AcDbEntity
  8
SK2
  100
AcDbTrace
  10
34.2
  20
6.61423
  30
0
  11
31.721388
  21
6.287915
  31
0
  12
31.721388
  22
6.940545
  32
0
  13
31.721388
  23
6.940545
  33
0
  0
MTEXT
  5
e0
  330
da
  100
AcDbEntity
  8
SK2
  100
AcDbMText
  10
17.1
  20
6.61423
  30
0
  11
1
  21
0
  31
0
  40
2
  41
0
  71
8
  72
1
  1
34.2
  0
POINT
  5
e1
  330
da
  100
AcDbEntity
  8
SK2
  62
0
  100
AcDbPoint
  10
0
  20
2.3
  30
0
  0
POINT
  5
e2
  330
da
  100
AcDbEntity
  8
SK2
  62
0
  100
AcDbPoint
  10
34.2
  20
3
  30
0
  0
POINT
  5
e3
  330
da
  100
AcDbEntity
  8
SK2
  62
0
  100
AcDbPoint
  10
34.2
  20
6.61423
  30
0
  0
ENDBLK
  5
e4
  330
da
  100
AcDbEntity
  8
SK2
  100
AcDbBlockEnd
  0
BLOCK
  5
e6
  330
e8
  100
AcDbEntity
  8
SK2
  100
AcDbBlockBegin
  2
*De7
  70
1
  10
0
  20
0
  30
0
  3
*De7
  1

  0
LINE
  5
e9
  330
e8
  100
AcDbEntity
  8
SK2
  100
AcDbLine
  10
0.7
  20
-3
  30
0
  11
-12
  21
-3
  31
0
  0
LINE
  5
ea
  330
e8
  100
AcDbEntity
  8
SK2
  100
AcDbLine
  10
0.7
  20
3
  30
0
  11
-12
  21
3
  31
0
  0
LINE
  5
eb
  330
e8
  100
AcDbEntity
  8
SK2
  100
AcDbLine
  10
-10
  20
-3
  30
0
  11
-10
  21
3
  31
0
  0
SOLID
  5
ec
  330
e8
  100
AcDbEntity
  8
SK2
  100
AcDbTrace
  10
-10
  20
-3
  30
0
  11
-10.326315
  21
-0.521388
  31
0
  12
-9.673685
  22
-0.521388
  32
0
  13
-9.673685
  23
-0.521388
  33
0
  0
SOLID
  5
ed
  330
e8
  100
AcDbEntity
  8
SK2
  100
AcDbTrace
  10
-10
  20
3
  30
0
  11
-9.673685
  21
0.521388
  31
0
  12
-10.326315
  22
0.521388
  32
0
  13
-10.326315
  23
0.521388
  33
0
  0
MTEXT
  5
ee
  330
e8
  100
AcDbEntity
  8
SK2
  100
AcDbMText
  10
-10
  20
0
  30
0
  11
0
  21
1
  31
0
  40
2
  41
0
  71
8
  72
1
  1
ﾘ6
  0
POINT
  5
ef
  330
e8
  100
AcDbEntity
  8
SK2
  62
0
  100
AcDbPoint
  10
0.7
  20
-3
  30
0
  0
POINT
  5
f0
  330
e8
  100
AcDbEntity
  8
SK2
  62
0
  100
AcDbPoint
  10
0.7
  20
3
  30
0
  0
POINT
  5
f1
  330
e8
  100
AcDbEntity
  8
SK2
  62
0
  100
AcDbPoint
  10
-10
  20
3
  30
0
  0
ENDBLK
  5
f2
  330
e8
  100
AcDbEntity
  8
SK2
  100
AcDbBlockEnd
  0
BLOCK
  5
f4
  330
f6
  100
AcDbEntity
  8
2
  100
AcDbBlockBegin
  2
*Df5
  70
1
  10
0
  20
0
  30
0
  3
*Df5
  1

  0
LINE
  5
f7
  330
f6
  100
AcDbEntity
  8
2
  100
AcDbLine
  10
49.5
  20
-1.05
  30
0
  11
62
  21
-1.05
  31
0
  0
LINE
  5
f8
  330
f6
  100
AcDbEntity
  8
2
  100
AcDbLine
  10
49.5
  20
1.05
  30
0
  11
62
  21
1.05
  31
0
  0
LINE
  5
f9
  330
f6
  100
AcDbEntity
  8
2
  100
AcDbLine
  10
60
  20
-6.757426
  30
0
  11
60
  21
1.05
  31
0
  0
SOLID
  5
fa
  330
f6
  100
AcDbEntity
  8
2
  100
AcDbTrace
  10
60
  20
-1.05
  30
0
  11
59.673685
  21
1.428612
  31
0
  12
60.326315
  22
1.428612
  32
0
  13
60.326315
  23
1.428612
  33
0
  0
SOLID
  5
fb
  330
f6
  100
AcDbEntity
  8
2
  100
AcDbTrace
  10
60
  20
1.05
  30
0
  11
60.326315
  21
-1.428612
  31
0
  12
59.673685
  22
-1.428612
  32
0
  13
59.673685
  23
-1.428612
  33
0
  0
MTEXT
  5
fc
  330
f6
  100
AcDbEntity
  8
2
  100
AcDbMText
  10
60
  20
0
  30
0
  11
0
  21
1
  31
0
  40
2
  41
0
  71
8
  72
1
  1
ﾘ2.1
  0
POINT
  5
fd
  330
f6
  100
AcDbEntity
  8
2
  62
0
  100
AcDbPoint
  10
49.5
  20
-1.05
  30
0
  0
POINT
  5
fe
  330
f6
  100
AcDbEntity
  8
2
  62
0
  100
AcDbPoint
  10
49.5
  20
1.05
  30
0
  0
POINT
  5
ff
  330
f6
  100
AcDbEntity
  8
2
  62
0
  100
AcDbPoint
  10
60
  20
1.05
  30
0
  0
ENDBLK
  5
100
  330
f6
  100
AcDbEntity
  8
2
  100
AcDbBlockEnd
  0
BLOCK
  5
102
  330
104
  100
AcDbEntity
  8
2
  100
AcDbBlockBegin
  2
*D103
  70
1
  10
0
  20
0
  30
0
  3
*D103
  1

  0
LINE
  5
105
  330
104
  100
AcDbEntity
  8
2
  100
AcDbLine
  10
49.814338
  20
0.938834
  30
0
  11
56.101095
  21
8.71551
  31
0
  0
MTEXT
  5
106
  330
104
  100
AcDbEntity
  8
2
  100
AcDbMText
  10
52.957716
  20
4.827172
  30
0
  11
0.628676
  21
0.777668
  31
0
  40
2
  41
0
  71
8
  72
1
  1
R0.5
  0
SOLID
  5
107
  330
104
  100
AcDbEntity
  8
2
  100
AcDbTrace
  10
49.814338
  20
0.938834
  30
0
  11
51.118816
  21
3.071517
  31
0
  12
51.626346
  22
2.661224
  32
0
  13
51.626346
  23
2.661224
  33
0
  0
POINT
  5
108
  330
104
  100
AcDbEntity
  8
2
  62
0
  100
AcDbPoint
  10
49.814338
  20
0.938834
  30
0
  0
POINT
  5
109
  330
104
  100
AcDbEntity
  8
2
  62
0
  100
AcDbPoint
  10
49.5
  20
0.55
  30
0
  0
ENDBLK
  5
10a
  330
104
  100
AcDbEntity
  8
2
  100
AcDbBlockEnd
  0
BLOCK
  5
10c
  330
10e
  100
AcDbEntity
  8
2
  100
AcDbBlockBegin
  2
*D10d
  70
1
  10
0
  20
0
  30
0
  3
*D10d
  1

  0
LINE
  5
10f
  330
10e
  100
AcDbEntity
  8
2
  100
AcDbLine
  10
48
  20
-0.9
  30
0
  11
46
  21
-0.9
  31
0
  0
LINE
  5
110
  330
10e
  100
AcDbEntity
  8
2
  100
AcDbLine
  10
48
  20
0.9
  30
0
  11
46
  21
0.9
  31
0
  0
LINE
  5
111
  330
10e
  100
AcDbEntity
  8
2
  100
AcDbLine
  10
48
  20
-0.9
  30
0
  11
48
  21
7.537129
  31
0
  0
SOLID
  5
112
  330
10e
  100
AcDbEntity
  8
2
  100
AcDbTrace
  10
48
  20
-0.9
  30
0
  11
47.673685
  21
1.578612
  31
0
  12
48.326315
  22
1.578612
  32
0
  13
48.326315
  23
1.578612
  33
0
  0
SOLID
  5
113
  330
10e
  100
AcDbEntity
  8
2
  100
AcDbTrace
  10
48
  20
0.9
  30
0
  11
48.326315
  21
-1.578612
  31
0
  12
47.673685
  22
-1.578612
  32
0
  13
47.673685
  23
-1.578612
  33
0
  0
MTEXT
  5
114
  330
10e
  100
AcDbEntity
  8
2
  100
AcDbMText
  10
48
  20
0.9
  30
0
  11
0
  21
1
  31
0
  40
2
  41
0
  71
8
  72
1
  1
ﾘ1.8
  0
POINT
  5
115
  330
10e
  100
AcDbEntity
  8
2
  62
0
  100
AcDbPoint
  10
46
  20
-0.9
  30
0
  0
POINT
  5
116
  330
10e
  100
AcDbEntity
  8
2
  62
0
  100
AcDbPoint
  10
46
  20
0.9
  30
0
  0
POINT
  5
117
  330
10e
  100
AcDbEntity
  8
2
  62
0
  100
AcDbPoint
  10
48
  20
7.537129
  30
0
  0
ENDBLK
  5
118
  330
10e
  100
AcDbEntity
  8
2
  100
AcDbBlockEnd
  0
BLOCK
  5
11a
  330
11c
  100
AcDbEntity
  8
2
  100
AcDbBlockBegin
  2
*D11b
  70
1
  10
0
  20
0
  30
0
  3
*D11b
  1

  0
LINE
  5
11d
  330
11c
  100
AcDbEntity
  8
2
  100
AcDbLine
  10
48
  20
0.9
  30
0
  11
48
  21
6.015362
  31
0
  0
LINE
  5
11e
  330
11c
  100
AcDbEntity
  8
2
  100
AcDbLine
  10
41.58
  20
0.9
  30
0
  11
41.58
  21
6.015362
  31
0
  0
LINE
  5
11f
  330
11c
  100
AcDbEntity
  8
2
  100
AcDbLine
  10
49.511139
  20
4.015362
  30
0
  11
41.58
  21
4.015362
  31
0
  0
SOLID
  5
120
  330
11c
  100
AcDbEntity
  8
2
  100
AcDbTrace
  10
48
  20
4.015362
  30
0
  11
50.478612
  21
4.341678
  31
0
  12
50.478612
  22
3.689047
  32
0
  13
50.478612
  23
3.689047
  33
0
  0
SOLID
  5
121
  330
11c
  100
AcDbEntity
  8
2
  100
AcDbTrace
  10
41.58
  20
4.015362
  30
0
  11
39.101388
  21
3.689047
  31
0
  12
39.101388
  22
4.341678
  32
0
  13
39.101388
  23
4.341678
  33
0
  0
MTEXT
  5
122
  330
11c
  100
AcDbEntity
  8
2
  100
AcDbMText
  10
49.592135
  20
4.015362
  30
0
  11
1
  21
-0
  31
0
  40
2
  41
0
  71
8
  72
1
  1
6.42
  0
POINT
  5
123
  330
11c
  100
AcDbEntity
  8
2
  62
0
  100
AcDbPoint
  10
48
  20
0.9
  30
0
  0
POINT
  5
124
  330
11c
  100
AcDbEntity
  8
2
  62
0
  100
AcDbPoint
  10
41.58
  20
0.9
  30
0
  0
POINT
  5
125
  330
11c
  100
AcDbEntity
  8
2
  62
0
  100
AcDbPoint
  10
41.58
  20
4.015362
  30
0
  0
ENDBLK
  5
126
  330
11c
  100
AcDbEntity
  8
2
  100
AcDbBlockEnd
  0
BLOCK
  5
128
  330
12a
  100
AcDbEntity
  8
2
  100
AcDbBlockBegin
  2
*D129
  70
1
  10
0
  20
0
  30
0
  3
*D129
  1

  0
LINE
  5
12b
  330
12a
  100
AcDbEntity
  8
2
  100
AcDbLine
  10
50
  20
0.55
  30
0
  11
50
  21
15
  31
0
  0
LINE
  5
12c
  330
12a
  100
AcDbEntity
  8
2
  100
AcDbLine
  10
34.2
  20
3
  30
0
  11
34.2
  21
10
  31
0
  0
LINE
  5
12d
  330
12a
  100
AcDbEntity
  8
2
  100
AcDbLine
  10
50
  20
8
  30
0
  11
34.2
  21
8
  31
0
  0
SOLID
  5
12e
  330
12a
  100
AcDbEntity
  8
2
  100
AcDbTrace
  10
50
  20
8
  30
0
  11
52.478612
  21
8.326315
  31
0
  12
52.478612
  22
7.673685
  32
0
  13
52.478612
  23
7.673685
  33
0
  0
SOLID
  5
12f
  330
12a
  100
AcDbEntity
  8
2
  100
AcDbTrace
  10
34.2
  20
8
  30
0
  11
31.721388
  21
7.673685
  31
0
  12
31.721388
  22
8.326315
  32
0
  13
31.721388
  23
8.326315
  33
0
  0
MTEXT
  5
130
  330
12a
  100
AcDbEntity
  8
2
  100
AcDbMText
  10
42.1
  20
8
  30
0
  11
1
  21
-0
  31
0
  40
2
  41
0
  71
8
  72
1
  1
15.8
  0
POINT
  5
131
  330
12a
  100
AcDbEntity
  8
2
  62
0
  100
AcDbPoint
  10
50
  20
0.55
  30
0
  0
POINT
  5
132
  330
12a
  100
AcDbEntity
  8
2
  62
0
  100
AcDbPoint
  10
34.2
  20
3
  30
0
  0
POINT
  5
133
  330
12a
  100
AcDbEntity
  8
2
  62
0
  100
AcDbPoint
  10
34.2
  20
8
  30
0
  0
ENDBLK
  5
134
  330
12a
  100
AcDbEntity
  8
2
  100
AcDbBlockEnd
  0
BLOCK
  5
136
  330
138
  100
AcDbEntity
  8
2
  100
AcDbBlockBegin
  2
*D137
  70
1
  10
0
  20
0
  30
0
  3
*D137
  1

  0
LINE
  5
139
  330
138
  100
AcDbEntity
  8
2
  100
AcDbLine
  10
50
  20
-4.983448
  30
0
  11
50
  21
0.55
  31
0
  0
LINE
  5
13a
  330
138
  100
AcDbEntity
  8
2
  100
AcDbLine
  10
49.2
  20
-4.983448
  30
0
  11
49.2
  21
1.05
  31
0
  0
LINE
  5
13b
  330
138
  100
AcDbEntity
  8
2
  100
AcDbLine
  10
50
  20
-2.983448
  30
0
  11
45.092822
  21
-2.983448
  31
0
  0
SOLID
  5
13c
  330
138
  100
AcDbEntity
  8
2
  100
AcDbTrace
  10
50
  20
-2.983448
  30
0
  11
52.478612
  21
-2.657133
  31
0
  12
52.478612
  22
-3.309764
  32
0
  13
52.478612
  23
-3.309764
  33
0
  0
SOLID
  5
13d
  330
138
  100
AcDbEntity
  8
2
  100
AcDbTrace
  10
49.2
  20
-2.983448
  30
0
  11
46.721388
  21
-3.309764
  31
0
  12
46.721388
  22
-2.657133
  32
0
  13
46.721388
  23
-2.657133
  33
0
  0
MTEXT
  5
13e
  330
138
  100
AcDbEntity
  8
2
  100
AcDbMText
  10
49.6
  20
-2.983448
  30
0
  11
1
  21
0
  31
0
  40
2
  41
0
  71
8
  72
1
  1
0.8
  0
POINT
  5
13f
  330
138
  100
AcDbEntity
  8
2
  62
0
  100
AcDbPoint
  10
50
  20
0.55
  30
0
  0
POINT
  5
140
  330
138
  100
AcDbEntity
  8
2
  62
0
  100
AcDbPoint
  10
49.2
  20
1.05
  30
0
  0
POINT
  5
141
  330
138
  100
AcDbEntity
  8
2
  62
0
  100
AcDbPoint
  10
45.092822
  20
-2.983448
  30
0
  0
ENDBLK
  5
142
  330
138
  100
AcDbEntity
  8
2
  100
AcDbBlockEnd
  0
ENDSEC
  0
SECTION
  2
ENTITIES
  0
DIMENSION
  5
d7
  100
AcDbEntity
  8
SK2
  100
AcDbDimension
  2
*Dcb
  10
50
  20
13
  30
0
  11
25
  21
13
  31
0
  70
160
  1
<>
  71
5
  3
STANDARD
  42
50
  100
AcDbAlignedDimension
  13
0
  23
2.3
  33
0
  14
50
  24
0.55
  34
0
  50
0
  100
AcDbRotatedDimension
  0
DIMENSION
  5
e5
  100
AcDbEntity
  8
SK2
  100
AcDbDimension
  2
*Dd9
  10
34.2
  20
6.61423
  30
0
  11
17.1
  21
6.61423
  31
0
  70
160
  1
<>
  71
5
  3
STANDARD
  42
34.2
  100
AcDbAlignedDimension
  13
0
  23
2.3
  33
0
  14
34.2
  24
3
  34
0
  50
0
  100
AcDbRotatedDimension
  0
DIMENSION
  5
f3
  100
AcDbEntity
  8
SK2
  100
AcDbDimension
  2
*De7
  10
-10
  20
3
  30
0
  11
-10
  21
0
  31
0
  70
160
  1
%%c<>
  71
5
  3
STANDARD
  42
6
  100
AcDbAlignedDimension
  13
0.7
  23
-3
  33
0
  14
0.7
  24
3
  34
0
  50
-90
  100
AcDbRotatedDimension
  0
DIMENSION
  5
101
  100
AcDbEntity
  8
2
  100
AcDbDimension
  2
*Df5
  10
60
  20
1.05
  30
0
  11
60
  21
0
  31
0
  70
160
  1
%%c<>
  71
5
  3
STANDARD
  42
2.1
  100
AcDbAlignedDimension
  13
49.5
  23
-1.05
  33
0
  14
49.5
  24
1.05
  34
0
  50
-90
  100
AcDbRotatedDimension
  0
DIMENSION
  5
10b
  100
AcDbEntity
  8
2
  100
AcDbDimension
  2
*D103
  10
49.5
  20
0.55
  30
0
  11
52.957716
  21
4.827172
  31
0
  70
164
  1
R0.5
  71
5
  3
STANDARD
  100
AcDbRadialDimension
  15
49.814338
  25
0.938834
  35
0
  50
51.047516
  0
DIMENSION
  5
119
  100
AcDbEntity
  8
2
  100
AcDbDimension
  2
*D10d
  10
48
  20
7.537129
  30
0
  11
48
  21
0.9
  31
0
  70
160
  1
%%c<>
  71
5
  3
STANDARD
  42
1.8
  100
AcDbAlignedDimension
  13
46
  23
-0.9
  33
0
  14
46
  24
0.9
  34
0
  50
-90
  100
AcDbRotatedDimension
  0
DIMENSION
  5
127
  100
AcDbEntity
  8
2
  100
AcDbDimension
  2
*D11b
  10
41.58
  20
4.015362
  30
0
  11
49.592135
  21
4.015362
  31
0
  70
160
  1
<>
  71
5
  3
STANDARD
  42
6.42
  100
AcDbAlignedDimension
  13
48
  23
0.9
  33
0
  14
41.58
  24
0.9
  34
0
  50
0
  100
AcDbRotatedDimension
  0
DIMENSION
  5
135
  100
AcDbEntity
  8
2
  100
AcDbDimension
  2
*D129
  10
34.2
  20
8
  30
0
  11
42.1
  21
8
  31
0
  70
160
  1
<>
  71
5
  3
STANDARD
  42
15.8
  100
AcDbAlignedDimension
  13
50
  23
0.55
  33
0
  14
34.2
  24
3
  34
0
  50
0
  100
AcDbRotatedDimension
  0
DIMENSION
  5
143
  100
AcDbEntity
  8
2
  100
AcDbDimension
  2
*D137
  10
45.092822
  20
-2.983448
  30
0
  11
49.6
  21
-2.983448
  31
0
  70
160
  1
<>
  71
5
  3
STANDARD
  42
0.8
  100
AcDbAlignedDimension
  13
50
  23
0.55
  33
0
  14
49.2
  24
1.05
  34
0
  50
0
  100
AcDbRotatedDimension
  0
LINE
  5
36
  100
AcDbEntity
  8
1
  100
AcDbLine
  10
48
  20
0.9
  30
0
  11
48
  21
-0.9
  31
0
  0
LINE
  5
37
  100
AcDbEntity
  8
1
  100
AcDbLine
  10
48
  20
-1.05
  30
0
  11
48
  21
1.05
  31
0
  0
LINE
  5
38
  100
AcDbEntity
  8
1
  100
AcDbLine
  10
49.5
  20
1.05
  30
0
  11
49.5
  21
-1.05
  31
0
  0
LINE
  5
39
  100
AcDbEntity
  8
1
  100
AcDbLine
  10
49.5
  20
-1.05
  30
0
  11
49.5
  21
1.05
  31
0
  0
LINE
  5
3a
  100
AcDbEntity
  8
1
  100
AcDbLine
  10
49.5
  20
1.05
  30
0
  11
49.4
  21
1.05
  31
0
  0
LINE
  5
3b
  100
AcDbEntity
  8
1
  100
AcDbLine
  10
49.4
  20
1.05
  30
0
  11
49.3
  21
1.05
  31
0
  0
LINE
  5
3c
  100
AcDbEntity
  8
1
  100
AcDbLine
  10
49.3
  20
1.05
  30
0
  11
49.2
  21
1.05
  31
0
  0
LINE
  5
3d
  100
AcDbEntity
  8
1
  100
AcDbLine
  10
49.2
  20
1.05
  30
0
  11
49.1
  21
0.926406
  31
0
  0
LINE
  5
3e
  100
AcDbEntity
  8
1
  100
AcDbLine
  10
49.1
  20
0.926406
  30
0
  11
49.1
  21
0.913693
  31
0
  0
LINE
  5
3f
  100
AcDbEntity
  8
1
  100
AcDbLine
  10
49.1
  20
0.913693
  30
0
  11
49.2
  21
0.324468
  31
0
  0
LINE
  5
40
  100
AcDbEntity
  8
1
  100
AcDbLine
  10
49.2
  20
0.324468
  30
0
  11
49.3
  21
0.324468
  31
0
  0
LINE
  5
41
  100
AcDbEntity
  8
1
  100
AcDbLine
  10
49.3
  20
0.324468
  30
0
  11
49.4
  21
0.324468
  31
0
  0
LINE
  5
42
  100
AcDbEntity
  8
1
  100
AcDbLine
  10
49.4
  20
0.324468
  30
0
  11
49.5
  21
0.324468
  31
0
  0
LINE
  5
43
  100
AcDbEntity
  8
1
  100
AcDbLine
  10
49.5
  20
0.324468
  30
0
  11
49.6
  21
0.321783
  31
0
  0
LINE
  5
44
  100
AcDbEntity
  8
1
  100
AcDbLine
  10
49.6
  20
0.321783
  30
0
  11
49.7
  21
0.313375
  31
0
  0
LINE
  5
45
  100
AcDbEntity
  8
1
  100
AcDbLine
  10
49.7
  20
0.313375
  30
0
  11
49.8
  21
0.297892
  31
0
  0
LINE
  5
46
  100
AcDbEntity
  8
1
  100
AcDbLine
  10
49.8
  20
0.297892
  30
0
  11
49.9
  21
0.271309
  31
0
  0
LINE
  5
47
  100
AcDbEntity
  8
1
  100
AcDbLine
  10
49.9
  20
0.271309
  30
0
  11
50
  21
0.191478
  31
0
  0
LINE
  5
48
  100
AcDbEntity
  8
1
  100
AcDbLine
  10
49.2
  20
0.103405
  30
0
  11
49.3
  21
0.103405
  31
0
  0
LINE
  5
49
  100
AcDbEntity
  8
1
  100
AcDbLine
  10
49.3
  20
0.103405
  30
0
  11
49.4
  21
0.103405
  31
0
  0
LINE
  5
4a
  100
AcDbEntity
  8
1
  100
AcDbLine
  10
49.4
  20
0.103405
  30
0
  11
49.5
  21
0.103405
  31
0
  0
LINE
  5
4b
  100
AcDbEntity
  8
1
  100
AcDbLine
  10
49.5
  20
0.103405
  30
0
  11
49.6
  21
0.1048
  31
0
  0
LINE
  5
4c
  100
AcDbEntity
  8
1
  100
AcDbLine
  10
49.6
  20
0.1048
  30
0
  11
49.7
  21
0.109166
  31
0
  0
LINE
  5
4d
  100
AcDbEntity
  8
1
  100
AcDbLine
  10
49.7
  20
0.109166
  30
0
  11
49.8
  21
0.117192
  31
0
  0
LINE
  5
4e
  100
AcDbEntity
  8
1
  100
AcDbLine
  10
49.8
  20
0.117192
  30
0
  11
49.9
  21
0.130917
  31
0
  0
LINE
  5
4f
  100
AcDbEntity
  8
1
  100
AcDbLine
  10
49.9
  20
0.130917
  30
0
  11
50
  21
0.171106
  31
0
  0
LINE
  5
50
  100
AcDbEntity
  8
1
  100
AcDbLine
  10
50
  20
0.070916
  30
0
  11
49.9
  21
0.028174
  31
0
  0
LINE
  5
51
  100
AcDbEntity
  8
1
  100
AcDbLine
  10
49.9
  20
0.028174
  30
0
  11
49.8
  21
0.014069
  31
0
  0
LINE
  5
52
  100
AcDbEntity
  8
1
  100
AcDbLine
  10
49.8
  20
0.014069
  30
0
  11
49.7
  21
0.005869
  31
0
  0
LINE
  5
53
  100
AcDbEntity
  8
1
  100
AcDbLine
  10
49.7
  20
0.005869
  30
0
  11
49.6
  21
0.00142
  31
0
  0
LINE
  5
54
  100
AcDbEntity
  8
1
  100
AcDbLine
  10
49.6
  20
0.00142
  30
0
  11
49.5
  21
0
  31
0
  0
LINE
  5
55
  100
AcDbEntity
  8
1
  100
AcDbLine
  10
49.5
  20
0
  30
0
  11
49.4
  21
0
  31
0
  0
LINE
  5
56
  100
AcDbEntity
  8
1
  100
AcDbLine
  10
49.4
  20
0
  30
0
  11
49.3
  21
0
  31
0
  0
LINE
  5
57
  100
AcDbEntity
  8
1
  100
AcDbLine
  10
49.3
  20
0
  30
0
  11
49.2
  21
0
  31
0
  0
LINE
  5
58
  100
AcDbEntity
  8
1
  100
AcDbLine
  10
49.2
  20
0
  30
0
  11
49.1
  21
-0.494239
  31
0
  0
LINE
  5
59
  100
AcDbEntity
  8
1
  100
AcDbLine
  10
49.1
  20
-0.494239
  30
0
  11
49.1
  21
-0.517364
  31
0
  0
LINE
  5
5a
  100
AcDbEntity
  8
1
  100
AcDbLine
  10
49.1
  20
-0.517364
  30
0
  11
49.2
  21
-0.998609
  31
0
  0
LINE
  5
5b
  100
AcDbEntity
  8
1
  100
AcDbLine
  10
49.2
  20
-0.998609
  30
0
  11
49.3
  21
-0.998609
  31
0
  0
LINE
  5
5c
  100
AcDbEntity
  8
1
  100
AcDbLine
  10
49.3
  20
-0.998609
  30
0
  11
49.4
  21
-0.998609
  31
0
  0
LINE
  5
5d
  100
AcDbEntity
  8
1
  100
AcDbLine
  10
49.4
  20
-0.998609
  30
0
  11
49.5
  21
-0.998609
  31
0
  0
LINE
  5
5e
  100
AcDbEntity
  8
1
  100
AcDbLine
  10
49.5
  20
-0.998609
  30
0
  11
49.6
  21
-0.98886
  31
0
  0
LINE
  5
5f
  100
AcDbEntity
  8
1
  100
AcDbLine
  10
49.6
  20
-0.98886
  30
0
  11
49.7
  21
-0.958321
  31
0
  0
LINE
  5
60
  100
AcDbEntity
  8
1
  100
AcDbLine
  10
49.7
  20
-0.958321
  30
0
  11
49.8
  21
-0.902087
  31
0
  0
LINE
  5
61
  100
AcDbEntity
  8
1
  100
AcDbLine
  10
49.8
  20
-0.902087
  30
0
  11
49.9
  21
-0.805538
  31
0
  0
LINE
  5
62
  100
AcDbEntity
  8
1
  100
AcDbLine
  10
49.9
  20
-0.805538
  30
0
  11
49.999005
  21
-0.518477
  31
0
  0
LINE
  5
63
  100
AcDbEntity
  8
1
  100
AcDbLine
  10
49.999005
  20
-0.518477
  30
0
  11
50
  21
-0.515593
  31
0
  0
LINE
  5
64
  100
AcDbEntity
  8
1
  100
AcDbLine
  10
50
  20
-0.545409
  30
0
  11
49.999979
  21
-0.545471
  31
0
  0
LINE
  5
65
  100
AcDbEntity
  8
1
  100
AcDbLine
  10
49.999979
  20
-0.545471
  30
0
  11
49.9
  21
-0.849533
  31
0
  0
LINE
  5
66
  100
AcDbEntity
  8
1
  100
AcDbLine
  10
49.9
  20
-0.849533
  30
0
  11
49.8
  21
-0.949896
  31
0
  0
LINE
  5
67
  100
AcDbEntity
  8
1
  100
AcDbLine
  10
49.8
  20
-0.949896
  30
0
  11
49.7
  21
-1.00824
  31
0
  0
LINE
  5
68
  100
AcDbEntity
  8
1
  100
AcDbLine
  10
49.7
  20
-1.00824
  30
0
  11
49.6
  21
-1.039897
  31
0
  0
LINE
  5
69
  100
AcDbEntity
  8
1
  100
AcDbLine
  10
49.6
  20
-1.039897
  30
0
  11
49.5
  21
-1.05
  31
0
  0
ARC
  5
6a
  100
AcDbEntity
  8
1
  100
AcDbCircle
  10
49.5
  20
-0.55
  30
0
  40
0.5
  100
AcDbArc
  50
270
  51
0
  0
LINE
  5
6b
  100
AcDbEntity
  8
1
  100
AcDbLine
  10
50
  20
-0.55
  30
0
  11
50
  21
0
  31
0
  0
LINE
  5
6c
  100
AcDbEntity
  8
1
  100
AcDbLine
  10
50
  20
0
  30
0
  11
50
  21
0.55
  31
0
  0
ARC
  5
6d
  100
AcDbEntity
  8
1
  100
AcDbCircle
  10
49.5
  20
0.55
  30
0
  40
0.5
  100
AcDbArc
  50
0
  51
90
  0
LINE
  5
6e
  100
AcDbEntity
  8
1
  100
AcDbLine
  10
49.5
  20
1.05
  30
0
  11
48
  21
1.05
  31
0
  0
LINE
  5
6f
  100
AcDbEntity
  8
1
  100
AcDbLine
  10
48
  20
1.05
  30
0
  11
48
  21
0.9
  31
0
  0
LINE
  5
70
  100
AcDbEntity
  8
1
  100
AcDbLine
  10
48
  20
0.9
  30
0
  11
41.58
  21
0.9
  31
0
  0
ARC
  5
71
  100
AcDbEntity
  8
1
  100
AcDbCircle
  10
42.451557
  20
10.861947
  30
0
  40
10
  100
AcDbArc
  50
255
  51
265
  0
LINE
  5
72
  100
AcDbEntity
  8
1
  100
AcDbLine
  10
39.863367
  20
1.202689
  30
0
  11
34.2
  21
2.720183
  31
0
  0
LINE
  5
73
  100
AcDbEntity
  8
1
  100
AcDbLine
  10
34.2
  20
2.720183
  30
0
  11
34.2
  21
-2.720183
  31
0
  0
LINE
  5
74
  100
AcDbEntity
  8
1
  100
AcDbLine
  10
34.2
  20
-2.720183
  30
0
  11
39.863367
  21
-1.202689
  31
0
  0
LINE
  5
75
  100
AcDbEntity
  8
1
  100
AcDbLine
  10
39.863367
  20
-1.202689
  30
0
  11
39.863367
  21
1.202689
  31
0
  0
LINE
  5
76
  100
AcDbEntity
  8
1
  100
AcDbLine
  10
41.58
  20
0.9
  30
0
  11
41.58
  21
-0.9
  31
0
  0
ARC
  5
77
  100
AcDbEntity
  8
1
  100
AcDbCircle
  10
42.451557
  20
-10.861947
  30
0
  40
10
  100
AcDbArc
  50
95
  51
105
  0
LINE
  5
78
  100
AcDbEntity
  8
1
  100
AcDbLine
  10
41.58
  20
-0.9
  30
0
  11
48
  21
-0.9
  31
0
  0
LINE
  5
79
  100
AcDbEntity
  8
1
  100
AcDbLine
  10
48
  20
-0.9
  30
0
  11
48
  21
-1.05
  31
0
  0
LINE
  5
7a
  100
AcDbEntity
  8
1
  100
AcDbLine
  10
48
  20
-1.05
  30
0
  11
49.5
  21
-1.05
  31
0
  0
LINE
  5
7b
  100
AcDbEntity
  8
1
  100
AcDbLine
  10
49.5
  20
-1.05
  30
0
  11
49.4
  21
-1.05
  31
0
  0
LINE
  5
7c
  100
AcDbEntity
  8
1
  100
AcDbLine
  10
49.4
  20
-1.05
  30
0
  11
49.3
  21
-1.05
  31
0
  0
LINE
  5
7d
  100
AcDbEntity
  8
1
  100
AcDbLine
  10
49.3
  20
-1.05
  30
0
  11
49.2
  21
-1.05
  31
0
  0
LINE
  5
7e
  100
AcDbEntity
  8
1
  100
AcDbLine
  10
49.2
  20
-1.031767
  30
0
  11
49.3
  21
-1.031767
  31
0
  0
LINE
  5
7f
  100
AcDbEntity
  8
1
  100
AcDbLine
  10
49.3
  20
-1.031767
  30
0
  11
49.4
  21
-1.031767
  31
0
  0
LINE
  5
80
  100
AcDbEntity
  8
1
  100
AcDbLine
  10
49.4
  20
-1.031767
  30
0
  11
49.5
  21
-1.031767
  31
0
  0
LINE
  5
81
  100
AcDbEntity
  8
1
  100
AcDbLine
  10
49.5
  20
-1.031767
  30
0
  11
49.6
  21
-1.021523
  31
0
  0
LINE
  5
82
  100
AcDbEntity
  8
1
  100
AcDbLine
  10
49.6
  20
-1.021523
  30
0
  11
49.7
  21
-0.989406
  31
0
  0
LINE
  5
83
  100
AcDbEntity
  8
1
  100
AcDbLine
  10
49.7
  20
-0.989406
  30
0
  11
49.8
  21
-0.930133
  31
0
  0
LINE
  5
84
  100
AcDbEntity
  8
1
  100
AcDbLine
  10
49.8
  20
-0.930133
  30
0
  11
49.9
  21
-0.827882
  31
0
  0
LINE
  5
85
  100
AcDbEntity
  8
1
  100
AcDbLine
  10
49.9
  20
-0.827882
  30
0
  11
49.998933
  21
-0.517346
  31
0
  0
LINE
  5
86
  100
AcDbEntity
  8
1
  100
AcDbLine
  10
49.998933
  20
-0.517346
  30
0
  11
50
  21
-0.513995
  31
0
  0
LINE
  5
87
  100
AcDbEntity
  8
SK1
  100
AcDbLine
  10
34.2
  20
2.720183
  30
0
  11
33.15571
  21
3
  31
0
  0
LINE
  5
88
  100
AcDbEntity
  8
SK1
  100
AcDbLine
  10
33.15571
  20
3
  30
0
  11
34.2
  21
3
  31
0
  0
LINE
  5
89
  100
AcDbEntity
  8
SK1
  100
AcDbLine
  10
34.2
  20
3
  30
0
  11
0.7
  21
3
  31
0
  0
LINE
  5
8a
  100
AcDbEntity
  8
SK1
  100
AcDbLine
  10
0.7
  20
3
  30
0
  11
0
  21
2.3
  31
0
  0
LINE
  5
8b
  100
AcDbEntity
  8
SK1
  100
AcDbLine
  10
34.2
  20
-2.720183
  30
0
  11
33.15571
  21
-3
  31
0
  0
LINE
  5
8c
  100
AcDbEntity
  8
SK1
  100
AcDbLine
  10
33.15571
  20
-3
  30
0
  11
34.2
  21
-3
  31
0
  0
LINE
  5
8d
  100
AcDbEntity
  8
SK1
  100
AcDbLine
  10
34.2
  20
-3
  30
0
  11
0.7
  21
-3
  31
0
  0
LINE
  5
8e
  100
AcDbEntity
  8
SK1
  100
AcDbLine
  10
0.7
  20
-3
  30
0
  11
0
  21
-2.3
  31
0
  0
LINE
  5
8f
  100
AcDbEntity
  8
SK1
  100
AcDbLine
  10
33.15571
  20
3
  30
0
  11
33.15571
  21
-3
  31
0
  0
LINE
  5
90
  100
AcDbEntity
  8
SK1
  100
AcDbLine
  10
0.7
  20
3
  30
0
  11
0.7
  21
-3
  31
0
  0
LINE
  5
91
  100
AcDbEntity
  8
SK1
  100
AcDbLine
  10
0
  20
2.3
  30
0
  11
0
  21
-2.3
  31
0
  0
LINE
  5
92
  100
AcDbEntity
  8
SK1
  100
AcDbLine
  10
35.2401
  20
1.40688
  30
0
  11
35.6069
  21
1.0401
  31
0
  0
LINE
  5
93
  100
AcDbEntity
  8
SK1
  100
AcDbLine
  10
34.7328
  20
1.66666
  30
0
  11
35.8667
  21
0.532833
  31
0
  0
LINE
  5
94
  100
AcDbEntity
  8
SK1
  100
AcDbLine
  10
34.4154
  20
1.73657
  30
0
  11
35.9366
  21
0.215434
  31
0
  0
LINE
  5
95
  100
AcDbEntity
  8
SK1
  100
AcDbLine
  10
34.2
  20
1.70452
  30
0
  11
35.9045
  21
0
  31
0
  0
LINE
  5
96
  100
AcDbEntity
  8
SK1
  100
AcDbLine
  10
34.2
  20
1.45703
  30
0
  11
35.657
  21
0
  31
0
  0
LINE
  5
97
  100
AcDbEntity
  8
SK1
  100
AcDbLine
  10
34.2
  20
1.20954
  30
0
  11
35.4095
  21
0
  31
0
  0
LINE
  5
98
  100
AcDbEntity
  8
SK1
  100
AcDbLine
  10
34.2
  20
0.962054
  30
0
  11
35.1621
  21
0
  31
0
  0
LINE
  5
99
  100
AcDbEntity
  8
SK1
  100
AcDbLine
  10
34.2
  20
0.714566
  30
0
  11
34.9146
  21
0
  31
0
  0
LINE
  5
9a
  100
AcDbEntity
  8
SK1
  100
AcDbLine
  10
34.2
  20
0.467079
  30
0
  11
34.6671
  21
0
  31
0
  0
LINE
  5
9b
  100
AcDbEntity
  8
SK1
  100
AcDbLine
  10
34.2
  20
0.219592
  30
0
  11
34.4196
  21
0
  31
0
  0
LINE
  5
9c
  100
AcDbEntity
  8
SK1
  100
AcDbLine
  10
34.2
  20
1.70452
  30
0
  11
34.2441
  21
1.74861
  31
0
  0
LINE
  5
9d
  100
AcDbEntity
  8
SK1
  100
AcDbLine
  10
34.2
  20
1.45703
  30
0
  11
34.471
  21
1.72802
  31
0
  0
LINE
  5
9e
  100
AcDbEntity
  8
SK1
  100
AcDbLine
  10
34.2
  20
1.20954
  30
0
  11
34.6742
  21
1.6837
  31
0
  0
LINE
  5
9f
  100
AcDbEntity
  8
SK1
  100
AcDbLine
  10
34.2
  20
0.962054
  30
0
  11
34.8588
  21
1.62082
  31
0
  0
LINE
  5
a0
  100
AcDbEntity
  8
SK1
  100
AcDbLine
  10
34.2
  20
0.714566
  30
0
  11
35.0271
  21
1.54167
  31
0
  0
LINE
  5
a1
  100
AcDbEntity
  8
SK1
  100
AcDbLine
  10
34.2
  20
0.467079
  30
0
  11
35.181
  21
1.44812
  31
0
  0
LINE
  5
a2
  100
AcDbEntity
  8
SK1
  100
AcDbLine
  10
34.2
  20
0.219592
  30
0
  11
35.3226
  21
1.34216
  31
0
  0
LINE
  5
a3
  100
AcDbEntity
  8
SK1
  100
AcDbLine
  10
34.2279
  20
0
  30
0
  11
35.4508
  21
1.22288
  31
0
  0
LINE
  5
a4
  100
AcDbEntity
  8
SK1
  100
AcDbLine
  10
34.4754
  20
0
  30
0
  11
35.567
  21
1.09157
  31
0
  0
LINE
  5
a5
  100
AcDbEntity
  8
SK1
  100
AcDbLine
  10
34.7229
  20
0
  30
0
  11
35.6707
  21
0.947822
  31
0
  0
LINE
  5
a6
  100
AcDbEntity
  8
SK1
  100
AcDbLine
  10
34.9704
  20
0
  30
0
  11
35.7605
  21
0.790145
  31
0
  0
LINE
  5
a7
  100
AcDbEntity
  8
SK1
  100
AcDbLine
  10
35.2178
  20
0
  30
0
  11
35.8364
  21
0.618517
  31
0
  0
LINE
  5
a8
  100
AcDbEntity
  8
SK1
  100
AcDbLine
  10
35.4653
  20
0
  30
0
  11
35.896
  21
0.430696
  31
0
  0
LINE
  5
a9
  100
AcDbEntity
  8
SK1
  100
AcDbLine
  10
35.7128
  20
0
  30
0
  11
35.9356
  21
0.222827
  31
0
  0
LINE
  5
aa
  100
AcDbEntity
  8
SK1
  100
AcDbLine
  10
34.2
  20
0
  30
0
  11
34.2
  21
1.75
  31
0
  0
LINE
  5
ab
  100
AcDbEntity
  8
SK1
  100
AcDbLine
  10
34.2
  20
0
  30
0
  11
35.95
  21
0
  31
0
  0
ARC
  5
ac
  100
AcDbEntity
  8
SK1
  100
AcDbCircle
  10
34.2
  20
0
  30
0
  40
1.75
  100
AcDbArc
  50
0
  51
90
  0
ARC
  5
ad
  100
AcDbEntity
  8
SK1
  100
AcDbCircle
  10
34.2
  20
0
  30
0
  40
1.75
  100
AcDbArc
  50
90
  51
180
  0
LINE
  5
ae
  100
AcDbEntity
  8
SK1
  100
AcDbLine
  10
34.1721
  20
0
  30
0
  11
34.2
  21
-0.027896
  31
0
  0
LINE
  5
af
  100
AcDbEntity
  8
SK1
  100
AcDbLine
  10
33.9246
  20
0
  30
0
  11
34.2
  21
-0.275383
  31
0
  0
LINE
  5
b0
  100
AcDbEntity
  8
SK1
  100
AcDbLine
  10
33.6771
  20
0
  30
0
  11
34.2
  21
-0.522871
  31
0
  0
LINE
  5
b1
  100
AcDbEntity
  8
SK1
  100
AcDbLine
  10
33.4296
  20
0
  30
0
  11
34.2
  21
-0.770358
  31
0
  0
LINE
  5
b2
  100
AcDbEntity
  8
SK1
  100
AcDbLine
  10
33.1822
  20
0
  30
0
  11
34.2
  21
-1.01785
  31
0
  0
LINE
  5
b3
  100
AcDbEntity
  8
SK1
  100
AcDbLine
  10
32.9347
  20
0
  30
0
  11
34.2
  21
-1.26533
  31
0
  0
LINE
  5
b4
  100
AcDbEntity
  8
SK1
  100
AcDbLine
  10
32.6872
  20
0
  30
0
  11
34.2
  21
-1.51282
  31
0
  0
LINE
  5
b5
  100
AcDbEntity
  8
SK1
  100
AcDbLine
  10
32.4503
  20
-0.010642
  30
0
  11
34.1894
  21
-1.74967
  31
0
  0
LINE
  5
b6
  100
AcDbEntity
  8
SK1
  100
AcDbLine
  10
32.4736
  20
-0.281429
  30
0
  11
33.9186
  21
-1.72637
  31
0
  0
LINE
  5
b7
  100
AcDbEntity
  8
SK1
  100
AcDbLine
  10
32.5639
  20
-0.619147
  30
0
  11
33.5809
  21
-1.63613
  31
0
  0
LINE
  5
b8
  100
AcDbEntity
  8
SK1
  100
AcDbLine
  10
32.4514
  20
-0.044098
  30
0
  11
32.4955
  21
0
  31
0
  0
LINE
  5
b9
  100
AcDbEntity
  8
SK1
  100
AcDbLine
  10
32.472
  20
-0.270991
  30
0
  11
32.743
  21
0
  31
0
  0
LINE
  5
ba
  100
AcDbEntity
  8
SK1
  100
AcDbLine
  10
32.5163
  20
-0.474162
  30
0
  11
32.9905
  21
0
  31
0
  0
LINE
  5
bb
  100
AcDbEntity
  8
SK1
  100
AcDbLine
  10
32.5792
  20
-0.658762
  30
0
  11
33.2379
  21
0
  31
0
  0
LINE
  5
bc
  100
AcDbEntity
  8
SK1
  100
AcDbLine
  10
32.6583
  20
-0.827105
  30
0
  11
33.4854
  21
0
  31
0
  0
LINE
  5
bd
  100
AcDbEntity
  8
SK1
  100
AcDbLine
  10
32.7519
  20
-0.981039
  30
0
  11
33.7329
  21
0
  31
0
  0
LINE
  5
be
  100
AcDbEntity
  8
SK1
  100
AcDbLine
  10
32.8578
  20
-1.12257
  30
0
  11
33.9804
  21
0
  31
0
  0
LINE
  5
bf
  100
AcDbEntity
  8
SK1
  100
AcDbLine
  10
32.9771
  20
-1.25077
  30
0
  11
34.2
  21
-0.027896
  31
0
  0
LINE
  5
c0
  100
AcDbEntity
  8
SK1
  100
AcDbLine
  10
33.1084
  20
-1.36695
  30
0
  11
34.2
  21
-0.275383
  31
0
  0
LINE
  5
c1
  100
AcDbEntity
  8
SK1
  100
AcDbLine
  10
33.2522
  20
-1.47069
  30
0
  11
34.2
  21
-0.522871
  31
0
  0
LINE
  5
c2
  100
AcDbEntity
  8
SK1
  100
AcDbLine
  10
33.4099
  20
-1.5605
  30
0
  11
34.2
  21
-0.770358
  31
0
  0
LINE
  5
c3
  100
AcDbEntity
  8
SK1
  100
AcDbLine
  10
33.5815
  20
-1.63636
  30
0
  11
34.2
  21
-1.01785
  31
0
  0
LINE
  5
c4
  100
AcDbEntity
  8
SK1
  100
AcDbLine
  10
33.7693
  20
-1.69603
  30
0
  11
34.2
  21
-1.26533
  31
0
  0
LINE
  5
c5
  100
AcDbEntity
  8
SK1
  100
AcDbLine
  10
33.9772
  20
-1.73565
  30
0
  11
34.2
  21
-1.51282
  31
0
  0
LINE
  5
c6
  100
AcDbEntity
  8
SK1
  100
AcDbLine
  10
34.2
  20
0
  30
0
  11
32.45
  21
0
  31
0
  0
LINE
  5
c7
  100
AcDbEntity
  8
SK1
  100
AcDbLine
  10
34.2
  20
-1.75
  30
0
  11
34.2
  21
0
  31
0
  0
ARC
  5
c8
  100
AcDbEntity
  8
SK1
  100
AcDbCircle
  10
34.2
  20
0
  30
0
  40
1.75
  100
AcDbArc
  50
180
  51
270
  0
ARC
  5
c9
  100
AcDbEntity
  8
SK1
  100
AcDbCircle
  10
34.2
  20
0
  30
0
  40
1.75
  100
AcDbArc
  50
270
  51
0
  0
LINE
  5
144
  100
AcDbEntity
  8
NOCUT
  100
AcDbLine
  10
49.2
  20
0
  30
0
  11
49.2
  21
1.05
  31
0
  0
LINE
  5
145
  100
AcDbEntity
  8
NOCUT
  100
AcDbLine
  10
49.2
  20
1.05
  30
0
  11
48
  21
1.05
  31
0
  0
LINE
  5
146
  100
AcDbEntity
  8
NOCUT
  100
AcDbLine
  10
48
  20
1.05
  30
0
  11
48
  21
0.9
  31
0
  0
LINE
  5
147
  100
AcDbEntity
  8
NOCUT
  100
AcDbLine
  10
48
  20
0.9
  30
0
  11
41.58
  21
0.9
  31
0
  0
ARC
  5
148
  100
AcDbEntity
  8
NOCUT
  100
AcDbCircle
  10
42.451557
  20
10.861947
  30
0
  40
10
  100
AcDbArc
  50
255
  51
265
  0
LINE
  5
149
  100
AcDbEntity
  8
NOCUT
  100
AcDbLine
  10
39.863367
  20
1.202689
  30
0
  11
34.2
  21
2.720183
  31
0
  0
LINE
  5
14a
  100
AcDbEntity
  8
NOCUT
  100
AcDbLine
  10
34.2
  20
2.720183
  30
0
  11
34.2
  21
0
  31
0
  0
LINE
  5
14b
  100
AcDbEntity
  8
NOCUT
  100
AcDbLine
  10
34.2
  20
0
  30
0
  11
49.2
  21
0
  31
0
  0
LINE
  5
14c
  100
AcDbEntity
  8
CUT
  100
AcDbLine
  10
50
  20
0
  30
0
  11
50
  21
0.55
  31
0
  0
ARC
  5
14d
  100
AcDbEntity
  8
CUT
  100
AcDbCircle
  10
49.5
  20
0.55
  30
0
  40
0.5
  100
AcDbArc
  50
0
  51
90
  0
LINE
  5
14e
  100
AcDbEntity
  8
CUT
  100
AcDbLine
  10
49.5
  20
1.05
  30
0
  11
49.2
  21
1.05
  31
0
  0
LINE
  5
14f
  100
AcDbEntity
  8
CUT
  100
AcDbLine
  10
49.2
  20
1.05
  30
0
  11
49.2
  21
0
  31
0
  0
LINE
  5
150
  100
AcDbEntity
  8
CUT
  100
AcDbLine
  10
49.2
  20
0
  30
0
  11
50
  21
0
  31
0
  0
LINE
  5
151
  100
AcDbEntity
  8
4
  100
AcDbLine
  10
34.2
  20
0
  30
0
  11
50
  21
0
  31
0
  0
LINE
  5
152
  100
AcDbEntity
  8
SK4
  100
AcDbLine
  10
-1
  20
0
  30
0
  11
51
  21
0
  31
0
  0
LINE
  5
153
  100
AcDbEntity
  8
INFTOTAL
  100
AcDbLine
  10
-15.7
  20
18.7
  30
0
  11
65.7
  21
18.7
  31
0
  0
LINE
  5
154
  100
AcDbEntity
  8
INFTOTAL
  100
AcDbLine
  10
65.7
  20
18.7
  30
0
  11
65.7
  21
-14.561947
  31
0
  0
LINE
  5
155
  100
AcDbEntity
  8
INFTOTAL
  100
AcDbLine
  10
65.7
  20
-14.561947
  30
0
  11
-15.7
  21
-14.561947
  31
0
  0
LINE
  5
156
  100
AcDbEntity
  8
INFTOTAL
  100
AcDbLine
  10
-15.7
  20
-14.561947
  30
0
  11
-15.7
  21
18.7
  31
0
  0
ENDSEC
  0
SECTION
  2
OBJECTS
  0
DICTIONARY
  5
157
  330
0
100
AcDbDictionary
281
    1
  3
ACAD_GROUP
  350
158
  0
DICTIONARY
  5
158
102
{ACAD_REACTORS
  330
157
102
}
  330
157
100
AcDbDictionary
281
    1
  0
ENDSEC
  0
EOF
