  0
SECTION
  2
HEADER
  9
$ACADVER
  1
AC1015
  9
$DWGCODEPAGE
  3
ANSI_932
  9
$HANDSEED
  5
106AB90
  0
ENDSEC
  0
SECTION
  2
CLASSES
  0
CLASS
  1
IMAGEDEF
  2
AcDbRasterImageDef
  3
ISM
  90
0
  91
4
  280
0
  281
0
  0
CLASS
  1
IMAGE
  2
AcDbRasterImage
  3
ISM
  90
127
  91
5
  280
0
  281
1
  0
CLASS
  1
IMAGEDEF_REACTOR
  2
AcDbRasterImageDefReactor
  3
ISM
  90
1
  91
4
  280
0
  281
0
  0
ENDSEC
  0
SECTION
  2
TABLES
  0
TABLE
  2
VPORT
  5
2
  330
0
  100
AcDbSymbolTable
  70
    0
  0
ENDTAB
  0
TABLE
  2
LTYPE
  5
3
  330
0
  100
AcDbSymbolTable
  70
    4
  0
LTYPE
  5
4
  330
3
  100
AcDbSymbolTableRecord
  100
AcDbLinetypeTableRecord
  2
ByBlock
  70
    0
  3

  72
65
  73
    0
  40
0
  0
LTYPE
  5
5
  330
3
  100
AcDbSymbolTableRecord
  100
AcDbLinetypeTableRecord
  2
ByLayer
  70
    0
  3

  72
65
  73
    0
  40
0
  0
LTYPE
  5
6
  330
3
  100
AcDbSymbolTableRecord
  100
AcDbLinetypeTableRecord
  2
CONTINUOUS
  70
    0
  3
Solid Line
  72
65
  73
    0
  40
0
  0
LTYPE
  5
7
  330
3
  100
AcDbSymbolTableRecord
  100
AcDbLinetypeTableRecord
  2
DASH
  70
    0
  3
Hidden
  72
65
  73
2
  40
2.5
  49
1.5
  74
0
  49
-1
  74
0
  0
LTYPE
  5
8
  330
3
  100
AcDbSymbolTableRecord
  100
AcDbLinetypeTableRecord
  2
LONGDASHDASH
  70
    0
  3
__ . __
  72
65
  73
    4
  40
7
  49
4
  74
    0
  49
-1
  74
    0
  49
1
  74
    0
  49
-1
  74
    0
  0
ENDTAB
  0
TABLE
  2
LAYER
  5
9
  330
0
  100
AcDbSymbolTable
  70
    40
  0
LAYER
  5
a
  330
9
  100
AcDbSymbolTableRecord
  100
AcDbLayerTableRecord
  2
0
  70
    0
  62
    0
  6
CONTINUOUS
  390
0
  0
LAYER
  5
c
  330
9
  100
AcDbSymbolTableRecord
  100
AcDbLayerTableRecord
  2
1
  70
    0
  62
    4
  6
CONTINUOUS
  370
50
  390
0
  0
LAYER
  5
d
  330
9
  100
AcDbSymbolTableRecord
  100
AcDbLayerTableRecord
  2
2
  70
    0
  62
    7
  6
CONTINUOUS
  370
25
  390
0
  0
LAYER
  5
f
  330
9
  100
AcDbSymbolTableRecord
  100
AcDbLayerTableRecord
  2
4
  70
    0
  62
    2
  6
LONGDASHDASH
  370
25
  390
0
  0
LAYER
  5
13
  330
9
  100
AcDbSymbolTableRecord
  100
AcDbLayerTableRecord
  2
SK1
  70
    0
  62
    4
  6
CONTINUOUS
  370
50
  390
0
  0
LAYER
  5
14
  330
9
  100
AcDbSymbolTableRecord
  100
AcDbLayerTableRecord
  2
SK2
  70
    0
  62
    7
  6
CONTINUOUS
  370
25
  390
0
  0
LAYER
  5
16
  330
9
  100
AcDbSymbolTableRecord
  100
AcDbLayerTableRecord
  2
SK4
  70
    0
  62
    2
  6
LONGDASHDASH
  370
25
  390
0
  0
LAYER
  5
21
  330
9
  100
AcDbSymbolTableRecord
  100
AcDbLayerTableRecord
  2
NOCUT
  70
    0
  62
    7
  6
CONTINUOUS
  370
25
  390
0
  0
LAYER
  5
22
  330
9
  100
AcDbSymbolTableRecord
  100
AcDbLayerTableRecord
  2
CUT
  70
    0
  62
    1
  6
CONTINUOUS
  370
25
  390
0
  0
LAYER
  5
26
  330
9
  100
AcDbSymbolTableRecord
  100
AcDbLayerTableRecord
  2
INFTOTAL
  70
    0
  62
    9
  6
CONTINUOUS
  370
18
  390
0
  0
ENDTAB
  0
TABLE
  2
STYLE
  5
27
  330
0
  100
AcDbSymbolTable
  70
    1
  0
STYLE
  5
28
  330
27
  100
AcDbSymbolTableRecord
  100
AcDbTextStyleTableRecord
  2
Monospac821 BT
  70
    0
  40
    3.5
  41
1
  50
0
  71
0
  42
3
  3

  4

  1001
ACAD
  1000
Monospac821 BT
  1071
256
  0
ENDTAB
  0
TABLE
  2
VIEW
  5
29
  330
0
  100
AcDbSymbolTable
  70
    0
  0
ENDTAB
  0
TABLE
  2
UCS
  5
2a
  330
0
  100
AcDbSymbolTable
  70
    0
  0
ENDTAB
  0
TABLE
  2
APPID
  5
2b
  330
0
  100
AcDbSymbolTable
  70
    1
  0
APPID
  5
2c
  330
2b
  100
AcDbSymbolTableRecord
  100
AcDbRegAppTableRecord
  2
ACAD
  70
    0
  0
ENDTAB
  0
TABLE
  2
DIMSTYLE
  5
2d
  330
0
  100
AcDbSymbolTable
  70
    1
  100
AcDbDimStyleTable
  0
DIMSTYLE
  105
2e
  330
2d
  100
AcDbSymbolTableRecord
  100
AcDbDimStyleTableRecord
  2
STANDARD
  70
    0
  41
    3
  42
0.5
  44
1
  73
0
  77
1
  78
1
  140
3.5
  141
2.5
  143
0.03937
  147
0.8
  172
1
  174
1
  178
0
  179
1
  271
2
  279
1
  284
1
  340
28
  0
ENDTAB
  0
TABLE
  2
BLOCK_RECORD
  5
2f
  330
0
  100
AcDbSymbolTable
  70
    2
  0
BLOCK_RECORD
  5
30
  330
2f
  100
AcDbSymbolTableRecord
  100
AcDbBlockTableRecord
  2
*Model_Space
  0
BLOCK_RECORD
  5
31
  330
2f
  100
AcDbSymbolTableRecord
  100
AcDbBlockTableRecord
  2
*Paper_Space
  0
BLOCK_RECORD
  5
114
  330
2f
  100
AcDbSymbolTableRecord
  100
AcDbBlockTableRecord
  2
*D113
  340
0
  0
BLOCK_RECORD
  5
122
  330
2f
  100
AcDbSymbolTableRecord
  100
AcDbBlockTableRecord
  2
*D121
  340
0
  0
BLOCK_RECORD
  5
130
  330
2f
  100
AcDbSymbolTableRecord
  100
AcDbBlockTableRecord
  2
*D12f
  340
0
  0
BLOCK_RECORD
  5
13e
  330
2f
  100
AcDbSymbolTableRecord
  100
AcDbBlockTableRecord
  2
*D13d
  340
0
  0
BLOCK_RECORD
  5
14c
  330
2f
  100
AcDbSymbolTableRecord
  100
AcDbBlockTableRecord
  2
*D14b
  340
0
  0
BLOCK_RECORD
  5
156
  330
2f
  100
AcDbSymbolTableRecord
  100
AcDbBlockTableRecord
  2
*D155
  340
0
  0
BLOCK_RECORD
  5
164
  330
2f
  100
AcDbSymbolTableRecord
  100
AcDbBlockTableRecord
  2
*D163
  340
0
  0
BLOCK_RECORD
  5
172
  330
2f
  100
AcDbSymbolTableRecord
  100
AcDbBlockTableRecord
  2
*D171
  340
0
  0
BLOCK_RECORD
  5
180
  330
2f
  100
AcDbSymbolTableRecord
  100
AcDbBlockTableRecord
  2
*D17f
  340
0
  0
ENDTAB
  0
ENDSEC
  0
SECTION
  2
BLOCKS
  0
BLOCK
  5
32
  330
30
  100
AcDbEntity
  8
0
  100
AcDbBlockBegin
  2
*Model_Space
  70
    0
  10
0
  20
0
  30
0
  3
*Model_Space
  1

  0
ENDBLK
  5
33
  330
30
  100
AcDbEntity
  8
0
  100
AcDbBlockEnd
  0
BLOCK
  5
34
  330
31
  100
AcDbEntity
  8
0
  100
AcDbBlockBegin
  2
*Paper_Space
  70
    0
  10
0
  20
0
  30
0
  3
*Paper_Space
  1

  0
ENDBLK
  5
35
  330
31
  100
AcDbEntity
  8
0
  100
AcDbBlockEnd
  0
BLOCK
  5
112
  330
114
  100
AcDbEntity
  8
SK2
  100
AcDbBlockBegin
  2
*D113
  70
1
  10
0
  20
0
  30
0
  3
*D113
  1

  0
LINE
  5
115
  330
114
  100
AcDbEntity
  8
SK2
  100
AcDbLine
  10
0
  20
2.3
  30
0
  11
0
  21
15
  31
0
  0
LINE
  5
116
  330
114
  100
AcDbEntity
  8
SK2
  100
AcDbLine
  10
55
  20
0.75
  30
0
  11
55
  21
15
  31
0
  0
LINE
  5
117
  330
114
  100
AcDbEntity
  8
SK2
  100
AcDbLine
  10
0
  20
13
  30
0
  11
55
  21
13
  31
0
  0
SOLID
  5
118
  330
114
  100
AcDbEntity
  8
SK2
  100
AcDbTrace
  10
0
  20
13
  30
0
  11
2.478612
  21
13.326315
  31
0
  12
2.478612
  22
12.673685
  32
0
  13
2.478612
  23
12.673685
  33
0
  0
SOLID
  5
119
  330
114
  100
AcDbEntity
  8
SK2
  100
AcDbTrace
  10
55
  20
13
  30
0
  11
52.521388
  21
12.673685
  31
0
  12
52.521388
  22
13.326315
  32
0
  13
52.521388
  23
13.326315
  33
0
  0
MTEXT
  5
11a
  330
114
  100
AcDbEntity
  8
SK2
  100
AcDbMText
  10
27.5
  20
13
  30
0
  11
1
  21
0
  31
0
  40
2
  41
0
  71
8
  72
1
  1
55
  0
POINT
  5
11b
  330
114
  100
AcDbEntity
  8
SK2
  62
0
  100
AcDbPoint
  10
0
  20
2.3
  30
0
  0
POINT
  5
11c
  330
114
  100
AcDbEntity
  8
SK2
  62
0
  100
AcDbPoint
  10
55
  20
0.75
  30
0
  0
POINT
  5
11d
  330
114
  100
AcDbEntity
  8
SK2
  62
0
  100
AcDbPoint
  10
55
  20
13
  30
0
  0
ENDBLK
  5
11e
  330
114
  100
AcDbEntity
  8
SK2
  100
AcDbBlockEnd
  0
BLOCK
  5
120
  330
122
  100
AcDbEntity
  8
SK2
  100
AcDbBlockBegin
  2
*D121
  70
1
  10
0
  20
0
  30
0
  3
*D121
  1

  0
LINE
  5
123
  330
122
  100
AcDbEntity
  8
SK2
  100
AcDbLine
  10
0
  20
2.3
  30
0
  11
0
  21
8.61423
  31
0
  0
LINE
  5
124
  330
122
  100
AcDbEntity
  8
SK2
  100
AcDbLine
  10
37.1
  20
3
  30
0
  11
37.1
  21
8.61423
  31
0
  0
LINE
  5
125
  330
122
  100
AcDbEntity
  8
SK2
  100
AcDbLine
  10
0
  20
6.61423
  30
0
  11
37.1
  21
6.61423
  31
0
  0
SOLID
  5
126
  330
122
  100
AcDbEntity
  8
SK2
  100
AcDbTrace
  10
0
  20
6.61423
  30
0
  11
2.478612
  21
6.940545
  31
0
  12
2.478612
  22
6.287915
  32
0
  13
2.478612
  23
6.287915
  33
0
  0
SOLID
  5
127
  330
122
  100
AcDbEntity
  8
SK2
  100
AcDbTrace
  10
37.1
  20
6.61423
  30
0
  11
34.621388
  21
6.287915
  31
0
  12
34.621388
  22
6.940545
  32
0
  13
34.621388
  23
6.940545
  33
0
  0
MTEXT
  5
128
  330
122
  100
AcDbEntity
  8
SK2
  100
AcDbMText
  10
18.55
  20
6.61423
  30
0
  11
1
  21
0
  31
0
  40
2
  41
0
  71
8
  72
1
  1
37.1
  0
POINT
  5
129
  330
122
  100
AcDbEntity
  8
SK2
  62
0
  100
AcDbPoint
  10
0
  20
2.3
  30
0
  0
POINT
  5
12a
  330
122
  100
AcDbEntity
  8
SK2
  62
0
  100
AcDbPoint
  10
37.1
  20
3
  30
0
  0
POINT
  5
12b
  330
122
  100
AcDbEntity
  8
SK2
  62
0
  100
AcDbPoint
  10
37.1
  20
6.61423
  30
0
  0
ENDBLK
  5
12c
  330
122
  100
AcDbEntity
  8
SK2
  100
AcDbBlockEnd
  0
BLOCK
  5
12e
  330
130
  100
AcDbEntity
  8
SK2
  100
AcDbBlockBegin
  2
*D12f
  70
1
  10
0
  20
0
  30
0
  3
*D12f
  1

  0
LINE
  5
131
  330
130
  100
AcDbEntity
  8
SK2
  100
AcDbLine
  10
0.7
  20
-3
  30
0
  11
-12
  21
-3
  31
0
  0
LINE
  5
132
  330
130
  100
AcDbEntity
  8
SK2
  100
AcDbLine
  10
0.7
  20
3
  30
0
  11
-12
  21
3
  31
0
  0
LINE
  5
133
  330
130
  100
AcDbEntity
  8
SK2
  100
AcDbLine
  10
-10
  20
-3
  30
0
  11
-10
  21
3
  31
0
  0
SOLID
  5
134
  330
130
  100
AcDbEntity
  8
SK2
  100
AcDbTrace
  10
-10
  20
-3
  30
0
  11
-10.326315
  21
-0.521388
  31
0
  12
-9.673685
  22
-0.521388
  32
0
  13
-9.673685
  23
-0.521388
  33
0
  0
SOLID
  5
135
  330
130
  100
AcDbEntity
  8
SK2
  100
AcDbTrace
  10
-10
  20
3
  30
0
  11
-9.673685
  21
0.521388
  31
0
  12
-10.326315
  22
0.521388
  32
0
  13
-10.326315
  23
0.521388
  33
0
  0
MTEXT
  5
136
  330
130
  100
AcDbEntity
  8
SK2
  100
AcDbMText
  10
-10
  20
0
  30
0
  11
0
  21
1
  31
0
  40
2
  41
0
  71
8
  72
1
  1
ﾘ6
  0
POINT
  5
137
  330
130
  100
AcDbEntity
  8
SK2
  62
0
  100
AcDbPoint
  10
0.7
  20
-3
  30
0
  0
POINT
  5
138
  330
130
  100
AcDbEntity
  8
SK2
  62
0
  100
AcDbPoint
  10
0.7
  20
3
  30
0
  0
POINT
  5
139
  330
130
  100
AcDbEntity
  8
SK2
  62
0
  100
AcDbPoint
  10
-10
  20
3
  30
0
  0
ENDBLK
  5
13a
  330
130
  100
AcDbEntity
  8
SK2
  100
AcDbBlockEnd
  0
BLOCK
  5
13c
  330
13e
  100
AcDbEntity
  8
2
  100
AcDbBlockBegin
  2
*D13d
  70
1
  10
0
  20
0
  30
0
  3
*D13d
  1

  0
LINE
  5
13f
  330
13e
  100
AcDbEntity
  8
2
  100
AcDbLine
  10
54.25
  20
-1.5
  30
0
  11
67
  21
-1.5
  31
0
  0
LINE
  5
140
  330
13e
  100
AcDbEntity
  8
2
  100
AcDbLine
  10
54.25
  20
1.5
  30
0
  11
67
  21
1.5
  31
0
  0
LINE
  5
141
  330
13e
  100
AcDbEntity
  8
2
  100
AcDbLine
  10
65
  20
-4.158416
  30
0
  11
65
  21
1.5
  31
0
  0
SOLID
  5
142
  330
13e
  100
AcDbEntity
  8
2
  100
AcDbTrace
  10
65
  20
-1.5
  30
0
  11
64.673685
  21
0.978612
  31
0
  12
65.326315
  22
0.978612
  32
0
  13
65.326315
  23
0.978612
  33
0
  0
SOLID
  5
143
  330
13e
  100
AcDbEntity
  8
2
  100
AcDbTrace
  10
65
  20
1.5
  30
0
  11
65.326315
  21
-0.978612
  31
0
  12
64.673685
  22
-0.978612
  32
0
  13
64.673685
  23
-0.978612
  33
0
  0
MTEXT
  5
144
  330
13e
  100
AcDbEntity
  8
2
  100
AcDbMText
  10
65
  20
0
  30
0
  11
0
  21
1
  31
0
  40
2
  41
0
  71
8
  72
1
  1
ﾘ3
  0
POINT
  5
145
  330
13e
  100
AcDbEntity
  8
2
  62
0
  100
AcDbPoint
  10
54.25
  20
-1.5
  30
0
  0
POINT
  5
146
  330
13e
  100
AcDbEntity
  8
2
  62
0
  100
AcDbPoint
  10
54.25
  20
1.5
  30
0
  0
POINT
  5
147
  330
13e
  100
AcDbEntity
  8
2
  62
0
  100
AcDbPoint
  10
65
  20
1.5
  30
0
  0
ENDBLK
  5
148
  330
13e
  100
AcDbEntity
  8
2
  100
AcDbBlockEnd
  0
BLOCK
  5
14a
  330
14c
  100
AcDbEntity
  8
2
  100
AcDbBlockBegin
  2
*D14b
  70
1
  10
0
  20
0
  30
0
  3
*D14b
  1

  0
LINE
  5
14d
  330
14c
  100
AcDbEntity
  8
2
  100
AcDbLine
  10
54.721507
  20
1.333251
  30
0
  11
61.008264
  21
9.109927
  31
0
  0
MTEXT
  5
14e
  330
14c
  100
AcDbEntity
  8
2
  100
AcDbMText
  10
57.864885
  20
5.221589
  30
0
  11
0.628676
  21
0.777668
  31
0
  40
2
  41
0
  71
8
  72
1
  1
R0.75
  0
SOLID
  5
14f
  330
14c
  100
AcDbEntity
  8
2
  100
AcDbTrace
  10
54.721507
  20
1.333251
  30
0
  11
56.025985
  21
3.465934
  31
0
  12
56.533515
  22
3.05564
  32
0
  13
56.533515
  23
3.05564
  33
0
  0
POINT
  5
150
  330
14c
  100
AcDbEntity
  8
2
  62
0
  100
AcDbPoint
  10
54.721507
  20
1.333251
  30
0
  0
POINT
  5
151
  330
14c
  100
AcDbEntity
  8
2
  62
0
  100
AcDbPoint
  10
54.25
  20
0.75
  30
0
  0
ENDBLK
  5
152
  330
14c
  100
AcDbEntity
  8
2
  100
AcDbBlockEnd
  0
BLOCK
  5
154
  330
156
  100
AcDbEntity
  8
2
  100
AcDbBlockBegin
  2
*D155
  70
1
  10
0
  20
0
  30
0
  3
*D155
  1

  0
LINE
  5
157
  330
156
  100
AcDbEntity
  8
2
  100
AcDbLine
  10
53.8
  20
-1.35
  30
0
  11
51.8
  21
-1.35
  31
0
  0
LINE
  5
158
  330
156
  100
AcDbEntity
  8
2
  100
AcDbLine
  10
53.8
  20
1.35
  30
0
  11
51.8
  21
1.35
  31
0
  0
LINE
  5
159
  330
156
  100
AcDbEntity
  8
2
  100
AcDbLine
  10
53.8
  20
-1.35
  30
0
  11
53.8
  21
8.056931
  31
0
  0
SOLID
  5
15a
  330
156
  100
AcDbEntity
  8
2
  100
AcDbTrace
  10
53.8
  20
-1.35
  30
0
  11
53.473685
  21
1.128612
  31
0
  12
54.126315
  22
1.128612
  32
0
  13
54.126315
  23
1.128612
  33
0
  0
SOLID
  5
15b
  330
156
  100
AcDbEntity
  8
2
  100
AcDbTrace
  10
53.8
  20
1.35
  30
0
  11
54.126315
  21
-1.128612
  31
0
  12
53.473685
  22
-1.128612
  32
0
  13
53.473685
  23
-1.128612
  33
0
  0
MTEXT
  5
15c
  330
156
  100
AcDbEntity
  8
2
  100
AcDbMText
  10
53.8
  20
1.35
  30
0
  11
0
  21
1
  31
0
  40
2
  41
0
  71
8
  72
1
  1
ﾘ2.7
  0
POINT
  5
15d
  330
156
  100
AcDbEntity
  8
2
  62
0
  100
AcDbPoint
  10
51.8
  20
-1.35
  30
0
  0
POINT
  5
15e
  330
156
  100
AcDbEntity
  8
2
  62
0
  100
AcDbPoint
  10
51.8
  20
1.35
  30
0
  0
POINT
  5
15f
  330
156
  100
AcDbEntity
  8
2
  62
0
  100
AcDbPoint
  10
53.8
  20
8.056931
  30
0
  0
ENDBLK
  5
160
  330
156
  100
AcDbEntity
  8
2
  100
AcDbBlockEnd
  0
BLOCK
  5
162
  330
164
  100
AcDbEntity
  8
2
  100
AcDbBlockBegin
  2
*D163
  70
1
  10
0
  20
0
  30
0
  3
*D163
  1

  0
LINE
  5
165
  330
164
  100
AcDbEntity
  8
2
  100
AcDbLine
  10
53.8
  20
1.35
  30
0
  11
53.8
  21
6.015362
  31
0
  0
LINE
  5
166
  330
164
  100
AcDbEntity
  8
2
  100
AcDbLine
  10
44.06
  20
1.35
  30
0
  11
44.06
  21
6.015362
  31
0
  0
LINE
  5
167
  330
164
  100
AcDbEntity
  8
2
  100
AcDbLine
  10
58.347772
  20
4.015362
  30
0
  11
44.06
  21
4.015362
  31
0
  0
SOLID
  5
168
  330
164
  100
AcDbEntity
  8
2
  100
AcDbTrace
  10
53.8
  20
4.015362
  30
0
  11
56.278612
  21
4.341678
  31
0
  12
56.278612
  22
3.689047
  32
0
  13
56.278612
  23
3.689047
  33
0
  0
SOLID
  5
169
  330
164
  100
AcDbEntity
  8
2
  100
AcDbTrace
  10
44.06
  20
4.015362
  30
0
  11
41.581388
  21
3.689047
  31
0
  12
41.581388
  22
4.341678
  32
0
  13
41.581388
  23
4.341678
  33
0
  0
MTEXT
  5
16a
  330
164
  100
AcDbEntity
  8
2
  100
AcDbMText
  10
55.392135
  20
4.015362
  30
0
  11
1
  21
-0
  31
0
  40
2
  41
0
  71
8
  72
1
  1
9.74
  0
POINT
  5
16b
  330
164
  100
AcDbEntity
  8
2
  62
0
  100
AcDbPoint
  10
53.8
  20
1.35
  30
0
  0
POINT
  5
16c
  330
164
  100
AcDbEntity
  8
2
  62
0
  100
AcDbPoint
  10
44.06
  20
1.35
  30
0
  0
POINT
  5
16d
  330
164
  100
AcDbEntity
  8
2
  62
0
  100
AcDbPoint
  10
44.06
  20
4.015362
  30
0
  0
ENDBLK
  5
16e
  330
164
  100
AcDbEntity
  8
2
  100
AcDbBlockEnd
  0
BLOCK
  5
170
  330
172
  100
AcDbEntity
  8
2
  100
AcDbBlockBegin
  2
*D171
  70
1
  10
0
  20
0
  30
0
  3
*D171
  1

  0
LINE
  5
173
  330
172
  100
AcDbEntity
  8
2
  100
AcDbLine
  10
55
  20
0.75
  30
0
  11
55
  21
15
  31
0
  0
LINE
  5
174
  330
172
  100
AcDbEntity
  8
2
  100
AcDbLine
  10
37.1
  20
3
  30
0
  11
37.1
  21
10
  31
0
  0
LINE
  5
175
  330
172
  100
AcDbEntity
  8
2
  100
AcDbLine
  10
55
  20
8
  30
0
  11
37.1
  21
8
  31
0
  0
SOLID
  5
176
  330
172
  100
AcDbEntity
  8
2
  100
AcDbTrace
  10
55
  20
8
  30
0
  11
57.478612
  21
8.326315
  31
0
  12
57.478612
  22
7.673685
  32
0
  13
57.478612
  23
7.673685
  33
0
  0
SOLID
  5
177
  330
172
  100
AcDbEntity
  8
2
  100
AcDbTrace
  10
37.1
  20
8
  30
0
  11
34.621388
  21
7.673685
  31
0
  12
34.621388
  22
8.326315
  32
0
  13
34.621388
  23
8.326315
  33
0
  0
MTEXT
  5
178
  330
172
  100
AcDbEntity
  8
2
  100
AcDbMText
  10
46.05
  20
8
  30
0
  11
1
  21
-0
  31
0
  40
2
  41
0
  71
8
  72
1
  1
17.9
  0
POINT
  5
179
  330
172
  100
AcDbEntity
  8
2
  62
0
  100
AcDbPoint
  10
55
  20
0.75
  30
0
  0
POINT
  5
17a
  330
172
  100
AcDbEntity
  8
2
  62
0
  100
AcDbPoint
  10
37.1
  20
3
  30
0
  0
POINT
  5
17b
  330
172
  100
AcDbEntity
  8
2
  62
0
  100
AcDbPoint
  10
37.1
  20
8
  30
0
  0
ENDBLK
  5
17c
  330
172
  100
AcDbEntity
  8
2
  100
AcDbBlockEnd
  0
BLOCK
  5
17e
  330
180
  100
AcDbEntity
  8
2
  100
AcDbBlockBegin
  2
*D17f
  70
1
  10
0
  20
0
  30
0
  3
*D17f
  1

  0
LINE
  5
181
  330
180
  100
AcDbEntity
  8
2
  100
AcDbLine
  10
55
  20
-4.983448
  30
0
  11
55
  21
0.75
  31
0
  0
LINE
  5
182
  330
180
  100
AcDbEntity
  8
2
  100
AcDbLine
  10
53.8
  20
-4.983448
  30
0
  11
53.8
  21
1.35
  31
0
  0
LINE
  5
183
  330
180
  100
AcDbEntity
  8
2
  100
AcDbLine
  10
55
  20
-2.983448
  30
0
  11
49.77104
  21
-2.983448
  31
0
  0
SOLID
  5
184
  330
180
  100
AcDbEntity
  8
2
  100
AcDbTrace
  10
55
  20
-2.983448
  30
0
  11
57.478612
  21
-2.657133
  31
0
  12
57.478612
  22
-3.309764
  32
0
  13
57.478612
  23
-3.309764
  33
0
  0
SOLID
  5
185
  330
180
  100
AcDbEntity
  8
2
  100
AcDbTrace
  10
53.8
  20
-2.983448
  30
0
  11
51.321388
  21
-3.309764
  31
0
  12
51.321388
  22
-2.657133
  32
0
  13
51.321388
  23
-2.657133
  33
0
  0
MTEXT
  5
186
  330
180
  100
AcDbEntity
  8
2
  100
AcDbMText
  10
54.4
  20
-2.983448
  30
0
  11
1
  21
-0
  31
0
  40
2
  41
0
  71
8
  72
1
  1
1.2
  0
POINT
  5
187
  330
180
  100
AcDbEntity
  8
2
  62
0
  100
AcDbPoint
  10
55
  20
0.75
  30
0
  0
POINT
  5
188
  330
180
  100
AcDbEntity
  8
2
  62
0
  100
AcDbPoint
  10
53.8
  20
1.35
  30
0
  0
POINT
  5
189
  330
180
  100
AcDbEntity
  8
2
  62
0
  100
AcDbPoint
  10
49.77104
  20
-2.983448
  30
0
  0
ENDBLK
  5
18a
  330
180
  100
AcDbEntity
  8
2
  100
AcDbBlockEnd
  0
ENDSEC
  0
SECTION
  2
ENTITIES
  0
DIMENSION
  5
11f
  100
AcDbEntity
  8
SK2
  100
AcDbDimension
  2
*D113
  10
55
  20
13
  30
0
  11
27.5
  21
13
  31
0
  70
160
  1
<>
  71
5
  3
STANDARD
  42
55
  100
AcDbAlignedDimension
  13
0
  23
2.3
  33
0
  14
55
  24
0.75
  34
0
  50
0
  100
AcDbRotatedDimension
  0
DIMENSION
  5
12d
  100
AcDbEntity
  8
SK2
  100
AcDbDimension
  2
*D121
  10
37.1
  20
6.61423
  30
0
  11
18.55
  21
6.61423
  31
0
  70
160
  1
<>
  71
5
  3
STANDARD
  42
37.1
  100
AcDbAlignedDimension
  13
0
  23
2.3
  33
0
  14
37.1
  24
3
  34
0
  50
0
  100
AcDbRotatedDimension
  0
DIMENSION
  5
13b
  100
AcDbEntity
  8
SK2
  100
AcDbDimension
  2
*D12f
  10
-10
  20
3
  30
0
  11
-10
  21
0
  31
0
  70
160
  1
%%c<>
  71
5
  3
STANDARD
  42
6
  100
AcDbAlignedDimension
  13
0.7
  23
-3
  33
0
  14
0.7
  24
3
  34
0
  50
-90
  100
AcDbRotatedDimension
  0
DIMENSION
  5
149
  100
AcDbEntity
  8
2
  100
AcDbDimension
  2
*D13d
  10
65
  20
1.5
  30
0
  11
65
  21
0
  31
0
  70
160
  1
%%c<>
  71
5
  3
STANDARD
  42
3
  100
AcDbAlignedDimension
  13
54.25
  23
-1.5
  33
0
  14
54.25
  24
1.5
  34
0
  50
-90
  100
AcDbRotatedDimension
  0
DIMENSION
  5
153
  100
AcDbEntity
  8
2
  100
AcDbDimension
  2
*D14b
  10
54.25
  20
0.75
  30
0
  11
57.864885
  21
5.221589
  31
0
  70
164
  1
R0.75
  71
5
  3
STANDARD
  100
AcDbRadialDimension
  15
54.721507
  25
1.333251
  35
0
  50
51.047516
  0
DIMENSION
  5
161
  100
AcDbEntity
  8
2
  100
AcDbDimension
  2
*D155
  10
53.8
  20
8.056931
  30
0
  11
53.8
  21
1.35
  31
0
  70
160
  1
%%c<>
  71
5
  3
STANDARD
  42
2.7
  100
AcDbAlignedDimension
  13
51.8
  23
-1.35
  33
0
  14
51.8
  24
1.35
  34
0
  50
-90
  100
AcDbRotatedDimension
  0
DIMENSION
  5
16f
  100
AcDbEntity
  8
2
  100
AcDbDimension
  2
*D163
  10
44.06
  20
4.015362
  30
0
  11
55.392135
  21
4.015362
  31
0
  70
160
  1
<>
  71
5
  3
STANDARD
  42
9.74
  100
AcDbAlignedDimension
  13
53.8
  23
1.35
  33
0
  14
44.06
  24
1.35
  34
0
  50
0
  100
AcDbRotatedDimension
  0
DIMENSION
  5
17d
  100
AcDbEntity
  8
2
  100
AcDbDimension
  2
*D171
  10
37.1
  20
8
  30
0
  11
46.05
  21
8
  31
0
  70
160
  1
<>
  71
5
  3
STANDARD
  42
17.9
  100
AcDbAlignedDimension
  13
55
  23
0.75
  33
0
  14
37.1
  24
3
  34
0
  50
0
  100
AcDbRotatedDimension
  0
DIMENSION
  5
18b
  100
AcDbEntity
  8
2
  100
AcDbDimension
  2
*D17f
  10
49.77104
  20
-2.983448
  30
0
  11
54.4
  21
-2.983448
  31
0
  70
160
  1
<>
  71
5
  3
STANDARD
  42
1.2
  100
AcDbAlignedDimension
  13
55
  23
0.75
  33
0
  14
53.8
  24
1.35
  34
0
  50
0
  100
AcDbRotatedDimension
  0
LINE
  5
36
  100
AcDbEntity
  8
1
  100
AcDbLine
  10
37.1
  20
-3
  30
0
  11
37.1
  21
3
  31
0
  0
LINE
  5
37
  100
AcDbEntity
  8
1
  100
AcDbLine
  10
37.1
  20
3
  30
0
  11
37.1
  21
-3
  31
0
  0
LINE
  5
38
  100
AcDbEntity
  8
1
  100
AcDbLine
  10
37.315133
  20
3
  30
0
  11
37.315133
  21
-3
  31
0
  0
ARC
  5
39
  100
AcDbEntity
  8
1
  100
AcDbCircle
  10
44.931557
  20
-11.311947
  30
0
  40
10
  100
AcDbArc
  50
95
  51
105
  0
LINE
  5
3a
  100
AcDbEntity
  8
1
  100
AcDbLine
  10
44.06
  20
-1.35
  30
0
  11
53.8
  21
-1.35
  31
0
  0
LINE
  5
3b
  100
AcDbEntity
  8
1
  100
AcDbLine
  10
53.8
  20
-1.321482
  30
0
  11
53.8
  21
-1.473953
  31
0
  0
LINE
  5
3c
  100
AcDbEntity
  8
1
  100
AcDbLine
  10
53.8
  20
-1.473953
  30
0
  11
53.9
  21
-1.473953
  31
0
  0
LINE
  5
3d
  100
AcDbEntity
  8
1
  100
AcDbLine
  10
53.9
  20
-1.473953
  30
0
  11
54
  21
-1.473953
  31
0
  0
LINE
  5
3e
  100
AcDbEntity
  8
1
  100
AcDbLine
  10
54
  20
-1.473953
  30
0
  11
54.1
  21
-1.473953
  31
0
  0
LINE
  5
3f
  100
AcDbEntity
  8
1
  100
AcDbLine
  10
54.1
  20
-1.473953
  30
0
  11
54.2
  21
-1.473953
  31
0
  0
LINE
  5
40
  100
AcDbEntity
  8
1
  100
AcDbLine
  10
54.2
  20
-1.473953
  30
0
  11
54.3
  21
-1.472261
  31
0
  0
LINE
  5
41
  100
AcDbEntity
  8
1
  100
AcDbLine
  10
54.3
  20
-1.472261
  30
0
  11
54.4
  21
-1.458586
  31
0
  0
LINE
  5
42
  100
AcDbEntity
  8
1
  100
AcDbLine
  10
54.4
  20
-1.458586
  30
0
  11
54.5
  21
-1.430436
  31
0
  0
LINE
  5
43
  100
AcDbEntity
  8
1
  100
AcDbLine
  10
54.5
  20
-1.430436
  30
0
  11
54.6
  21
-1.385952
  31
0
  0
LINE
  5
44
  100
AcDbEntity
  8
1
  100
AcDbLine
  10
54.6
  20
-1.385952
  30
0
  11
54.7
  21
-1.321482
  31
0
  0
LINE
  5
45
  100
AcDbEntity
  8
1
  100
AcDbLine
  10
54.7
  20
-1.321482
  30
0
  11
54.8
  21
-1.229447
  31
0
  0
LINE
  5
46
  100
AcDbEntity
  8
1
  100
AcDbLine
  10
54.8
  20
-1.229447
  30
0
  11
54.9
  21
-1.089934
  31
0
  0
LINE
  5
47
  100
AcDbEntity
  8
1
  100
AcDbLine
  10
54.9
  20
-1.089934
  30
0
  11
54.998448
  21
-0.70177
  31
0
  0
LINE
  5
48
  100
AcDbEntity
  8
1
  100
AcDbLine
  10
54.998448
  20
-0.70177
  30
0
  11
55
  21
-0.695649
  31
0
  0
LINE
  5
49
  100
AcDbEntity
  8
1
  100
AcDbLine
  10
55
  20
-0.742404
  30
0
  11
54.999963
  21
-0.742545
  31
0
  0
LINE
  5
4a
  100
AcDbEntity
  8
1
  100
AcDbLine
  10
54.999963
  20
-0.742545
  30
0
  11
54.9
  21
-1.122916
  31
0
  0
LINE
  5
4b
  100
AcDbEntity
  8
1
  100
AcDbLine
  10
54.9
  20
-1.122916
  30
0
  11
54.8
  21
-1.259448
  31
0
  0
LINE
  5
4c
  100
AcDbEntity
  8
1
  100
AcDbLine
  10
54.8
  20
-1.259448
  30
0
  11
54.7
  21
-1.349835
  31
0
  0
LINE
  5
4d
  100
AcDbEntity
  8
1
  100
AcDbLine
  10
54.7
  20
-1.349835
  30
0
  11
54.6
  21
-1.413272
  31
0
  0
LINE
  5
4e
  100
AcDbEntity
  8
1
  100
AcDbLine
  10
54.6
  20
-1.413272
  30
0
  11
54.5
  21
-1.457094
  31
0
  0
LINE
  5
4f
  100
AcDbEntity
  8
1
  100
AcDbLine
  10
54.5
  20
-1.457094
  30
0
  11
54.4
  21
-1.484845
  31
0
  0
LINE
  5
50
  100
AcDbEntity
  8
1
  100
AcDbLine
  10
54.4
  20
-1.484845
  30
0
  11
54.3
  21
-1.498331
  31
0
  0
LINE
  5
51
  100
AcDbEntity
  8
1
  100
AcDbLine
  10
54.3
  20
-1.498331
  30
0
  11
54.2
  21
-1.5
  31
0
  0
LINE
  5
52
  100
AcDbEntity
  8
1
  100
AcDbLine
  10
54.2
  20
-1.5
  30
0
  11
54.1
  21
-1.5
  31
0
  0
LINE
  5
53
  100
AcDbEntity
  8
1
  100
AcDbLine
  10
54.1
  20
-1.5
  30
0
  11
54
  21
-1.5
  31
0
  0
LINE
  5
54
  100
AcDbEntity
  8
1
  100
AcDbLine
  10
54
  20
-1.5
  30
0
  11
53.9
  21
-1.5
  31
0
  0
LINE
  5
55
  100
AcDbEntity
  8
1
  100
AcDbLine
  10
53.9
  20
-1.5
  30
0
  11
53.8
  21
-1.5
  31
0
  0
LINE
  5
56
  100
AcDbEntity
  8
1
  100
AcDbLine
  10
53.8
  20
-1.5
  30
0
  11
54.25
  21
-1.5
  31
0
  0
ARC
  5
57
  100
AcDbEntity
  8
1
  100
AcDbCircle
  10
54.25
  20
-0.75
  30
0
  40
0.75
  100
AcDbArc
  50
270
  51
0
  0
LINE
  5
58
  100
AcDbEntity
  8
1
  100
AcDbLine
  10
55
  20
-0.75
  30
0
  11
55
  21
0
  31
0
  0
LINE
  5
59
  100
AcDbEntity
  8
1
  100
AcDbLine
  10
55
  20
0
  30
0
  11
55
  21
0.75
  31
0
  0
ARC
  5
5a
  100
AcDbEntity
  8
1
  100
AcDbCircle
  10
54.25
  20
0.75
  30
0
  40
0.75
  100
AcDbArc
  50
0
  51
90
  0
LINE
  5
5b
  100
AcDbEntity
  8
1
  100
AcDbLine
  10
54.25
  20
1.5
  30
0
  11
53.8
  21
1.5
  31
0
  0
LINE
  5
5c
  100
AcDbEntity
  8
1
  100
AcDbLine
  10
53.8
  20
1.5
  30
0
  11
53.8
  21
1.35
  31
0
  0
LINE
  5
5d
  100
AcDbEntity
  8
1
  100
AcDbLine
  10
53.8
  20
1.35
  30
0
  11
44.06
  21
1.35
  31
0
  0
ARC
  5
5e
  100
AcDbEntity
  8
1
  100
AcDbCircle
  10
44.931557
  20
11.311947
  30
0
  40
10
  100
AcDbArc
  50
255
  51
265
  0
LINE
  5
5f
  100
AcDbEntity
  8
1
  100
AcDbLine
  10
42.343367
  20
1.652689
  30
0
  11
37.315133
  21
3
  31
0
  0
LINE
  5
60
  100
AcDbEntity
  8
1
  100
AcDbLine
  10
37.315133
  20
3
  30
0
  11
37.1
  21
3
  31
0
  0
LINE
  5
61
  100
AcDbEntity
  8
1
  100
AcDbLine
  10
37.1
  20
3
  30
0
  11
37.1
  21
-3
  31
0
  0
LINE
  5
62
  100
AcDbEntity
  8
1
  100
AcDbLine
  10
37.1
  20
-3
  30
0
  11
37.315133
  21
-3
  31
0
  0
LINE
  5
63
  100
AcDbEntity
  8
1
  100
AcDbLine
  10
37.315133
  20
-3
  30
0
  11
42.343367
  21
-1.652689
  31
0
  0
LINE
  5
64
  100
AcDbEntity
  8
1
  100
AcDbLine
  10
42.343367
  20
-1.652689
  30
0
  11
42.343367
  21
1.652689
  31
0
  0
LINE
  5
65
  100
AcDbEntity
  8
1
  100
AcDbLine
  10
44.06
  20
1.35
  30
0
  11
44.06
  21
-1.35
  31
0
  0
LINE
  5
66
  100
AcDbEntity
  8
1
  100
AcDbLine
  10
53.791457
  20
-1.35
  30
0
  11
53.8
  21
-1.349835
  31
0
  0
LINE
  5
67
  100
AcDbEntity
  8
1
  100
AcDbLine
  10
53.8
  20
-1.349835
  30
0
  11
53.8
  21
-1.5
  31
0
  0
LINE
  5
68
  100
AcDbEntity
  8
1
  100
AcDbLine
  10
53.8
  20
-1.5
  30
0
  11
53.8
  21
-1.35
  31
0
  0
LINE
  5
69
  100
AcDbEntity
  8
1
  100
AcDbLine
  10
53.8
  20
-1.35
  30
0
  11
53.8
  21
1.35
  31
0
  0
LINE
  5
6a
  100
AcDbEntity
  8
1
  100
AcDbLine
  10
53.7
  20
1.35
  30
0
  11
53.7
  21
1.349484
  31
0
  0
LINE
  5
6b
  100
AcDbEntity
  8
1
  100
AcDbLine
  10
53.7
  20
1.349484
  30
0
  11
53.8
  21
1.287415
  31
0
  0
LINE
  5
6c
  100
AcDbEntity
  8
1
  100
AcDbLine
  10
53.8
  20
1.287415
  30
0
  11
53.8
  21
1.426585
  31
0
  0
LINE
  5
6d
  100
AcDbEntity
  8
1
  100
AcDbLine
  10
53.8
  20
1.426585
  30
0
  11
53.9
  21
1.426585
  31
0
  0
LINE
  5
6e
  100
AcDbEntity
  8
1
  100
AcDbLine
  10
53.9
  20
1.426585
  30
0
  11
54
  21
1.426585
  31
0
  0
LINE
  5
6f
  100
AcDbEntity
  8
1
  100
AcDbLine
  10
54
  20
1.426585
  30
0
  11
54.1
  21
1.426585
  31
0
  0
LINE
  5
70
  100
AcDbEntity
  8
1
  100
AcDbLine
  10
54.1
  20
1.426585
  30
0
  11
54.2
  21
1.426585
  31
0
  0
LINE
  5
71
  100
AcDbEntity
  8
1
  100
AcDbLine
  10
54.2
  20
1.426585
  30
0
  11
54.3
  21
1.425037
  31
0
  0
LINE
  5
72
  100
AcDbEntity
  8
1
  100
AcDbLine
  10
54.3
  20
1.425037
  30
0
  11
54.4
  21
1.41253
  31
0
  0
LINE
  5
73
  100
AcDbEntity
  8
1
  100
AcDbLine
  10
54.4
  20
1.41253
  30
0
  11
54.5
  21
1.386798
  31
0
  0
LINE
  5
74
  100
AcDbEntity
  8
1
  100
AcDbLine
  10
54.5
  20
1.386798
  30
0
  11
54.6
  21
1.34618
  31
0
  0
LINE
  5
75
  100
AcDbEntity
  8
1
  100
AcDbLine
  10
54.6
  20
1.34618
  30
0
  11
54.7
  21
1.287415
  31
0
  0
LINE
  5
76
  100
AcDbEntity
  8
1
  100
AcDbLine
  10
54.7
  20
1.287415
  30
0
  11
54.8
  21
1.203771
  31
0
  0
LINE
  5
77
  100
AcDbEntity
  8
1
  100
AcDbLine
  10
54.8
  20
1.203771
  30
0
  11
54.9
  21
1.07766
  31
0
  0
LINE
  5
78
  100
AcDbEntity
  8
1
  100
AcDbLine
  10
54.9
  20
1.07766
  30
0
  11
54.99973
  21
0.729868
  31
0
  0
LINE
  5
79
  100
AcDbEntity
  8
1
  100
AcDbLine
  10
54.99973
  20
0.729868
  30
0
  11
55
  21
0.728926
  31
0
  0
LINE
  5
7a
  100
AcDbEntity
  8
1
  100
AcDbLine
  10
55
  20
0.709151
  30
0
  11
54.999034
  21
0.71195
  31
0
  0
LINE
  5
7b
  100
AcDbEntity
  8
1
  100
AcDbLine
  10
54.999034
  20
0.71195
  30
0
  11
54.9
  21
0.998935
  31
0
  0
LINE
  5
7c
  100
AcDbEntity
  8
1
  100
AcDbLine
  10
54.9
  20
0.998935
  30
0
  11
54.8
  21
1.100901
  31
0
  0
LINE
  5
7d
  100
AcDbEntity
  8
1
  100
AcDbLine
  10
54.8
  20
1.100901
  30
0
  11
54.7
  21
1.168084
  31
0
  0
LINE
  5
7e
  100
AcDbEntity
  8
1
  100
AcDbLine
  10
54.7
  20
1.168084
  30
0
  11
54.6
  21
1.215116
  31
0
  0
LINE
  5
7f
  100
AcDbEntity
  8
1
  100
AcDbLine
  10
54.6
  20
1.215116
  30
0
  11
54.5
  21
1.247556
  31
0
  0
LINE
  5
80
  100
AcDbEntity
  8
1
  100
AcDbLine
  10
54.5
  20
1.247556
  30
0
  11
54.4
  21
1.268079
  31
0
  0
LINE
  5
81
  100
AcDbEntity
  8
1
  100
AcDbLine
  10
54.4
  20
1.268079
  30
0
  11
54.3
  21
1.278048
  31
0
  0
LINE
  5
82
  100
AcDbEntity
  8
1
  100
AcDbLine
  10
54.3
  20
1.278048
  30
0
  11
54.2
  21
1.279281
  31
0
  0
LINE
  5
83
  100
AcDbEntity
  8
1
  100
AcDbLine
  10
54.2
  20
1.279281
  30
0
  11
54.1
  21
1.279281
  31
0
  0
LINE
  5
84
  100
AcDbEntity
  8
1
  100
AcDbLine
  10
54.1
  20
1.279281
  30
0
  11
54
  21
1.279281
  31
0
  0
LINE
  5
85
  100
AcDbEntity
  8
1
  100
AcDbLine
  10
54
  20
1.279281
  30
0
  11
53.9
  21
1.279281
  31
0
  0
LINE
  5
86
  100
AcDbEntity
  8
1
  100
AcDbLine
  10
53.9
  20
1.279281
  30
0
  11
53.8
  21
1.279281
  31
0
  0
LINE
  5
87
  100
AcDbEntity
  8
1
  100
AcDbLine
  10
53.8
  20
1.279281
  30
0
  11
53.8
  21
1.168084
  31
0
  0
LINE
  5
88
  100
AcDbEntity
  8
1
  100
AcDbLine
  10
53.8
  20
1.5
  30
0
  11
53.8
  21
-1.5
  31
0
  0
LINE
  5
89
  100
AcDbEntity
  8
1
  100
AcDbLine
  10
54.25
  20
-1.5
  30
0
  11
54.25
  21
1.5
  31
0
  0
LINE
  5
8a
  100
AcDbEntity
  8
1
  100
AcDbLine
  10
54.25
  20
1.5
  30
0
  11
54.25
  21
-1.5
  31
0
  0
LINE
  5
8b
  100
AcDbEntity
  8
1
  100
AcDbLine
  10
55
  20
-0.693482
  30
0
  11
54.99831
  21
-0.699676
  31
0
  0
LINE
  5
8c
  100
AcDbEntity
  8
1
  100
AcDbLine
  10
54.99831
  20
-0.699676
  30
0
  11
54.9
  21
-1.059934
  31
0
  0
LINE
  5
8d
  100
AcDbEntity
  8
1
  100
AcDbLine
  10
54.9
  20
-1.059934
  30
0
  11
54.8
  21
-1.192451
  31
0
  0
LINE
  5
8e
  100
AcDbEntity
  8
1
  100
AcDbLine
  10
54.8
  20
-1.192451
  30
0
  11
54.7
  21
-1.280345
  31
0
  0
LINE
  5
8f
  100
AcDbEntity
  8
1
  100
AcDbLine
  10
54.7
  20
-1.280345
  30
0
  11
54.6
  21
-1.342095
  31
0
  0
LINE
  5
90
  100
AcDbEntity
  8
1
  100
AcDbLine
  10
54.6
  20
-1.342095
  30
0
  11
54.5
  21
-1.384777
  31
0
  0
LINE
  5
91
  100
AcDbEntity
  8
1
  100
AcDbLine
  10
54.5
  20
-1.384777
  30
0
  11
54.4
  21
-1.411816
  31
0
  0
LINE
  5
92
  100
AcDbEntity
  8
1
  100
AcDbLine
  10
54.4
  20
-1.411816
  30
0
  11
54.3
  21
-1.424959
  31
0
  0
LINE
  5
93
  100
AcDbEntity
  8
1
  100
AcDbLine
  10
54.3
  20
-1.424959
  30
0
  11
54.2
  21
-1.426585
  31
0
  0
LINE
  5
94
  100
AcDbEntity
  8
1
  100
AcDbLine
  10
54.2
  20
-1.426585
  30
0
  11
54.1
  21
-1.426585
  31
0
  0
LINE
  5
95
  100
AcDbEntity
  8
1
  100
AcDbLine
  10
54.1
  20
-1.426585
  30
0
  11
54
  21
-1.426585
  31
0
  0
LINE
  5
96
  100
AcDbEntity
  8
1
  100
AcDbLine
  10
54
  20
-1.426585
  30
0
  11
53.9
  21
-1.426585
  31
0
  0
LINE
  5
97
  100
AcDbEntity
  8
1
  100
AcDbLine
  10
53.9
  20
-1.426585
  30
0
  11
53.8
  21
-1.426585
  31
0
  0
LINE
  5
98
  100
AcDbEntity
  8
1
  100
AcDbLine
  10
53.8
  20
-1.426585
  30
0
  11
53.8
  21
-1.280345
  31
0
  0
LINE
  5
99
  100
AcDbEntity
  8
1
  100
AcDbLine
  10
53.8
  20
-1.280345
  30
0
  11
53.7
  21
-1.113696
  31
0
  0
LINE
  5
9a
  100
AcDbEntity
  8
1
  100
AcDbLine
  10
53.7
  20
-1.113696
  30
0
  11
53.7
  21
-0.626165
  31
0
  0
LINE
  5
9b
  100
AcDbEntity
  8
1
  100
AcDbLine
  10
53.7
  20
-0.626165
  30
0
  11
53.8
  21
-0.397051
  31
0
  0
LINE
  5
9c
  100
AcDbEntity
  8
1
  100
AcDbLine
  10
53.8
  20
-0.397051
  30
0
  11
53.8
  21
-0.463525
  31
0
  0
LINE
  5
9d
  100
AcDbEntity
  8
1
  100
AcDbLine
  10
53.8
  20
-0.463525
  30
0
  11
53.9
  21
-0.463525
  31
0
  0
LINE
  5
9e
  100
AcDbEntity
  8
1
  100
AcDbLine
  10
53.9
  20
-0.463525
  30
0
  11
54
  21
-0.463525
  31
0
  0
LINE
  5
9f
  100
AcDbEntity
  8
1
  100
AcDbLine
  10
54
  20
-0.463525
  30
0
  11
54.1
  21
-0.463525
  31
0
  0
LINE
  5
a0
  100
AcDbEntity
  8
1
  100
AcDbLine
  10
54.1
  20
-0.463525
  30
0
  11
54.2
  21
-0.463525
  31
0
  0
LINE
  5
a1
  100
AcDbEntity
  8
1
  100
AcDbLine
  10
54.2
  20
-0.463525
  30
0
  11
54.3
  21
-0.462787
  31
0
  0
LINE
  5
a2
  100
AcDbEntity
  8
1
  100
AcDbLine
  10
54.3
  20
-0.462787
  30
0
  11
54.4
  21
-0.456817
  31
0
  0
LINE
  5
a3
  100
AcDbEntity
  8
1
  100
AcDbLine
  10
54.4
  20
-0.456817
  30
0
  11
54.5
  21
-0.444532
  31
0
  0
LINE
  5
a4
  100
AcDbEntity
  8
1
  100
AcDbLine
  10
54.5
  20
-0.444532
  30
0
  11
54.6
  21
-0.425133
  31
0
  0
LINE
  5
a5
  100
AcDbEntity
  8
1
  100
AcDbLine
  10
54.6
  20
-0.425133
  30
0
  11
54.7
  21
-0.397051
  31
0
  0
LINE
  5
a6
  100
AcDbEntity
  8
1
  100
AcDbLine
  10
54.7
  20
-0.397051
  30
0
  11
54.8
  21
-0.357038
  31
0
  0
LINE
  5
a7
  100
AcDbEntity
  8
1
  100
AcDbLine
  10
54.8
  20
-0.357038
  30
0
  11
54.9
  21
-0.296598
  31
0
  0
LINE
  5
a8
  100
AcDbEntity
  8
1
  100
AcDbLine
  10
54.9
  20
-0.296598
  30
0
  11
55
  21
-0.128153
  31
0
  0
LINE
  5
a9
  100
AcDbEntity
  8
1
  100
AcDbLine
  10
55
  20
0.021846
  30
0
  11
54.9
  21
-0.147239
  31
0
  0
LINE
  5
aa
  100
AcDbEntity
  8
1
  100
AcDbLine
  10
54.9
  20
-0.147239
  30
0
  11
54.8
  21
-0.207991
  31
0
  0
LINE
  5
ab
  100
AcDbEntity
  8
1
  100
AcDbLine
  10
54.8
  20
-0.207991
  30
0
  11
54.7
  21
-0.248202
  31
0
  0
LINE
  5
ac
  100
AcDbEntity
  8
1
  100
AcDbLine
  10
54.7
  20
-0.248202
  30
0
  11
54.6
  21
-0.276418
  31
0
  0
LINE
  5
ad
  100
AcDbEntity
  8
1
  100
AcDbLine
  10
54.6
  20
-0.276418
  30
0
  11
54.5
  21
-0.295907
  31
0
  0
LINE
  5
ae
  100
AcDbEntity
  8
1
  100
AcDbLine
  10
54.5
  20
-0.295907
  30
0
  11
54.4
  21
-0.308247
  31
0
  0
LINE
  5
af
  100
AcDbEntity
  8
1
  100
AcDbLine
  10
54.4
  20
-0.308247
  30
0
  11
54.3
  21
-0.314243
  31
0
  0
LINE
  5
b0
  100
AcDbEntity
  8
1
  100
AcDbLine
  10
54.3
  20
-0.314243
  30
0
  11
54.2
  21
-0.314985
  31
0
  0
LINE
  5
b1
  100
AcDbEntity
  8
1
  100
AcDbLine
  10
54.2
  20
-0.314985
  30
0
  11
54.1
  21
-0.314985
  31
0
  0
LINE
  5
b2
  100
AcDbEntity
  8
1
  100
AcDbLine
  10
54.1
  20
-0.314985
  30
0
  11
54
  21
-0.314985
  31
0
  0
LINE
  5
b3
  100
AcDbEntity
  8
1
  100
AcDbLine
  10
54
  20
-0.314985
  30
0
  11
53.9
  21
-0.314985
  31
0
  0
LINE
  5
b4
  100
AcDbEntity
  8
1
  100
AcDbLine
  10
53.9
  20
-0.314985
  30
0
  11
53.8
  21
-0.314985
  31
0
  0
LINE
  5
b5
  100
AcDbEntity
  8
1
  100
AcDbLine
  10
53.8
  20
-0.314985
  30
0
  11
53.8
  21
-0.248202
  31
0
  0
LINE
  5
b6
  100
AcDbEntity
  8
1
  100
AcDbLine
  10
55
  20
0.057349
  30
0
  11
54.9
  21
0.028682
  31
0
  0
LINE
  5
b7
  100
AcDbEntity
  8
1
  100
AcDbLine
  10
54.9
  20
0.028682
  30
0
  11
54.8
  21
0.018316
  31
0
  0
LINE
  5
b8
  100
AcDbEntity
  8
1
  100
AcDbLine
  10
54.8
  20
0.018316
  30
0
  11
54.7
  21
0.01144
  31
0
  0
LINE
  5
b9
  100
AcDbEntity
  8
1
  100
AcDbLine
  10
54.7
  20
0.01144
  30
0
  11
54.6
  21
0.006609
  31
0
  0
LINE
  5
ba
  100
AcDbEntity
  8
1
  100
AcDbLine
  10
54.6
  20
0.006609
  30
0
  11
54.5
  21
0.003271
  31
0
  0
LINE
  5
bb
  100
AcDbEntity
  8
1
  100
AcDbLine
  10
54.5
  20
0.003271
  30
0
  11
54.4
  21
0.001155
  31
0
  0
LINE
  5
bc
  100
AcDbEntity
  8
1
  100
AcDbLine
  10
54.4
  20
0.001155
  30
0
  11
54.3
  21
0.000127
  31
0
  0
LINE
  5
bd
  100
AcDbEntity
  8
1
  100
AcDbLine
  10
54.3
  20
0.000127
  30
0
  11
54.2
  21
0
  31
0
  0
LINE
  5
be
  100
AcDbEntity
  8
1
  100
AcDbLine
  10
54.2
  20
0
  30
0
  11
54.1
  21
0
  31
0
  0
LINE
  5
bf
  100
AcDbEntity
  8
1
  100
AcDbLine
  10
54.1
  20
0
  30
0
  11
54
  21
0
  31
0
  0
LINE
  5
c0
  100
AcDbEntity
  8
1
  100
AcDbLine
  10
54
  20
0
  30
0
  11
53.9
  21
0
  31
0
  0
LINE
  5
c1
  100
AcDbEntity
  8
1
  100
AcDbLine
  10
53.9
  20
0
  30
0
  11
53.8
  21
0
  31
0
  0
LINE
  5
c2
  100
AcDbEntity
  8
1
  100
AcDbLine
  10
53.8
  20
0
  30
0
  11
53.8
  21
0.01144
  31
0
  0
LINE
  5
c3
  100
AcDbEntity
  8
1
  100
AcDbLine
  10
53.8
  20
0.01144
  30
0
  11
53.7
  21
0.381512
  31
0
  0
LINE
  5
c4
  100
AcDbEntity
  8
1
  100
AcDbLine
  10
53.7
  20
0.381512
  30
0
  11
53.7
  21
0.943968
  31
0
  0
LINE
  5
c5
  100
AcDbEntity
  8
1
  100
AcDbLine
  10
53.7
  20
0.943968
  30
0
  11
53.8
  21
1.104444
  31
0
  0
LINE
  5
c6
  100
AcDbEntity
  8
1
  100
AcDbLine
  10
53.8
  20
1.104444
  30
0
  11
53.8
  21
1.213525
  31
0
  0
LINE
  5
c7
  100
AcDbEntity
  8
1
  100
AcDbLine
  10
53.8
  20
1.213525
  30
0
  11
53.9
  21
1.213525
  31
0
  0
LINE
  5
c8
  100
AcDbEntity
  8
1
  100
AcDbLine
  10
53.9
  20
1.213525
  30
0
  11
54
  21
1.213525
  31
0
  0
LINE
  5
c9
  100
AcDbEntity
  8
1
  100
AcDbLine
  10
54
  20
1.213525
  30
0
  11
54.1
  21
1.213525
  31
0
  0
LINE
  5
ca
  100
AcDbEntity
  8
1
  100
AcDbLine
  10
54.1
  20
1.213525
  30
0
  11
54.2
  21
1.213525
  31
0
  0
LINE
  5
cb
  100
AcDbEntity
  8
1
  100
AcDbLine
  10
54.2
  20
1.213525
  30
0
  11
54.3
  21
1.212313
  31
0
  0
LINE
  5
cc
  100
AcDbEntity
  8
1
  100
AcDbLine
  10
54.3
  20
1.212313
  30
0
  11
54.4
  21
1.202517
  31
0
  0
LINE
  5
cd
  100
AcDbEntity
  8
1
  100
AcDbLine
  10
54.4
  20
1.202517
  30
0
  11
54.5
  21
1.182358
  31
0
  0
LINE
  5
ce
  100
AcDbEntity
  8
1
  100
AcDbLine
  10
54.5
  20
1.182358
  30
0
  11
54.6
  21
1.150526
  31
0
  0
LINE
  5
cf
  100
AcDbEntity
  8
1
  100
AcDbLine
  10
54.6
  20
1.150526
  30
0
  11
54.7
  21
1.104444
  31
0
  0
LINE
  5
d0
  100
AcDbEntity
  8
1
  100
AcDbLine
  10
54.7
  20
1.104444
  30
0
  11
54.8
  21
1.038787
  31
0
  0
LINE
  5
d1
  100
AcDbEntity
  8
1
  100
AcDbLine
  10
54.8
  20
1.038787
  30
0
  11
54.9
  21
0.939608
  31
0
  0
LINE
  5
d2
  100
AcDbEntity
  8
1
  100
AcDbLine
  10
54.9
  20
0.939608
  30
0
  11
54.996129
  21
0.6739
  31
0
  0
LINE
  5
d3
  100
AcDbEntity
  8
1
  100
AcDbLine
  10
54.996129
  20
0.6739
  30
0
  11
55
  21
0.663201
  31
0
  0
LINE
  5
d4
  100
AcDbEntity
  8
SK1
  100
AcDbLine
  10
37.1
  20
3
  30
0
  11
0.7
  21
3
  31
0
  0
LINE
  5
d5
  100
AcDbEntity
  8
SK1
  100
AcDbLine
  10
0.7
  20
3
  30
0
  11
0
  21
2.3
  31
0
  0
LINE
  5
d6
  100
AcDbEntity
  8
SK1
  100
AcDbLine
  10
37.1
  20
-3
  30
0
  11
0.7
  21
-3
  31
0
  0
LINE
  5
d7
  100
AcDbEntity
  8
SK1
  100
AcDbLine
  10
0.7
  20
-3
  30
0
  11
0
  21
-2.3
  31
0
  0
LINE
  5
d8
  100
AcDbEntity
  8
SK1
  100
AcDbLine
  10
0.7
  20
3
  30
0
  11
0.7
  21
-3
  31
0
  0
LINE
  5
d9
  100
AcDbEntity
  8
SK1
  100
AcDbLine
  10
0
  20
2.3
  30
0
  11
0
  21
-2.3
  31
0
  0
LINE
  5
da
  100
AcDbEntity
  8
SK1
  100
AcDbLine
  10
38.1401
  20
1.40688
  30
0
  11
38.5069
  21
1.0401
  31
0
  0
LINE
  5
db
  100
AcDbEntity
  8
SK1
  100
AcDbLine
  10
37.6328
  20
1.66666
  30
0
  11
38.7667
  21
0.532833
  31
0
  0
LINE
  5
dc
  100
AcDbEntity
  8
SK1
  100
AcDbLine
  10
37.3154
  20
1.73657
  30
0
  11
38.8366
  21
0.215434
  31
0
  0
LINE
  5
dd
  100
AcDbEntity
  8
SK1
  100
AcDbLine
  10
37.1
  20
1.70452
  30
0
  11
38.8045
  21
0
  31
0
  0
LINE
  5
de
  100
AcDbEntity
  8
SK1
  100
AcDbLine
  10
37.1
  20
1.45703
  30
0
  11
38.557
  21
0
  31
0
  0
LINE
  5
df
  100
AcDbEntity
  8
SK1
  100
AcDbLine
  10
37.1
  20
1.20954
  30
0
  11
38.3095
  21
0
  31
0
  0
LINE
  5
e0
  100
AcDbEntity
  8
SK1
  100
AcDbLine
  10
37.1
  20
0.962054
  30
0
  11
38.0621
  21
0
  31
0
  0
LINE
  5
e1
  100
AcDbEntity
  8
SK1
  100
AcDbLine
  10
37.1
  20
0.714566
  30
0
  11
37.8146
  21
0
  31
0
  0
LINE
  5
e2
  100
AcDbEntity
  8
SK1
  100
AcDbLine
  10
37.1
  20
0.467079
  30
0
  11
37.5671
  21
0
  31
0
  0
LINE
  5
e3
  100
AcDbEntity
  8
SK1
  100
AcDbLine
  10
37.1
  20
0.219592
  30
0
  11
37.3196
  21
0
  31
0
  0
LINE
  5
e4
  100
AcDbEntity
  8
SK1
  100
AcDbLine
  10
37.1
  20
1.70452
  30
0
  11
37.1441
  21
1.74861
  31
0
  0
LINE
  5
e5
  100
AcDbEntity
  8
SK1
  100
AcDbLine
  10
37.1
  20
1.45703
  30
0
  11
37.371
  21
1.72802
  31
0
  0
LINE
  5
e6
  100
AcDbEntity
  8
SK1
  100
AcDbLine
  10
37.1
  20
1.20954
  30
0
  11
37.5742
  21
1.6837
  31
0
  0
LINE
  5
e7
  100
AcDbEntity
  8
SK1
  100
AcDbLine
  10
37.1
  20
0.962054
  30
0
  11
37.7588
  21
1.62082
  31
0
  0
LINE
  5
e8
  100
AcDbEntity
  8
SK1
  100
AcDbLine
  10
37.1
  20
0.714566
  30
0
  11
37.9271
  21
1.54167
  31
0
  0
LINE
  5
e9
  100
AcDbEntity
  8
SK1
  100
AcDbLine
  10
37.1
  20
0.467079
  30
0
  11
38.081
  21
1.44812
  31
0
  0
LINE
  5
ea
  100
AcDbEntity
  8
SK1
  100
AcDbLine
  10
37.1
  20
0.219592
  30
0
  11
38.2226
  21
1.34216
  31
0
  0
LINE
  5
eb
  100
AcDbEntity
  8
SK1
  100
AcDbLine
  10
37.1279
  20
0
  30
0
  11
38.3508
  21
1.22288
  31
0
  0
LINE
  5
ec
  100
AcDbEntity
  8
SK1
  100
AcDbLine
  10
37.3754
  20
0
  30
0
  11
38.467
  21
1.09157
  31
0
  0
LINE
  5
ed
  100
AcDbEntity
  8
SK1
  100
AcDbLine
  10
37.6229
  20
0
  30
0
  11
38.5707
  21
0.947822
  31
0
  0
LINE
  5
ee
  100
AcDbEntity
  8
SK1
  100
AcDbLine
  10
37.8704
  20
0
  30
0
  11
38.6605
  21
0.790145
  31
0
  0
LINE
  5
ef
  100
AcDbEntity
  8
SK1
  100
AcDbLine
  10
38.1178
  20
0
  30
0
  11
38.7364
  21
0.618517
  31
0
  0
LINE
  5
f0
  100
AcDbEntity
  8
SK1
  100
AcDbLine
  10
38.3653
  20
0
  30
0
  11
38.796
  21
0.430696
  31
0
  0
LINE
  5
f1
  100
AcDbEntity
  8
SK1
  100
AcDbLine
  10
38.6128
  20
0
  30
0
  11
38.8356
  21
0.222827
  31
0
  0
LINE
  5
f2
  100
AcDbEntity
  8
SK1
  100
AcDbLine
  10
37.1
  20
0
  30
0
  11
37.1
  21
1.75
  31
0
  0
LINE
  5
f3
  100
AcDbEntity
  8
SK1
  100
AcDbLine
  10
37.1
  20
0
  30
0
  11
38.85
  21
0
  31
0
  0
ARC
  5
f4
  100
AcDbEntity
  8
SK1
  100
AcDbCircle
  10
37.1
  20
0
  30
0
  40
1.75
  100
AcDbArc
  50
0
  51
90
  0
ARC
  5
f5
  100
AcDbEntity
  8
SK1
  100
AcDbCircle
  10
37.1
  20
0
  30
0
  40
1.75
  100
AcDbArc
  50
90
  51
180
  0
LINE
  5
f6
  100
AcDbEntity
  8
SK1
  100
AcDbLine
  10
37.0721
  20
0
  30
0
  11
37.1
  21
-0.027896
  31
0
  0
LINE
  5
f7
  100
AcDbEntity
  8
SK1
  100
AcDbLine
  10
36.8246
  20
0
  30
0
  11
37.1
  21
-0.275383
  31
0
  0
LINE
  5
f8
  100
AcDbEntity
  8
SK1
  100
AcDbLine
  10
36.5771
  20
0
  30
0
  11
37.1
  21
-0.522871
  31
0
  0
LINE
  5
f9
  100
AcDbEntity
  8
SK1
  100
AcDbLine
  10
36.3296
  20
0
  30
0
  11
37.1
  21
-0.770358
  31
0
  0
LINE
  5
fa
  100
AcDbEntity
  8
SK1
  100
AcDbLine
  10
36.0822
  20
0
  30
0
  11
37.1
  21
-1.01785
  31
0
  0
LINE
  5
fb
  100
AcDbEntity
  8
SK1
  100
AcDbLine
  10
35.8347
  20
0
  30
0
  11
37.1
  21
-1.26533
  31
0
  0
LINE
  5
fc
  100
AcDbEntity
  8
SK1
  100
AcDbLine
  10
35.5872
  20
0
  30
0
  11
37.1
  21
-1.51282
  31
0
  0
LINE
  5
fd
  100
AcDbEntity
  8
SK1
  100
AcDbLine
  10
35.3503
  20
-0.010642
  30
0
  11
37.0894
  21
-1.74967
  31
0
  0
LINE
  5
fe
  100
AcDbEntity
  8
SK1
  100
AcDbLine
  10
35.3736
  20
-0.281429
  30
0
  11
36.8186
  21
-1.72637
  31
0
  0
LINE
  5
ff
  100
AcDbEntity
  8
SK1
  100
AcDbLine
  10
35.4639
  20
-0.619147
  30
0
  11
36.4809
  21
-1.63613
  31
0
  0
LINE
  5
100
  100
AcDbEntity
  8
SK1
  100
AcDbLine
  10
35.3514
  20
-0.044098
  30
0
  11
35.3955
  21
0
  31
0
  0
LINE
  5
101
  100
AcDbEntity
  8
SK1
  100
AcDbLine
  10
35.372
  20
-0.270991
  30
0
  11
35.643
  21
0
  31
0
  0
LINE
  5
102
  100
AcDbEntity
  8
SK1
  100
AcDbLine
  10
35.4163
  20
-0.474162
  30
0
  11
35.8905
  21
0
  31
0
  0
LINE
  5
103
  100
AcDbEntity
  8
SK1
  100
AcDbLine
  10
35.4792
  20
-0.658762
  30
0
  11
36.1379
  21
0
  31
0
  0
LINE
  5
104
  100
AcDbEntity
  8
SK1
  100
AcDbLine
  10
35.5583
  20
-0.827105
  30
0
  11
36.3854
  21
0
  31
0
  0
LINE
  5
105
  100
AcDbEntity
  8
SK1
  100
AcDbLine
  10
35.6519
  20
-0.981039
  30
0
  11
36.6329
  21
0
  31
0
  0
LINE
  5
106
  100
AcDbEntity
  8
SK1
  100
AcDbLine
  10
35.7578
  20
-1.12257
  30
0
  11
36.8804
  21
0
  31
0
  0
LINE
  5
107
  100
AcDbEntity
  8
SK1
  100
AcDbLine
  10
35.8771
  20
-1.25077
  30
0
  11
37.1
  21
-0.027896
  31
0
  0
LINE
  5
108
  100
AcDbEntity
  8
SK1
  100
AcDbLine
  10
36.0084
  20
-1.36695
  30
0
  11
37.1
  21
-0.275383
  31
0
  0
LINE
  5
109
  100
AcDbEntity
  8
SK1
  100
AcDbLine
  10
36.1522
  20
-1.47069
  30
0
  11
37.1
  21
-0.522871
  31
0
  0
LINE
  5
10a
  100
AcDbEntity
  8
SK1
  100
AcDbLine
  10
36.3099
  20
-1.5605
  30
0
  11
37.1
  21
-0.770358
  31
0
  0
LINE
  5
10b
  100
AcDbEntity
  8
SK1
  100
AcDbLine
  10
36.4815
  20
-1.63636
  30
0
  11
37.1
  21
-1.01785
  31
0
  0
LINE
  5
10c
  100
AcDbEntity
  8
SK1
  100
AcDbLine
  10
36.6693
  20
-1.69603
  30
0
  11
37.1
  21
-1.26533
  31
0
  0
LINE
  5
10d
  100
AcDbEntity
  8
SK1
  100
AcDbLine
  10
36.8772
  20
-1.73565
  30
0
  11
37.1
  21
-1.51282
  31
0
  0
LINE
  5
10e
  100
AcDbEntity
  8
SK1
  100
AcDbLine
  10
37.1
  20
0
  30
0
  11
35.35
  21
0
  31
0
  0
LINE
  5
10f
  100
AcDbEntity
  8
SK1
  100
AcDbLine
  10
37.1
  20
-1.75
  30
0
  11
37.1
  21
0
  31
0
  0
ARC
  5
110
  100
AcDbEntity
  8
SK1
  100
AcDbCircle
  10
37.1
  20
0
  30
0
  40
1.75
  100
AcDbArc
  50
180
  51
270
  0
ARC
  5
111
  100
AcDbEntity
  8
SK1
  100
AcDbCircle
  10
37.1
  20
0
  30
0
  40
1.75
  100
AcDbArc
  50
270
  51
0
  0
LINE
  5
18c
  100
AcDbEntity
  8
NOCUT
  100
AcDbLine
  10
53.8
  20
0
  30
0
  11
53.8
  21
1.35
  31
0
  0
LINE
  5
18d
  100
AcDbEntity
  8
NOCUT
  100
AcDbLine
  10
53.8
  20
1.35
  30
0
  11
44.06
  21
1.35
  31
0
  0
ARC
  5
18e
  100
AcDbEntity
  8
NOCUT
  100
AcDbCircle
  10
44.931557
  20
11.311947
  30
0
  40
10
  100
AcDbArc
  50
255
  51
265
  0
LINE
  5
18f
  100
AcDbEntity
  8
NOCUT
  100
AcDbLine
  10
42.343367
  20
1.652689
  30
0
  11
37.315133
  21
3
  31
0
  0
LINE
  5
190
  100
AcDbEntity
  8
NOCUT
  100
AcDbLine
  10
37.315133
  20
3
  30
0
  11
37.1
  21
3
  31
0
  0
LINE
  5
191
  100
AcDbEntity
  8
NOCUT
  100
AcDbLine
  10
37.1
  20
3
  30
0
  11
37.1
  21
0
  31
0
  0
LINE
  5
192
  100
AcDbEntity
  8
NOCUT
  100
AcDbLine
  10
37.1
  20
0
  30
0
  11
53.8
  21
0
  31
0
  0
LINE
  5
193
  100
AcDbEntity
  8
CUT
  100
AcDbLine
  10
55
  20
0
  30
0
  11
55
  21
0.75
  31
0
  0
ARC
  5
194
  100
AcDbEntity
  8
CUT
  100
AcDbCircle
  10
54.25
  20
0.75
  30
0
  40
0.75
  100
AcDbArc
  50
0
  51
90
  0
LINE
  5
195
  100
AcDbEntity
  8
CUT
  100
AcDbLine
  10
54.25
  20
1.5
  30
0
  11
53.8
  21
1.5
  31
0
  0
LINE
  5
196
  100
AcDbEntity
  8
CUT
  100
AcDbLine
  10
53.8
  20
1.5
  30
0
  11
53.8
  21
0
  31
0
  0
LINE
  5
197
  100
AcDbEntity
  8
CUT
  100
AcDbLine
  10
53.8
  20
0
  30
0
  11
55
  21
0
  31
0
  0
LINE
  5
198
  100
AcDbEntity
  8
4
  100
AcDbLine
  10
37.1
  20
0
  30
0
  11
55
  21
0
  31
0
  0
LINE
  5
199
  100
AcDbEntity
  8
SK4
  100
AcDbLine
  10
-1
  20
0
  30
0
  11
56
  21
0
  31
0
  0
LINE
  5
19a
  100
AcDbEntity
  8
INFTOTAL
  100
AcDbLine
  10
-15.95
  20
18.95
  30
0
  11
70.95
  21
18.95
  31
0
  0
LINE
  5
19b
  100
AcDbEntity
  8
INFTOTAL
  100
AcDbLine
  10
70.95
  20
18.95
  30
0
  11
70.95
  21
-15.261947
  31
0
  0
LINE
  5
19c
  100
AcDbEntity
  8
INFTOTAL
  100
AcDbLine
  10
70.95
  20
-15.261947
  30
0
  11
-15.95
  21
-15.261947
  31
0
  0
LINE
  5
19d
  100
AcDbEntity
  8
INFTOTAL
  100
AcDbLine
  10
-15.95
  20
-15.261947
  30
0
  11
-15.95
  21
18.95
  31
0
  0
ENDSEC
  0
SECTION
  2
OBJECTS
  0
DICTIONARY
  5
19e
  330
0
100
AcDbDictionary
281
    1
  3
ACAD_GROUP
  350
19f
  0
DICTIONARY
  5
19f
102
{ACAD_REACTORS
  330
19e
102
}
  330
19e
100
AcDbDictionary
281
    1
  0
ENDSEC
  0
EOF
