  0
SECTION
  2
HEADER
  9
$ACADVER
  1
AC1015
  9
$DWGCODEPAGE
  3
ANSI_932
  9
$HANDSEED
  5
106AB90
  0
ENDSEC
  0
SECTION
  2
CLASSES
  0
CLASS
  1
IMAGEDEF
  2
AcDbRasterImageDef
  3
ISM
  90
0
  91
4
  280
0
  281
0
  0
CLASS
  1
IMAGE
  2
AcDbRasterImage
  3
ISM
  90
127
  91
5
  280
0
  281
1
  0
CLASS
  1
IMAGEDEF_REACTOR
  2
AcDbRasterImageDefReactor
  3
ISM
  90
1
  91
4
  280
0
  281
0
  0
ENDSEC
  0
SECTION
  2
TABLES
  0
TABLE
  2
VPORT
  5
2
  330
0
  100
AcDbSymbolTable
  70
    0
  0
ENDTAB
  0
TABLE
  2
LTYPE
  5
3
  330
0
  100
AcDbSymbolTable
  70
    4
  0
LTYPE
  5
4
  330
3
  100
AcDbSymbolTableRecord
  100
AcDbLinetypeTableRecord
  2
ByBlock
  70
    0
  3

  72
65
  73
    0
  40
0
  0
LTYPE
  5
5
  330
3
  100
AcDbSymbolTableRecord
  100
AcDbLinetypeTableRecord
  2
ByLayer
  70
    0
  3

  72
65
  73
    0
  40
0
  0
LTYPE
  5
6
  330
3
  100
AcDbSymbolTableRecord
  100
AcDbLinetypeTableRecord
  2
CONTINUOUS
  70
    0
  3
Solid Line
  72
65
  73
    0
  40
0
  0
LTYPE
  5
7
  330
3
  100
AcDbSymbolTableRecord
  100
AcDbLinetypeTableRecord
  2
DASH
  70
    0
  3
Hidden
  72
65
  73
2
  40
2.5
  49
1.5
  74
0
  49
-1
  74
0
  0
LTYPE
  5
8
  330
3
  100
AcDbSymbolTableRecord
  100
AcDbLinetypeTableRecord
  2
LONGDASHDASH
  70
    0
  3
__ . __
  72
65
  73
    4
  40
7
  49
4
  74
    0
  49
-1
  74
    0
  49
1
  74
    0
  49
-1
  74
    0
  0
ENDTAB
  0
TABLE
  2
LAYER
  5
9
  330
0
  100
AcDbSymbolTable
  70
    40
  0
LAYER
  5
a
  330
9
  100
AcDbSymbolTableRecord
  100
AcDbLayerTableRecord
  2
0
  70
    0
  62
    0
  6
CONTINUOUS
  390
0
  0
LAYER
  5
c
  330
9
  100
AcDbSymbolTableRecord
  100
AcDbLayerTableRecord
  2
1
  70
    0
  62
    4
  6
CONTINUOUS
  370
50
  390
0
  0
LAYER
  5
d
  330
9
  100
AcDbSymbolTableRecord
  100
AcDbLayerTableRecord
  2
2
  70
    0
  62
    7
  6
CONTINUOUS
  370
25
  390
0
  0
LAYER
  5
13
  330
9
  100
AcDbSymbolTableRecord
  100
AcDbLayerTableRecord
  2
SK1
  70
    0
  62
    4
  6
CONTINUOUS
  370
50
  390
0
  0
LAYER
  5
14
  330
9
  100
AcDbSymbolTableRecord
  100
AcDbLayerTableRecord
  2
SK2
  70
    0
  62
    7
  6
CONTINUOUS
  370
25
  390
0
  0
LAYER
  5
26
  330
9
  100
AcDbSymbolTableRecord
  100
AcDbLayerTableRecord
  2
INFTOTAL
  70
    0
  62
    9
  6
CONTINUOUS
  370
18
  390
0
  0
ENDTAB
  0
TABLE
  2
STYLE
  5
27
  330
0
  100
AcDbSymbolTable
  70
    1
  0
STYLE
  5
28
  330
27
  100
AcDbSymbolTableRecord
  100
AcDbTextStyleTableRecord
  2
Monospac821 BT
  70
    0
  40
    3.5
  41
1
  50
0
  71
0
  42
3
  3

  4

  1001
ACAD
  1000
Monospac821 BT
  1071
256
  0
ENDTAB
  0
TABLE
  2
VIEW
  5
29
  330
0
  100
AcDbSymbolTable
  70
    0
  0
ENDTAB
  0
TABLE
  2
UCS
  5
2a
  330
0
  100
AcDbSymbolTable
  70
    0
  0
ENDTAB
  0
TABLE
  2
APPID
  5
2b
  330
0
  100
AcDbSymbolTable
  70
    1
  0
APPID
  5
2c
  330
2b
  100
AcDbSymbolTableRecord
  100
AcDbRegAppTableRecord
  2
ACAD
  70
    0
  0
ENDTAB
  0
TABLE
  2
DIMSTYLE
  5
2d
  330
0
  100
AcDbSymbolTable
  70
    1
  100
AcDbDimStyleTable
  0
DIMSTYLE
  105
2e
  330
2d
  100
AcDbSymbolTableRecord
  100
AcDbDimStyleTableRecord
  2
STANDARD
  70
    0
  41
    3
  42
0.5
  44
1
  73
0
  77
1
  78
1
  140
3.5
  141
2.5
  143
0.03937
  147
0.8
  172
1
  174
1
  178
0
  179
1
  271
2
  279
1
  284
1
  340
28
  0
ENDTAB
  0
TABLE
  2
BLOCK_RECORD
  5
2f
  330
0
  100
AcDbSymbolTable
  70
    2
  0
BLOCK_RECORD
  5
30
  330
2f
  100
AcDbSymbolTableRecord
  100
AcDbBlockTableRecord
  2
*Model_Space
  0
BLOCK_RECORD
  5
31
  330
2f
  100
AcDbSymbolTableRecord
  100
AcDbBlockTableRecord
  2
*Paper_Space
  0
BLOCK_RECORD
  5
8a
  330
2f
  100
AcDbSymbolTableRecord
  100
AcDbBlockTableRecord
  2
*D89
  340
0
  0
BLOCK_RECORD
  5
98
  330
2f
  100
AcDbSymbolTableRecord
  100
AcDbBlockTableRecord
  2
*D97
  340
0
  0
BLOCK_RECORD
  5
a6
  330
2f
  100
AcDbSymbolTableRecord
  100
AcDbBlockTableRecord
  2
*Da5
  340
0
  0
BLOCK_RECORD
  5
b4
  330
2f
  100
AcDbSymbolTableRecord
  100
AcDbBlockTableRecord
  2
*Db3
  340
0
  0
BLOCK_RECORD
  5
c2
  330
2f
  100
AcDbSymbolTableRecord
  100
AcDbBlockTableRecord
  2
*Dc1
  340
0
  0
BLOCK_RECORD
  5
cc
  330
2f
  100
AcDbSymbolTableRecord
  100
AcDbBlockTableRecord
  2
*Dcb
  340
0
  0
BLOCK_RECORD
  5
da
  330
2f
  100
AcDbSymbolTableRecord
  100
AcDbBlockTableRecord
  2
*Dd9
  340
0
  0
BLOCK_RECORD
  5
e8
  330
2f
  100
AcDbSymbolTableRecord
  100
AcDbBlockTableRecord
  2
*De7
  340
0
  0
ENDTAB
  0
ENDSEC
  0
SECTION
  2
BLOCKS
  0
BLOCK
  5
32
  330
30
  100
AcDbEntity
  8
0
  100
AcDbBlockBegin
  2
*Model_Space
  70
    0
  10
0
  20
0
  30
0
  3
*Model_Space
  1

  0
ENDBLK
  5
33
  330
30
  100
AcDbEntity
  8
0
  100
AcDbBlockEnd
  0
BLOCK
  5
34
  330
31
  100
AcDbEntity
  8
0
  100
AcDbBlockBegin
  2
*Paper_Space
  70
    0
  10
0
  20
0
  30
0
  3
*Paper_Space
  1

  0
ENDBLK
  5
35
  330
31
  100
AcDbEntity
  8
0
  100
AcDbBlockEnd
  0
BLOCK
  5
88
  330
8a
  100
AcDbEntity
  8
SK2
  100
AcDbBlockBegin
  2
*D89
  70
1
  10
0
  20
0
  30
0
  3
*D89
  1

  0
LINE
  5
8b
  330
8a
  100
AcDbEntity
  8
SK2
  100
AcDbLine
  10
-0
  20
0.8875
  30
0
  11
-0
  21
18.5875
  31
0
  0
LINE
  5
8c
  330
8a
  100
AcDbEntity
  8
SK2
  100
AcDbLine
  10
38.1
  20
0
  30
0
  11
38.1
  21
18.5875
  31
0
  0
LINE
  5
8d
  330
8a
  100
AcDbEntity
  8
SK2
  100
AcDbLine
  10
-0
  20
16.5875
  30
0
  11
38.1
  21
16.5875
  31
0
  0
SOLID
  5
8e
  330
8a
  100
AcDbEntity
  8
SK2
  100
AcDbTrace
  10
-0
  20
16.5875
  30
0
  11
2.478612
  21
16.913815
  31
0
  12
2.478612
  22
16.261185
  32
0
  13
2.478612
  23
16.261185
  33
0
  0
SOLID
  5
8f
  330
8a
  100
AcDbEntity
  8
SK2
  100
AcDbTrace
  10
38.1
  20
16.5875
  30
0
  11
35.621388
  21
16.261185
  31
0
  12
35.621388
  22
16.913815
  32
0
  13
35.621388
  23
16.913815
  33
0
  0
MTEXT
  5
90
  330
8a
  100
AcDbEntity
  8
SK2
  100
AcDbMText
  10
19.05
  20
16.5875
  30
0
  11
1
  21
0
  31
0
  40
2
  41
0
  71
8
  72
1
  1
38.1
  0
POINT
  5
91
  330
8a
  100
AcDbEntity
  8
SK2
  62
0
  100
AcDbPoint
  10
-0
  20
0.8875
  30
0
  0
POINT
  5
92
  330
8a
  100
AcDbEntity
  8
SK2
  62
0
  100
AcDbPoint
  10
38.1
  20
0
  30
0
  0
POINT
  5
93
  330
8a
  100
AcDbEntity
  8
SK2
  62
0
  100
AcDbPoint
  10
38.1
  20
16.5875
  30
0
  0
ENDBLK
  5
94
  330
8a
  100
AcDbEntity
  8
SK2
  100
AcDbBlockEnd
  0
BLOCK
  5
96
  330
98
  100
AcDbEntity
  8
SK2
  100
AcDbBlockBegin
  2
*D97
  70
1
  10
0
  20
0
  30
0
  3
*D97
  1

  0
LINE
  5
99
  330
98
  100
AcDbEntity
  8
SK2
  100
AcDbLine
  10
18.9
  20
1.5875
  30
0
  11
18.9
  21
13.5875
  31
0
  0
LINE
  5
9a
  330
98
  100
AcDbEntity
  8
SK2
  100
AcDbLine
  10
-0
  20
0.8875
  30
0
  11
-0
  21
18.5875
  31
0
  0
LINE
  5
9b
  330
98
  100
AcDbEntity
  8
SK2
  100
AcDbLine
  10
18.9
  20
11.5875
  30
0
  11
-0
  21
11.5875
  31
0
  0
SOLID
  5
9c
  330
98
  100
AcDbEntity
  8
SK2
  100
AcDbTrace
  10
18.9
  20
11.5875
  30
0
  11
21.378612
  21
11.913815
  31
0
  12
21.378612
  22
11.261185
  32
0
  13
21.378612
  23
11.261185
  33
0
  0
SOLID
  5
9d
  330
98
  100
AcDbEntity
  8
SK2
  100
AcDbTrace
  10
-0
  20
11.5875
  30
0
  11
-2.478612
  21
11.261185
  31
0
  12
-2.478612
  22
11.913815
  32
0
  13
-2.478612
  23
11.913815
  33
0
  0
MTEXT
  5
9e
  330
98
  100
AcDbEntity
  8
SK2
  100
AcDbMText
  10
9.45
  20
11.5875
  30
0
  11
1
  21
-0
  31
0
  40
2
  41
0
  71
8
  72
1
  1
18.9
  0
POINT
  5
9f
  330
98
  100
AcDbEntity
  8
SK2
  62
0
  100
AcDbPoint
  10
18.9
  20
1.5875
  30
0
  0
POINT
  5
a0
  330
98
  100
AcDbEntity
  8
SK2
  62
0
  100
AcDbPoint
  10
-0
  20
0.8875
  30
0
  0
POINT
  5
a1
  330
98
  100
AcDbEntity
  8
SK2
  62
0
  100
AcDbPoint
  10
-0
  20
11.5875
  30
0
  0
ENDBLK
  5
a2
  330
98
  100
AcDbEntity
  8
SK2
  100
AcDbBlockEnd
  0
BLOCK
  5
a4
  330
a6
  100
AcDbEntity
  8
SK2
  100
AcDbBlockBegin
  2
*Da5
  70
1
  10
0
  20
0
  30
0
  3
*Da5
  1

  0
LINE
  5
a7
  330
a6
  100
AcDbEntity
  8
SK2
  100
AcDbLine
  10
0.7
  20
-1.5875
  30
0
  11
-12
  21
-1.5875
  31
0
  0
LINE
  5
a8
  330
a6
  100
AcDbEntity
  8
SK2
  100
AcDbLine
  10
0.7
  20
1.5875
  30
0
  11
-12
  21
1.5875
  31
0
  0
LINE
  5
a9
  330
a6
  100
AcDbEntity
  8
SK2
  100
AcDbLine
  10
-10
  20
-10.39604
  30
0
  11
-10
  21
1.5875
  31
0
  0
SOLID
  5
aa
  330
a6
  100
AcDbEntity
  8
SK2
  100
AcDbTrace
  10
-10
  20
-1.5875
  30
0
  11
-10.326315
  21
0.891112
  31
0
  12
-9.673685
  22
0.891112
  32
0
  13
-9.673685
  23
0.891112
  33
0
  0
SOLID
  5
ab
  330
a6
  100
AcDbEntity
  8
SK2
  100
AcDbTrace
  10
-10
  20
1.5875
  30
0
  11
-9.673685
  21
-0.891112
  31
0
  12
-10.326315
  22
-0.891112
  32
0
  13
-10.326315
  23
-0.891112
  33
0
  0
MTEXT
  5
ac
  330
a6
  100
AcDbEntity
  8
SK2
  100
AcDbMText
  10
-10
  20
0
  30
0
  11
0
  21
1
  31
0
  40
2
  41
0
  71
8
  72
1
  1
ﾘ3.175
  0
POINT
  5
ad
  330
a6
  100
AcDbEntity
  8
SK2
  62
0
  100
AcDbPoint
  10
0.7
  20
-1.5875
  30
0
  0
POINT
  5
ae
  330
a6
  100
AcDbEntity
  8
SK2
  62
0
  100
AcDbPoint
  10
0.7
  20
1.5875
  30
0
  0
POINT
  5
af
  330
a6
  100
AcDbEntity
  8
SK2
  62
0
  100
AcDbPoint
  10
-10
  20
1.5875
  30
0
  0
ENDBLK
  5
b0
  330
a6
  100
AcDbEntity
  8
SK2
  100
AcDbBlockEnd
  0
BLOCK
  5
b2
  330
b4
  100
AcDbEntity
  8
2
  100
AcDbBlockBegin
  2
*Db3
  70
1
  10
0
  20
0
  30
0
  3
*Db3
  1

  0
LINE
  5
b5
  330
b4
  100
AcDbEntity
  8
2
  100
AcDbLine
  10
37.306
  20
-0.794
  30
0
  11
50.1
  21
-0.794
  31
0
  0
LINE
  5
b6
  330
b4
  100
AcDbEntity
  8
2
  100
AcDbLine
  10
37.306
  20
0.794
  30
0
  11
50.1
  21
0.794
  31
0
  0
LINE
  5
b7
  330
b4
  100
AcDbEntity
  8
2
  100
AcDbLine
  10
48.1
  20
-10.39604
  30
0
  11
48.1
  21
0.794
  31
0
  0
SOLID
  5
b8
  330
b4
  100
AcDbEntity
  8
2
  100
AcDbTrace
  10
48.1
  20
-0.794
  30
0
  11
47.773685
  21
1.684612
  31
0
  12
48.426315
  22
1.684612
  32
0
  13
48.426315
  23
1.684612
  33
0
  0
SOLID
  5
b9
  330
b4
  100
AcDbEntity
  8
2
  100
AcDbTrace
  10
48.1
  20
0.794
  30
0
  11
48.426315
  21
-1.684612
  31
0
  12
47.773685
  22
-1.684612
  32
0
  13
47.773685
  23
-1.684612
  33
0
  0
MTEXT
  5
ba
  330
b4
  100
AcDbEntity
  8
2
  100
AcDbMText
  10
48.1
  20
0
  30
0
  11
0
  21
1
  31
0
  40
2
  41
0
  71
8
  72
1
  1
ﾘ1.588
  0
POINT
  5
bb
  330
b4
  100
AcDbEntity
  8
2
  62
0
  100
AcDbPoint
  10
37.306
  20
-0.794
  30
0
  0
POINT
  5
bc
  330
b4
  100
AcDbEntity
  8
2
  62
0
  100
AcDbPoint
  10
37.306
  20
0.794
  30
0
  0
POINT
  5
bd
  330
b4
  100
AcDbEntity
  8
2
  62
0
  100
AcDbPoint
  10
48.1
  20
0.794
  30
0
  0
ENDBLK
  5
be
  330
b4
  100
AcDbEntity
  8
2
  100
AcDbBlockEnd
  0
BLOCK
  5
c0
  330
c2
  100
AcDbEntity
  8
2
  100
AcDbBlockBegin
  2
*Dc1
  70
1
  10
0
  20
0
  30
0
  3
*Dc1
  1

  0
LINE
  5
c3
  330
c2
  100
AcDbEntity
  8
2
  100
AcDbLine
  10
34.052134
  20
-3.253866
  30
0
  11
44.938511
  21
7.632511
  31
0
  0
MTEXT
  5
c4
  330
c2
  100
AcDbEntity
  8
2
  100
AcDbMText
  10
37.867443
  20
0.561443
  30
0
  11
0.707107
  21
0.707107
  31
0
  40
2
  41
0
  71
8
  72
1
  1
R0.794
  0
SOLID
  5
c5
  330
c2
  100
AcDbEntity
  8
2
  100
AcDbTrace
  10
37.867443
  20
0.561443
  30
0
  11
39.389346
  21
2.544826
  31
0
  12
39.850826
  22
2.083346
  32
0
  13
39.850826
  23
2.083346
  33
0
  0
POINT
  5
c6
  330
c2
  100
AcDbEntity
  8
2
  62
0
  100
AcDbPoint
  10
34.052134
  20
-3.253866
  30
0
  0
POINT
  5
c7
  330
c2
  100
AcDbEntity
  8
2
  62
0
  100
AcDbPoint
  10
37.306
  20
0
  30
0
  0
ENDBLK
  5
c8
  330
c2
  100
AcDbEntity
  8
2
  100
AcDbBlockEnd
  0
BLOCK
  5
ca
  330
cc
  100
AcDbEntity
  8
2
  100
AcDbBlockBegin
  2
*Dcb
  70
1
  10
0
  20
0
  30
0
  3
*Dcb
  1

  0
LINE
  5
cd
  330
cc
  100
AcDbEntity
  8
2
  100
AcDbLine
  10
33.3
  20
-0.735
  30
0
  11
31.3
  21
-0.735
  31
0
  0
LINE
  5
ce
  330
cc
  100
AcDbEntity
  8
2
  100
AcDbLine
  10
33.3
  20
0.735
  30
0
  11
31.3
  21
0.735
  31
0
  0
LINE
  5
cf
  330
cc
  100
AcDbEntity
  8
2
  100
AcDbLine
  10
33.3
  20
-0.735
  30
0
  11
33.3
  21
9.096535
  31
0
  0
SOLID
  5
d0
  330
cc
  100
AcDbEntity
  8
2
  100
AcDbTrace
  10
33.3
  20
-0.735
  30
0
  11
32.973685
  21
1.743612
  31
0
  12
33.626315
  22
1.743612
  32
0
  13
33.626315
  23
1.743612
  33
0
  0
SOLID
  5
d1
  330
cc
  100
AcDbEntity
  8
2
  100
AcDbTrace
  10
33.3
  20
0.735
  30
0
  11
33.626315
  21
-1.743612
  31
0
  12
32.973685
  22
-1.743612
  32
0
  13
32.973685
  23
-1.743612
  33
0
  0
MTEXT
  5
d2
  330
cc
  100
AcDbEntity
  8
2
  100
AcDbMText
  10
33.3
  20
0.735
  30
0
  11
0
  21
1
  31
0
  40
2
  41
0
  71
8
  72
1
  1
ﾘ1.47
  0
POINT
  5
d3
  330
cc
  100
AcDbEntity
  8
2
  62
0
  100
AcDbPoint
  10
31.3
  20
-0.735
  30
0
  0
POINT
  5
d4
  330
cc
  100
AcDbEntity
  8
2
  62
0
  100
AcDbPoint
  10
31.3
  20
0.735
  30
0
  0
POINT
  5
d5
  330
cc
  100
AcDbEntity
  8
2
  62
0
  100
AcDbPoint
  10
33.3
  20
9.096535
  30
0
  0
ENDBLK
  5
d6
  330
cc
  100
AcDbEntity
  8
2
  100
AcDbBlockEnd
  0
BLOCK
  5
d8
  330
da
  100
AcDbEntity
  8
2
  100
AcDbBlockBegin
  2
*Dd9
  70
1
  10
0
  20
0
  30
0
  3
*Dd9
  1

  0
LINE
  5
db
  330
da
  100
AcDbEntity
  8
2
  100
AcDbLine
  10
33.3
  20
0.735
  30
0
  11
33.3
  21
9
  31
0
  0
LINE
  5
dc
  330
da
  100
AcDbEntity
  8
2
  100
AcDbLine
  10
22.1
  20
0.735
  30
0
  11
22.1
  21
9
  31
0
  0
LINE
  5
dd
  330
da
  100
AcDbEntity
  8
2
  100
AcDbLine
  10
33.3
  20
7
  30
0
  11
22.1
  21
7
  31
0
  0
SOLID
  5
de
  330
da
  100
AcDbEntity
  8
2
  100
AcDbTrace
  10
33.3
  20
7
  30
0
  11
35.778612
  21
7.326315
  31
0
  12
35.778612
  22
6.673685
  32
0
  13
35.778612
  23
6.673685
  33
0
  0
SOLID
  5
df
  330
da
  100
AcDbEntity
  8
2
  100
AcDbTrace
  10
22.1
  20
7
  30
0
  11
19.621388
  21
6.673685
  31
0
  12
19.621388
  22
7.326315
  32
0
  13
19.621388
  23
7.326315
  33
0
  0
MTEXT
  5
e0
  330
da
  100
AcDbEntity
  8
2
  100
AcDbMText
  10
27.7
  20
7
  30
0
  11
1
  21
-0
  31
0
  40
2
  41
0
  71
8
  72
1
  1
11.2
  0
POINT
  5
e1
  330
da
  100
AcDbEntity
  8
2
  62
0
  100
AcDbPoint
  10
33.3
  20
0.735
  30
0
  0
POINT
  5
e2
  330
da
  100
AcDbEntity
  8
2
  62
0
  100
AcDbPoint
  10
22.1
  20
0.735
  30
0
  0
POINT
  5
e3
  330
da
  100
AcDbEntity
  8
2
  62
0
  100
AcDbPoint
  10
22.1
  20
7
  30
0
  0
ENDBLK
  5
e4
  330
da
  100
AcDbEntity
  8
2
  100
AcDbBlockEnd
  0
BLOCK
  5
e6
  330
e8
  100
AcDbEntity
  8
2
  100
AcDbBlockBegin
  2
*De7
  70
1
  10
0
  20
0
  30
0
  3
*De7
  1

  0
LINE
  5
e9
  330
e8
  100
AcDbEntity
  8
2
  100
AcDbLine
  10
38.1
  20
0
  30
0
  11
38.1
  21
18.5875
  31
0
  0
LINE
  5
ea
  330
e8
  100
AcDbEntity
  8
2
  100
AcDbLine
  10
18.9
  20
1.5875
  30
0
  11
18.9
  21
8.5875
  31
0
  0
LINE
  5
eb
  330
e8
  100
AcDbEntity
  8
2
  100
AcDbLine
  10
38.1
  20
6.5875
  30
0
  11
18.9
  21
6.5875
  31
0
  0
SOLID
  5
ec
  330
e8
  100
AcDbEntity
  8
2
  100
AcDbTrace
  10
38.1
  20
6.5875
  30
0
  11
40.578612
  21
6.913815
  31
0
  12
40.578612
  22
6.261185
  32
0
  13
40.578612
  23
6.261185
  33
0
  0
SOLID
  5
ed
  330
e8
  100
AcDbEntity
  8
2
  100
AcDbTrace
  10
18.9
  20
6.5875
  30
0
  11
16.421388
  21
6.261185
  31
0
  12
16.421388
  22
6.913815
  32
0
  13
16.421388
  23
6.913815
  33
0
  0
MTEXT
  5
ee
  330
e8
  100
AcDbEntity
  8
2
  100
AcDbMText
  10
28.5
  20
6.5875
  30
0
  11
1
  21
-0
  31
0
  40
2
  41
0
  71
8
  72
1
  1
19.2
  0
POINT
  5
ef
  330
e8
  100
AcDbEntity
  8
2
  62
0
  100
AcDbPoint
  10
38.1
  20
18.5875
  30
0
  0
POINT
  5
f0
  330
e8
  100
AcDbEntity
  8
2
  62
0
  100
AcDbPoint
  10
18.9
  20
1.5875
  30
0
  0
POINT
  5
f1
  330
e8
  100
AcDbEntity
  8
2
  62
0
  100
AcDbPoint
  10
18.9
  20
6.5875
  30
0
  0
ENDBLK
  5
f2
  330
e8
  100
AcDbEntity
  8
2
  100
AcDbBlockEnd
  0
ENDSEC
  0
SECTION
  2
ENTITIES
  0
DIMENSION
  5
95
  100
AcDbEntity
  8
SK2
  100
AcDbDimension
  2
*D89
  10
38.1
  20
16.5875
  30
0
  11
19.05
  21
16.5875
  31
0
  70
160
  1
<>
  71
5
  3
STANDARD
  42
38.1
  100
AcDbAlignedDimension
  13
-0
  23
0.8875
  33
0
  14
38.1
  24
0
  34
0
  50
0
  100
AcDbRotatedDimension
  0
DIMENSION
  5
a3
  100
AcDbEntity
  8
SK2
  100
AcDbDimension
  2
*D97
  10
-0
  20
11.5875
  30
0
  11
9.45
  21
11.5875
  31
0
  70
160
  1
<>
  71
5
  3
STANDARD
  42
18.9
  100
AcDbAlignedDimension
  13
18.9
  23
1.5875
  33
0
  14
-0
  24
0.8875
  34
0
  50
0
  100
AcDbRotatedDimension
  0
DIMENSION
  5
b1
  100
AcDbEntity
  8
SK2
  100
AcDbDimension
  2
*Da5
  10
-10
  20
1.5875
  30
0
  11
-10
  21
0
  31
0
  70
160
  1
%%c<>
  71
5
  3
STANDARD
  42
3.175
  100
AcDbAlignedDimension
  13
0.7
  23
-1.5875
  33
0
  14
0.7
  24
1.5875
  34
0
  50
-90
  100
AcDbRotatedDimension
  0
DIMENSION
  5
bf
  100
AcDbEntity
  8
2
  100
AcDbDimension
  2
*Db3
  10
48.1
  20
0.794
  30
0
  11
48.1
  21
0
  31
0
  70
160
  1
%%c<>
  71
5
  3
STANDARD
  42
1.588
  100
AcDbAlignedDimension
  13
37.306
  23
-0.794
  33
0
  14
37.306
  24
0.794
  34
0
  50
-90
  100
AcDbRotatedDimension
  0
DIMENSION
  5
c9
  100
AcDbEntity
  8
2
  100
AcDbDimension
  2
*Dc1
  10
37.306
  20
0
  30
0
  11
37.867443
  21
0.561443
  31
0
  70
164
  1
R0.794
  71
5
  3
STANDARD
  100
AcDbRadialDimension
  15
37.867443
  25
0.561443
  35
0
  50
45
  0
DIMENSION
  5
d7
  100
AcDbEntity
  8
2
  100
AcDbDimension
  2
*Dcb
  10
33.3
  20
9.096535
  30
0
  11
33.3
  21
0.735
  31
0
  70
160
  1
%%c<>
  71
5
  3
STANDARD
  42
1.47
  100
AcDbAlignedDimension
  13
31.3
  23
-0.735
  33
0
  14
31.3
  24
0.735
  34
0
  50
-90
  100
AcDbRotatedDimension
  0
DIMENSION
  5
e5
  100
AcDbEntity
  8
2
  100
AcDbDimension
  2
*Dd9
  10
22.1
  20
7
  30
0
  11
27.7
  21
7
  31
0
  70
160
  1
<>
  71
5
  3
STANDARD
  42
11.2
  100
AcDbAlignedDimension
  13
33.3
  23
0.735
  33
0
  14
22.1
  24
0.735
  34
0
  50
0
  100
AcDbRotatedDimension
  0
DIMENSION
  5
f3
  100
AcDbEntity
  8
2
  100
AcDbDimension
  2
*De7
  10
18.9
  20
6.5875
  30
0
  11
28.5
  21
6.5875
  31
0
  70
160
  1
<>
  71
5
  3
STANDARD
  42
19.2
  100
AcDbAlignedDimension
  13
38.1
  23
18.5875
  33
0
  14
18.9
  24
1.5875
  34
0
  50
0
  100
AcDbRotatedDimension
  0
ARC
  5
36
  100
AcDbEntity
  8
1
  100
AcDbCircle
  10
37.306
  20
0
  30
0
  40
0.794
  100
AcDbArc
  50
270
  51
0
  0
ARC
  5
37
  100
AcDbEntity
  8
1
  100
AcDbCircle
  10
37.306
  20
0
  30
0
  40
0.794
  100
AcDbArc
  50
0
  51
90
  0
LINE
  5
38
  100
AcDbEntity
  8
1
  100
AcDbLine
  10
37.306
  20
0.794
  30
0
  11
33.3
  21
0.794
  31
0
  0
LINE
  5
39
  100
AcDbEntity
  8
1
  100
AcDbLine
  10
33.3
  20
0.794
  30
0
  11
33.3
  21
0.735
  31
0
  0
LINE
  5
3a
  100
AcDbEntity
  8
1
  100
AcDbLine
  10
33.3
  20
0.735
  30
0
  11
22.1
  21
0.735
  31
0
  0
LINE
  5
3b
  100
AcDbEntity
  8
1
  100
AcDbLine
  10
22.1
  20
0.735
  30
0
  11
18.918427
  21
1.5875
  31
0
  0
LINE
  5
3c
  100
AcDbEntity
  8
1
  100
AcDbLine
  10
18.918427
  20
1.5875
  30
0
  11
18.9
  21
1.5875
  31
0
  0
LINE
  5
3d
  100
AcDbEntity
  8
1
  100
AcDbLine
  10
18.9
  20
1.5875
  30
0
  11
18.9
  21
-1.5875
  31
0
  0
LINE
  5
3e
  100
AcDbEntity
  8
1
  100
AcDbLine
  10
18.9
  20
-1.5875
  30
0
  11
18.918427
  21
-1.5875
  31
0
  0
LINE
  5
3f
  100
AcDbEntity
  8
1
  100
AcDbLine
  10
18.918427
  20
-1.5875
  30
0
  11
22.1
  21
-0.735
  31
0
  0
LINE
  5
40
  100
AcDbEntity
  8
1
  100
AcDbLine
  10
22.1
  20
-0.735
  30
0
  11
33.3
  21
-0.735
  31
0
  0
LINE
  5
41
  100
AcDbEntity
  8
1
  100
AcDbLine
  10
33.3
  20
-0.735
  30
0
  11
33.3
  21
-0.794
  31
0
  0
LINE
  5
42
  100
AcDbEntity
  8
1
  100
AcDbLine
  10
33.3
  20
-0.794
  30
0
  11
37.306
  21
-0.794
  31
0
  0
LINE
  5
43
  100
AcDbEntity
  8
1
  100
AcDbLine
  10
37.306
  20
0.794
  30
0
  11
37.306
  21
-0.794
  31
0
  0
LINE
  5
44
  100
AcDbEntity
  8
1
  100
AcDbLine
  10
33.3
  20
-0.794
  30
0
  11
33.3
  21
0.794
  31
0
  0
LINE
  5
45
  100
AcDbEntity
  8
1
  100
AcDbLine
  10
33.3
  20
-0.735
  30
0
  11
33.3
  21
0.735
  31
0
  0
LINE
  5
46
  100
AcDbEntity
  8
1
  100
AcDbLine
  10
22.1
  20
-0.735
  30
0
  11
22.1
  21
0.735
  31
0
  0
LINE
  5
47
  100
AcDbEntity
  8
1
  100
AcDbLine
  10
18.918427
  20
-1.5875
  30
0
  11
18.918427
  21
1.5875
  31
0
  0
LINE
  5
48
  100
AcDbEntity
  8
1
  100
AcDbLine
  10
18.9
  20
-1.5875
  30
0
  11
18.9
  21
1.5875
  31
0
  0
LINE
  5
49
  100
AcDbEntity
  8
1
  100
AcDbLine
  10
18.9
  20
1.5875
  30
0
  11
18.9
  21
-1.5875
  31
0
  0
LINE
  5
4a
  100
AcDbEntity
  8
SK1
  100
AcDbLine
  10
18.9
  20
1.5875
  30
0
  11
0.7
  21
1.5875
  31
0
  0
LINE
  5
4b
  100
AcDbEntity
  8
SK1
  100
AcDbLine
  10
0.7
  20
1.5875
  30
0
  11
-0
  21
0.8875
  31
0
  0
LINE
  5
4c
  100
AcDbEntity
  8
SK1
  100
AcDbLine
  10
18.9
  20
-1.5875
  30
0
  11
0.7
  21
-1.5875
  31
0
  0
LINE
  5
4d
  100
AcDbEntity
  8
SK1
  100
AcDbLine
  10
0.7
  20
-1.5875
  30
0
  11
-0
  21
-0.8875
  31
0
  0
LINE
  5
4e
  100
AcDbEntity
  8
SK1
  100
AcDbLine
  10
0.7
  20
1.5875
  30
0
  11
0.7
  21
-1.5875
  31
0
  0
LINE
  5
4f
  100
AcDbEntity
  8
SK1
  100
AcDbLine
  10
-0
  20
0.8875
  30
0
  11
-0
  21
-0.8875
  31
0
  0
LINE
  5
50
  100
AcDbEntity
  8
SK1
  100
AcDbLine
  10
19.9401
  20
1.40688
  30
0
  11
20.3069
  21
1.0401
  31
0
  0
LINE
  5
51
  100
AcDbEntity
  8
SK1
  100
AcDbLine
  10
19.4328
  20
1.66666
  30
0
  11
20.5667
  21
0.532833
  31
0
  0
LINE
  5
52
  100
AcDbEntity
  8
SK1
  100
AcDbLine
  10
19.1154
  20
1.73657
  30
0
  11
20.6366
  21
0.215434
  31
0
  0
LINE
  5
53
  100
AcDbEntity
  8
SK1
  100
AcDbLine
  10
18.9
  20
1.70452
  30
0
  11
20.6045
  21
0
  31
0
  0
LINE
  5
54
  100
AcDbEntity
  8
SK1
  100
AcDbLine
  10
18.9
  20
1.45703
  30
0
  11
20.357
  21
0
  31
0
  0
LINE
  5
55
  100
AcDbEntity
  8
SK1
  100
AcDbLine
  10
18.9
  20
1.20954
  30
0
  11
20.1095
  21
0
  31
0
  0
LINE
  5
56
  100
AcDbEntity
  8
SK1
  100
AcDbLine
  10
18.9
  20
0.962054
  30
0
  11
19.8621
  21
0
  31
0
  0
LINE
  5
57
  100
AcDbEntity
  8
SK1
  100
AcDbLine
  10
18.9
  20
0.714566
  30
0
  11
19.6146
  21
0
  31
0
  0
LINE
  5
58
  100
AcDbEntity
  8
SK1
  100
AcDbLine
  10
18.9
  20
0.467079
  30
0
  11
19.3671
  21
0
  31
0
  0
LINE
  5
59
  100
AcDbEntity
  8
SK1
  100
AcDbLine
  10
18.9
  20
0.219592
  30
0
  11
19.1196
  21
0
  31
0
  0
LINE
  5
5a
  100
AcDbEntity
  8
SK1
  100
AcDbLine
  10
18.9
  20
1.70452
  30
0
  11
18.9441
  21
1.74861
  31
0
  0
LINE
  5
5b
  100
AcDbEntity
  8
SK1
  100
AcDbLine
  10
18.9
  20
1.45703
  30
0
  11
19.171
  21
1.72802
  31
0
  0
LINE
  5
5c
  100
AcDbEntity
  8
SK1
  100
AcDbLine
  10
18.9
  20
1.20954
  30
0
  11
19.3742
  21
1.6837
  31
0
  0
LINE
  5
5d
  100
AcDbEntity
  8
SK1
  100
AcDbLine
  10
18.9
  20
0.962054
  30
0
  11
19.5588
  21
1.62082
  31
0
  0
LINE
  5
5e
  100
AcDbEntity
  8
SK1
  100
AcDbLine
  10
18.9
  20
0.714566
  30
0
  11
19.7271
  21
1.54167
  31
0
  0
LINE
  5
5f
  100
AcDbEntity
  8
SK1
  100
AcDbLine
  10
18.9
  20
0.467079
  30
0
  11
19.881
  21
1.44812
  31
0
  0
LINE
  5
60
  100
AcDbEntity
  8
SK1
  100
AcDbLine
  10
18.9
  20
0.219592
  30
0
  11
20.0226
  21
1.34216
  31
0
  0
LINE
  5
61
  100
AcDbEntity
  8
SK1
  100
AcDbLine
  10
18.9279
  20
0
  30
0
  11
20.1508
  21
1.22288
  31
0
  0
LINE
  5
62
  100
AcDbEntity
  8
SK1
  100
AcDbLine
  10
19.1754
  20
0
  30
0
  11
20.267
  21
1.09157
  31
0
  0
LINE
  5
63
  100
AcDbEntity
  8
SK1
  100
AcDbLine
  10
19.4229
  20
0
  30
0
  11
20.3707
  21
0.947822
  31
0
  0
LINE
  5
64
  100
AcDbEntity
  8
SK1
  100
AcDbLine
  10
19.6704
  20
0
  30
0
  11
20.4605
  21
0.790145
  31
0
  0
LINE
  5
65
  100
AcDbEntity
  8
SK1
  100
AcDbLine
  10
19.9178
  20
0
  30
0
  11
20.5364
  21
0.618517
  31
0
  0
LINE
  5
66
  100
AcDbEntity
  8
SK1
  100
AcDbLine
  10
20.1653
  20
0
  30
0
  11
20.596
  21
0.430696
  31
0
  0
LINE
  5
67
  100
AcDbEntity
  8
SK1
  100
AcDbLine
  10
20.4128
  20
0
  30
0
  11
20.6356
  21
0.222827
  31
0
  0
LINE
  5
68
  100
AcDbEntity
  8
SK1
  100
AcDbLine
  10
18.9
  20
0
  30
0
  11
18.9
  21
1.75
  31
0
  0
LINE
  5
69
  100
AcDbEntity
  8
SK1
  100
AcDbLine
  10
18.9
  20
0
  30
0
  11
20.65
  21
0
  31
0
  0
ARC
  5
6a
  100
AcDbEntity
  8
SK1
  100
AcDbCircle
  10
18.9
  20
0
  30
0
  40
1.75
  100
AcDbArc
  50
0
  51
90
  0
ARC
  5
6b
  100
AcDbEntity
  8
SK1
  100
AcDbCircle
  10
18.9
  20
0
  30
0
  40
1.75
  100
AcDbArc
  50
90
  51
180
  0
LINE
  5
6c
  100
AcDbEntity
  8
SK1
  100
AcDbLine
  10
18.8721
  20
0
  30
0
  11
18.9
  21
-0.027896
  31
0
  0
LINE
  5
6d
  100
AcDbEntity
  8
SK1
  100
AcDbLine
  10
18.6246
  20
0
  30
0
  11
18.9
  21
-0.275383
  31
0
  0
LINE
  5
6e
  100
AcDbEntity
  8
SK1
  100
AcDbLine
  10
18.3771
  20
0
  30
0
  11
18.9
  21
-0.522871
  31
0
  0
LINE
  5
6f
  100
AcDbEntity
  8
SK1
  100
AcDbLine
  10
18.1296
  20
0
  30
0
  11
18.9
  21
-0.770358
  31
0
  0
LINE
  5
70
  100
AcDbEntity
  8
SK1
  100
AcDbLine
  10
17.8822
  20
0
  30
0
  11
18.9
  21
-1.01785
  31
0
  0
LINE
  5
71
  100
AcDbEntity
  8
SK1
  100
AcDbLine
  10
17.6347
  20
0
  30
0
  11
18.9
  21
-1.26533
  31
0
  0
LINE
  5
72
  100
AcDbEntity
  8
SK1
  100
AcDbLine
  10
17.3872
  20
0
  30
0
  11
18.9
  21
-1.51282
  31
0
  0
LINE
  5
73
  100
AcDbEntity
  8
SK1
  100
AcDbLine
  10
17.1503
  20
-0.010642
  30
0
  11
18.8894
  21
-1.74967
  31
0
  0
LINE
  5
74
  100
AcDbEntity
  8
SK1
  100
AcDbLine
  10
17.1736
  20
-0.281429
  30
0
  11
18.6186
  21
-1.72637
  31
0
  0
LINE
  5
75
  100
AcDbEntity
  8
SK1
  100
AcDbLine
  10
17.2639
  20
-0.619147
  30
0
  11
18.2809
  21
-1.63613
  31
0
  0
LINE
  5
76
  100
AcDbEntity
  8
SK1
  100
AcDbLine
  10
17.1514
  20
-0.044098
  30
0
  11
17.1955
  21
0
  31
0
  0
LINE
  5
77
  100
AcDbEntity
  8
SK1
  100
AcDbLine
  10
17.172
  20
-0.270991
  30
0
  11
17.443
  21
0
  31
0
  0
LINE
  5
78
  100
AcDbEntity
  8
SK1
  100
AcDbLine
  10
17.2163
  20
-0.474162
  30
0
  11
17.6905
  21
0
  31
0
  0
LINE
  5
79
  100
AcDbEntity
  8
SK1
  100
AcDbLine
  10
17.2792
  20
-0.658762
  30
0
  11
17.9379
  21
0
  31
0
  0
LINE
  5
7a
  100
AcDbEntity
  8
SK1
  100
AcDbLine
  10
17.3583
  20
-0.827105
  30
0
  11
18.1854
  21
0
  31
0
  0
LINE
  5
7b
  100
AcDbEntity
  8
SK1
  100
AcDbLine
  10
17.4519
  20
-0.981039
  30
0
  11
18.4329
  21
0
  31
0
  0
LINE
  5
7c
  100
AcDbEntity
  8
SK1
  100
AcDbLine
  10
17.5578
  20
-1.12257
  30
0
  11
18.6804
  21
0
  31
0
  0
LINE
  5
7d
  100
AcDbEntity
  8
SK1
  100
AcDbLine
  10
17.6771
  20
-1.25077
  30
0
  11
18.9
  21
-0.027896
  31
0
  0
LINE
  5
7e
  100
AcDbEntity
  8
SK1
  100
AcDbLine
  10
17.8084
  20
-1.36695
  30
0
  11
18.9
  21
-0.275383
  31
0
  0
LINE
  5
7f
  100
AcDbEntity
  8
SK1
  100
AcDbLine
  10
17.9522
  20
-1.47069
  30
0
  11
18.9
  21
-0.522871
  31
0
  0
LINE
  5
80
  100
AcDbEntity
  8
SK1
  100
AcDbLine
  10
18.1099
  20
-1.5605
  30
0
  11
18.9
  21
-0.770358
  31
0
  0
LINE
  5
81
  100
AcDbEntity
  8
SK1
  100
AcDbLine
  10
18.2815
  20
-1.63636
  30
0
  11
18.9
  21
-1.01785
  31
0
  0
LINE
  5
82
  100
AcDbEntity
  8
SK1
  100
AcDbLine
  10
18.4693
  20
-1.69603
  30
0
  11
18.9
  21
-1.26533
  31
0
  0
LINE
  5
83
  100
AcDbEntity
  8
SK1
  100
AcDbLine
  10
18.6772
  20
-1.73565
  30
0
  11
18.9
  21
-1.51282
  31
0
  0
LINE
  5
84
  100
AcDbEntity
  8
SK1
  100
AcDbLine
  10
18.9
  20
0
  30
0
  11
17.15
  21
0
  31
0
  0
LINE
  5
85
  100
AcDbEntity
  8
SK1
  100
AcDbLine
  10
18.9
  20
-1.75
  30
0
  11
18.9
  21
0
  31
0
  0
ARC
  5
86
  100
AcDbEntity
  8
SK1
  100
AcDbCircle
  10
18.9
  20
0
  30
0
  40
1.75
  100
AcDbArc
  50
180
  51
270
  0
ARC
  5
87
  100
AcDbEntity
  8
SK1
  100
AcDbCircle
  10
18.9
  20
0
  30
0
  40
1.75
  100
AcDbArc
  50
270
  51
0
  0
LINE
  5
f4
  100
AcDbEntity
  8
INFTOTAL
  100
AcDbLine
  10
-15.105
  20
21.6925
  30
0
  11
53.205
  21
21.6925
  31
0
  0
LINE
  5
f5
  100
AcDbEntity
  8
INFTOTAL
  100
AcDbLine
  10
53.205
  20
21.6925
  30
0
  11
53.205
  21
-13.50104
  31
0
  0
LINE
  5
f6
  100
AcDbEntity
  8
INFTOTAL
  100
AcDbLine
  10
53.205
  20
-13.50104
  30
0
  11
-15.105
  21
-13.50104
  31
0
  0
LINE
  5
f7
  100
AcDbEntity
  8
INFTOTAL
  100
AcDbLine
  10
-15.105
  20
-13.50104
  30
0
  11
-15.105
  21
21.6925
  31
0
  0
ENDSEC
  0
SECTION
  2
OBJECTS
  0
DICTIONARY
  5
f8
  330
0
100
AcDbDictionary
281
    1
  3
ACAD_GROUP
  350
f9
  0
DICTIONARY
  5
f9
102
{ACAD_REACTORS
  330
f8
102
}
  330
f8
100
AcDbDictionary
281
    1
  0
ENDSEC
  0
EOF
