  0
SECTION
  2
HEADER
  9
$ACADVER
  1
AC1015
  9
$DWGCODEPAGE
  3
ANSI_932
  9
$HANDSEED
  5
106AB90
  0
ENDSEC
  0
SECTION
  2
CLASSES
  0
CLASS
  1
IMAGEDEF
  2
AcDbRasterImageDef
  3
ISM
  90
0
  91
4
  280
0
  281
0
  0
CLASS
  1
IMAGE
  2
AcDbRasterImage
  3
ISM
  90
127
  91
5
  280
0
  281
1
  0
CLASS
  1
IMAGEDEF_REACTOR
  2
AcDbRasterImageDefReactor
  3
ISM
  90
1
  91
4
  280
0
  281
0
  0
ENDSEC
  0
SECTION
  2
TABLES
  0
TABLE
  2
VPORT
  5
2
  330
0
  100
AcDbSymbolTable
  70
    0
  0
ENDTAB
  0
TABLE
  2
LTYPE
  5
3
  330
0
  100
AcDbSymbolTable
  70
    4
  0
LTYPE
  5
4
  330
3
  100
AcDbSymbolTableRecord
  100
AcDbLinetypeTableRecord
  2
ByBlock
  70
    0
  3

  72
65
  73
    0
  40
0
  0
LTYPE
  5
5
  330
3
  100
AcDbSymbolTableRecord
  100
AcDbLinetypeTableRecord
  2
ByLayer
  70
    0
  3

  72
65
  73
    0
  40
0
  0
LTYPE
  5
6
  330
3
  100
AcDbSymbolTableRecord
  100
AcDbLinetypeTableRecord
  2
CONTINUOUS
  70
    0
  3
Solid Line
  72
65
  73
    0
  40
0
  0
LTYPE
  5
7
  330
3
  100
AcDbSymbolTableRecord
  100
AcDbLinetypeTableRecord
  2
DASH
  70
    0
  3
Hidden
  72
65
  73
2
  40
2.5
  49
1.5
  74
0
  49
-1
  74
0
  0
LTYPE
  5
8
  330
3
  100
AcDbSymbolTableRecord
  100
AcDbLinetypeTableRecord
  2
LONGDASHDASH
  70
    0
  3
__ . __
  72
65
  73
    4
  40
7
  49
4
  74
    0
  49
-1
  74
    0
  49
1
  74
    0
  49
-1
  74
    0
  0
ENDTAB
  0
TABLE
  2
LAYER
  5
9
  330
0
  100
AcDbSymbolTable
  70
    40
  0
LAYER
  5
a
  330
9
  100
AcDbSymbolTableRecord
  100
AcDbLayerTableRecord
  2
0
  70
    0
  62
    0
  6
CONTINUOUS
  390
0
  0
LAYER
  5
c
  330
9
  100
AcDbSymbolTableRecord
  100
AcDbLayerTableRecord
  2
1
  70
    0
  62
    4
  6
CONTINUOUS
  370
50
  390
0
  0
LAYER
  5
d
  330
9
  100
AcDbSymbolTableRecord
  100
AcDbLayerTableRecord
  2
2
  70
    0
  62
    7
  6
CONTINUOUS
  370
25
  390
0
  0
LAYER
  5
f
  330
9
  100
AcDbSymbolTableRecord
  100
AcDbLayerTableRecord
  2
4
  70
    0
  62
    2
  6
LONGDASHDASH
  370
25
  390
0
  0
LAYER
  5
13
  330
9
  100
AcDbSymbolTableRecord
  100
AcDbLayerTableRecord
  2
SK1
  70
    0
  62
    4
  6
CONTINUOUS
  370
50
  390
0
  0
LAYER
  5
14
  330
9
  100
AcDbSymbolTableRecord
  100
AcDbLayerTableRecord
  2
SK2
  70
    0
  62
    7
  6
CONTINUOUS
  370
25
  390
0
  0
LAYER
  5
16
  330
9
  100
AcDbSymbolTableRecord
  100
AcDbLayerTableRecord
  2
SK4
  70
    0
  62
    2
  6
LONGDASHDASH
  370
25
  390
0
  0
LAYER
  5
21
  330
9
  100
AcDbSymbolTableRecord
  100
AcDbLayerTableRecord
  2
NOCUT
  70
    0
  62
    7
  6
CONTINUOUS
  370
25
  390
0
  0
LAYER
  5
22
  330
9
  100
AcDbSymbolTableRecord
  100
AcDbLayerTableRecord
  2
CUT
  70
    0
  62
    1
  6
CONTINUOUS
  370
25
  390
0
  0
LAYER
  5
26
  330
9
  100
AcDbSymbolTableRecord
  100
AcDbLayerTableRecord
  2
INFTOTAL
  70
    0
  62
    9
  6
CONTINUOUS
  370
18
  390
0
  0
ENDTAB
  0
TABLE
  2
STYLE
  5
27
  330
0
  100
AcDbSymbolTable
  70
    1
  0
STYLE
  5
28
  330
27
  100
AcDbSymbolTableRecord
  100
AcDbTextStyleTableRecord
  2
Monospac821 BT
  70
    0
  40
    3.5
  41
1
  50
0
  71
0
  42
3
  3

  4

  1001
ACAD
  1000
Monospac821 BT
  1071
256
  0
ENDTAB
  0
TABLE
  2
VIEW
  5
29
  330
0
  100
AcDbSymbolTable
  70
    0
  0
ENDTAB
  0
TABLE
  2
UCS
  5
2a
  330
0
  100
AcDbSymbolTable
  70
    0
  0
ENDTAB
  0
TABLE
  2
APPID
  5
2b
  330
0
  100
AcDbSymbolTable
  70
    1
  0
APPID
  5
2c
  330
2b
  100
AcDbSymbolTableRecord
  100
AcDbRegAppTableRecord
  2
ACAD
  70
    0
  0
ENDTAB
  0
TABLE
  2
DIMSTYLE
  5
2d
  330
0
  100
AcDbSymbolTable
  70
    1
  100
AcDbDimStyleTable
  0
DIMSTYLE
  105
2e
  330
2d
  100
AcDbSymbolTableRecord
  100
AcDbDimStyleTableRecord
  2
STANDARD
  70
    0
  41
    3
  42
0.5
  44
1
  73
0
  77
1
  78
1
  140
3.5
  141
2.5
  143
0.03937
  147
0.8
  172
1
  174
1
  178
0
  179
1
  271
2
  279
1
  284
1
  340
28
  0
ENDTAB
  0
TABLE
  2
BLOCK_RECORD
  5
2f
  330
0
  100
AcDbSymbolTable
  70
    2
  0
BLOCK_RECORD
  5
30
  330
2f
  100
AcDbSymbolTableRecord
  100
AcDbBlockTableRecord
  2
*Model_Space
  0
BLOCK_RECORD
  5
31
  330
2f
  100
AcDbSymbolTableRecord
  100
AcDbBlockTableRecord
  2
*Paper_Space
  0
BLOCK_RECORD
  5
c7
  330
2f
  100
AcDbSymbolTableRecord
  100
AcDbBlockTableRecord
  2
*Dc6
  340
0
  0
BLOCK_RECORD
  5
d5
  330
2f
  100
AcDbSymbolTableRecord
  100
AcDbBlockTableRecord
  2
*Dd4
  340
0
  0
BLOCK_RECORD
  5
e3
  330
2f
  100
AcDbSymbolTableRecord
  100
AcDbBlockTableRecord
  2
*De2
  340
0
  0
BLOCK_RECORD
  5
f1
  330
2f
  100
AcDbSymbolTableRecord
  100
AcDbBlockTableRecord
  2
*Df0
  340
0
  0
BLOCK_RECORD
  5
ff
  330
2f
  100
AcDbSymbolTableRecord
  100
AcDbBlockTableRecord
  2
*Dfe
  340
0
  0
BLOCK_RECORD
  5
109
  330
2f
  100
AcDbSymbolTableRecord
  100
AcDbBlockTableRecord
  2
*D108
  340
0
  0
BLOCK_RECORD
  5
117
  330
2f
  100
AcDbSymbolTableRecord
  100
AcDbBlockTableRecord
  2
*D116
  340
0
  0
BLOCK_RECORD
  5
125
  330
2f
  100
AcDbSymbolTableRecord
  100
AcDbBlockTableRecord
  2
*D124
  340
0
  0
BLOCK_RECORD
  5
133
  330
2f
  100
AcDbSymbolTableRecord
  100
AcDbBlockTableRecord
  2
*D132
  340
0
  0
ENDTAB
  0
ENDSEC
  0
SECTION
  2
BLOCKS
  0
BLOCK
  5
32
  330
30
  100
AcDbEntity
  8
0
  100
AcDbBlockBegin
  2
*Model_Space
  70
    0
  10
0
  20
0
  30
0
  3
*Model_Space
  1

  0
ENDBLK
  5
33
  330
30
  100
AcDbEntity
  8
0
  100
AcDbBlockEnd
  0
BLOCK
  5
34
  330
31
  100
AcDbEntity
  8
0
  100
AcDbBlockBegin
  2
*Paper_Space
  70
    0
  10
0
  20
0
  30
0
  3
*Paper_Space
  1

  0
ENDBLK
  5
35
  330
31
  100
AcDbEntity
  8
0
  100
AcDbBlockEnd
  0
BLOCK
  5
c5
  330
c7
  100
AcDbEntity
  8
SK2
  100
AcDbBlockBegin
  2
*Dc6
  70
1
  10
0
  20
0
  30
0
  3
*Dc6
  1

  0
LINE
  5
c8
  330
c7
  100
AcDbEntity
  8
SK2
  100
AcDbLine
  10
0
  20
2.475
  30
0
  11
0
  21
20.175
  31
0
  0
LINE
  5
c9
  330
c7
  100
AcDbEntity
  8
SK2
  100
AcDbLine
  10
38.1
  20
-15.175
  30
0
  11
38.1
  21
20.175
  31
0
  0
LINE
  5
ca
  330
c7
  100
AcDbEntity
  8
SK2
  100
AcDbLine
  10
0
  20
18.175
  30
0
  11
38.1
  21
18.175
  31
0
  0
SOLID
  5
cb
  330
c7
  100
AcDbEntity
  8
SK2
  100
AcDbTrace
  10
0
  20
18.175
  30
0
  11
2.478612
  21
18.501315
  31
0
  12
2.478612
  22
17.848685
  32
0
  13
2.478612
  23
17.848685
  33
0
  0
SOLID
  5
cc
  330
c7
  100
AcDbEntity
  8
SK2
  100
AcDbTrace
  10
38.1
  20
18.175
  30
0
  11
35.621388
  21
17.848685
  31
0
  12
35.621388
  22
18.501315
  32
0
  13
35.621388
  23
18.501315
  33
0
  0
MTEXT
  5
cd
  330
c7
  100
AcDbEntity
  8
SK2
  100
AcDbMText
  10
19.05
  20
18.175
  30
0
  11
1
  21
0
  31
0
  40
2
  41
0
  71
8
  72
1
  1
38.1
  0
POINT
  5
ce
  330
c7
  100
AcDbEntity
  8
SK2
  62
0
  100
AcDbPoint
  10
0
  20
2.475
  30
0
  0
POINT
  5
cf
  330
c7
  100
AcDbEntity
  8
SK2
  62
0
  100
AcDbPoint
  10
38.1
  20
-15.175
  30
0
  0
POINT
  5
d0
  330
c7
  100
AcDbEntity
  8
SK2
  62
0
  100
AcDbPoint
  10
38.1
  20
18.175
  30
0
  0
ENDBLK
  5
d1
  330
c7
  100
AcDbEntity
  8
SK2
  100
AcDbBlockEnd
  0
BLOCK
  5
d3
  330
d5
  100
AcDbEntity
  8
SK2
  100
AcDbBlockBegin
  2
*Dd4
  70
1
  10
0
  20
0
  30
0
  3
*Dd4
  1

  0
LINE
  5
d6
  330
d5
  100
AcDbEntity
  8
SK2
  100
AcDbLine
  10
25.2
  20
3.175
  30
0
  11
25.2
  21
15.175
  31
0
  0
LINE
  5
d7
  330
d5
  100
AcDbEntity
  8
SK2
  100
AcDbLine
  10
0
  20
2.475
  30
0
  11
0
  21
20.175
  31
0
  0
LINE
  5
d8
  330
d5
  100
AcDbEntity
  8
SK2
  100
AcDbLine
  10
25.2
  20
13.175
  30
0
  11
0
  21
13.175
  31
0
  0
SOLID
  5
d9
  330
d5
  100
AcDbEntity
  8
SK2
  100
AcDbTrace
  10
25.2
  20
13.175
  30
0
  11
27.678612
  21
13.501315
  31
0
  12
27.678612
  22
12.848685
  32
0
  13
27.678612
  23
12.848685
  33
0
  0
SOLID
  5
da
  330
d5
  100
AcDbEntity
  8
SK2
  100
AcDbTrace
  10
0
  20
13.175
  30
0
  11
-2.478612
  21
12.848685
  31
0
  12
-2.478612
  22
13.501315
  32
0
  13
-2.478612
  23
13.501315
  33
0
  0
MTEXT
  5
db
  330
d5
  100
AcDbEntity
  8
SK2
  100
AcDbMText
  10
12.6
  20
13.175
  30
0
  11
1
  21
0
  31
0
  40
2
  41
0
  71
8
  72
1
  1
25.2
  0
POINT
  5
dc
  330
d5
  100
AcDbEntity
  8
SK2
  62
0
  100
AcDbPoint
  10
25.2
  20
3.175
  30
0
  0
POINT
  5
dd
  330
d5
  100
AcDbEntity
  8
SK2
  62
0
  100
AcDbPoint
  10
0
  20
2.475
  30
0
  0
POINT
  5
de
  330
d5
  100
AcDbEntity
  8
SK2
  62
0
  100
AcDbPoint
  10
0
  20
13.175
  30
0
  0
ENDBLK
  5
df
  330
d5
  100
AcDbEntity
  8
SK2
  100
AcDbBlockEnd
  0
BLOCK
  5
e1
  330
e3
  100
AcDbEntity
  8
SK2
  100
AcDbBlockBegin
  2
*De2
  70
1
  10
0
  20
0
  30
0
  3
*De2
  1

  0
LINE
  5
e4
  330
e3
  100
AcDbEntity
  8
SK2
  100
AcDbLine
  10
0.7
  20
-3.175
  30
0
  11
-12
  21
-3.175
  31
0
  0
LINE
  5
e5
  330
e3
  100
AcDbEntity
  8
SK2
  100
AcDbLine
  10
0.7
  20
3.175
  30
0
  11
-12
  21
3.175
  31
0
  0
LINE
  5
e6
  330
e3
  100
AcDbEntity
  8
SK2
  100
AcDbLine
  10
-10
  20
-8.207547
  30
0
  11
-10
  21
3.175
  31
0
  0
SOLID
  5
e7
  330
e3
  100
AcDbEntity
  8
SK2
  100
AcDbTrace
  10
-10
  20
-3.175
  30
0
  11
-10.326315
  21
-0.696388
  31
0
  12
-9.673685
  22
-0.696388
  32
0
  13
-9.673685
  23
-0.696388
  33
0
  0
SOLID
  5
e8
  330
e3
  100
AcDbEntity
  8
SK2
  100
AcDbTrace
  10
-10
  20
3.175
  30
0
  11
-9.673685
  21
0.696388
  31
0
  12
-10.326315
  22
0.696388
  32
0
  13
-10.326315
  23
0.696388
  33
0
  0
MTEXT
  5
e9
  330
e3
  100
AcDbEntity
  8
SK2
  100
AcDbMText
  10
-10
  20
0
  30
0
  11
0
  21
1
  31
0
  40
2
  41
0
  71
8
  72
1
  1
ﾘ6.35
  0
POINT
  5
ea
  330
e3
  100
AcDbEntity
  8
SK2
  62
0
  100
AcDbPoint
  10
0.7
  20
-3.175
  30
0
  0
POINT
  5
eb
  330
e3
  100
AcDbEntity
  8
SK2
  62
0
  100
AcDbPoint
  10
0.7
  20
3.175
  30
0
  0
POINT
  5
ec
  330
e3
  100
AcDbEntity
  8
SK2
  62
0
  100
AcDbPoint
  10
-10
  20
3.175
  30
0
  0
ENDBLK
  5
ed
  330
e3
  100
AcDbEntity
  8
SK2
  100
AcDbBlockEnd
  0
BLOCK
  5
ef
  330
f1
  100
AcDbEntity
  8
2
  100
AcDbBlockBegin
  2
*Df0
  70
1
  10
0
  20
0
  30
0
  3
*Df0
  1

  0
LINE
  5
f2
  330
f1
  100
AcDbEntity
  8
2
  100
AcDbLine
  10
36.9095
  20
-1.1905
  30
0
  11
50.1
  21
-1.1905
  31
0
  0
LINE
  5
f3
  330
f1
  100
AcDbEntity
  8
2
  100
AcDbLine
  10
36.9095
  20
1.1905
  30
0
  11
50.1
  21
1.1905
  31
0
  0
LINE
  5
f4
  330
f1
  100
AcDbEntity
  8
2
  100
AcDbLine
  10
48.1
  20
-8.207547
  30
0
  11
48.1
  21
1.1905
  31
0
  0
SOLID
  5
f5
  330
f1
  100
AcDbEntity
  8
2
  100
AcDbTrace
  10
48.1
  20
-1.1905
  30
0
  11
47.773685
  21
1.288112
  31
0
  12
48.426315
  22
1.288112
  32
0
  13
48.426315
  23
1.288112
  33
0
  0
SOLID
  5
f6
  330
f1
  100
AcDbEntity
  8
2
  100
AcDbTrace
  10
48.1
  20
1.1905
  30
0
  11
48.426315
  21
-1.288112
  31
0
  12
47.773685
  22
-1.288112
  32
0
  13
47.773685
  23
-1.288112
  33
0
  0
MTEXT
  5
f7
  330
f1
  100
AcDbEntity
  8
2
  100
AcDbMText
  10
48.1
  20
0
  30
0
  11
0
  21
1
  31
0
  40
2
  41
0
  71
8
  72
1
  1
ﾘ2.38
  0
POINT
  5
f8
  330
f1
  100
AcDbEntity
  8
2
  62
0
  100
AcDbPoint
  10
36.9095
  20
-1.1905
  30
0
  0
POINT
  5
f9
  330
f1
  100
AcDbEntity
  8
2
  62
0
  100
AcDbPoint
  10
36.9095
  20
1.1905
  30
0
  0
POINT
  5
fa
  330
f1
  100
AcDbEntity
  8
2
  62
0
  100
AcDbPoint
  10
48.1
  20
1.1905
  30
0
  0
ENDBLK
  5
fb
  330
f1
  100
AcDbEntity
  8
2
  100
AcDbBlockEnd
  0
BLOCK
  5
fd
  330
ff
  100
AcDbEntity
  8
2
  100
AcDbBlockBegin
  2
*Dfe
  70
1
  10
0
  20
0
  30
0
  3
*Dfe
  1

  0
LINE
  5
100
  330
ff
  100
AcDbEntity
  8
2
  100
AcDbLine
  10
37.751311
  20
0.841811
  30
0
  11
27.928636
  21
10.664485
  31
0
  0
MTEXT
  5
101
  330
ff
  100
AcDbEntity
  8
2
  100
AcDbMText
  10
30.680243
  20
7.912878
  30
0
  11
0.707107
  21
-0.707107
  31
0
  40
2
  41
0
  71
8
  72
1
  1
R1.19
  0
SOLID
  5
102
  330
ff
  100
AcDbEntity
  8
2
  100
AcDbTrace
  10
37.751311
  20
0.841811
  30
0
  11
35.767927
  21
2.363714
  31
0
  12
36.229407
  22
2.825194
  32
0
  13
36.229407
  23
2.825194
  33
0
  0
POINT
  5
103
  330
ff
  100
AcDbEntity
  8
2
  62
0
  100
AcDbPoint
  10
37.751311
  20
0.841811
  30
0
  0
POINT
  5
104
  330
ff
  100
AcDbEntity
  8
2
  62
0
  100
AcDbPoint
  10
36.9095
  20
0
  30
0
  0
ENDBLK
  5
105
  330
ff
  100
AcDbEntity
  8
2
  100
AcDbBlockEnd
  0
BLOCK
  5
107
  330
109
  100
AcDbEntity
  8
2
  100
AcDbBlockBegin
  2
*D108
  70
1
  10
0
  20
0
  30
0
  3
*D108
  1

  0
LINE
  5
10a
  330
109
  100
AcDbEntity
  8
2
  100
AcDbLine
  10
36.2
  20
-1.165
  30
0
  11
34.2
  21
-1.165
  31
0
  0
LINE
  5
10b
  330
109
  100
AcDbEntity
  8
2
  100
AcDbLine
  10
36.2
  20
1.165
  30
0
  11
34.2
  21
1.165
  31
0
  0
LINE
  5
10c
  330
109
  100
AcDbEntity
  8
2
  100
AcDbLine
  10
36.2
  20
-9.622642
  30
0
  11
36.2
  21
1.165
  31
0
  0
SOLID
  5
10d
  330
109
  100
AcDbEntity
  8
2
  100
AcDbTrace
  10
36.2
  20
-1.165
  30
0
  11
35.873685
  21
1.313612
  31
0
  12
36.526315
  22
1.313612
  32
0
  13
36.526315
  23
1.313612
  33
0
  0
SOLID
  5
10e
  330
109
  100
AcDbEntity
  8
2
  100
AcDbTrace
  10
36.2
  20
1.165
  30
0
  11
36.526315
  21
-1.313612
  31
0
  12
35.873685
  22
-1.313612
  32
0
  13
35.873685
  23
-1.313612
  33
0
  0
MTEXT
  5
10f
  330
109
  100
AcDbEntity
  8
2
  100
AcDbMText
  10
36.2
  20
-1.165
  30
0
  11
0
  21
1
  31
0
  40
2
  41
0
  71
8
  72
1
  1
ﾘ2.33
  0
POINT
  5
110
  330
109
  100
AcDbEntity
  8
2
  62
0
  100
AcDbPoint
  10
34.2
  20
-1.165
  30
0
  0
POINT
  5
111
  330
109
  100
AcDbEntity
  8
2
  62
0
  100
AcDbPoint
  10
34.2
  20
1.165
  30
0
  0
POINT
  5
112
  330
109
  100
AcDbEntity
  8
2
  62
0
  100
AcDbPoint
  10
36.2
  20
1.165
  30
0
  0
ENDBLK
  5
113
  330
109
  100
AcDbEntity
  8
2
  100
AcDbBlockEnd
  0
BLOCK
  5
115
  330
117
  100
AcDbEntity
  8
2
  100
AcDbBlockBegin
  2
*D116
  70
1
  10
0
  20
0
  30
0
  3
*D116
  1

  0
LINE
  5
118
  330
117
  100
AcDbEntity
  8
2
  100
AcDbLine
  10
36.2
  20
1.165
  30
0
  11
36.2
  21
9
  31
0
  0
LINE
  5
119
  330
117
  100
AcDbEntity
  8
2
  100
AcDbLine
  10
33.35
  20
1.165
  30
0
  11
33.35
  21
9
  31
0
  0
LINE
  5
11a
  330
117
  100
AcDbEntity
  8
2
  100
AcDbLine
  10
36.2
  20
7
  30
0
  11
28.867925
  21
7
  31
0
  0
SOLID
  5
11b
  330
117
  100
AcDbEntity
  8
2
  100
AcDbTrace
  10
36.2
  20
7
  30
0
  11
38.678612
  21
7.326315
  31
0
  12
38.678612
  22
6.673685
  32
0
  13
38.678612
  23
6.673685
  33
0
  0
SOLID
  5
11c
  330
117
  100
AcDbEntity
  8
2
  100
AcDbTrace
  10
33.35
  20
7
  30
0
  11
30.871388
  21
6.673685
  31
0
  12
30.871388
  22
7.326315
  32
0
  13
30.871388
  23
7.326315
  33
0
  0
MTEXT
  5
11d
  330
117
  100
AcDbEntity
  8
2
  100
AcDbMText
  10
34.984884
  20
7
  30
0
  11
1
  21
-0
  31
0
  40
2
  41
0
  71
8
  72
1
  1
2.85
  0
POINT
  5
11e
  330
117
  100
AcDbEntity
  8
2
  62
0
  100
AcDbPoint
  10
36.2
  20
1.165
  30
0
  0
POINT
  5
11f
  330
117
  100
AcDbEntity
  8
2
  62
0
  100
AcDbPoint
  10
33.35
  20
1.165
  30
0
  0
POINT
  5
120
  330
117
  100
AcDbEntity
  8
2
  62
0
  100
AcDbPoint
  10
28.867925
  20
7
  30
0
  0
ENDBLK
  5
121
  330
117
  100
AcDbEntity
  8
2
  100
AcDbBlockEnd
  0
BLOCK
  5
123
  330
125
  100
AcDbEntity
  8
2
  100
AcDbBlockBegin
  2
*D124
  70
1
  10
0
  20
0
  30
0
  3
*D124
  1

  0
LINE
  5
126
  330
125
  100
AcDbEntity
  8
2
  100
AcDbLine
  10
38.1
  20
-15.175
  30
0
  11
38.1
  21
20.175
  31
0
  0
LINE
  5
127
  330
125
  100
AcDbEntity
  8
2
  100
AcDbLine
  10
25.2
  20
3.175
  30
0
  11
25.2
  21
10.175
  31
0
  0
LINE
  5
128
  330
125
  100
AcDbEntity
  8
2
  100
AcDbLine
  10
38.1
  20
8.175
  30
0
  11
25.2
  21
8.175
  31
0
  0
SOLID
  5
129
  330
125
  100
AcDbEntity
  8
2
  100
AcDbTrace
  10
38.1
  20
8.175
  30
0
  11
40.578612
  21
8.501315
  31
0
  12
40.578612
  22
7.848685
  32
0
  13
40.578612
  23
7.848685
  33
0
  0
SOLID
  5
12a
  330
125
  100
AcDbEntity
  8
2
  100
AcDbTrace
  10
25.2
  20
8.175
  30
0
  11
22.721388
  21
7.848685
  31
0
  12
22.721388
  22
8.501315
  32
0
  13
22.721388
  23
8.501315
  33
0
  0
MTEXT
  5
12b
  330
125
  100
AcDbEntity
  8
2
  100
AcDbMText
  10
31.65
  20
8.175
  30
0
  11
1
  21
-0
  31
0
  40
2
  41
0
  71
8
  72
1
  1
12.9
  0
POINT
  5
12c
  330
125
  100
AcDbEntity
  8
2
  62
0
  100
AcDbPoint
  10
38.1
  20
-15.175
  30
0
  0
POINT
  5
12d
  330
125
  100
AcDbEntity
  8
2
  62
0
  100
AcDbPoint
  10
25.2
  20
3.175
  30
0
  0
POINT
  5
12e
  330
125
  100
AcDbEntity
  8
2
  62
0
  100
AcDbPoint
  10
25.2
  20
8.175
  30
0
  0
ENDBLK
  5
12f
  330
125
  100
AcDbEntity
  8
2
  100
AcDbBlockEnd
  0
BLOCK
  5
131
  330
133
  100
AcDbEntity
  8
2
  100
AcDbBlockBegin
  2
*D132
  70
1
  10
0
  20
0
  30
0
  3
*D132
  1

  0
LINE
  5
134
  330
133
  100
AcDbEntity
  8
2
  100
AcDbLine
  10
36.2
  20
-1.165
  30
0
  11
36.2
  21
-15.175
  31
0
  0
LINE
  5
135
  330
133
  100
AcDbEntity
  8
2
  100
AcDbLine
  10
38.1
  20
-15.175
  30
0
  11
38.1
  21
20.175
  31
0
  0
LINE
  5
136
  330
133
  100
AcDbEntity
  8
2
  100
AcDbLine
  10
32.830189
  20
-13.175
  30
0
  11
38.1
  21
-13.175
  31
0
  0
SOLID
  5
137
  330
133
  100
AcDbEntity
  8
2
  100
AcDbTrace
  10
36.2
  20
-13.175
  30
0
  11
38.678612
  21
-12.848685
  31
0
  12
38.678612
  22
-13.501315
  32
0
  13
38.678612
  23
-13.501315
  33
0
  0
SOLID
  5
138
  330
133
  100
AcDbEntity
  8
2
  100
AcDbTrace
  10
38.1
  20
-13.175
  30
0
  11
35.621388
  21
-13.501315
  31
0
  12
35.621388
  22
-12.848685
  32
0
  13
35.621388
  23
-12.848685
  33
0
  0
MTEXT
  5
139
  330
133
  100
AcDbEntity
  8
2
  100
AcDbMText
  10
37.15
  20
-13.175
  30
0
  11
1
  21
0
  31
0
  40
2
  41
0
  71
8
  72
1
  1
1.9
  0
POINT
  5
13a
  330
133
  100
AcDbEntity
  8
2
  62
0
  100
AcDbPoint
  10
36.2
  20
-1.165
  30
0
  0
POINT
  5
13b
  330
133
  100
AcDbEntity
  8
2
  62
0
  100
AcDbPoint
  10
38.1
  20
20.175
  30
0
  0
POINT
  5
13c
  330
133
  100
AcDbEntity
  8
2
  62
0
  100
AcDbPoint
  10
38.1
  20
-13.175
  30
0
  0
ENDBLK
  5
13d
  330
133
  100
AcDbEntity
  8
2
  100
AcDbBlockEnd
  0
ENDSEC
  0
SECTION
  2
ENTITIES
  0
DIMENSION
  5
d2
  100
AcDbEntity
  8
SK2
  100
AcDbDimension
  2
*Dc6
  10
38.1
  20
18.175
  30
0
  11
19.05
  21
18.175
  31
0
  70
160
  1
<>
  71
5
  3
STANDARD
  42
38.1
  100
AcDbAlignedDimension
  13
0
  23
2.475
  33
0
  14
38.1
  24
-15.175
  34
0
  50
0
  100
AcDbRotatedDimension
  0
DIMENSION
  5
e0
  100
AcDbEntity
  8
SK2
  100
AcDbDimension
  2
*Dd4
  10
0
  20
13.175
  30
0
  11
12.6
  21
13.175
  31
0
  70
160
  1
<>
  71
5
  3
STANDARD
  42
25.2
  100
AcDbAlignedDimension
  13
25.2
  23
3.175
  33
0
  14
0
  24
2.475
  34
0
  50
0
  100
AcDbRotatedDimension
  0
DIMENSION
  5
ee
  100
AcDbEntity
  8
SK2
  100
AcDbDimension
  2
*De2
  10
-10
  20
3.175
  30
0
  11
-10
  21
0
  31
0
  70
160
  1
%%c<>
  71
5
  3
STANDARD
  42
6.35
  100
AcDbAlignedDimension
  13
0.7
  23
-3.175
  33
0
  14
0.7
  24
3.175
  34
0
  50
-90
  100
AcDbRotatedDimension
  0
DIMENSION
  5
fc
  100
AcDbEntity
  8
2
  100
AcDbDimension
  2
*Df0
  10
48.1
  20
1.1905
  30
0
  11
48.1
  21
0
  31
0
  70
160
  1
%%c<>
  71
5
  3
STANDARD
  42
2.381
  100
AcDbAlignedDimension
  13
36.9095
  23
-1.1905
  33
0
  14
36.9095
  24
1.1905
  34
0
  50
-90
  100
AcDbRotatedDimension
  0
DIMENSION
  5
106
  100
AcDbEntity
  8
2
  100
AcDbDimension
  2
*Dfe
  10
36.9095
  20
0
  30
0
  11
30.680243
  21
7.912878
  31
0
  70
164
  1
R1.19
  71
5
  3
STANDARD
  100
AcDbRadialDimension
  15
37.751311
  25
0.841811
  35
0
  50
-45
  0
DIMENSION
  5
114
  100
AcDbEntity
  8
2
  100
AcDbDimension
  2
*D108
  10
36.2
  20
1.165
  30
0
  11
36.2
  21
-1.165
  31
0
  70
160
  1
%%c<>
  71
5
  3
STANDARD
  42
2.33
  100
AcDbAlignedDimension
  13
34.2
  23
-1.165
  33
0
  14
34.2
  24
1.165
  34
0
  50
-90
  100
AcDbRotatedDimension
  0
DIMENSION
  5
122
  100
AcDbEntity
  8
2
  100
AcDbDimension
  2
*D116
  10
28.867925
  20
7
  30
0
  11
34.984884
  21
7
  31
0
  70
160
  1
<>
  71
5
  3
STANDARD
  42
2.85
  100
AcDbAlignedDimension
  13
36.2
  23
1.165
  33
0
  14
33.35
  24
1.165
  34
0
  50
0
  100
AcDbRotatedDimension
  0
DIMENSION
  5
130
  100
AcDbEntity
  8
2
  100
AcDbDimension
  2
*D124
  10
25.2
  20
8.175
  30
0
  11
31.65
  21
8.175
  31
0
  70
160
  1
<>
  71
5
  3
STANDARD
  42
12.9
  100
AcDbAlignedDimension
  13
38.1
  23
-15.175
  33
0
  14
25.2
  24
3.175
  34
0
  50
0
  100
AcDbRotatedDimension
  0
DIMENSION
  5
13e
  100
AcDbEntity
  8
2
  100
AcDbDimension
  2
*D132
  10
38.1
  20
-13.175
  30
0
  11
37.15
  21
-13.175
  31
0
  70
160
  1
<>
  71
5
  3
STANDARD
  42
1.9
  100
AcDbAlignedDimension
  13
36.2
  23
-1.165
  33
0
  14
38.1
  24
20.175
  34
0
  50
0
  100
AcDbRotatedDimension
  0
ARC
  5
36
  100
AcDbEntity
  8
1
  100
AcDbCircle
  10
33.437156
  20
-2.161195
  30
0
  40
1
  100
AcDbArc
  50
95
  51
105
  0
LINE
  5
37
  100
AcDbEntity
  8
1
  100
AcDbLine
  10
33.35
  20
-1.165
  30
0
  11
36.2
  21
-1.165
  31
0
  0
LINE
  5
38
  100
AcDbEntity
  8
1
  100
AcDbLine
  10
36.2
  20
-1.165
  30
0
  11
36.2
  21
-1.1905
  31
0
  0
LINE
  5
39
  100
AcDbEntity
  8
1
  100
AcDbLine
  10
36.2
  20
-1.1905
  30
0
  11
36.9095
  21
-1.1905
  31
0
  0
ARC
  5
3a
  100
AcDbEntity
  8
1
  100
AcDbCircle
  10
36.9095
  20
0
  30
0
  40
1.1905
  100
AcDbArc
  50
270
  51
0
  0
ARC
  5
3b
  100
AcDbEntity
  8
1
  100
AcDbCircle
  10
36.9095
  20
0
  30
0
  40
1.1905
  100
AcDbArc
  50
0
  51
90
  0
LINE
  5
3c
  100
AcDbEntity
  8
1
  100
AcDbLine
  10
36.9095
  20
1.1905
  30
0
  11
36.2
  21
1.1905
  31
0
  0
LINE
  5
3d
  100
AcDbEntity
  8
1
  100
AcDbLine
  10
36.2
  20
1.1905
  30
0
  11
36.2
  21
1.165
  31
0
  0
LINE
  5
3e
  100
AcDbEntity
  8
1
  100
AcDbLine
  10
36.2
  20
1.165
  30
0
  11
33.35
  21
1.165
  31
0
  0
ARC
  5
3f
  100
AcDbEntity
  8
1
  100
AcDbCircle
  10
33.437156
  20
2.161195
  30
0
  40
1
  100
AcDbArc
  50
255
  51
265
  0
LINE
  5
40
  100
AcDbEntity
  8
1
  100
AcDbLine
  10
33.178337
  20
1.195269
  30
0
  11
25.78988
  21
3.175
  31
0
  0
LINE
  5
41
  100
AcDbEntity
  8
1
  100
AcDbLine
  10
25.78988
  20
3.175
  30
0
  11
25.2
  21
3.175
  31
0
  0
LINE
  5
42
  100
AcDbEntity
  8
1
  100
AcDbLine
  10
25.2
  20
3.175
  30
0
  11
25.2
  21
-3.175
  31
0
  0
LINE
  5
43
  100
AcDbEntity
  8
1
  100
AcDbLine
  10
25.2
  20
-3.175
  30
0
  11
25.78988
  21
-3.175
  31
0
  0
LINE
  5
44
  100
AcDbEntity
  8
1
  100
AcDbLine
  10
25.78988
  20
-3.175
  30
0
  11
33.178337
  21
-1.195269
  31
0
  0
LINE
  5
45
  100
AcDbEntity
  8
1
  100
AcDbLine
  10
37.9
  20
-0.341991
  30
0
  11
37.9
  21
0.660454
  31
0
  0
LINE
  5
46
  100
AcDbEntity
  8
1
  100
AcDbLine
  10
37.9
  20
0.660454
  30
0
  11
37.9
  21
-0.341991
  31
0
  0
LINE
  5
47
  100
AcDbEntity
  8
1
  100
AcDbLine
  10
37.9
  20
-0.341991
  30
0
  11
37.8
  21
-0.552675
  31
0
  0
LINE
  5
48
  100
AcDbEntity
  8
1
  100
AcDbLine
  10
37.8
  20
-0.552675
  30
0
  11
37.7
  21
-0.672397
  31
0
  0
LINE
  5
49
  100
AcDbEntity
  8
1
  100
AcDbLine
  10
37.7
  20
-0.672397
  30
0
  11
37.6
  21
-0.752763
  31
0
  0
LINE
  5
4a
  100
AcDbEntity
  8
1
  100
AcDbLine
  10
37.6
  20
-0.752763
  30
0
  11
37.5
  21
-0.807624
  31
0
  0
LINE
  5
4b
  100
AcDbEntity
  8
1
  100
AcDbLine
  10
37.5
  20
-0.807624
  30
0
  11
37.4
  21
-0.843133
  31
0
  0
LINE
  5
4c
  100
AcDbEntity
  8
1
  100
AcDbLine
  10
37.4
  20
-0.843133
  30
0
  11
37.3
  21
-0.862643
  31
0
  0
LINE
  5
4d
  100
AcDbEntity
  8
1
  100
AcDbLine
  10
37.3
  20
-0.862643
  30
0
  11
37.2
  21
-0.868213
  31
0
  0
LINE
  5
4e
  100
AcDbEntity
  8
1
  100
AcDbLine
  10
37.2
  20
-0.868213
  30
0
  11
37.1
  21
-0.861204
  31
0
  0
LINE
  5
4f
  100
AcDbEntity
  8
1
  100
AcDbLine
  10
37.1
  20
-0.861204
  30
0
  11
37
  21
-0.842555
  31
0
  0
LINE
  5
50
  100
AcDbEntity
  8
1
  100
AcDbLine
  10
37
  20
-0.842555
  30
0
  11
36.9
  21
-0.812972
  31
0
  0
LINE
  5
51
  100
AcDbEntity
  8
1
  100
AcDbLine
  10
36.9
  20
-0.812972
  30
0
  11
36.8
  21
-0.778292
  31
0
  0
LINE
  5
52
  100
AcDbEntity
  8
1
  100
AcDbLine
  10
36.8
  20
-0.778292
  30
0
  11
36.7
  21
-0.742418
  31
0
  0
LINE
  5
53
  100
AcDbEntity
  8
1
  100
AcDbLine
  10
36.7
  20
-0.742418
  30
0
  11
36.6
  21
-0.705406
  31
0
  0
LINE
  5
54
  100
AcDbEntity
  8
1
  100
AcDbLine
  10
36.6
  20
-0.705406
  30
0
  11
36.5
  21
-0.667311
  31
0
  0
LINE
  5
55
  100
AcDbEntity
  8
1
  100
AcDbLine
  10
36.5
  20
-0.667311
  30
0
  11
36.4
  21
-0.628192
  31
0
  0
LINE
  5
56
  100
AcDbEntity
  8
1
  100
AcDbLine
  10
36.4
  20
-0.628192
  30
0
  11
36.3
  21
-0.58811
  31
0
  0
LINE
  5
57
  100
AcDbEntity
  8
1
  100
AcDbLine
  10
36.3
  20
-0.58811
  30
0
  11
36.2
  21
-0.547126
  31
0
  0
LINE
  5
58
  100
AcDbEntity
  8
1
  100
AcDbLine
  10
36.2
  20
-0.547126
  30
0
  11
36.2
  21
-0.52224
  31
0
  0
LINE
  5
59
  100
AcDbEntity
  8
1
  100
AcDbLine
  10
36.2
  20
-0.75972
  30
0
  11
36.2
  21
-0.781132
  31
0
  0
LINE
  5
5a
  100
AcDbEntity
  8
1
  100
AcDbLine
  10
36.2
  20
-0.781132
  30
0
  11
36.3
  21
-0.814941
  31
0
  0
LINE
  5
5b
  100
AcDbEntity
  8
1
  100
AcDbLine
  10
36.3
  20
-0.814941
  30
0
  11
36.4
  21
-0.8475
  31
0
  0
LINE
  5
5c
  100
AcDbEntity
  8
1
  100
AcDbLine
  10
36.4
  20
-0.8475
  30
0
  11
36.5
  21
-0.878759
  31
0
  0
LINE
  5
5d
  100
AcDbEntity
  8
1
  100
AcDbLine
  10
36.5
  20
-0.878759
  30
0
  11
36.6
  21
-0.90867
  31
0
  0
LINE
  5
5e
  100
AcDbEntity
  8
1
  100
AcDbLine
  10
36.6
  20
-0.90867
  30
0
  11
36.7
  21
-0.937186
  31
0
  0
LINE
  5
5f
  100
AcDbEntity
  8
1
  100
AcDbLine
  10
36.7
  20
-0.937186
  30
0
  11
36.8
  21
-0.964266
  31
0
  0
LINE
  5
60
  100
AcDbEntity
  8
1
  100
AcDbLine
  10
36.8
  20
-0.964266
  30
0
  11
36.9
  21
-0.989866
  31
0
  0
LINE
  5
61
  100
AcDbEntity
  8
1
  100
AcDbLine
  10
36.9
  20
-0.989866
  30
0
  11
37
  21
-1.010575
  31
0
  0
LINE
  5
62
  100
AcDbEntity
  8
1
  100
AcDbLine
  10
37
  20
-1.010575
  30
0
  11
37.1
  21
-1.021285
  31
0
  0
LINE
  5
63
  100
AcDbEntity
  8
1
  100
AcDbLine
  10
37.1
  20
-1.021285
  30
0
  11
37.2
  21
-1.021428
  31
0
  0
LINE
  5
64
  100
AcDbEntity
  8
1
  100
AcDbLine
  10
37.2
  20
-1.021428
  30
0
  11
37.3
  21
-1.010308
  31
0
  0
LINE
  5
65
  100
AcDbEntity
  8
1
  100
AcDbLine
  10
37.3
  20
-1.010308
  30
0
  11
37.4
  21
-0.987002
  31
0
  0
LINE
  5
66
  100
AcDbEntity
  8
1
  100
AcDbLine
  10
37.4
  20
-0.987002
  30
0
  11
37.5
  21
-0.950222
  31
0
  0
LINE
  5
67
  100
AcDbEntity
  8
1
  100
AcDbLine
  10
37.5
  20
-0.950222
  30
0
  11
37.6
  21
-0.898089
  31
0
  0
LINE
  5
68
  100
AcDbEntity
  8
1
  100
AcDbLine
  10
37.6
  20
-0.898089
  30
0
  11
37.7
  21
-0.827636
  31
0
  0
LINE
  5
69
  100
AcDbEntity
  8
1
  100
AcDbLine
  10
37.7
  20
-0.827636
  30
0
  11
37.8
  21
-0.735926
  31
0
  0
LINE
  5
6a
  100
AcDbEntity
  8
1
  100
AcDbLine
  10
37.8
  20
-0.735926
  30
0
  11
37.9
  21
-0.629559
  31
0
  0
LINE
  5
6b
  100
AcDbEntity
  8
1
  100
AcDbLine
  10
37.9
  20
-0.658705
  30
0
  11
37.9
  21
-0.660454
  31
0
  0
LINE
  5
6c
  100
AcDbEntity
  8
1
  100
AcDbLine
  10
37.9
  20
-0.660454
  30
0
  11
37.9
  21
-0.658705
  31
0
  0
LINE
  5
6d
  100
AcDbEntity
  8
1
  100
AcDbLine
  10
37.9
  20
-0.658705
  30
0
  11
37.8
  21
-0.777301
  31
0
  0
LINE
  5
6e
  100
AcDbEntity
  8
1
  100
AcDbLine
  10
37.8
  20
-0.777301
  30
0
  11
37.7
  21
-0.871661
  31
0
  0
LINE
  5
6f
  100
AcDbEntity
  8
1
  100
AcDbLine
  10
37.7
  20
-0.871661
  30
0
  11
37.6
  21
-0.944716
  31
0
  0
LINE
  5
70
  100
AcDbEntity
  8
1
  100
AcDbLine
  10
37.6
  20
-0.944716
  30
0
  11
37.5
  21
-0.999948
  31
0
  0
LINE
  5
71
  100
AcDbEntity
  8
1
  100
AcDbLine
  10
37.5
  20
-0.999948
  30
0
  11
37.4
  21
-1.040113
  31
0
  0
LINE
  5
72
  100
AcDbEntity
  8
1
  100
AcDbLine
  10
37.4
  20
-1.040113
  30
0
  11
37.3
  21
-1.066978
  31
0
  0
LINE
  5
73
  100
AcDbEntity
  8
1
  100
AcDbLine
  10
37.3
  20
-1.066978
  30
0
  11
37.2
  21
-1.081759
  31
0
  0
LINE
  5
74
  100
AcDbEntity
  8
1
  100
AcDbLine
  10
37.2
  20
-1.081759
  30
0
  11
37.1
  21
-1.085334
  31
0
  0
LINE
  5
75
  100
AcDbEntity
  8
1
  100
AcDbLine
  10
37.1
  20
-1.085334
  30
0
  11
37
  21
-1.078364
  31
0
  0
LINE
  5
76
  100
AcDbEntity
  8
1
  100
AcDbLine
  10
37
  20
-1.078364
  30
0
  11
36.9
  21
-1.061397
  31
0
  0
LINE
  5
77
  100
AcDbEntity
  8
1
  100
AcDbLine
  10
36.9
  20
-1.061397
  30
0
  11
36.8
  21
-1.039468
  31
0
  0
LINE
  5
78
  100
AcDbEntity
  8
1
  100
AcDbLine
  10
36.8
  20
-1.039468
  30
0
  11
36.7
  21
-1.015945
  31
0
  0
LINE
  5
79
  100
AcDbEntity
  8
1
  100
AcDbLine
  10
36.7
  20
-1.015945
  30
0
  11
36.6
  21
-0.990864
  31
0
  0
LINE
  5
7a
  100
AcDbEntity
  8
1
  100
AcDbLine
  10
36.6
  20
-0.990864
  30
0
  11
36.5
  21
-0.964263
  31
0
  0
LINE
  5
7b
  100
AcDbEntity
  8
1
  100
AcDbLine
  10
36.5
  20
-0.964263
  30
0
  11
36.4
  21
-0.936182
  31
0
  0
LINE
  5
7c
  100
AcDbEntity
  8
1
  100
AcDbLine
  10
36.4
  20
-0.936182
  30
0
  11
36.3
  21
-0.906665
  31
0
  0
LINE
  5
7d
  100
AcDbEntity
  8
1
  100
AcDbLine
  10
36.3
  20
-0.906665
  30
0
  11
36.2
  21
-0.875758
  31
0
  0
LINE
  5
7e
  100
AcDbEntity
  8
1
  100
AcDbLine
  10
36.2
  20
-0.875758
  30
0
  11
36.2
  21
-0.854567
  31
0
  0
LINE
  5
7f
  100
AcDbEntity
  8
1
  100
AcDbLine
  10
36.2
  20
-1.165
  30
0
  11
36.2
  21
1.165
  31
0
  0
LINE
  5
80
  100
AcDbEntity
  8
1
  100
AcDbLine
  10
36.2
  20
1.1905
  30
0
  11
36.2
  21
-1.1905
  31
0
  0
LINE
  5
81
  100
AcDbEntity
  8
1
  100
AcDbLine
  10
36.9095
  20
1.1905
  30
0
  11
36.9095
  21
-1.1905
  31
0
  0
LINE
  5
82
  100
AcDbEntity
  8
1
  100
AcDbLine
  10
33.35
  20
1.165
  30
0
  11
33.35
  21
-1.165
  31
0
  0
LINE
  5
83
  100
AcDbEntity
  8
1
  100
AcDbLine
  10
33.178337
  20
1.195269
  30
0
  11
33.178337
  21
-1.195269
  31
0
  0
LINE
  5
84
  100
AcDbEntity
  8
1
  100
AcDbLine
  10
25.78988
  20
3.175
  30
0
  11
25.78988
  21
-3.175
  31
0
  0
LINE
  5
85
  100
AcDbEntity
  8
1
  100
AcDbLine
  10
25.2
  20
3.175
  30
0
  11
25.2
  21
-3.175
  31
0
  0
LINE
  5
86
  100
AcDbEntity
  8
1
  100
AcDbLine
  10
25.2
  20
-3.175
  30
0
  11
25.2
  21
3.175
  31
0
  0
LINE
  5
87
  100
AcDbEntity
  8
SK1
  100
AcDbLine
  10
25.2
  20
3.175
  30
0
  11
0.7
  21
3.175
  31
0
  0
LINE
  5
88
  100
AcDbEntity
  8
SK1
  100
AcDbLine
  10
0.7
  20
3.175
  30
0
  11
0
  21
2.475
  31
0
  0
LINE
  5
89
  100
AcDbEntity
  8
SK1
  100
AcDbLine
  10
25.2
  20
-3.175
  30
0
  11
0.7
  21
-3.175
  31
0
  0
LINE
  5
8a
  100
AcDbEntity
  8
SK1
  100
AcDbLine
  10
0.7
  20
-3.175
  30
0
  11
0
  21
-2.475
  31
0
  0
LINE
  5
8b
  100
AcDbEntity
  8
SK1
  100
AcDbLine
  10
0.7
  20
3.175
  30
0
  11
0.7
  21
-3.175
  31
0
  0
LINE
  5
8c
  100
AcDbEntity
  8
SK1
  100
AcDbLine
  10
0
  20
2.475
  30
0
  11
0
  21
-2.475
  31
0
  0
LINE
  5
8d
  100
AcDbEntity
  8
SK1
  100
AcDbLine
  10
26.2401
  20
1.40688
  30
0
  11
26.6069
  21
1.0401
  31
0
  0
LINE
  5
8e
  100
AcDbEntity
  8
SK1
  100
AcDbLine
  10
25.7328
  20
1.66666
  30
0
  11
26.8667
  21
0.532833
  31
0
  0
LINE
  5
8f
  100
AcDbEntity
  8
SK1
  100
AcDbLine
  10
25.4154
  20
1.73657
  30
0
  11
26.9366
  21
0.215434
  31
0
  0
LINE
  5
90
  100
AcDbEntity
  8
SK1
  100
AcDbLine
  10
25.2
  20
1.70452
  30
0
  11
26.9045
  21
0
  31
0
  0
LINE
  5
91
  100
AcDbEntity
  8
SK1
  100
AcDbLine
  10
25.2
  20
1.45703
  30
0
  11
26.657
  21
0
  31
0
  0
LINE
  5
92
  100
AcDbEntity
  8
SK1
  100
AcDbLine
  10
25.2
  20
1.20954
  30
0
  11
26.4095
  21
0
  31
0
  0
LINE
  5
93
  100
AcDbEntity
  8
SK1
  100
AcDbLine
  10
25.2
  20
0.962054
  30
0
  11
26.1621
  21
0
  31
0
  0
LINE
  5
94
  100
AcDbEntity
  8
SK1
  100
AcDbLine
  10
25.2
  20
0.714566
  30
0
  11
25.9146
  21
0
  31
0
  0
LINE
  5
95
  100
AcDbEntity
  8
SK1
  100
AcDbLine
  10
25.2
  20
0.467079
  30
0
  11
25.6671
  21
0
  31
0
  0
LINE
  5
96
  100
AcDbEntity
  8
SK1
  100
AcDbLine
  10
25.2
  20
0.219592
  30
0
  11
25.4196
  21
0
  31
0
  0
LINE
  5
97
  100
AcDbEntity
  8
SK1
  100
AcDbLine
  10
25.2
  20
1.70452
  30
0
  11
25.2441
  21
1.74861
  31
0
  0
LINE
  5
98
  100
AcDbEntity
  8
SK1
  100
AcDbLine
  10
25.2
  20
1.45703
  30
0
  11
25.471
  21
1.72802
  31
0
  0
LINE
  5
99
  100
AcDbEntity
  8
SK1
  100
AcDbLine
  10
25.2
  20
1.20954
  30
0
  11
25.6742
  21
1.6837
  31
0
  0
LINE
  5
9a
  100
AcDbEntity
  8
SK1
  100
AcDbLine
  10
25.2
  20
0.962054
  30
0
  11
25.8588
  21
1.62082
  31
0
  0
LINE
  5
9b
  100
AcDbEntity
  8
SK1
  100
AcDbLine
  10
25.2
  20
0.714566
  30
0
  11
26.0271
  21
1.54167
  31
0
  0
LINE
  5
9c
  100
AcDbEntity
  8
SK1
  100
AcDbLine
  10
25.2
  20
0.467079
  30
0
  11
26.181
  21
1.44812
  31
0
  0
LINE
  5
9d
  100
AcDbEntity
  8
SK1
  100
AcDbLine
  10
25.2
  20
0.219592
  30
0
  11
26.3226
  21
1.34216
  31
0
  0
LINE
  5
9e
  100
AcDbEntity
  8
SK1
  100
AcDbLine
  10
25.2279
  20
0
  30
0
  11
26.4508
  21
1.22288
  31
0
  0
LINE
  5
9f
  100
AcDbEntity
  8
SK1
  100
AcDbLine
  10
25.4754
  20
0
  30
0
  11
26.567
  21
1.09157
  31
0
  0
LINE
  5
a0
  100
AcDbEntity
  8
SK1
  100
AcDbLine
  10
25.7229
  20
0
  30
0
  11
26.6707
  21
0.947822
  31
0
  0
LINE
  5
a1
  100
AcDbEntity
  8
SK1
  100
AcDbLine
  10
25.9704
  20
0
  30
0
  11
26.7605
  21
0.790145
  31
0
  0
LINE
  5
a2
  100
AcDbEntity
  8
SK1
  100
AcDbLine
  10
26.2178
  20
0
  30
0
  11
26.8364
  21
0.618517
  31
0
  0
LINE
  5
a3
  100
AcDbEntity
  8
SK1
  100
AcDbLine
  10
26.4653
  20
0
  30
0
  11
26.896
  21
0.430696
  31
0
  0
LINE
  5
a4
  100
AcDbEntity
  8
SK1
  100
AcDbLine
  10
26.7128
  20
0
  30
0
  11
26.9356
  21
0.222827
  31
0
  0
LINE
  5
a5
  100
AcDbEntity
  8
SK1
  100
AcDbLine
  10
25.2
  20
0
  30
0
  11
25.2
  21
1.75
  31
0
  0
LINE
  5
a6
  100
AcDbEntity
  8
SK1
  100
AcDbLine
  10
25.2
  20
0
  30
0
  11
26.95
  21
0
  31
0
  0
ARC
  5
a7
  100
AcDbEntity
  8
SK1
  100
AcDbCircle
  10
25.2
  20
0
  30
0
  40
1.75
  100
AcDbArc
  50
0
  51
90
  0
ARC
  5
a8
  100
AcDbEntity
  8
SK1
  100
AcDbCircle
  10
25.2
  20
0
  30
0
  40
1.75
  100
AcDbArc
  50
90
  51
180
  0
LINE
  5
a9
  100
AcDbEntity
  8
SK1
  100
AcDbLine
  10
25.1721
  20
0
  30
0
  11
25.2
  21
-0.027896
  31
0
  0
LINE
  5
aa
  100
AcDbEntity
  8
SK1
  100
AcDbLine
  10
24.9246
  20
0
  30
0
  11
25.2
  21
-0.275383
  31
0
  0
LINE
  5
ab
  100
AcDbEntity
  8
SK1
  100
AcDbLine
  10
24.6771
  20
0
  30
0
  11
25.2
  21
-0.522871
  31
0
  0
LINE
  5
ac
  100
AcDbEntity
  8
SK1
  100
AcDbLine
  10
24.4296
  20
0
  30
0
  11
25.2
  21
-0.770358
  31
0
  0
LINE
  5
ad
  100
AcDbEntity
  8
SK1
  100
AcDbLine
  10
24.1822
  20
0
  30
0
  11
25.2
  21
-1.01785
  31
0
  0
LINE
  5
ae
  100
AcDbEntity
  8
SK1
  100
AcDbLine
  10
23.9347
  20
0
  30
0
  11
25.2
  21
-1.26533
  31
0
  0
LINE
  5
af
  100
AcDbEntity
  8
SK1
  100
AcDbLine
  10
23.6872
  20
0
  30
0
  11
25.2
  21
-1.51282
  31
0
  0
LINE
  5
b0
  100
AcDbEntity
  8
SK1
  100
AcDbLine
  10
23.4503
  20
-0.010642
  30
0
  11
25.1894
  21
-1.74967
  31
0
  0
LINE
  5
b1
  100
AcDbEntity
  8
SK1
  100
AcDbLine
  10
23.4736
  20
-0.281429
  30
0
  11
24.9186
  21
-1.72637
  31
0
  0
LINE
  5
b2
  100
AcDbEntity
  8
SK1
  100
AcDbLine
  10
23.5639
  20
-0.619147
  30
0
  11
24.5809
  21
-1.63613
  31
0
  0
LINE
  5
b3
  100
AcDbEntity
  8
SK1
  100
AcDbLine
  10
23.4514
  20
-0.044098
  30
0
  11
23.4955
  21
0
  31
0
  0
LINE
  5
b4
  100
AcDbEntity
  8
SK1
  100
AcDbLine
  10
23.472
  20
-0.270991
  30
0
  11
23.743
  21
0
  31
0
  0
LINE
  5
b5
  100
AcDbEntity
  8
SK1
  100
AcDbLine
  10
23.5163
  20
-0.474162
  30
0
  11
23.9905
  21
0
  31
0
  0
LINE
  5
b6
  100
AcDbEntity
  8
SK1
  100
AcDbLine
  10
23.5792
  20
-0.658762
  30
0
  11
24.2379
  21
0
  31
0
  0
LINE
  5
b7
  100
AcDbEntity
  8
SK1
  100
AcDbLine
  10
23.6583
  20
-0.827105
  30
0
  11
24.4854
  21
0
  31
0
  0
LINE
  5
b8
  100
AcDbEntity
  8
SK1
  100
AcDbLine
  10
23.7519
  20
-0.981039
  30
0
  11
24.7329
  21
0
  31
0
  0
LINE
  5
b9
  100
AcDbEntity
  8
SK1
  100
AcDbLine
  10
23.8578
  20
-1.12257
  30
0
  11
24.9804
  21
0
  31
0
  0
LINE
  5
ba
  100
AcDbEntity
  8
SK1
  100
AcDbLine
  10
23.9771
  20
-1.25077
  30
0
  11
25.2
  21
-0.027896
  31
0
  0
LINE
  5
bb
  100
AcDbEntity
  8
SK1
  100
AcDbLine
  10
24.1084
  20
-1.36695
  30
0
  11
25.2
  21
-0.275383
  31
0
  0
LINE
  5
bc
  100
AcDbEntity
  8
SK1
  100
AcDbLine
  10
24.2522
  20
-1.47069
  30
0
  11
25.2
  21
-0.522871
  31
0
  0
LINE
  5
bd
  100
AcDbEntity
  8
SK1
  100
AcDbLine
  10
24.4099
  20
-1.5605
  30
0
  11
25.2
  21
-0.770358
  31
0
  0
LINE
  5
be
  100
AcDbEntity
  8
SK1
  100
AcDbLine
  10
24.5815
  20
-1.63636
  30
0
  11
25.2
  21
-1.01785
  31
0
  0
LINE
  5
bf
  100
AcDbEntity
  8
SK1
  100
AcDbLine
  10
24.7693
  20
-1.69603
  30
0
  11
25.2
  21
-1.26533
  31
0
  0
LINE
  5
c0
  100
AcDbEntity
  8
SK1
  100
AcDbLine
  10
24.9772
  20
-1.73565
  30
0
  11
25.2
  21
-1.51282
  31
0
  0
LINE
  5
c1
  100
AcDbEntity
  8
SK1
  100
AcDbLine
  10
25.2
  20
0
  30
0
  11
23.45
  21
0
  31
0
  0
LINE
  5
c2
  100
AcDbEntity
  8
SK1
  100
AcDbLine
  10
25.2
  20
-1.75
  30
0
  11
25.2
  21
0
  31
0
  0
ARC
  5
c3
  100
AcDbEntity
  8
SK1
  100
AcDbCircle
  10
25.2
  20
0
  30
0
  40
1.75
  100
AcDbArc
  50
180
  51
270
  0
ARC
  5
c4
  100
AcDbEntity
  8
SK1
  100
AcDbCircle
  10
25.2
  20
0
  30
0
  40
1.75
  100
AcDbArc
  50
270
  51
0
  0
LINE
  5
13f
  100
AcDbEntity
  8
NOCUT
  100
AcDbLine
  10
36.2
  20
0
  30
0
  11
36.2
  21
1.165
  31
0
  0
LINE
  5
140
  100
AcDbEntity
  8
NOCUT
  100
AcDbLine
  10
36.2
  20
1.165
  30
0
  11
33.35
  21
1.165
  31
0
  0
ARC
  5
141
  100
AcDbEntity
  8
NOCUT
  100
AcDbCircle
  10
33.437156
  20
2.161195
  30
0
  40
1
  100
AcDbArc
  50
255
  51
265
  0
LINE
  5
142
  100
AcDbEntity
  8
NOCUT
  100
AcDbLine
  10
33.178337
  20
1.195269
  30
0
  11
25.78988
  21
3.175
  31
0
  0
LINE
  5
143
  100
AcDbEntity
  8
NOCUT
  100
AcDbLine
  10
25.78988
  20
3.175
  30
0
  11
25.2
  21
3.175
  31
0
  0
LINE
  5
144
  100
AcDbEntity
  8
NOCUT
  100
AcDbLine
  10
25.2
  20
3.175
  30
0
  11
25.2
  21
0
  31
0
  0
LINE
  5
145
  100
AcDbEntity
  8
NOCUT
  100
AcDbLine
  10
25.2
  20
0
  30
0
  11
36.2
  21
0
  31
0
  0
ARC
  5
146
  100
AcDbEntity
  8
CUT
  100
AcDbCircle
  10
36.9095
  20
0
  30
0
  40
1.1905
  100
AcDbArc
  50
0
  51
90
  0
LINE
  5
147
  100
AcDbEntity
  8
CUT
  100
AcDbLine
  10
36.9095
  20
1.1905
  30
0
  11
36.2
  21
1.1905
  31
0
  0
LINE
  5
148
  100
AcDbEntity
  8
CUT
  100
AcDbLine
  10
36.2
  20
1.1905
  30
0
  11
36.2
  21
0
  31
0
  0
LINE
  5
149
  100
AcDbEntity
  8
CUT
  100
AcDbLine
  10
36.2
  20
0
  30
0
  11
38.1
  21
0
  31
0
  0
LINE
  5
14a
  100
AcDbEntity
  8
4
  100
AcDbLine
  10
25.2
  20
0
  30
0
  11
38.1
  21
0
  31
0
  0
LINE
  5
14b
  100
AcDbEntity
  8
SK4
  100
AcDbLine
  10
-1
  20
0
  30
0
  11
39.1
  21
0
  31
0
  0
LINE
  5
14c
  100
AcDbEntity
  8
INFTOTAL
  100
AcDbLine
  10
-15.105
  20
23.28
  30
0
  11
53.205
  21
23.28
  31
0
  0
LINE
  5
14d
  100
AcDbEntity
  8
INFTOTAL
  100
AcDbLine
  10
53.205
  20
23.28
  30
0
  11
53.205
  21
-18.28
  31
0
  0
LINE
  5
14e
  100
AcDbEntity
  8
INFTOTAL
  100
AcDbLine
  10
53.205
  20
-18.28
  30
0
  11
-15.105
  21
-18.28
  31
0
  0
LINE
  5
14f
  100
AcDbEntity
  8
INFTOTAL
  100
AcDbLine
  10
-15.105
  20
-18.28
  30
0
  11
-15.105
  21
23.28
  31
0
  0
ENDSEC
  0
SECTION
  2
OBJECTS
  0
DICTIONARY
  5
150
  330
0
100
AcDbDictionary
281
    1
  3
ACAD_GROUP
  350
151
  0
DICTIONARY
  5
151
102
{ACAD_REACTORS
  330
150
102
}
  330
150
100
AcDbDictionary
281
    1
  0
ENDSEC
  0
EOF
