  0
SECTION
  2
HEADER
  9
$ACADVER
  1
AC1015
  9
$DWGCODEPAGE
  3
ANSI_932
  9
$HANDSEED
  5
106AB90
  0
ENDSEC
  0
SECTION
  2
CLASSES
  0
CLASS
  1
IMAGEDEF
  2
AcDbRasterImageDef
  3
ISM
  90
0
  91
4
  280
0
  281
0
  0
CLASS
  1
IMAGE
  2
AcDbRasterImage
  3
ISM
  90
127
  91
5
  280
0
  281
1
  0
CLASS
  1
IMAGEDEF_REACTOR
  2
AcDbRasterImageDefReactor
  3
ISM
  90
1
  91
4
  280
0
  281
0
  0
ENDSEC
  0
SECTION
  2
TABLES
  0
TABLE
  2
VPORT
  5
2
  330
0
  100
AcDbSymbolTable
  70
    0
  0
ENDTAB
  0
TABLE
  2
LTYPE
  5
3
  330
0
  100
AcDbSymbolTable
  70
    4
  0
LTYPE
  5
4
  330
3
  100
AcDbSymbolTableRecord
  100
AcDbLinetypeTableRecord
  2
ByBlock
  70
    0
  3

  72
65
  73
    0
  40
0
  0
LTYPE
  5
5
  330
3
  100
AcDbSymbolTableRecord
  100
AcDbLinetypeTableRecord
  2
ByLayer
  70
    0
  3

  72
65
  73
    0
  40
0
  0
LTYPE
  5
6
  330
3
  100
AcDbSymbolTableRecord
  100
AcDbLinetypeTableRecord
  2
CONTINUOUS
  70
    0
  3
Solid Line
  72
65
  73
    0
  40
0
  0
LTYPE
  5
7
  330
3
  100
AcDbSymbolTableRecord
  100
AcDbLinetypeTableRecord
  2
DASH
  70
    0
  3
Hidden
  72
65
  73
2
  40
2.5
  49
1.5
  74
0
  49
-1
  74
0
  0
LTYPE
  5
8
  330
3
  100
AcDbSymbolTableRecord
  100
AcDbLinetypeTableRecord
  2
LONGDASHDASH
  70
    0
  3
__ . __
  72
65
  73
    4
  40
7
  49
4
  74
    0
  49
-1
  74
    0
  49
1
  74
    0
  49
-1
  74
    0
  0
ENDTAB
  0
TABLE
  2
LAYER
  5
9
  330
0
  100
AcDbSymbolTable
  70
    40
  0
LAYER
  5
a
  330
9
  100
AcDbSymbolTableRecord
  100
AcDbLayerTableRecord
  2
0
  70
    0
  62
    0
  6
CONTINUOUS
  390
0
  0
LAYER
  5
c
  330
9
  100
AcDbSymbolTableRecord
  100
AcDbLayerTableRecord
  2
1
  70
    0
  62
    4
  6
CONTINUOUS
  370
50
  390
0
  0
LAYER
  5
d
  330
9
  100
AcDbSymbolTableRecord
  100
AcDbLayerTableRecord
  2
2
  70
    0
  62
    7
  6
CONTINUOUS
  370
25
  390
0
  0
LAYER
  5
f
  330
9
  100
AcDbSymbolTableRecord
  100
AcDbLayerTableRecord
  2
4
  70
    0
  62
    2
  6
LONGDASHDASH
  370
25
  390
0
  0
LAYER
  5
13
  330
9
  100
AcDbSymbolTableRecord
  100
AcDbLayerTableRecord
  2
SK1
  70
    0
  62
    4
  6
CONTINUOUS
  370
50
  390
0
  0
LAYER
  5
14
  330
9
  100
AcDbSymbolTableRecord
  100
AcDbLayerTableRecord
  2
SK2
  70
    0
  62
    7
  6
CONTINUOUS
  370
25
  390
0
  0
LAYER
  5
16
  330
9
  100
AcDbSymbolTableRecord
  100
AcDbLayerTableRecord
  2
SK4
  70
    0
  62
    2
  6
LONGDASHDASH
  370
25
  390
0
  0
LAYER
  5
21
  330
9
  100
AcDbSymbolTableRecord
  100
AcDbLayerTableRecord
  2
NOCUT
  70
    0
  62
    7
  6
CONTINUOUS
  370
25
  390
0
  0
LAYER
  5
22
  330
9
  100
AcDbSymbolTableRecord
  100
AcDbLayerTableRecord
  2
CUT
  70
    0
  62
    1
  6
CONTINUOUS
  370
25
  390
0
  0
LAYER
  5
26
  330
9
  100
AcDbSymbolTableRecord
  100
AcDbLayerTableRecord
  2
INFTOTAL
  70
    0
  62
    9
  6
CONTINUOUS
  370
18
  390
0
  0
ENDTAB
  0
TABLE
  2
STYLE
  5
27
  330
0
  100
AcDbSymbolTable
  70
    1
  0
STYLE
  5
28
  330
27
  100
AcDbSymbolTableRecord
  100
AcDbTextStyleTableRecord
  2
Monospac821 BT
  70
    0
  40
    3.5
  41
1
  50
0
  71
0
  42
3
  3

  4

  1001
ACAD
  1000
Monospac821 BT
  1071
256
  0
ENDTAB
  0
TABLE
  2
VIEW
  5
29
  330
0
  100
AcDbSymbolTable
  70
    0
  0
ENDTAB
  0
TABLE
  2
UCS
  5
2a
  330
0
  100
AcDbSymbolTable
  70
    0
  0
ENDTAB
  0
TABLE
  2
APPID
  5
2b
  330
0
  100
AcDbSymbolTable
  70
    1
  0
APPID
  5
2c
  330
2b
  100
AcDbSymbolTableRecord
  100
AcDbRegAppTableRecord
  2
ACAD
  70
    0
  0
ENDTAB
  0
TABLE
  2
DIMSTYLE
  5
2d
  330
0
  100
AcDbSymbolTable
  70
    1
  100
AcDbDimStyleTable
  0
DIMSTYLE
  105
2e
  330
2d
  100
AcDbSymbolTableRecord
  100
AcDbDimStyleTableRecord
  2
STANDARD
  70
    0
  41
    3
  42
0.5
  44
1
  73
0
  77
1
  78
1
  140
3.5
  141
2.5
  143
0.03937
  147
0.8
  172
1
  174
1
  178
0
  179
1
  271
2
  279
1
  284
1
  340
28
  0
ENDTAB
  0
TABLE
  2
BLOCK_RECORD
  5
2f
  330
0
  100
AcDbSymbolTable
  70
    2
  0
BLOCK_RECORD
  5
30
  330
2f
  100
AcDbSymbolTableRecord
  100
AcDbBlockTableRecord
  2
*Model_Space
  0
BLOCK_RECORD
  5
31
  330
2f
  100
AcDbSymbolTableRecord
  100
AcDbBlockTableRecord
  2
*Paper_Space
  0
BLOCK_RECORD
  5
ca
  330
2f
  100
AcDbSymbolTableRecord
  100
AcDbBlockTableRecord
  2
*Dc9
  340
0
  0
BLOCK_RECORD
  5
d8
  330
2f
  100
AcDbSymbolTableRecord
  100
AcDbBlockTableRecord
  2
*Dd7
  340
0
  0
BLOCK_RECORD
  5
e6
  330
2f
  100
AcDbSymbolTableRecord
  100
AcDbBlockTableRecord
  2
*De5
  340
0
  0
BLOCK_RECORD
  5
f4
  330
2f
  100
AcDbSymbolTableRecord
  100
AcDbBlockTableRecord
  2
*Df3
  340
0
  0
BLOCK_RECORD
  5
102
  330
2f
  100
AcDbSymbolTableRecord
  100
AcDbBlockTableRecord
  2
*D101
  340
0
  0
BLOCK_RECORD
  5
10c
  330
2f
  100
AcDbSymbolTableRecord
  100
AcDbBlockTableRecord
  2
*D10b
  340
0
  0
BLOCK_RECORD
  5
11a
  330
2f
  100
AcDbSymbolTableRecord
  100
AcDbBlockTableRecord
  2
*D119
  340
0
  0
BLOCK_RECORD
  5
128
  330
2f
  100
AcDbSymbolTableRecord
  100
AcDbBlockTableRecord
  2
*D127
  340
0
  0
BLOCK_RECORD
  5
136
  330
2f
  100
AcDbSymbolTableRecord
  100
AcDbBlockTableRecord
  2
*D135
  340
0
  0
ENDTAB
  0
ENDSEC
  0
SECTION
  2
BLOCKS
  0
BLOCK
  5
32
  330
30
  100
AcDbEntity
  8
0
  100
AcDbBlockBegin
  2
*Model_Space
  70
    0
  10
0
  20
0
  30
0
  3
*Model_Space
  1

  0
ENDBLK
  5
33
  330
30
  100
AcDbEntity
  8
0
  100
AcDbBlockEnd
  0
BLOCK
  5
34
  330
31
  100
AcDbEntity
  8
0
  100
AcDbBlockBegin
  2
*Paper_Space
  70
    0
  10
0
  20
0
  30
0
  3
*Paper_Space
  1

  0
ENDBLK
  5
35
  330
31
  100
AcDbEntity
  8
0
  100
AcDbBlockEnd
  0
BLOCK
  5
c8
  330
ca
  100
AcDbEntity
  8
SK2
  100
AcDbBlockBegin
  2
*Dc9
  70
1
  10
0
  20
0
  30
0
  3
*Dc9
  1

  0
LINE
  5
cb
  330
ca
  100
AcDbEntity
  8
SK2
  100
AcDbLine
  10
0
  20
1.3
  30
0
  11
0
  21
19
  31
0
  0
LINE
  5
cc
  330
ca
  100
AcDbEntity
  8
SK2
  100
AcDbLine
  10
50
  20
-14
  30
0
  11
50
  21
19
  31
0
  0
LINE
  5
cd
  330
ca
  100
AcDbEntity
  8
SK2
  100
AcDbLine
  10
0
  20
17
  30
0
  11
50
  21
17
  31
0
  0
SOLID
  5
ce
  330
ca
  100
AcDbEntity
  8
SK2
  100
AcDbTrace
  10
0
  20
17
  30
0
  11
2.478612
  21
17.326315
  31
0
  12
2.478612
  22
16.673685
  32
0
  13
2.478612
  23
16.673685
  33
0
  0
SOLID
  5
cf
  330
ca
  100
AcDbEntity
  8
SK2
  100
AcDbTrace
  10
50
  20
17
  30
0
  11
47.521388
  21
16.673685
  31
0
  12
47.521388
  22
17.326315
  32
0
  13
47.521388
  23
17.326315
  33
0
  0
MTEXT
  5
d0
  330
ca
  100
AcDbEntity
  8
SK2
  100
AcDbMText
  10
25
  20
17
  30
0
  11
1
  21
0
  31
0
  40
2
  41
0
  71
8
  72
1
  1
50
  0
POINT
  5
d1
  330
ca
  100
AcDbEntity
  8
SK2
  62
0
  100
AcDbPoint
  10
0
  20
1.3
  30
0
  0
POINT
  5
d2
  330
ca
  100
AcDbEntity
  8
SK2
  62
0
  100
AcDbPoint
  10
50
  20
-14
  30
0
  0
POINT
  5
d3
  330
ca
  100
AcDbEntity
  8
SK2
  62
0
  100
AcDbPoint
  10
50
  20
17
  30
0
  0
ENDBLK
  5
d4
  330
ca
  100
AcDbEntity
  8
SK2
  100
AcDbBlockEnd
  0
BLOCK
  5
d6
  330
d8
  100
AcDbEntity
  8
SK2
  100
AcDbBlockBegin
  2
*Dd7
  70
1
  10
0
  20
0
  30
0
  3
*Dd7
  1

  0
LINE
  5
d9
  330
d8
  100
AcDbEntity
  8
SK2
  100
AcDbLine
  10
48.75
  20
-1.25
  30
0
  11
62
  21
-1.25
  31
0
  0
LINE
  5
da
  330
d8
  100
AcDbEntity
  8
SK2
  100
AcDbLine
  10
48.75
  20
1.25
  30
0
  11
62
  21
1.25
  31
0
  0
LINE
  5
db
  330
d8
  100
AcDbEntity
  8
SK2
  100
AcDbLine
  10
60
  20
-6.509434
  30
0
  11
60
  21
1.25
  31
0
  0
SOLID
  5
dc
  330
d8
  100
AcDbEntity
  8
SK2
  100
AcDbTrace
  10
60
  20
-1.25
  30
0
  11
59.673685
  21
1.228612
  31
0
  12
60.326315
  22
1.228612
  32
0
  13
60.326315
  23
1.228612
  33
0
  0
SOLID
  5
dd
  330
d8
  100
AcDbEntity
  8
SK2
  100
AcDbTrace
  10
60
  20
1.25
  30
0
  11
60.326315
  21
-1.228612
  31
0
  12
59.673685
  22
-1.228612
  32
0
  13
59.673685
  23
-1.228612
  33
0
  0
MTEXT
  5
de
  330
d8
  100
AcDbEntity
  8
SK2
  100
AcDbMText
  10
60
  20
0
  30
0
  11
0
  21
1
  31
0
  40
2
  41
0
  71
8
  72
1
  1
ﾘ2.5
  0
POINT
  5
df
  330
d8
  100
AcDbEntity
  8
SK2
  62
0
  100
AcDbPoint
  10
48.75
  20
-1.25
  30
0
  0
POINT
  5
e0
  330
d8
  100
AcDbEntity
  8
SK2
  62
0
  100
AcDbPoint
  10
48.75
  20
1.25
  30
0
  0
POINT
  5
e1
  330
d8
  100
AcDbEntity
  8
SK2
  62
0
  100
AcDbPoint
  10
60
  20
1.25
  30
0
  0
ENDBLK
  5
e2
  330
d8
  100
AcDbEntity
  8
SK2
  100
AcDbBlockEnd
  0
BLOCK
  5
e4
  330
e6
  100
AcDbEntity
  8
SK2
  100
AcDbBlockBegin
  2
*De5
  70
1
  10
0
  20
0
  30
0
  3
*De5
  1

  0
LINE
  5
e7
  330
e6
  100
AcDbEntity
  8
SK2
  100
AcDbLine
  10
41.8
  20
2
  30
0
  11
41.8
  21
14
  31
0
  0
LINE
  5
e8
  330
e6
  100
AcDbEntity
  8
SK2
  100
AcDbLine
  10
0
  20
1.3
  30
0
  11
0
  21
19
  31
0
  0
LINE
  5
e9
  330
e6
  100
AcDbEntity
  8
SK2
  100
AcDbLine
  10
41.8
  20
12
  30
0
  11
0
  21
12
  31
0
  0
SOLID
  5
ea
  330
e6
  100
AcDbEntity
  8
SK2
  100
AcDbTrace
  10
41.8
  20
12
  30
0
  11
44.278612
  21
12.326315
  31
0
  12
44.278612
  22
11.673685
  32
0
  13
44.278612
  23
11.673685
  33
0
  0
SOLID
  5
eb
  330
e6
  100
AcDbEntity
  8
SK2
  100
AcDbTrace
  10
0
  20
12
  30
0
  11
-2.478612
  21
11.673685
  31
0
  12
-2.478612
  22
12.326315
  32
0
  13
-2.478612
  23
12.326315
  33
0
  0
MTEXT
  5
ec
  330
e6
  100
AcDbEntity
  8
SK2
  100
AcDbMText
  10
20.9
  20
12
  30
0
  11
1
  21
-0
  31
0
  40
2
  41
0
  71
8
  72
1
  1
41.8
  0
POINT
  5
ed
  330
e6
  100
AcDbEntity
  8
SK2
  62
0
  100
AcDbPoint
  10
41.8
  20
2
  30
0
  0
POINT
  5
ee
  330
e6
  100
AcDbEntity
  8
SK2
  62
0
  100
AcDbPoint
  10
0
  20
1.3
  30
0
  0
POINT
  5
ef
  330
e6
  100
AcDbEntity
  8
SK2
  62
0
  100
AcDbPoint
  10
0
  20
12
  30
0
  0
ENDBLK
  5
f0
  330
e6
  100
AcDbEntity
  8
SK2
  100
AcDbBlockEnd
  0
BLOCK
  5
f2
  330
f4
  100
AcDbEntity
  8
SK2
  100
AcDbBlockBegin
  2
*Df3
  70
1
  10
0
  20
0
  30
0
  3
*Df3
  1

  0
LINE
  5
f5
  330
f4
  100
AcDbEntity
  8
SK2
  100
AcDbLine
  10
0.7
  20
-2
  30
0
  11
-12
  21
-2
  31
0
  0
LINE
  5
f6
  330
f4
  100
AcDbEntity
  8
SK2
  100
AcDbLine
  10
0.7
  20
2
  30
0
  11
-12
  21
2
  31
0
  0
LINE
  5
f7
  330
f4
  100
AcDbEntity
  8
SK2
  100
AcDbLine
  10
-10
  20
-3.962264
  30
0
  11
-10
  21
2
  31
0
  0
SOLID
  5
f8
  330
f4
  100
AcDbEntity
  8
SK2
  100
AcDbTrace
  10
-10
  20
-2
  30
0
  11
-10.326315
  21
0.478612
  31
0
  12
-9.673685
  22
0.478612
  32
0
  13
-9.673685
  23
0.478612
  33
0
  0
SOLID
  5
f9
  330
f4
  100
AcDbEntity
  8
SK2
  100
AcDbTrace
  10
-10
  20
2
  30
0
  11
-9.673685
  21
-0.478612
  31
0
  12
-10.326315
  22
-0.478612
  32
0
  13
-10.326315
  23
-0.478612
  33
0
  0
MTEXT
  5
fa
  330
f4
  100
AcDbEntity
  8
SK2
  100
AcDbMText
  10
-10
  20
0
  30
0
  11
0
  21
1
  31
0
  40
2
  41
0
  71
8
  72
1
  1
ﾘ4
  0
POINT
  5
fb
  330
f4
  100
AcDbEntity
  8
SK2
  62
0
  100
AcDbPoint
  10
0.7
  20
-2
  30
0
  0
POINT
  5
fc
  330
f4
  100
AcDbEntity
  8
SK2
  62
0
  100
AcDbPoint
  10
0.7
  20
2
  30
0
  0
POINT
  5
fd
  330
f4
  100
AcDbEntity
  8
SK2
  62
0
  100
AcDbPoint
  10
-10
  20
2
  30
0
  0
ENDBLK
  5
fe
  330
f4
  100
AcDbEntity
  8
SK2
  100
AcDbBlockEnd
  0
BLOCK
  5
100
  330
102
  100
AcDbEntity
  8
2
  100
AcDbBlockBegin
  2
*D101
  70
1
  10
0
  20
0
  30
0
  3
*D101
  1

  0
LINE
  5
103
  330
102
  100
AcDbEntity
  8
2
  100
AcDbLine
  10
49.633883
  20
0.883883
  30
0
  11
39.692846
  21
10.824921
  31
0
  0
MTEXT
  5
104
  330
102
  100
AcDbEntity
  8
2
  100
AcDbMText
  10
42.562816
  20
7.954951
  30
0
  11
0.707107
  21
-0.707107
  31
0
  40
2
  41
0
  71
8
  72
1
  1
R1.25
  0
SOLID
  5
105
  330
102
  100
AcDbEntity
  8
2
  100
AcDbTrace
  10
49.633883
  20
0.883883
  30
0
  11
47.6505
  21
2.405787
  31
0
  12
48.11198
  22
2.867267
  32
0
  13
48.11198
  23
2.867267
  33
0
  0
POINT
  5
106
  330
102
  100
AcDbEntity
  8
2
  62
0
  100
AcDbPoint
  10
49.633883
  20
0.883883
  30
0
  0
POINT
  5
107
  330
102
  100
AcDbEntity
  8
2
  62
0
  100
AcDbPoint
  10
48.75
  20
0
  30
0
  0
ENDBLK
  5
108
  330
102
  100
AcDbEntity
  8
2
  100
AcDbBlockEnd
  0
BLOCK
  5
10a
  330
10c
  100
AcDbEntity
  8
2
  100
AcDbBlockBegin
  2
*D10b
  70
1
  10
0
  20
0
  30
0
  3
*D10b
  1

  0
LINE
  5
10d
  330
10c
  100
AcDbEntity
  8
2
  100
AcDbLine
  10
48
  20
-1.175
  30
0
  11
46
  21
-1.175
  31
0
  0
LINE
  5
10e
  330
10c
  100
AcDbEntity
  8
2
  100
AcDbLine
  10
48
  20
1.175
  30
0
  11
46
  21
1.175
  31
0
  0
LINE
  5
10f
  330
10c
  100
AcDbEntity
  8
2
  100
AcDbLine
  10
48
  20
-9.622642
  30
0
  11
48
  21
1.175
  31
0
  0
SOLID
  5
110
  330
10c
  100
AcDbEntity
  8
2
  100
AcDbTrace
  10
48
  20
-1.175
  30
0
  11
47.673685
  21
1.303612
  31
0
  12
48.326315
  22
1.303612
  32
0
  13
48.326315
  23
1.303612
  33
0
  0
SOLID
  5
111
  330
10c
  100
AcDbEntity
  8
2
  100
AcDbTrace
  10
48
  20
1.175
  30
0
  11
48.326315
  21
-1.303612
  31
0
  12
47.673685
  22
-1.303612
  32
0
  13
47.673685
  23
-1.303612
  33
0
  0
MTEXT
  5
112
  330
10c
  100
AcDbEntity
  8
2
  100
AcDbMText
  10
48
  20
-1.175
  30
0
  11
0
  21
1
  31
0
  40
2
  41
0
  71
8
  72
1
  1
ﾘ2.35
  0
POINT
  5
113
  330
10c
  100
AcDbEntity
  8
2
  62
0
  100
AcDbPoint
  10
46
  20
-1.175
  30
0
  0
POINT
  5
114
  330
10c
  100
AcDbEntity
  8
2
  62
0
  100
AcDbPoint
  10
46
  20
1.175
  30
0
  0
POINT
  5
115
  330
10c
  100
AcDbEntity
  8
2
  62
0
  100
AcDbPoint
  10
48
  20
1.175
  30
0
  0
ENDBLK
  5
116
  330
10c
  100
AcDbEntity
  8
2
  100
AcDbBlockEnd
  0
BLOCK
  5
118
  330
11a
  100
AcDbEntity
  8
2
  100
AcDbBlockBegin
  2
*D119
  70
1
  10
0
  20
0
  30
0
  3
*D119
  1

  0
LINE
  5
11b
  330
11a
  100
AcDbEntity
  8
2
  100
AcDbLine
  10
48
  20
1.175
  30
0
  11
48
  21
9
  31
0
  0
LINE
  5
11c
  330
11a
  100
AcDbEntity
  8
2
  100
AcDbLine
  10
45.43
  20
1.175
  30
0
  11
45.43
  21
9
  31
0
  0
LINE
  5
11d
  330
11a
  100
AcDbEntity
  8
2
  100
AcDbLine
  10
48
  20
7
  30
0
  11
40.754717
  21
7
  31
0
  0
SOLID
  5
11e
  330
11a
  100
AcDbEntity
  8
2
  100
AcDbTrace
  10
48
  20
7
  30
0
  11
50.478612
  21
7.326315
  31
0
  12
50.478612
  22
6.673685
  32
0
  13
50.478612
  23
6.673685
  33
0
  0
SOLID
  5
11f
  330
11a
  100
AcDbEntity
  8
2
  100
AcDbTrace
  10
45.43
  20
7
  30
0
  11
42.951388
  21
6.673685
  31
0
  12
42.951388
  22
7.326315
  32
0
  13
42.951388
  23
7.326315
  33
0
  0
MTEXT
  5
120
  330
11a
  100
AcDbEntity
  8
2
  100
AcDbMText
  10
46.784884
  20
7
  30
0
  11
1
  21
-0
  31
0
  40
2
  41
0
  71
8
  72
1
  1
2.57
  0
POINT
  5
121
  330
11a
  100
AcDbEntity
  8
2
  62
0
  100
AcDbPoint
  10
48
  20
1.175
  30
0
  0
POINT
  5
122
  330
11a
  100
AcDbEntity
  8
2
  62
0
  100
AcDbPoint
  10
45.43
  20
1.175
  30
0
  0
POINT
  5
123
  330
11a
  100
AcDbEntity
  8
2
  62
0
  100
AcDbPoint
  10
40.754717
  20
7
  30
0
  0
ENDBLK
  5
124
  330
11a
  100
AcDbEntity
  8
2
  100
AcDbBlockEnd
  0
BLOCK
  5
126
  330
128
  100
AcDbEntity
  8
2
  100
AcDbBlockBegin
  2
*D127
  70
1
  10
0
  20
0
  30
0
  3
*D127
  1

  0
LINE
  5
129
  330
128
  100
AcDbEntity
  8
2
  100
AcDbLine
  10
50
  20
-14
  30
0
  11
50
  21
19
  31
0
  0
LINE
  5
12a
  330
128
  100
AcDbEntity
  8
2
  100
AcDbLine
  10
41.8
  20
2
  30
0
  11
41.8
  21
9
  31
0
  0
LINE
  5
12b
  330
128
  100
AcDbEntity
  8
2
  100
AcDbLine
  10
50
  20
7
  30
0
  11
41.8
  21
7
  31
0
  0
SOLID
  5
12c
  330
128
  100
AcDbEntity
  8
2
  100
AcDbTrace
  10
50
  20
7
  30
0
  11
52.478612
  21
7.326315
  31
0
  12
52.478612
  22
6.673685
  32
0
  13
52.478612
  23
6.673685
  33
0
  0
SOLID
  5
12d
  330
128
  100
AcDbEntity
  8
2
  100
AcDbTrace
  10
41.8
  20
7
  30
0
  11
39.321388
  21
6.673685
  31
0
  12
39.321388
  22
7.326315
  32
0
  13
39.321388
  23
7.326315
  33
0
  0
MTEXT
  5
12e
  330
128
  100
AcDbEntity
  8
2
  100
AcDbMText
  10
45.9
  20
7
  30
0
  11
1
  21
-0
  31
0
  40
2
  41
0
  71
8
  72
1
  1
8.2
  0
POINT
  5
12f
  330
128
  100
AcDbEntity
  8
2
  62
0
  100
AcDbPoint
  10
50
  20
-14
  30
0
  0
POINT
  5
130
  330
128
  100
AcDbEntity
  8
2
  62
0
  100
AcDbPoint
  10
41.8
  20
2
  30
0
  0
POINT
  5
131
  330
128
  100
AcDbEntity
  8
2
  62
0
  100
AcDbPoint
  10
41.8
  20
7
  30
0
  0
ENDBLK
  5
132
  330
128
  100
AcDbEntity
  8
2
  100
AcDbBlockEnd
  0
BLOCK
  5
134
  330
136
  100
AcDbEntity
  8
2
  100
AcDbBlockBegin
  2
*D135
  70
1
  10
0
  20
0
  30
0
  3
*D135
  1

  0
LINE
  5
137
  330
136
  100
AcDbEntity
  8
2
  100
AcDbLine
  10
48
  20
-1.175
  30
0
  11
48
  21
-14
  31
0
  0
LINE
  5
138
  330
136
  100
AcDbEntity
  8
2
  100
AcDbLine
  10
50
  20
-14
  30
0
  11
50
  21
19
  31
0
  0
LINE
  5
139
  330
136
  100
AcDbEntity
  8
2
  100
AcDbLine
  10
48
  20
-12
  30
0
  11
50
  21
-12
  31
0
  0
SOLID
  5
13a
  330
136
  100
AcDbEntity
  8
2
  100
AcDbTrace
  10
48
  20
-12
  30
0
  11
50.478612
  21
-11.673685
  31
0
  12
50.478612
  22
-12.326315
  32
0
  13
50.478612
  23
-12.326315
  33
0
  0
SOLID
  5
13b
  330
136
  100
AcDbEntity
  8
2
  100
AcDbTrace
  10
50
  20
-12
  30
0
  11
47.521388
  21
-12.326315
  31
0
  12
47.521388
  22
-11.673685
  32
0
  13
47.521388
  23
-11.673685
  33
0
  0
MTEXT
  5
13c
  330
136
  100
AcDbEntity
  8
2
  100
AcDbMText
  10
49
  20
-12
  30
0
  11
1
  21
0
  31
0
  40
2
  41
0
  71
8
  72
1
  1
2
  0
POINT
  5
13d
  330
136
  100
AcDbEntity
  8
2
  62
0
  100
AcDbPoint
  10
48
  20
-1.175
  30
0
  0
POINT
  5
13e
  330
136
  100
AcDbEntity
  8
2
  62
0
  100
AcDbPoint
  10
50
  20
19
  30
0
  0
POINT
  5
13f
  330
136
  100
AcDbEntity
  8
2
  62
0
  100
AcDbPoint
  10
50
  20
-12
  30
0
  0
ENDBLK
  5
140
  330
136
  100
AcDbEntity
  8
2
  100
AcDbBlockEnd
  0
ENDSEC
  0
SECTION
  2
ENTITIES
  0
DIMENSION
  5
d5
  100
AcDbEntity
  8
SK2
  100
AcDbDimension
  2
*Dc9
  10
50
  20
17
  30
0
  11
25
  21
17
  31
0
  70
160
  1
<>
  71
5
  3
STANDARD
  42
50
  100
AcDbAlignedDimension
  13
0
  23
1.3
  33
0
  14
50
  24
-14
  34
0
  50
0
  100
AcDbRotatedDimension
  0
DIMENSION
  5
e3
  100
AcDbEntity
  8
SK2
  100
AcDbDimension
  2
*Dd7
  10
60
  20
1.25
  30
0
  11
60
  21
0
  31
0
  70
160
  1
%%c<>
  71
5
  3
STANDARD
  42
2.5
  100
AcDbAlignedDimension
  13
48.75
  23
-1.25
  33
0
  14
48.75
  24
1.25
  34
0
  50
-90
  100
AcDbRotatedDimension
  0
DIMENSION
  5
f1
  100
AcDbEntity
  8
SK2
  100
AcDbDimension
  2
*De5
  10
0
  20
12
  30
0
  11
20.9
  21
12
  31
0
  70
160
  1
<>
  71
5
  3
STANDARD
  42
41.8
  100
AcDbAlignedDimension
  13
41.8
  23
2
  33
0
  14
0
  24
1.3
  34
0
  50
0
  100
AcDbRotatedDimension
  0
DIMENSION
  5
ff
  100
AcDbEntity
  8
SK2
  100
AcDbDimension
  2
*Df3
  10
-10
  20
2
  30
0
  11
-10
  21
0
  31
0
  70
160
  1
%%c<>
  71
5
  3
STANDARD
  42
4
  100
AcDbAlignedDimension
  13
0.7
  23
-2
  33
0
  14
0.7
  24
2
  34
0
  50
-90
  100
AcDbRotatedDimension
  0
DIMENSION
  5
109
  100
AcDbEntity
  8
2
  100
AcDbDimension
  2
*D101
  10
48.75
  20
0
  30
0
  11
42.562816
  21
7.954951
  31
0
  70
164
  1
R1.25
  71
5
  3
STANDARD
  100
AcDbRadialDimension
  15
49.633883
  25
0.883883
  35
0
  50
-45
  0
DIMENSION
  5
117
  100
AcDbEntity
  8
2
  100
AcDbDimension
  2
*D10b
  10
48
  20
1.175
  30
0
  11
48
  21
-1.175
  31
0
  70
160
  1
%%c<>
  71
5
  3
STANDARD
  42
2.35
  100
AcDbAlignedDimension
  13
46
  23
-1.175
  33
0
  14
46
  24
1.175
  34
0
  50
-90
  100
AcDbRotatedDimension
  0
DIMENSION
  5
125
  100
AcDbEntity
  8
2
  100
AcDbDimension
  2
*D119
  10
40.754717
  20
7
  30
0
  11
46.784884
  21
7
  31
0
  70
160
  1
<>
  71
5
  3
STANDARD
  42
2.57
  100
AcDbAlignedDimension
  13
48
  23
1.175
  33
0
  14
45.43
  24
1.175
  34
0
  50
0
  100
AcDbRotatedDimension
  0
DIMENSION
  5
133
  100
AcDbEntity
  8
2
  100
AcDbDimension
  2
*D127
  10
41.8
  20
7
  30
0
  11
45.9
  21
7
  31
0
  70
160
  1
<>
  71
5
  3
STANDARD
  42
8.2
  100
AcDbAlignedDimension
  13
50
  23
-14
  33
0
  14
41.8
  24
2
  34
0
  50
0
  100
AcDbRotatedDimension
  0
DIMENSION
  5
141
  100
AcDbEntity
  8
2
  100
AcDbDimension
  2
*D135
  10
50
  20
-12
  30
0
  11
49
  21
-12
  31
0
  70
160
  1
<>
  71
5
  3
STANDARD
  42
2
  100
AcDbAlignedDimension
  13
48
  23
-1.175
  33
0
  14
50
  24
19
  34
0
  50
0
  100
AcDbRotatedDimension
  0
ARC
  5
36
  100
AcDbEntity
  8
1
  100
AcDbCircle
  10
45.517156
  20
-2.171195
  30
0
  40
1
  100
AcDbArc
  50
95
  51
105
  0
LINE
  5
37
  100
AcDbEntity
  8
1
  100
AcDbLine
  10
45.43
  20
-1.175
  30
0
  11
48
  21
-1.175
  31
0
  0
LINE
  5
38
  100
AcDbEntity
  8
1
  100
AcDbLine
  10
48
  20
-1.175
  30
0
  11
48
  21
-1.25
  31
0
  0
LINE
  5
39
  100
AcDbEntity
  8
1
  100
AcDbLine
  10
48
  20
-1.25
  30
0
  11
48.75
  21
-1.25
  31
0
  0
ARC
  5
3a
  100
AcDbEntity
  8
1
  100
AcDbCircle
  10
48.75
  20
0
  30
0
  40
1.25
  100
AcDbArc
  50
270
  51
0
  0
ARC
  5
3b
  100
AcDbEntity
  8
1
  100
AcDbCircle
  10
48.75
  20
0
  30
0
  40
1.25
  100
AcDbArc
  50
0
  51
90
  0
LINE
  5
3c
  100
AcDbEntity
  8
1
  100
AcDbLine
  10
48.75
  20
1.25
  30
0
  11
48
  21
1.25
  31
0
  0
LINE
  5
3d
  100
AcDbEntity
  8
1
  100
AcDbLine
  10
48
  20
1.25
  30
0
  11
48
  21
1.175
  31
0
  0
LINE
  5
3e
  100
AcDbEntity
  8
1
  100
AcDbLine
  10
48
  20
1.175
  30
0
  11
45.43
  21
1.175
  31
0
  0
ARC
  5
3f
  100
AcDbEntity
  8
1
  100
AcDbCircle
  10
45.517156
  20
2.171195
  30
0
  40
1
  100
AcDbArc
  50
255
  51
265
  0
LINE
  5
40
  100
AcDbEntity
  8
1
  100
AcDbLine
  10
45.258337
  20
1.205269
  30
0
  11
42.29236
  21
2
  31
0
  0
LINE
  5
41
  100
AcDbEntity
  8
1
  100
AcDbLine
  10
42.29236
  20
2
  30
0
  11
41.8
  21
2
  31
0
  0
LINE
  5
42
  100
AcDbEntity
  8
1
  100
AcDbLine
  10
41.8
  20
2
  30
0
  11
41.8
  21
-2
  31
0
  0
LINE
  5
43
  100
AcDbEntity
  8
1
  100
AcDbLine
  10
41.8
  20
-2
  30
0
  11
42.29236
  21
-2
  31
0
  0
LINE
  5
44
  100
AcDbEntity
  8
1
  100
AcDbLine
  10
42.29236
  20
-2
  30
0
  11
45.258337
  21
-1.205269
  31
0
  0
LINE
  5
45
  100
AcDbEntity
  8
1
  100
AcDbLine
  10
49.8
  20
-0.324426
  30
0
  11
49.8
  21
0.678233
  31
0
  0
LINE
  5
46
  100
AcDbEntity
  8
1
  100
AcDbLine
  10
49.8
  20
0.678233
  30
0
  11
49.8
  21
-0.324426
  31
0
  0
LINE
  5
47
  100
AcDbEntity
  8
1
  100
AcDbLine
  10
49.8
  20
-0.324426
  30
0
  11
49.7
  21
-0.557108
  31
0
  0
LINE
  5
48
  100
AcDbEntity
  8
1
  100
AcDbLine
  10
49.7
  20
-0.557108
  30
0
  11
49.6
  21
-0.685959
  31
0
  0
LINE
  5
49
  100
AcDbEntity
  8
1
  100
AcDbLine
  10
49.6
  20
-0.685959
  30
0
  11
49.5
  21
-0.773075
  31
0
  0
LINE
  5
4a
  100
AcDbEntity
  8
1
  100
AcDbLine
  10
49.5
  20
-0.773075
  30
0
  11
49.4
  21
-0.833816
  31
0
  0
LINE
  5
4b
  100
AcDbEntity
  8
1
  100
AcDbLine
  10
49.4
  20
-0.833816
  30
0
  11
49.3
  21
-0.874852
  31
0
  0
LINE
  5
4c
  100
AcDbEntity
  8
1
  100
AcDbLine
  10
49.3
  20
-0.874852
  30
0
  11
49.2
  21
-0.899778
  31
0
  0
LINE
  5
4d
  100
AcDbEntity
  8
1
  100
AcDbLine
  10
49.2
  20
-0.899778
  30
0
  11
49.1
  21
-0.910788
  31
0
  0
LINE
  5
4e
  100
AcDbEntity
  8
1
  100
AcDbLine
  10
49.1
  20
-0.910788
  30
0
  11
49
  21
-0.909326
  31
0
  0
LINE
  5
4f
  100
AcDbEntity
  8
1
  100
AcDbLine
  10
49
  20
-0.909326
  30
0
  11
48.9
  21
-0.896394
  31
0
  0
LINE
  5
50
  100
AcDbEntity
  8
1
  100
AcDbLine
  10
48.9
  20
-0.896394
  30
0
  11
48.8
  21
-0.872706
  31
0
  0
LINE
  5
51
  100
AcDbEntity
  8
1
  100
AcDbLine
  10
48.8
  20
-0.872706
  30
0
  11
48.7
  21
-0.839874
  31
0
  0
LINE
  5
52
  100
AcDbEntity
  8
1
  100
AcDbLine
  10
48.7
  20
-0.839874
  30
0
  11
48.6
  21
-0.804761
  31
0
  0
LINE
  5
53
  100
AcDbEntity
  8
1
  100
AcDbLine
  10
48.6
  20
-0.804761
  30
0
  11
48.5
  21
-0.768529
  31
0
  0
LINE
  5
54
  100
AcDbEntity
  8
1
  100
AcDbLine
  10
48.5
  20
-0.768529
  30
0
  11
48.4
  21
-0.731226
  31
0
  0
LINE
  5
55
  100
AcDbEntity
  8
1
  100
AcDbLine
  10
48.4
  20
-0.731226
  30
0
  11
48.3
  21
-0.692907
  31
0
  0
LINE
  5
56
  100
AcDbEntity
  8
1
  100
AcDbLine
  10
48.3
  20
-0.692907
  30
0
  11
48.2
  21
-0.653623
  31
0
  0
LINE
  5
57
  100
AcDbEntity
  8
1
  100
AcDbLine
  10
48.2
  20
-0.653623
  30
0
  11
48.1
  21
-0.613429
  31
0
  0
LINE
  5
58
  100
AcDbEntity
  8
1
  100
AcDbLine
  10
48.1
  20
-0.613429
  30
0
  11
48
  21
-0.572382
  31
0
  0
LINE
  5
59
  100
AcDbEntity
  8
1
  100
AcDbLine
  10
48
  20
-0.572382
  30
0
  11
48
  21
-0.498753
  31
0
  0
LINE
  5
5a
  100
AcDbEntity
  8
1
  100
AcDbLine
  10
48
  20
-0.755491
  30
0
  11
48
  21
-0.818436
  31
0
  0
LINE
  5
5b
  100
AcDbEntity
  8
1
  100
AcDbLine
  10
48
  20
-0.818436
  30
0
  11
48.1
  21
-0.852333
  31
0
  0
LINE
  5
5c
  100
AcDbEntity
  8
1
  100
AcDbLine
  10
48.1
  20
-0.852333
  30
0
  11
48.2
  21
-0.885044
  31
0
  0
LINE
  5
5d
  100
AcDbEntity
  8
1
  100
AcDbLine
  10
48.2
  20
-0.885044
  30
0
  11
48.3
  21
-0.916524
  31
0
  0
LINE
  5
5e
  100
AcDbEntity
  8
1
  100
AcDbLine
  10
48.3
  20
-0.916524
  30
0
  11
48.4
  21
-0.946728
  31
0
  0
LINE
  5
5f
  100
AcDbEntity
  8
1
  100
AcDbLine
  10
48.4
  20
-0.946728
  30
0
  11
48.5
  21
-0.975615
  31
0
  0
LINE
  5
60
  100
AcDbEntity
  8
1
  100
AcDbLine
  10
48.5
  20
-0.975615
  30
0
  11
48.6
  21
-1.003144
  31
0
  0
LINE
  5
61
  100
AcDbEntity
  8
1
  100
AcDbLine
  10
48.6
  20
-1.003144
  30
0
  11
48.7
  21
-1.029277
  31
0
  0
LINE
  5
62
  100
AcDbEntity
  8
1
  100
AcDbLine
  10
48.7
  20
-1.029277
  30
0
  11
48.8
  21
-1.053005
  31
0
  0
LINE
  5
63
  100
AcDbEntity
  8
1
  100
AcDbLine
  10
48.8
  20
-1.053005
  30
0
  11
48.9
  21
-1.068317
  31
0
  0
LINE
  5
64
  100
AcDbEntity
  8
1
  100
AcDbLine
  10
48.9
  20
-1.068317
  30
0
  11
49
  21
-1.073823
  31
0
  0
LINE
  5
65
  100
AcDbEntity
  8
1
  100
AcDbLine
  10
49
  20
-1.073823
  30
0
  11
49.1
  21
-1.068974
  31
0
  0
LINE
  5
66
  100
AcDbEntity
  8
1
  100
AcDbLine
  10
49.1
  20
-1.068974
  30
0
  11
49.2
  21
-1.053056
  31
0
  0
LINE
  5
67
  100
AcDbEntity
  8
1
  100
AcDbLine
  10
49.2
  20
-1.053056
  30
0
  11
49.3
  21
-1.025117
  31
0
  0
LINE
  5
68
  100
AcDbEntity
  8
1
  100
AcDbLine
  10
49.3
  20
-1.025117
  30
0
  11
49.4
  21
-0.983833
  31
0
  0
LINE
  5
69
  100
AcDbEntity
  8
1
  100
AcDbLine
  10
49.4
  20
-0.983833
  30
0
  11
49.5
  21
-0.927264
  31
0
  0
LINE
  5
6a
  100
AcDbEntity
  8
1
  100
AcDbLine
  10
49.5
  20
-0.927264
  30
0
  11
49.6
  21
-0.852348
  31
0
  0
LINE
  5
6b
  100
AcDbEntity
  8
1
  100
AcDbLine
  10
49.6
  20
-0.852348
  30
0
  11
49.7
  21
-0.757618
  31
0
  0
LINE
  5
6c
  100
AcDbEntity
  8
1
  100
AcDbLine
  10
49.7
  20
-0.757618
  30
0
  11
49.8
  21
-0.649799
  31
0
  0
LINE
  5
6d
  100
AcDbEntity
  8
1
  100
AcDbLine
  10
49.8
  20
-0.677438
  30
0
  11
49.8
  21
-0.678233
  31
0
  0
LINE
  5
6e
  100
AcDbEntity
  8
1
  100
AcDbLine
  10
49.8
  20
-0.678233
  30
0
  11
49.8
  21
-0.677438
  31
0
  0
LINE
  5
6f
  100
AcDbEntity
  8
1
  100
AcDbLine
  10
49.8
  20
-0.677438
  30
0
  11
49.7
  21
-0.80023
  31
0
  0
LINE
  5
70
  100
AcDbEntity
  8
1
  100
AcDbLine
  10
49.7
  20
-0.80023
  30
0
  11
49.6
  21
-0.898143
  31
0
  0
LINE
  5
71
  100
AcDbEntity
  8
1
  100
AcDbLine
  10
49.6
  20
-0.898143
  30
0
  11
49.5
  21
-0.975513
  31
0
  0
LINE
  5
72
  100
AcDbEntity
  8
1
  100
AcDbLine
  10
49.5
  20
-0.975513
  30
0
  11
49.4
  21
-1.035077
  31
0
  0
LINE
  5
73
  100
AcDbEntity
  8
1
  100
AcDbLine
  10
49.4
  20
-1.035077
  30
0
  11
49.3
  21
-1.079673
  31
0
  0
LINE
  5
74
  100
AcDbEntity
  8
1
  100
AcDbLine
  10
49.3
  20
-1.079673
  30
0
  11
49.2
  21
-1.111119
  31
0
  0
LINE
  5
75
  100
AcDbEntity
  8
1
  100
AcDbLine
  10
49.2
  20
-1.111119
  30
0
  11
49.1
  21
-1.130664
  31
0
  0
LINE
  5
76
  100
AcDbEntity
  8
1
  100
AcDbLine
  10
49.1
  20
-1.130664
  30
0
  11
49
  21
-1.13921
  31
0
  0
LINE
  5
77
  100
AcDbEntity
  8
1
  100
AcDbLine
  10
49
  20
-1.13921
  30
0
  11
48.9
  21
-1.137436
  31
0
  0
LINE
  5
78
  100
AcDbEntity
  8
1
  100
AcDbLine
  10
48.9
  20
-1.137436
  30
0
  11
48.8
  21
-1.125868
  31
0
  0
LINE
  5
79
  100
AcDbEntity
  8
1
  100
AcDbLine
  10
48.8
  20
-1.125868
  30
0
  11
48.7
  21
-1.105867
  31
0
  0
LINE
  5
7a
  100
AcDbEntity
  8
1
  100
AcDbLine
  10
48.7
  20
-1.105867
  30
0
  11
48.6
  21
-1.083365
  31
0
  0
LINE
  5
7b
  100
AcDbEntity
  8
1
  100
AcDbLine
  10
48.6
  20
-1.083365
  30
0
  11
48.5
  21
-1.059355
  31
0
  0
LINE
  5
7c
  100
AcDbEntity
  8
1
  100
AcDbLine
  10
48.5
  20
-1.059355
  30
0
  11
48.4
  21
-1.033871
  31
0
  0
LINE
  5
7d
  100
AcDbEntity
  8
1
  100
AcDbLine
  10
48.4
  20
-1.033871
  30
0
  11
48.3
  21
-1.006948
  31
0
  0
LINE
  5
7e
  100
AcDbEntity
  8
1
  100
AcDbLine
  10
48.3
  20
-1.006948
  30
0
  11
48.2
  21
-0.978625
  31
0
  0
LINE
  5
7f
  100
AcDbEntity
  8
1
  100
AcDbLine
  10
48.2
  20
-0.978625
  30
0
  11
48.1
  21
-0.948939
  31
0
  0
LINE
  5
80
  100
AcDbEntity
  8
1
  100
AcDbLine
  10
48.1
  20
-0.948939
  30
0
  11
48
  21
-0.917934
  31
0
  0
LINE
  5
81
  100
AcDbEntity
  8
1
  100
AcDbLine
  10
48
  20
-0.917934
  30
0
  11
48
  21
-0.855664
  31
0
  0
LINE
  5
82
  100
AcDbEntity
  8
1
  100
AcDbLine
  10
48
  20
-1.175
  30
0
  11
48
  21
1.175
  31
0
  0
LINE
  5
83
  100
AcDbEntity
  8
1
  100
AcDbLine
  10
48
  20
1.25
  30
0
  11
48
  21
-1.25
  31
0
  0
LINE
  5
84
  100
AcDbEntity
  8
1
  100
AcDbLine
  10
48.75
  20
1.25
  30
0
  11
48.75
  21
-1.25
  31
0
  0
LINE
  5
85
  100
AcDbEntity
  8
1
  100
AcDbLine
  10
45.43
  20
1.175
  30
0
  11
45.43
  21
-1.175
  31
0
  0
LINE
  5
86
  100
AcDbEntity
  8
1
  100
AcDbLine
  10
45.258337
  20
1.205269
  30
0
  11
45.258337
  21
-1.205269
  31
0
  0
LINE
  5
87
  100
AcDbEntity
  8
1
  100
AcDbLine
  10
42.29236
  20
2
  30
0
  11
42.29236
  21
-2
  31
0
  0
LINE
  5
88
  100
AcDbEntity
  8
1
  100
AcDbLine
  10
41.8
  20
2
  30
0
  11
41.8
  21
-2
  31
0
  0
LINE
  5
89
  100
AcDbEntity
  8
1
  100
AcDbLine
  10
41.8
  20
-2
  30
0
  11
41.8
  21
2
  31
0
  0
LINE
  5
8a
  100
AcDbEntity
  8
SK1
  100
AcDbLine
  10
41.8
  20
2
  30
0
  11
0.7
  21
2
  31
0
  0
LINE
  5
8b
  100
AcDbEntity
  8
SK1
  100
AcDbLine
  10
0.7
  20
2
  30
0
  11
0
  21
1.3
  31
0
  0
LINE
  5
8c
  100
AcDbEntity
  8
SK1
  100
AcDbLine
  10
41.8
  20
-2
  30
0
  11
0.7
  21
-2
  31
0
  0
LINE
  5
8d
  100
AcDbEntity
  8
SK1
  100
AcDbLine
  10
0.7
  20
-2
  30
0
  11
0
  21
-1.3
  31
0
  0
LINE
  5
8e
  100
AcDbEntity
  8
SK1
  100
AcDbLine
  10
0.7
  20
2
  30
0
  11
0.7
  21
-2
  31
0
  0
LINE
  5
8f
  100
AcDbEntity
  8
SK1
  100
AcDbLine
  10
0
  20
1.3
  30
0
  11
0
  21
-1.3
  31
0
  0
LINE
  5
90
  100
AcDbEntity
  8
SK1
  100
AcDbLine
  10
42.8401
  20
1.40688
  30
0
  11
43.2069
  21
1.0401
  31
0
  0
LINE
  5
91
  100
AcDbEntity
  8
SK1
  100
AcDbLine
  10
42.3328
  20
1.66666
  30
0
  11
43.4667
  21
0.532833
  31
0
  0
LINE
  5
92
  100
AcDbEntity
  8
SK1
  100
AcDbLine
  10
42.0154
  20
1.73657
  30
0
  11
43.5366
  21
0.215434
  31
0
  0
LINE
  5
93
  100
AcDbEntity
  8
SK1
  100
AcDbLine
  10
41.8
  20
1.70452
  30
0
  11
43.5045
  21
0
  31
0
  0
LINE
  5
94
  100
AcDbEntity
  8
SK1
  100
AcDbLine
  10
41.8
  20
1.45703
  30
0
  11
43.257
  21
0
  31
0
  0
LINE
  5
95
  100
AcDbEntity
  8
SK1
  100
AcDbLine
  10
41.8
  20
1.20954
  30
0
  11
43.0095
  21
0
  31
0
  0
LINE
  5
96
  100
AcDbEntity
  8
SK1
  100
AcDbLine
  10
41.8
  20
0.962054
  30
0
  11
42.7621
  21
0
  31
0
  0
LINE
  5
97
  100
AcDbEntity
  8
SK1
  100
AcDbLine
  10
41.8
  20
0.714566
  30
0
  11
42.5146
  21
0
  31
0
  0
LINE
  5
98
  100
AcDbEntity
  8
SK1
  100
AcDbLine
  10
41.8
  20
0.467079
  30
0
  11
42.2671
  21
0
  31
0
  0
LINE
  5
99
  100
AcDbEntity
  8
SK1
  100
AcDbLine
  10
41.8
  20
0.219592
  30
0
  11
42.0196
  21
0
  31
0
  0
LINE
  5
9a
  100
AcDbEntity
  8
SK1
  100
AcDbLine
  10
41.8
  20
1.70452
  30
0
  11
41.8441
  21
1.74861
  31
0
  0
LINE
  5
9b
  100
AcDbEntity
  8
SK1
  100
AcDbLine
  10
41.8
  20
1.45703
  30
0
  11
42.071
  21
1.72802
  31
0
  0
LINE
  5
9c
  100
AcDbEntity
  8
SK1
  100
AcDbLine
  10
41.8
  20
1.20954
  30
0
  11
42.2742
  21
1.6837
  31
0
  0
LINE
  5
9d
  100
AcDbEntity
  8
SK1
  100
AcDbLine
  10
41.8
  20
0.962054
  30
0
  11
42.4588
  21
1.62082
  31
0
  0
LINE
  5
9e
  100
AcDbEntity
  8
SK1
  100
AcDbLine
  10
41.8
  20
0.714566
  30
0
  11
42.6271
  21
1.54167
  31
0
  0
LINE
  5
9f
  100
AcDbEntity
  8
SK1
  100
AcDbLine
  10
41.8
  20
0.467079
  30
0
  11
42.781
  21
1.44812
  31
0
  0
LINE
  5
a0
  100
AcDbEntity
  8
SK1
  100
AcDbLine
  10
41.8
  20
0.219592
  30
0
  11
42.9226
  21
1.34216
  31
0
  0
LINE
  5
a1
  100
AcDbEntity
  8
SK1
  100
AcDbLine
  10
41.8279
  20
0
  30
0
  11
43.0508
  21
1.22288
  31
0
  0
LINE
  5
a2
  100
AcDbEntity
  8
SK1
  100
AcDbLine
  10
42.0754
  20
0
  30
0
  11
43.167
  21
1.09157
  31
0
  0
LINE
  5
a3
  100
AcDbEntity
  8
SK1
  100
AcDbLine
  10
42.3229
  20
0
  30
0
  11
43.2707
  21
0.947822
  31
0
  0
LINE
  5
a4
  100
AcDbEntity
  8
SK1
  100
AcDbLine
  10
42.5704
  20
0
  30
0
  11
43.3605
  21
0.790145
  31
0
  0
LINE
  5
a5
  100
AcDbEntity
  8
SK1
  100
AcDbLine
  10
42.8178
  20
0
  30
0
  11
43.4364
  21
0.618517
  31
0
  0
LINE
  5
a6
  100
AcDbEntity
  8
SK1
  100
AcDbLine
  10
43.0653
  20
0
  30
0
  11
43.496
  21
0.430696
  31
0
  0
LINE
  5
a7
  100
AcDbEntity
  8
SK1
  100
AcDbLine
  10
43.3128
  20
0
  30
0
  11
43.5356
  21
0.222827
  31
0
  0
LINE
  5
a8
  100
AcDbEntity
  8
SK1
  100
AcDbLine
  10
41.8
  20
0
  30
0
  11
41.8
  21
1.75
  31
0
  0
LINE
  5
a9
  100
AcDbEntity
  8
SK1
  100
AcDbLine
  10
41.8
  20
0
  30
0
  11
43.55
  21
0
  31
0
  0
ARC
  5
aa
  100
AcDbEntity
  8
SK1
  100
AcDbCircle
  10
41.8
  20
0
  30
0
  40
1.75
  100
AcDbArc
  50
0
  51
90
  0
ARC
  5
ab
  100
AcDbEntity
  8
SK1
  100
AcDbCircle
  10
41.8
  20
0
  30
0
  40
1.75
  100
AcDbArc
  50
90
  51
180
  0
LINE
  5
ac
  100
AcDbEntity
  8
SK1
  100
AcDbLine
  10
41.7721
  20
0
  30
0
  11
41.8
  21
-0.027896
  31
0
  0
LINE
  5
ad
  100
AcDbEntity
  8
SK1
  100
AcDbLine
  10
41.5246
  20
0
  30
0
  11
41.8
  21
-0.275383
  31
0
  0
LINE
  5
ae
  100
AcDbEntity
  8
SK1
  100
AcDbLine
  10
41.2771
  20
0
  30
0
  11
41.8
  21
-0.522871
  31
0
  0
LINE
  5
af
  100
AcDbEntity
  8
SK1
  100
AcDbLine
  10
41.0296
  20
0
  30
0
  11
41.8
  21
-0.770358
  31
0
  0
LINE
  5
b0
  100
AcDbEntity
  8
SK1
  100
AcDbLine
  10
40.7822
  20
0
  30
0
  11
41.8
  21
-1.01785
  31
0
  0
LINE
  5
b1
  100
AcDbEntity
  8
SK1
  100
AcDbLine
  10
40.5347
  20
0
  30
0
  11
41.8
  21
-1.26533
  31
0
  0
LINE
  5
b2
  100
AcDbEntity
  8
SK1
  100
AcDbLine
  10
40.2872
  20
0
  30
0
  11
41.8
  21
-1.51282
  31
0
  0
LINE
  5
b3
  100
AcDbEntity
  8
SK1
  100
AcDbLine
  10
40.0503
  20
-0.010642
  30
0
  11
41.7894
  21
-1.74967
  31
0
  0
LINE
  5
b4
  100
AcDbEntity
  8
SK1
  100
AcDbLine
  10
40.0736
  20
-0.281429
  30
0
  11
41.5186
  21
-1.72637
  31
0
  0
LINE
  5
b5
  100
AcDbEntity
  8
SK1
  100
AcDbLine
  10
40.1639
  20
-0.619147
  30
0
  11
41.1809
  21
-1.63613
  31
0
  0
LINE
  5
b6
  100
AcDbEntity
  8
SK1
  100
AcDbLine
  10
40.0514
  20
-0.044098
  30
0
  11
40.0955
  21
0
  31
0
  0
LINE
  5
b7
  100
AcDbEntity
  8
SK1
  100
AcDbLine
  10
40.072
  20
-0.270991
  30
0
  11
40.343
  21
0
  31
0
  0
LINE
  5
b8
  100
AcDbEntity
  8
SK1
  100
AcDbLine
  10
40.1163
  20
-0.474162
  30
0
  11
40.5905
  21
0
  31
0
  0
LINE
  5
b9
  100
AcDbEntity
  8
SK1
  100
AcDbLine
  10
40.1792
  20
-0.658762
  30
0
  11
40.8379
  21
0
  31
0
  0
LINE
  5
ba
  100
AcDbEntity
  8
SK1
  100
AcDbLine
  10
40.2583
  20
-0.827105
  30
0
  11
41.0854
  21
0
  31
0
  0
LINE
  5
bb
  100
AcDbEntity
  8
SK1
  100
AcDbLine
  10
40.3519
  20
-0.981039
  30
0
  11
41.3329
  21
0
  31
0
  0
LINE
  5
bc
  100
AcDbEntity
  8
SK1
  100
AcDbLine
  10
40.4578
  20
-1.12257
  30
0
  11
41.5804
  21
0
  31
0
  0
LINE
  5
bd
  100
AcDbEntity
  8
SK1
  100
AcDbLine
  10
40.5771
  20
-1.25077
  30
0
  11
41.8
  21
-0.027896
  31
0
  0
LINE
  5
be
  100
AcDbEntity
  8
SK1
  100
AcDbLine
  10
40.7084
  20
-1.36695
  30
0
  11
41.8
  21
-0.275383
  31
0
  0
LINE
  5
bf
  100
AcDbEntity
  8
SK1
  100
AcDbLine
  10
40.8522
  20
-1.47069
  30
0
  11
41.8
  21
-0.522871
  31
0
  0
LINE
  5
c0
  100
AcDbEntity
  8
SK1
  100
AcDbLine
  10
41.0099
  20
-1.5605
  30
0
  11
41.8
  21
-0.770358
  31
0
  0
LINE
  5
c1
  100
AcDbEntity
  8
SK1
  100
AcDbLine
  10
41.1815
  20
-1.63636
  30
0
  11
41.8
  21
-1.01785
  31
0
  0
LINE
  5
c2
  100
AcDbEntity
  8
SK1
  100
AcDbLine
  10
41.3693
  20
-1.69603
  30
0
  11
41.8
  21
-1.26533
  31
0
  0
LINE
  5
c3
  100
AcDbEntity
  8
SK1
  100
AcDbLine
  10
41.5772
  20
-1.73565
  30
0
  11
41.8
  21
-1.51282
  31
0
  0
LINE
  5
c4
  100
AcDbEntity
  8
SK1
  100
AcDbLine
  10
41.8
  20
0
  30
0
  11
40.05
  21
0
  31
0
  0
LINE
  5
c5
  100
AcDbEntity
  8
SK1
  100
AcDbLine
  10
41.8
  20
-1.75
  30
0
  11
41.8
  21
0
  31
0
  0
ARC
  5
c6
  100
AcDbEntity
  8
SK1
  100
AcDbCircle
  10
41.8
  20
0
  30
0
  40
1.75
  100
AcDbArc
  50
180
  51
270
  0
ARC
  5
c7
  100
AcDbEntity
  8
SK1
  100
AcDbCircle
  10
41.8
  20
0
  30
0
  40
1.75
  100
AcDbArc
  50
270
  51
0
  0
LINE
  5
142
  100
AcDbEntity
  8
NOCUT
  100
AcDbLine
  10
48
  20
0
  30
0
  11
48
  21
1.175
  31
0
  0
LINE
  5
143
  100
AcDbEntity
  8
NOCUT
  100
AcDbLine
  10
48
  20
1.175
  30
0
  11
45.43
  21
1.175
  31
0
  0
ARC
  5
144
  100
AcDbEntity
  8
NOCUT
  100
AcDbCircle
  10
45.517156
  20
2.171195
  30
0
  40
1
  100
AcDbArc
  50
255
  51
265
  0
LINE
  5
145
  100
AcDbEntity
  8
NOCUT
  100
AcDbLine
  10
45.258337
  20
1.205269
  30
0
  11
42.29236
  21
2
  31
0
  0
LINE
  5
146
  100
AcDbEntity
  8
NOCUT
  100
AcDbLine
  10
42.29236
  20
2
  30
0
  11
41.8
  21
2
  31
0
  0
LINE
  5
147
  100
AcDbEntity
  8
NOCUT
  100
AcDbLine
  10
41.8
  20
2
  30
0
  11
41.8
  21
0
  31
0
  0
LINE
  5
148
  100
AcDbEntity
  8
NOCUT
  100
AcDbLine
  10
41.8
  20
0
  30
0
  11
48
  21
0
  31
0
  0
ARC
  5
149
  100
AcDbEntity
  8
CUT
  100
AcDbCircle
  10
48.75
  20
0
  30
0
  40
1.25
  100
AcDbArc
  50
0
  51
90
  0
LINE
  5
14a
  100
AcDbEntity
  8
CUT
  100
AcDbLine
  10
48.75
  20
1.25
  30
0
  11
48
  21
1.25
  31
0
  0
LINE
  5
14b
  100
AcDbEntity
  8
CUT
  100
AcDbLine
  10
48
  20
1.25
  30
0
  11
48
  21
0
  31
0
  0
LINE
  5
14c
  100
AcDbEntity
  8
CUT
  100
AcDbLine
  10
48
  20
0
  30
0
  11
50
  21
0
  31
0
  0
LINE
  5
14d
  100
AcDbEntity
  8
4
  100
AcDbLine
  10
41.8
  20
0
  30
0
  11
50
  21
0
  31
0
  0
LINE
  5
14e
  100
AcDbEntity
  8
SK4
  100
AcDbLine
  10
-1
  20
0
  30
0
  11
51
  21
0
  31
0
  0
LINE
  5
14f
  100
AcDbEntity
  8
INFTOTAL
  100
AcDbLine
  10
-15.7
  20
22.7
  30
0
  11
65.7
  21
22.7
  31
0
  0
LINE
  5
150
  100
AcDbEntity
  8
INFTOTAL
  100
AcDbLine
  10
65.7
  20
22.7
  30
0
  11
65.7
  21
-17.7
  31
0
  0
LINE
  5
151
  100
AcDbEntity
  8
INFTOTAL
  100
AcDbLine
  10
65.7
  20
-17.7
  30
0
  11
-15.7
  21
-17.7
  31
0
  0
LINE
  5
152
  100
AcDbEntity
  8
INFTOTAL
  100
AcDbLine
  10
-15.7
  20
-17.7
  30
0
  11
-15.7
  21
22.7
  31
0
  0
ENDSEC
  0
SECTION
  2
OBJECTS
  0
DICTIONARY
  5
153
  330
0
100
AcDbDictionary
281
    1
  3
ACAD_GROUP
  350
154
  0
DICTIONARY
  5
154
102
{ACAD_REACTORS
  330
153
102
}
  330
153
100
AcDbDictionary
281
    1
  0
ENDSEC
  0
EOF
