  0
SECTION
  2
HEADER
  9
$ACADVER
  1
AC1015
  9
$DWGCODEPAGE
  3
ANSI_932
  9
$HANDSEED
  5
106AB90
  0
ENDSEC
  0
SECTION
  2
CLASSES
  0
CLASS
  1
IMAGEDEF
  2
AcDbRasterImageDef
  3
ISM
  90
0
  91
4
  280
0
  281
0
  0
CLASS
  1
IMAGE
  2
AcDbRasterImage
  3
ISM
  90
127
  91
5
  280
0
  281
1
  0
CLASS
  1
IMAGEDEF_REACTOR
  2
AcDbRasterImageDefReactor
  3
ISM
  90
1
  91
4
  280
0
  281
0
  0
ENDSEC
  0
SECTION
  2
TABLES
  0
TABLE
  2
VPORT
  5
2
  330
0
  100
AcDbSymbolTable
  70
    0
  0
ENDTAB
  0
TABLE
  2
LTYPE
  5
3
  330
0
  100
AcDbSymbolTable
  70
    4
  0
LTYPE
  5
4
  330
3
  100
AcDbSymbolTableRecord
  100
AcDbLinetypeTableRecord
  2
ByBlock
  70
    0
  3

  72
65
  73
    0
  40
0
  0
LTYPE
  5
5
  330
3
  100
AcDbSymbolTableRecord
  100
AcDbLinetypeTableRecord
  2
ByLayer
  70
    0
  3

  72
65
  73
    0
  40
0
  0
LTYPE
  5
6
  330
3
  100
AcDbSymbolTableRecord
  100
AcDbLinetypeTableRecord
  2
CONTINUOUS
  70
    0
  3
Solid Line
  72
65
  73
    0
  40
0
  0
LTYPE
  5
7
  330
3
  100
AcDbSymbolTableRecord
  100
AcDbLinetypeTableRecord
  2
DASH
  70
    0
  3
Hidden
  72
65
  73
2
  40
2.5
  49
1.5
  74
0
  49
-1
  74
0
  0
LTYPE
  5
8
  330
3
  100
AcDbSymbolTableRecord
  100
AcDbLinetypeTableRecord
  2
LONGDASHDASH
  70
    0
  3
__ . __
  72
65
  73
    4
  40
7
  49
4
  74
    0
  49
-1
  74
    0
  49
1
  74
    0
  49
-1
  74
    0
  0
ENDTAB
  0
TABLE
  2
LAYER
  5
9
  330
0
  100
AcDbSymbolTable
  70
    40
  0
LAYER
  5
a
  330
9
  100
AcDbSymbolTableRecord
  100
AcDbLayerTableRecord
  2
0
  70
    0
  62
    0
  6
CONTINUOUS
  390
0
  0
LAYER
  5
c
  330
9
  100
AcDbSymbolTableRecord
  100
AcDbLayerTableRecord
  2
1
  70
    0
  62
    4
  6
CONTINUOUS
  370
50
  390
0
  0
LAYER
  5
d
  330
9
  100
AcDbSymbolTableRecord
  100
AcDbLayerTableRecord
  2
2
  70
    0
  62
    7
  6
CONTINUOUS
  370
25
  390
0
  0
LAYER
  5
f
  330
9
  100
AcDbSymbolTableRecord
  100
AcDbLayerTableRecord
  2
4
  70
    0
  62
    2
  6
LONGDASHDASH
  370
25
  390
0
  0
LAYER
  5
13
  330
9
  100
AcDbSymbolTableRecord
  100
AcDbLayerTableRecord
  2
SK1
  70
    0
  62
    4
  6
CONTINUOUS
  370
50
  390
0
  0
LAYER
  5
14
  330
9
  100
AcDbSymbolTableRecord
  100
AcDbLayerTableRecord
  2
SK2
  70
    0
  62
    7
  6
CONTINUOUS
  370
25
  390
0
  0
LAYER
  5
16
  330
9
  100
AcDbSymbolTableRecord
  100
AcDbLayerTableRecord
  2
SK4
  70
    0
  62
    2
  6
LONGDASHDASH
  370
25
  390
0
  0
LAYER
  5
21
  330
9
  100
AcDbSymbolTableRecord
  100
AcDbLayerTableRecord
  2
NOCUT
  70
    0
  62
    7
  6
CONTINUOUS
  370
25
  390
0
  0
LAYER
  5
22
  330
9
  100
AcDbSymbolTableRecord
  100
AcDbLayerTableRecord
  2
CUT
  70
    0
  62
    1
  6
CONTINUOUS
  370
25
  390
0
  0
LAYER
  5
26
  330
9
  100
AcDbSymbolTableRecord
  100
AcDbLayerTableRecord
  2
INFTOTAL
  70
    0
  62
    9
  6
CONTINUOUS
  370
18
  390
0
  0
ENDTAB
  0
TABLE
  2
STYLE
  5
27
  330
0
  100
AcDbSymbolTable
  70
    1
  0
STYLE
  5
28
  330
27
  100
AcDbSymbolTableRecord
  100
AcDbTextStyleTableRecord
  2
Monospac821 BT
  70
    0
  40
    3.5
  41
1
  50
0
  71
0
  42
3
  3

  4

  1001
ACAD
  1000
Monospac821 BT
  1071
256
  0
ENDTAB
  0
TABLE
  2
VIEW
  5
29
  330
0
  100
AcDbSymbolTable
  70
    0
  0
ENDTAB
  0
TABLE
  2
UCS
  5
2a
  330
0
  100
AcDbSymbolTable
  70
    0
  0
ENDTAB
  0
TABLE
  2
APPID
  5
2b
  330
0
  100
AcDbSymbolTable
  70
    1
  0
APPID
  5
2c
  330
2b
  100
AcDbSymbolTableRecord
  100
AcDbRegAppTableRecord
  2
ACAD
  70
    0
  0
ENDTAB
  0
TABLE
  2
DIMSTYLE
  5
2d
  330
0
  100
AcDbSymbolTable
  70
    1
  100
AcDbDimStyleTable
  0
DIMSTYLE
  105
2e
  330
2d
  100
AcDbSymbolTableRecord
  100
AcDbDimStyleTableRecord
  2
STANDARD
  70
    0
  41
    3
  42
0.5
  44
1
  73
0
  77
1
  78
1
  140
3.5
  141
2.5
  143
0.03937
  147
0.8
  172
1
  174
1
  178
0
  179
1
  271
2
  279
1
  284
1
  340
28
  0
ENDTAB
  0
TABLE
  2
BLOCK_RECORD
  5
2f
  330
0
  100
AcDbSymbolTable
  70
    2
  0
BLOCK_RECORD
  5
30
  330
2f
  100
AcDbSymbolTableRecord
  100
AcDbBlockTableRecord
  2
*Model_Space
  0
BLOCK_RECORD
  5
31
  330
2f
  100
AcDbSymbolTableRecord
  100
AcDbBlockTableRecord
  2
*Paper_Space
  0
BLOCK_RECORD
  5
98
  330
2f
  100
AcDbSymbolTableRecord
  100
AcDbBlockTableRecord
  2
*D97
  340
0
  0
BLOCK_RECORD
  5
a6
  330
2f
  100
AcDbSymbolTableRecord
  100
AcDbBlockTableRecord
  2
*Da5
  340
0
  0
BLOCK_RECORD
  5
b4
  330
2f
  100
AcDbSymbolTableRecord
  100
AcDbBlockTableRecord
  2
*Db3
  340
0
  0
BLOCK_RECORD
  5
c2
  330
2f
  100
AcDbSymbolTableRecord
  100
AcDbBlockTableRecord
  2
*Dc1
  340
0
  0
BLOCK_RECORD
  5
d0
  330
2f
  100
AcDbSymbolTableRecord
  100
AcDbBlockTableRecord
  2
*Dcf
  340
0
  0
BLOCK_RECORD
  5
da
  330
2f
  100
AcDbSymbolTableRecord
  100
AcDbBlockTableRecord
  2
*Dd9
  340
0
  0
BLOCK_RECORD
  5
e8
  330
2f
  100
AcDbSymbolTableRecord
  100
AcDbBlockTableRecord
  2
*De7
  340
0
  0
BLOCK_RECORD
  5
f6
  330
2f
  100
AcDbSymbolTableRecord
  100
AcDbBlockTableRecord
  2
*Df5
  340
0
  0
BLOCK_RECORD
  5
104
  330
2f
  100
AcDbSymbolTableRecord
  100
AcDbBlockTableRecord
  2
*D103
  340
0
  0
ENDTAB
  0
ENDSEC
  0
SECTION
  2
BLOCKS
  0
BLOCK
  5
32
  330
30
  100
AcDbEntity
  8
0
  100
AcDbBlockBegin
  2
*Model_Space
  70
    0
  10
0
  20
0
  30
0
  3
*Model_Space
  1

  0
ENDBLK
  5
33
  330
30
  100
AcDbEntity
  8
0
  100
AcDbBlockEnd
  0
BLOCK
  5
34
  330
31
  100
AcDbEntity
  8
0
  100
AcDbBlockBegin
  2
*Paper_Space
  70
    0
  10
0
  20
0
  30
0
  3
*Paper_Space
  1

  0
ENDBLK
  5
35
  330
31
  100
AcDbEntity
  8
0
  100
AcDbBlockEnd
  0
BLOCK
  5
96
  330
98
  100
AcDbEntity
  8
SK2
  100
AcDbBlockBegin
  2
*D97
  70
1
  10
0
  20
0
  30
0
  3
*D97
  1

  0
LINE
  5
99
  330
98
  100
AcDbEntity
  8
SK2
  100
AcDbLine
  10
0
  20
1.3
  30
0
  11
0
  21
19
  31
0
  0
LINE
  5
9a
  330
98
  100
AcDbEntity
  8
SK2
  100
AcDbLine
  10
45
  20
-14
  30
0
  11
45
  21
19
  31
0
  0
LINE
  5
9b
  330
98
  100
AcDbEntity
  8
SK2
  100
AcDbLine
  10
0
  20
17
  30
0
  11
45
  21
17
  31
0
  0
SOLID
  5
9c
  330
98
  100
AcDbEntity
  8
SK2
  100
AcDbTrace
  10
0
  20
17
  30
0
  11
2.478612
  21
17.326315
  31
0
  12
2.478612
  22
16.673685
  32
0
  13
2.478612
  23
16.673685
  33
0
  0
SOLID
  5
9d
  330
98
  100
AcDbEntity
  8
SK2
  100
AcDbTrace
  10
45
  20
17
  30
0
  11
42.521388
  21
16.673685
  31
0
  12
42.521388
  22
17.326315
  32
0
  13
42.521388
  23
17.326315
  33
0
  0
MTEXT
  5
9e
  330
98
  100
AcDbEntity
  8
SK2
  100
AcDbMText
  10
22.5
  20
17
  30
0
  11
1
  21
0
  31
0
  40
2
  41
0
  71
8
  72
1
  1
45
  0
POINT
  5
9f
  330
98
  100
AcDbEntity
  8
SK2
  62
0
  100
AcDbPoint
  10
0
  20
1.3
  30
0
  0
POINT
  5
a0
  330
98
  100
AcDbEntity
  8
SK2
  62
0
  100
AcDbPoint
  10
45
  20
-14
  30
0
  0
POINT
  5
a1
  330
98
  100
AcDbEntity
  8
SK2
  62
0
  100
AcDbPoint
  10
45
  20
17
  30
0
  0
ENDBLK
  5
a2
  330
98
  100
AcDbEntity
  8
SK2
  100
AcDbBlockEnd
  0
BLOCK
  5
a4
  330
a6
  100
AcDbEntity
  8
SK2
  100
AcDbBlockBegin
  2
*Da5
  70
1
  10
0
  20
0
  30
0
  3
*Da5
  1

  0
LINE
  5
a7
  330
a6
  100
AcDbEntity
  8
SK2
  100
AcDbLine
  10
44.8
  20
-0.2
  30
0
  11
57
  21
-0.2
  31
0
  0
LINE
  5
a8
  330
a6
  100
AcDbEntity
  8
SK2
  100
AcDbLine
  10
44.8
  20
0.2
  30
0
  11
57
  21
0.2
  31
0
  0
LINE
  5
a9
  330
a6
  100
AcDbEntity
  8
SK2
  100
AcDbLine
  10
55
  20
-6.757426
  30
0
  11
55
  21
0.2
  31
0
  0
SOLID
  5
aa
  330
a6
  100
AcDbEntity
  8
SK2
  100
AcDbTrace
  10
55
  20
-0.2
  30
0
  11
54.673685
  21
2.278612
  31
0
  12
55.326315
  22
2.278612
  32
0
  13
55.326315
  23
2.278612
  33
0
  0
SOLID
  5
ab
  330
a6
  100
AcDbEntity
  8
SK2
  100
AcDbTrace
  10
55
  20
0.2
  30
0
  11
55.326315
  21
-2.278612
  31
0
  12
54.673685
  22
-2.278612
  32
0
  13
54.673685
  23
-2.278612
  33
0
  0
MTEXT
  5
ac
  330
a6
  100
AcDbEntity
  8
SK2
  100
AcDbMText
  10
55
  20
0
  30
0
  11
0
  21
1
  31
0
  40
2
  41
0
  71
8
  72
1
  1
ﾘ0.4
  0
POINT
  5
ad
  330
a6
  100
AcDbEntity
  8
SK2
  62
0
  100
AcDbPoint
  10
44.8
  20
-0.2
  30
0
  0
POINT
  5
ae
  330
a6
  100
AcDbEntity
  8
SK2
  62
0
  100
AcDbPoint
  10
44.8
  20
0.2
  30
0
  0
POINT
  5
af
  330
a6
  100
AcDbEntity
  8
SK2
  62
0
  100
AcDbPoint
  10
55
  20
0.2
  30
0
  0
ENDBLK
  5
b0
  330
a6
  100
AcDbEntity
  8
SK2
  100
AcDbBlockEnd
  0
BLOCK
  5
b2
  330
b4
  100
AcDbEntity
  8
SK2
  100
AcDbBlockBegin
  2
*Db3
  70
1
  10
0
  20
0
  30
0
  3
*Db3
  1

  0
LINE
  5
b5
  330
b4
  100
AcDbEntity
  8
SK2
  100
AcDbLine
  10
35.3
  20
2
  30
0
  11
35.3
  21
14
  31
0
  0
LINE
  5
b6
  330
b4
  100
AcDbEntity
  8
SK2
  100
AcDbLine
  10
0
  20
1.3
  30
0
  11
0
  21
19
  31
0
  0
LINE
  5
b7
  330
b4
  100
AcDbEntity
  8
SK2
  100
AcDbLine
  10
35.3
  20
12
  30
0
  11
0
  21
12
  31
0
  0
SOLID
  5
b8
  330
b4
  100
AcDbEntity
  8
SK2
  100
AcDbTrace
  10
35.3
  20
12
  30
0
  11
37.778612
  21
12.326315
  31
0
  12
37.778612
  22
11.673685
  32
0
  13
37.778612
  23
11.673685
  33
0
  0
SOLID
  5
b9
  330
b4
  100
AcDbEntity
  8
SK2
  100
AcDbTrace
  10
0
  20
12
  30
0
  11
-2.478612
  21
11.673685
  31
0
  12
-2.478612
  22
12.326315
  32
0
  13
-2.478612
  23
12.326315
  33
0
  0
MTEXT
  5
ba
  330
b4
  100
AcDbEntity
  8
SK2
  100
AcDbMText
  10
17.65
  20
12
  30
0
  11
1
  21
-0
  31
0
  40
2
  41
0
  71
8
  72
1
  1
35.3
  0
POINT
  5
bb
  330
b4
  100
AcDbEntity
  8
SK2
  62
0
  100
AcDbPoint
  10
35.3
  20
2
  30
0
  0
POINT
  5
bc
  330
b4
  100
AcDbEntity
  8
SK2
  62
0
  100
AcDbPoint
  10
0
  20
1.3
  30
0
  0
POINT
  5
bd
  330
b4
  100
AcDbEntity
  8
SK2
  62
0
  100
AcDbPoint
  10
0
  20
12
  30
0
  0
ENDBLK
  5
be
  330
b4
  100
AcDbEntity
  8
SK2
  100
AcDbBlockEnd
  0
BLOCK
  5
c0
  330
c2
  100
AcDbEntity
  8
SK2
  100
AcDbBlockBegin
  2
*Dc1
  70
1
  10
0
  20
0
  30
0
  3
*Dc1
  1

  0
LINE
  5
c3
  330
c2
  100
AcDbEntity
  8
SK2
  100
AcDbLine
  10
0.7
  20
-2
  30
0
  11
-12
  21
-2
  31
0
  0
LINE
  5
c4
  330
c2
  100
AcDbEntity
  8
SK2
  100
AcDbLine
  10
0.7
  20
2
  30
0
  11
-12
  21
2
  31
0
  0
LINE
  5
c5
  330
c2
  100
AcDbEntity
  8
SK2
  100
AcDbLine
  10
-10
  20
-4.158416
  30
0
  11
-10
  21
2
  31
0
  0
SOLID
  5
c6
  330
c2
  100
AcDbEntity
  8
SK2
  100
AcDbTrace
  10
-10
  20
-2
  30
0
  11
-10.326315
  21
0.478612
  31
0
  12
-9.673685
  22
0.478612
  32
0
  13
-9.673685
  23
0.478612
  33
0
  0
SOLID
  5
c7
  330
c2
  100
AcDbEntity
  8
SK2
  100
AcDbTrace
  10
-10
  20
2
  30
0
  11
-9.673685
  21
-0.478612
  31
0
  12
-10.326315
  22
-0.478612
  32
0
  13
-10.326315
  23
-0.478612
  33
0
  0
MTEXT
  5
c8
  330
c2
  100
AcDbEntity
  8
SK2
  100
AcDbMText
  10
-10
  20
0
  30
0
  11
0
  21
1
  31
0
  40
2
  41
0
  71
8
  72
1
  1
ﾘ4
  0
POINT
  5
c9
  330
c2
  100
AcDbEntity
  8
SK2
  62
0
  100
AcDbPoint
  10
0.7
  20
-2
  30
0
  0
POINT
  5
ca
  330
c2
  100
AcDbEntity
  8
SK2
  62
0
  100
AcDbPoint
  10
0.7
  20
2
  30
0
  0
POINT
  5
cb
  330
c2
  100
AcDbEntity
  8
SK2
  62
0
  100
AcDbPoint
  10
-10
  20
2
  30
0
  0
ENDBLK
  5
cc
  330
c2
  100
AcDbEntity
  8
SK2
  100
AcDbBlockEnd
  0
BLOCK
  5
ce
  330
d0
  100
AcDbEntity
  8
2
  100
AcDbBlockBegin
  2
*Dcf
  70
1
  10
0
  20
0
  30
0
  3
*Dcf
  1

  0
LINE
  5
d1
  330
d0
  100
AcDbEntity
  8
2
  100
AcDbLine
  10
42.347401
  20
-2.452599
  30
0
  11
52.012489
  21
7.212489
  31
0
  0
MTEXT
  5
d2
  330
d0
  100
AcDbEntity
  8
2
  100
AcDbMText
  10
44.941421
  20
0.141421
  30
0
  11
0.707107
  21
0.707107
  31
0
  40
2
  41
0
  71
8
  72
1
  1
R0.2
  0
SOLID
  5
d3
  330
d0
  100
AcDbEntity
  8
2
  100
AcDbTrace
  10
44.941421
  20
0.141421
  30
0
  11
46.463325
  21
2.124805
  31
0
  12
46.924805
  22
1.663325
  32
0
  13
46.924805
  23
1.663325
  33
0
  0
POINT
  5
d4
  330
d0
  100
AcDbEntity
  8
2
  62
0
  100
AcDbPoint
  10
42.347401
  20
-2.452599
  30
0
  0
POINT
  5
d5
  330
d0
  100
AcDbEntity
  8
2
  62
0
  100
AcDbPoint
  10
44.8
  20
0
  30
0
  0
ENDBLK
  5
d6
  330
d0
  100
AcDbEntity
  8
2
  100
AcDbBlockEnd
  0
BLOCK
  5
d8
  330
da
  100
AcDbEntity
  8
2
  100
AcDbBlockBegin
  2
*Dd9
  70
1
  10
0
  20
0
  30
0
  3
*Dd9
  1

  0
LINE
  5
db
  330
da
  100
AcDbEntity
  8
2
  100
AcDbLine
  10
44.7
  20
-0.185
  30
0
  11
42.7
  21
-0.185
  31
0
  0
LINE
  5
dc
  330
da
  100
AcDbEntity
  8
2
  100
AcDbLine
  10
44.7
  20
0.185
  30
0
  11
42.7
  21
0.185
  31
0
  0
LINE
  5
dd
  330
da
  100
AcDbEntity
  8
2
  100
AcDbLine
  10
44.7
  20
-0.185
  30
0
  11
44.7
  21
8.576733
  31
0
  0
SOLID
  5
de
  330
da
  100
AcDbEntity
  8
2
  100
AcDbTrace
  10
44.7
  20
-0.185
  30
0
  11
44.373685
  21
2.293612
  31
0
  12
45.026315
  22
2.293612
  32
0
  13
45.026315
  23
2.293612
  33
0
  0
SOLID
  5
df
  330
da
  100
AcDbEntity
  8
2
  100
AcDbTrace
  10
44.7
  20
0.185
  30
0
  11
45.026315
  21
-2.293612
  31
0
  12
44.373685
  22
-2.293612
  32
0
  13
44.373685
  23
-2.293612
  33
0
  0
MTEXT
  5
e0
  330
da
  100
AcDbEntity
  8
2
  100
AcDbMText
  10
44.7
  20
0.185
  30
0
  11
0
  21
1
  31
0
  40
2
  41
0
  71
8
  72
1
  1
ﾘ0.37
  0
POINT
  5
e1
  330
da
  100
AcDbEntity
  8
2
  62
0
  100
AcDbPoint
  10
42.7
  20
-0.185
  30
0
  0
POINT
  5
e2
  330
da
  100
AcDbEntity
  8
2
  62
0
  100
AcDbPoint
  10
42.7
  20
0.185
  30
0
  0
POINT
  5
e3
  330
da
  100
AcDbEntity
  8
2
  62
0
  100
AcDbPoint
  10
44.7
  20
8.576733
  30
0
  0
ENDBLK
  5
e4
  330
da
  100
AcDbEntity
  8
2
  100
AcDbBlockEnd
  0
BLOCK
  5
e6
  330
e8
  100
AcDbEntity
  8
2
  100
AcDbBlockBegin
  2
*De7
  70
1
  10
0
  20
0
  30
0
  3
*De7
  1

  0
LINE
  5
e9
  330
e8
  100
AcDbEntity
  8
2
  100
AcDbLine
  10
44.7
  20
0.185
  30
0
  11
44.7
  21
9
  31
0
  0
LINE
  5
ea
  330
e8
  100
AcDbEntity
  8
2
  100
AcDbLine
  10
42.355981
  20
0.185
  30
0
  11
42.355981
  21
9
  31
0
  0
LINE
  5
eb
  330
e8
  100
AcDbEntity
  8
2
  100
AcDbLine
  10
44.7
  20
7
  30
0
  11
35.216584
  21
7
  31
0
  0
SOLID
  5
ec
  330
e8
  100
AcDbEntity
  8
2
  100
AcDbTrace
  10
44.7
  20
7
  30
0
  11
47.178612
  21
7.326315
  31
0
  12
47.178612
  22
6.673685
  32
0
  13
47.178612
  23
6.673685
  33
0
  0
SOLID
  5
ed
  330
e8
  100
AcDbEntity
  8
2
  100
AcDbTrace
  10
42.355981
  20
7
  30
0
  11
39.877369
  21
6.673685
  31
0
  12
39.877369
  22
7.326315
  32
0
  13
39.877369
  23
7.326315
  33
0
  0
MTEXT
  5
ee
  330
e8
  100
AcDbEntity
  8
2
  100
AcDbMText
  10
43.52799
  20
7
  30
0
  11
1
  21
-0
  31
0
  40
2
  41
0
  71
8
  72
1
  1
2.344
  0
POINT
  5
ef
  330
e8
  100
AcDbEntity
  8
2
  62
0
  100
AcDbPoint
  10
44.7
  20
0.185
  30
0
  0
POINT
  5
f0
  330
e8
  100
AcDbEntity
  8
2
  62
0
  100
AcDbPoint
  10
42.355981
  20
0.185
  30
0
  0
POINT
  5
f1
  330
e8
  100
AcDbEntity
  8
2
  62
0
  100
AcDbPoint
  10
35.216584
  20
7
  30
0
  0
ENDBLK
  5
f2
  330
e8
  100
AcDbEntity
  8
2
  100
AcDbBlockEnd
  0
BLOCK
  5
f4
  330
f6
  100
AcDbEntity
  8
2
  100
AcDbBlockBegin
  2
*Df5
  70
1
  10
0
  20
0
  30
0
  3
*Df5
  1

  0
LINE
  5
f7
  330
f6
  100
AcDbEntity
  8
2
  100
AcDbLine
  10
45
  20
-14
  30
0
  11
45
  21
19
  31
0
  0
LINE
  5
f8
  330
f6
  100
AcDbEntity
  8
2
  100
AcDbLine
  10
35.3
  20
2
  30
0
  11
35.3
  21
9
  31
0
  0
LINE
  5
f9
  330
f6
  100
AcDbEntity
  8
2
  100
AcDbLine
  10
45
  20
7
  30
0
  11
35.3
  21
7
  31
0
  0
SOLID
  5
fa
  330
f6
  100
AcDbEntity
  8
2
  100
AcDbTrace
  10
45
  20
7
  30
0
  11
47.478612
  21
7.326315
  31
0
  12
47.478612
  22
6.673685
  32
0
  13
47.478612
  23
6.673685
  33
0
  0
SOLID
  5
fb
  330
f6
  100
AcDbEntity
  8
2
  100
AcDbTrace
  10
35.3
  20
7
  30
0
  11
32.821388
  21
6.673685
  31
0
  12
32.821388
  22
7.326315
  32
0
  13
32.821388
  23
7.326315
  33
0
  0
MTEXT
  5
fc
  330
f6
  100
AcDbEntity
  8
2
  100
AcDbMText
  10
40.15
  20
7
  30
0
  11
1
  21
-0
  31
0
  40
2
  41
0
  71
8
  72
1
  1
9.7
  0
POINT
  5
fd
  330
f6
  100
AcDbEntity
  8
2
  62
0
  100
AcDbPoint
  10
45
  20
-14
  30
0
  0
POINT
  5
fe
  330
f6
  100
AcDbEntity
  8
2
  62
0
  100
AcDbPoint
  10
35.3
  20
2
  30
0
  0
POINT
  5
ff
  330
f6
  100
AcDbEntity
  8
2
  62
0
  100
AcDbPoint
  10
35.3
  20
7
  30
0
  0
ENDBLK
  5
100
  330
f6
  100
AcDbEntity
  8
2
  100
AcDbBlockEnd
  0
BLOCK
  5
102
  330
104
  100
AcDbEntity
  8
2
  100
AcDbBlockBegin
  2
*D103
  70
1
  10
0
  20
0
  30
0
  3
*D103
  1

  0
LINE
  5
105
  330
104
  100
AcDbEntity
  8
2
  100
AcDbLine
  10
44.7
  20
-0.185
  30
0
  11
44.7
  21
-14
  31
0
  0
LINE
  5
106
  330
104
  100
AcDbEntity
  8
2
  100
AcDbLine
  10
45
  20
-14
  30
0
  11
45
  21
19
  31
0
  0
LINE
  5
107
  330
104
  100
AcDbEntity
  8
2
  100
AcDbLine
  10
40.414604
  20
-12
  30
0
  11
45
  21
-12
  31
0
  0
SOLID
  5
108
  330
104
  100
AcDbEntity
  8
2
  100
AcDbTrace
  10
44.7
  20
-12
  30
0
  11
47.178612
  21
-11.673685
  31
0
  12
47.178612
  22
-12.326315
  32
0
  13
47.178612
  23
-12.326315
  33
0
  0
SOLID
  5
109
  330
104
  100
AcDbEntity
  8
2
  100
AcDbTrace
  10
45
  20
-12
  30
0
  11
42.521388
  21
-12.326315
  31
0
  12
42.521388
  22
-11.673685
  32
0
  13
42.521388
  23
-11.673685
  33
0
  0
MTEXT
  5
10a
  330
104
  100
AcDbEntity
  8
2
  100
AcDbMText
  10
44.85
  20
-12
  30
0
  11
1
  21
0
  31
0
  40
2
  41
0
  71
8
  72
1
  1
0.3
  0
POINT
  5
10b
  330
104
  100
AcDbEntity
  8
2
  62
0
  100
AcDbPoint
  10
44.7
  20
-0.185
  30
0
  0
POINT
  5
10c
  330
104
  100
AcDbEntity
  8
2
  62
0
  100
AcDbPoint
  10
45
  20
19
  30
0
  0
POINT
  5
10d
  330
104
  100
AcDbEntity
  8
2
  62
0
  100
AcDbPoint
  10
45
  20
-12
  30
0
  0
ENDBLK
  5
10e
  330
104
  100
AcDbEntity
  8
2
  100
AcDbBlockEnd
  0
ENDSEC
  0
SECTION
  2
ENTITIES
  0
DIMENSION
  5
a3
  100
AcDbEntity
  8
SK2
  100
AcDbDimension
  2
*D97
  10
45
  20
17
  30
0
  11
22.5
  21
17
  31
0
  70
160
  1
<>
  71
5
  3
STANDARD
  42
45
  100
AcDbAlignedDimension
  13
0
  23
1.3
  33
0
  14
45
  24
-14
  34
0
  50
0
  100
AcDbRotatedDimension
  0
DIMENSION
  5
b1
  100
AcDbEntity
  8
SK2
  100
AcDbDimension
  2
*Da5
  10
55
  20
0.2
  30
0
  11
55
  21
0
  31
0
  70
160
  1
%%c<>
  71
5
  3
STANDARD
  42
0.4
  100
AcDbAlignedDimension
  13
44.8
  23
-0.2
  33
0
  14
44.8
  24
0.2
  34
0
  50
-90
  100
AcDbRotatedDimension
  0
DIMENSION
  5
bf
  100
AcDbEntity
  8
SK2
  100
AcDbDimension
  2
*Db3
  10
0
  20
12
  30
0
  11
17.65
  21
12
  31
0
  70
160
  1
<>
  71
5
  3
STANDARD
  42
35.3
  100
AcDbAlignedDimension
  13
35.3
  23
2
  33
0
  14
0
  24
1.3
  34
0
  50
0
  100
AcDbRotatedDimension
  0
DIMENSION
  5
cd
  100
AcDbEntity
  8
SK2
  100
AcDbDimension
  2
*Dc1
  10
-10
  20
2
  30
0
  11
-10
  21
0
  31
0
  70
160
  1
%%c<>
  71
5
  3
STANDARD
  42
4
  100
AcDbAlignedDimension
  13
0.7
  23
-2
  33
0
  14
0.7
  24
2
  34
0
  50
-90
  100
AcDbRotatedDimension
  0
DIMENSION
  5
d7
  100
AcDbEntity
  8
2
  100
AcDbDimension
  2
*Dcf
  10
44.8
  20
0
  30
0
  11
44.941421
  21
0.141421
  31
0
  70
164
  1
R0.2
  71
5
  3
STANDARD
  100
AcDbRadialDimension
  15
44.941421
  25
0.141421
  35
0
  50
45
  0
DIMENSION
  5
e5
  100
AcDbEntity
  8
2
  100
AcDbDimension
  2
*Dd9
  10
44.7
  20
8.576733
  30
0
  11
44.7
  21
0.185
  31
0
  70
160
  1
%%c<>
  71
5
  3
STANDARD
  42
0.37
  100
AcDbAlignedDimension
  13
42.7
  23
-0.185
  33
0
  14
42.7
  24
0.185
  34
0
  50
-90
  100
AcDbRotatedDimension
  0
DIMENSION
  5
f3
  100
AcDbEntity
  8
2
  100
AcDbDimension
  2
*De7
  10
35.216584
  20
7
  30
0
  11
43.52799
  21
7
  31
0
  70
160
  1
<>
  71
5
  3
STANDARD
  42
2.344019
  100
AcDbAlignedDimension
  13
44.7
  23
0.185
  33
0
  14
42.355981
  24
0.185
  34
0
  50
0
  100
AcDbRotatedDimension
  0
DIMENSION
  5
101
  100
AcDbEntity
  8
2
  100
AcDbDimension
  2
*Df5
  10
35.3
  20
7
  30
0
  11
40.15
  21
7
  31
0
  70
160
  1
<>
  71
5
  3
STANDARD
  42
9.7
  100
AcDbAlignedDimension
  13
45
  23
-14
  33
0
  14
35.3
  24
2
  34
0
  50
0
  100
AcDbRotatedDimension
  0
DIMENSION
  5
10f
  100
AcDbEntity
  8
2
  100
AcDbDimension
  2
*D103
  10
45
  20
-12
  30
0
  11
44.85
  21
-12
  31
0
  70
160
  1
<>
  71
5
  3
STANDARD
  42
0.3
  100
AcDbAlignedDimension
  13
44.7
  23
-0.185
  33
0
  14
45
  24
19
  34
0
  50
0
  100
AcDbRotatedDimension
  0
LINE
  5
36
  100
AcDbEntity
  8
1
  100
AcDbLine
  10
35.3
  20
-2
  30
0
  11
35.3
  21
2
  31
0
  0
LINE
  5
37
  100
AcDbEntity
  8
1
  100
AcDbLine
  10
35.3
  20
2
  30
0
  11
35.3
  21
-2
  31
0
  0
LINE
  5
38
  100
AcDbEntity
  8
1
  100
AcDbLine
  10
35.582309
  20
-2
  30
0
  11
35.582309
  21
2
  31
0
  0
LINE
  5
39
  100
AcDbEntity
  8
1
  100
AcDbLine
  10
42.355981
  20
0.185
  30
0
  11
42.355981
  21
-0.185
  31
0
  0
LINE
  5
3a
  100
AcDbEntity
  8
1
  100
AcDbLine
  10
44.7
  20
-0.2
  30
0
  11
44.7
  21
0.2
  31
0
  0
LINE
  5
3b
  100
AcDbEntity
  8
1
  100
AcDbLine
  10
44.7
  20
0.185
  30
0
  11
44.7
  21
-0.185
  31
0
  0
LINE
  5
3c
  100
AcDbEntity
  8
1
  100
AcDbLine
  10
44.7
  20
-0.2
  30
0
  11
44.7
  21
-0.184988
  31
0
  0
LINE
  5
3d
  100
AcDbEntity
  8
1
  100
AcDbLine
  10
44.7
  20
-0.184988
  30
0
  11
44.7
  21
-0.2
  31
0
  0
LINE
  5
3e
  100
AcDbEntity
  8
1
  100
AcDbLine
  10
44.7
  20
-0.2
  30
0
  11
44.8
  21
-0.2
  31
0
  0
ARC
  5
3f
  100
AcDbEntity
  8
1
  100
AcDbCircle
  10
44.8
  20
0
  30
0
  40
0.2
  100
AcDbArc
  50
270
  51
0
  0
ARC
  5
40
  100
AcDbEntity
  8
1
  100
AcDbCircle
  10
44.8
  20
0
  30
0
  40
0.2
  100
AcDbArc
  50
0
  51
90
  0
LINE
  5
41
  100
AcDbEntity
  8
1
  100
AcDbLine
  10
44.8
  20
0.2
  30
0
  11
44.7
  21
0.2
  31
0
  0
LINE
  5
42
  100
AcDbEntity
  8
1
  100
AcDbLine
  10
44.7
  20
0.2
  30
0
  11
44.7
  21
0.185
  31
0
  0
LINE
  5
43
  100
AcDbEntity
  8
1
  100
AcDbLine
  10
44.7
  20
0.185
  30
0
  11
42.355981
  21
0.185
  31
0
  0
LINE
  5
44
  100
AcDbEntity
  8
1
  100
AcDbLine
  10
42.355981
  20
0.185
  30
0
  11
35.582309
  21
2
  31
0
  0
LINE
  5
45
  100
AcDbEntity
  8
1
  100
AcDbLine
  10
35.582309
  20
2
  30
0
  11
35.3
  21
2
  31
0
  0
LINE
  5
46
  100
AcDbEntity
  8
1
  100
AcDbLine
  10
35.3
  20
2
  30
0
  11
35.3
  21
-2
  31
0
  0
LINE
  5
47
  100
AcDbEntity
  8
1
  100
AcDbLine
  10
35.3
  20
-2
  30
0
  11
35.582309
  21
-2
  31
0
  0
LINE
  5
48
  100
AcDbEntity
  8
1
  100
AcDbLine
  10
35.582309
  20
-2
  30
0
  11
42.355981
  21
-0.185
  31
0
  0
LINE
  5
49
  100
AcDbEntity
  8
1
  100
AcDbLine
  10
42.355981
  20
-0.185
  30
0
  11
44.7
  21
-0.185
  31
0
  0
LINE
  5
4a
  100
AcDbEntity
  8
1
  100
AcDbLine
  10
44.7
  20
-0.185
  30
0
  11
44.7
  21
-0.2
  31
0
  0
LINE
  5
4b
  100
AcDbEntity
  8
1
  100
AcDbLine
  10
44.7
  20
-0.2
  30
0
  11
44.8
  21
-0.2
  31
0
  0
LINE
  5
4c
  100
AcDbEntity
  8
1
  100
AcDbLine
  10
44.8
  20
-0.2
  30
0
  11
44.9
  21
-0.173164
  31
0
  0
LINE
  5
4d
  100
AcDbEntity
  8
1
  100
AcDbLine
  10
44.9
  20
-0.173164
  30
0
  11
44.9
  21
-0.173205
  31
0
  0
LINE
  5
4e
  100
AcDbEntity
  8
1
  100
AcDbLine
  10
44.9
  20
-0.173205
  30
0
  11
44.9
  21
-0.173164
  31
0
  0
LINE
  5
4f
  100
AcDbEntity
  8
1
  100
AcDbLine
  10
44.9
  20
-0.169263
  30
0
  11
44.8
  21
-0.196527
  31
0
  0
LINE
  5
50
  100
AcDbEntity
  8
1
  100
AcDbLine
  10
44.8
  20
-0.2
  30
0
  11
44.8
  21
0.2
  31
0
  0
LINE
  5
51
  100
AcDbEntity
  8
1
  100
AcDbLine
  10
44.8
  20
0.2
  30
0
  11
44.7
  21
0.2
  31
0
  0
LINE
  5
52
  100
AcDbEntity
  8
1
  100
AcDbLine
  10
44.7
  20
0.2
  30
0
  11
44.7
  21
-0.170644
  31
0
  0
LINE
  5
53
  100
AcDbEntity
  8
1
  100
AcDbLine
  10
44.7
  20
-0.170644
  30
0
  11
44.7
  21
-0.187939
  31
0
  0
LINE
  5
54
  100
AcDbEntity
  8
1
  100
AcDbLine
  10
44.7
  20
-0.187939
  30
0
  11
44.8
  21
-0.187939
  31
0
  0
LINE
  5
55
  100
AcDbEntity
  8
1
  100
AcDbLine
  10
44.8
  20
-0.187939
  30
0
  11
44.9
  21
-0.156638
  31
0
  0
LINE
  5
56
  100
AcDbEntity
  8
1
  100
AcDbLine
  10
44.9
  20
-0.156638
  30
0
  11
44.9
  21
0.173205
  31
0
  0
LINE
  5
57
  100
AcDbEntity
  8
1
  100
AcDbLine
  10
44.9
  20
0.173205
  30
0
  11
44.9
  21
-0.156638
  31
0
  0
LINE
  5
58
  100
AcDbEntity
  8
SK1
  100
AcDbLine
  10
35.3
  20
2
  30
0
  11
0.7
  21
2
  31
0
  0
LINE
  5
59
  100
AcDbEntity
  8
SK1
  100
AcDbLine
  10
0.7
  20
2
  30
0
  11
0
  21
1.3
  31
0
  0
LINE
  5
5a
  100
AcDbEntity
  8
SK1
  100
AcDbLine
  10
35.3
  20
-2
  30
0
  11
0.7
  21
-2
  31
0
  0
LINE
  5
5b
  100
AcDbEntity
  8
SK1
  100
AcDbLine
  10
0.7
  20
-2
  30
0
  11
0
  21
-1.3
  31
0
  0
LINE
  5
5c
  100
AcDbEntity
  8
SK1
  100
AcDbLine
  10
0.7
  20
2
  30
0
  11
0.7
  21
-2
  31
0
  0
LINE
  5
5d
  100
AcDbEntity
  8
SK1
  100
AcDbLine
  10
0
  20
1.3
  30
0
  11
0
  21
-1.3
  31
0
  0
LINE
  5
5e
  100
AcDbEntity
  8
SK1
  100
AcDbLine
  10
36.3401
  20
1.40688
  30
0
  11
36.7069
  21
1.0401
  31
0
  0
LINE
  5
5f
  100
AcDbEntity
  8
SK1
  100
AcDbLine
  10
35.8328
  20
1.66666
  30
0
  11
36.9667
  21
0.532833
  31
0
  0
LINE
  5
60
  100
AcDbEntity
  8
SK1
  100
AcDbLine
  10
35.5154
  20
1.73657
  30
0
  11
37.0366
  21
0.215434
  31
0
  0
LINE
  5
61
  100
AcDbEntity
  8
SK1
  100
AcDbLine
  10
35.3
  20
1.70452
  30
0
  11
37.0045
  21
0
  31
0
  0
LINE
  5
62
  100
AcDbEntity
  8
SK1
  100
AcDbLine
  10
35.3
  20
1.45703
  30
0
  11
36.757
  21
0
  31
0
  0
LINE
  5
63
  100
AcDbEntity
  8
SK1
  100
AcDbLine
  10
35.3
  20
1.20954
  30
0
  11
36.5095
  21
0
  31
0
  0
LINE
  5
64
  100
AcDbEntity
  8
SK1
  100
AcDbLine
  10
35.3
  20
0.962054
  30
0
  11
36.2621
  21
0
  31
0
  0
LINE
  5
65
  100
AcDbEntity
  8
SK1
  100
AcDbLine
  10
35.3
  20
0.714566
  30
0
  11
36.0146
  21
0
  31
0
  0
LINE
  5
66
  100
AcDbEntity
  8
SK1
  100
AcDbLine
  10
35.3
  20
0.467079
  30
0
  11
35.7671
  21
0
  31
0
  0
LINE
  5
67
  100
AcDbEntity
  8
SK1
  100
AcDbLine
  10
35.3
  20
0.219592
  30
0
  11
35.5196
  21
0
  31
0
  0
LINE
  5
68
  100
AcDbEntity
  8
SK1
  100
AcDbLine
  10
35.3
  20
1.70452
  30
0
  11
35.3441
  21
1.74861
  31
0
  0
LINE
  5
69
  100
AcDbEntity
  8
SK1
  100
AcDbLine
  10
35.3
  20
1.45703
  30
0
  11
35.571
  21
1.72802
  31
0
  0
LINE
  5
6a
  100
AcDbEntity
  8
SK1
  100
AcDbLine
  10
35.3
  20
1.20954
  30
0
  11
35.7742
  21
1.6837
  31
0
  0
LINE
  5
6b
  100
AcDbEntity
  8
SK1
  100
AcDbLine
  10
35.3
  20
0.962054
  30
0
  11
35.9588
  21
1.62082
  31
0
  0
LINE
  5
6c
  100
AcDbEntity
  8
SK1
  100
AcDbLine
  10
35.3
  20
0.714566
  30
0
  11
36.1271
  21
1.54167
  31
0
  0
LINE
  5
6d
  100
AcDbEntity
  8
SK1
  100
AcDbLine
  10
35.3
  20
0.467079
  30
0
  11
36.281
  21
1.44812
  31
0
  0
LINE
  5
6e
  100
AcDbEntity
  8
SK1
  100
AcDbLine
  10
35.3
  20
0.219592
  30
0
  11
36.4226
  21
1.34216
  31
0
  0
LINE
  5
6f
  100
AcDbEntity
  8
SK1
  100
AcDbLine
  10
35.3279
  20
0
  30
0
  11
36.5508
  21
1.22288
  31
0
  0
LINE
  5
70
  100
AcDbEntity
  8
SK1
  100
AcDbLine
  10
35.5754
  20
0
  30
0
  11
36.667
  21
1.09157
  31
0
  0
LINE
  5
71
  100
AcDbEntity
  8
SK1
  100
AcDbLine
  10
35.8229
  20
0
  30
0
  11
36.7707
  21
0.947822
  31
0
  0
LINE
  5
72
  100
AcDbEntity
  8
SK1
  100
AcDbLine
  10
36.0704
  20
0
  30
0
  11
36.8605
  21
0.790145
  31
0
  0
LINE
  5
73
  100
AcDbEntity
  8
SK1
  100
AcDbLine
  10
36.3178
  20
0
  30
0
  11
36.9364
  21
0.618517
  31
0
  0
LINE
  5
74
  100
AcDbEntity
  8
SK1
  100
AcDbLine
  10
36.5653
  20
0
  30
0
  11
36.996
  21
0.430696
  31
0
  0
LINE
  5
75
  100
AcDbEntity
  8
SK1
  100
AcDbLine
  10
36.8128
  20
0
  30
0
  11
37.0356
  21
0.222827
  31
0
  0
LINE
  5
76
  100
AcDbEntity
  8
SK1
  100
AcDbLine
  10
35.3
  20
0
  30
0
  11
35.3
  21
1.75
  31
0
  0
LINE
  5
77
  100
AcDbEntity
  8
SK1
  100
AcDbLine
  10
35.3
  20
0
  30
0
  11
37.05
  21
0
  31
0
  0
ARC
  5
78
  100
AcDbEntity
  8
SK1
  100
AcDbCircle
  10
35.3
  20
0
  30
0
  40
1.75
  100
AcDbArc
  50
0
  51
90
  0
ARC
  5
79
  100
AcDbEntity
  8
SK1
  100
AcDbCircle
  10
35.3
  20
0
  30
0
  40
1.75
  100
AcDbArc
  50
90
  51
180
  0
LINE
  5
7a
  100
AcDbEntity
  8
SK1
  100
AcDbLine
  10
35.2721
  20
0
  30
0
  11
35.3
  21
-0.027896
  31
0
  0
LINE
  5
7b
  100
AcDbEntity
  8
SK1
  100
AcDbLine
  10
35.0246
  20
0
  30
0
  11
35.3
  21
-0.275383
  31
0
  0
LINE
  5
7c
  100
AcDbEntity
  8
SK1
  100
AcDbLine
  10
34.7771
  20
0
  30
0
  11
35.3
  21
-0.522871
  31
0
  0
LINE
  5
7d
  100
AcDbEntity
  8
SK1
  100
AcDbLine
  10
34.5296
  20
0
  30
0
  11
35.3
  21
-0.770358
  31
0
  0
LINE
  5
7e
  100
AcDbEntity
  8
SK1
  100
AcDbLine
  10
34.2822
  20
0
  30
0
  11
35.3
  21
-1.01785
  31
0
  0
LINE
  5
7f
  100
AcDbEntity
  8
SK1
  100
AcDbLine
  10
34.0347
  20
0
  30
0
  11
35.3
  21
-1.26533
  31
0
  0
LINE
  5
80
  100
AcDbEntity
  8
SK1
  100
AcDbLine
  10
33.7872
  20
0
  30
0
  11
35.3
  21
-1.51282
  31
0
  0
LINE
  5
81
  100
AcDbEntity
  8
SK1
  100
AcDbLine
  10
33.5503
  20
-0.010642
  30
0
  11
35.2894
  21
-1.74967
  31
0
  0
LINE
  5
82
  100
AcDbEntity
  8
SK1
  100
AcDbLine
  10
33.5736
  20
-0.281429
  30
0
  11
35.0186
  21
-1.72637
  31
0
  0
LINE
  5
83
  100
AcDbEntity
  8
SK1
  100
AcDbLine
  10
33.6639
  20
-0.619147
  30
0
  11
34.6809
  21
-1.63613
  31
0
  0
LINE
  5
84
  100
AcDbEntity
  8
SK1
  100
AcDbLine
  10
33.5514
  20
-0.044098
  30
0
  11
33.5955
  21
0
  31
0
  0
LINE
  5
85
  100
AcDbEntity
  8
SK1
  100
AcDbLine
  10
33.572
  20
-0.270991
  30
0
  11
33.843
  21
0
  31
0
  0
LINE
  5
86
  100
AcDbEntity
  8
SK1
  100
AcDbLine
  10
33.6163
  20
-0.474162
  30
0
  11
34.0905
  21
0
  31
0
  0
LINE
  5
87
  100
AcDbEntity
  8
SK1
  100
AcDbLine
  10
33.6792
  20
-0.658762
  30
0
  11
34.3379
  21
0
  31
0
  0
LINE
  5
88
  100
AcDbEntity
  8
SK1
  100
AcDbLine
  10
33.7583
  20
-0.827105
  30
0
  11
34.5854
  21
0
  31
0
  0
LINE
  5
89
  100
AcDbEntity
  8
SK1
  100
AcDbLine
  10
33.8519
  20
-0.981039
  30
0
  11
34.8329
  21
0
  31
0
  0
LINE
  5
8a
  100
AcDbEntity
  8
SK1
  100
AcDbLine
  10
33.9578
  20
-1.12257
  30
0
  11
35.0804
  21
0
  31
0
  0
LINE
  5
8b
  100
AcDbEntity
  8
SK1
  100
AcDbLine
  10
34.0771
  20
-1.25077
  30
0
  11
35.3
  21
-0.027896
  31
0
  0
LINE
  5
8c
  100
AcDbEntity
  8
SK1
  100
AcDbLine
  10
34.2084
  20
-1.36695
  30
0
  11
35.3
  21
-0.275383
  31
0
  0
LINE
  5
8d
  100
AcDbEntity
  8
SK1
  100
AcDbLine
  10
34.3522
  20
-1.47069
  30
0
  11
35.3
  21
-0.522871
  31
0
  0
LINE
  5
8e
  100
AcDbEntity
  8
SK1
  100
AcDbLine
  10
34.5099
  20
-1.5605
  30
0
  11
35.3
  21
-0.770358
  31
0
  0
LINE
  5
8f
  100
AcDbEntity
  8
SK1
  100
AcDbLine
  10
34.6815
  20
-1.63636
  30
0
  11
35.3
  21
-1.01785
  31
0
  0
LINE
  5
90
  100
AcDbEntity
  8
SK1
  100
AcDbLine
  10
34.8693
  20
-1.69603
  30
0
  11
35.3
  21
-1.26533
  31
0
  0
LINE
  5
91
  100
AcDbEntity
  8
SK1
  100
AcDbLine
  10
35.0772
  20
-1.73565
  30
0
  11
35.3
  21
-1.51282
  31
0
  0
LINE
  5
92
  100
AcDbEntity
  8
SK1
  100
AcDbLine
  10
35.3
  20
0
  30
0
  11
33.55
  21
0
  31
0
  0
LINE
  5
93
  100
AcDbEntity
  8
SK1
  100
AcDbLine
  10
35.3
  20
-1.75
  30
0
  11
35.3
  21
0
  31
0
  0
ARC
  5
94
  100
AcDbEntity
  8
SK1
  100
AcDbCircle
  10
35.3
  20
0
  30
0
  40
1.75
  100
AcDbArc
  50
180
  51
270
  0
ARC
  5
95
  100
AcDbEntity
  8
SK1
  100
AcDbCircle
  10
35.3
  20
0
  30
0
  40
1.75
  100
AcDbArc
  50
270
  51
0
  0
LINE
  5
110
  100
AcDbEntity
  8
NOCUT
  100
AcDbLine
  10
44.7
  20
0
  30
0
  11
44.7
  21
0.185
  31
0
  0
LINE
  5
111
  100
AcDbEntity
  8
NOCUT
  100
AcDbLine
  10
44.7
  20
0.185
  30
0
  11
42.355981
  21
0.185
  31
0
  0
LINE
  5
112
  100
AcDbEntity
  8
NOCUT
  100
AcDbLine
  10
42.355981
  20
0.185
  30
0
  11
35.582309
  21
2
  31
0
  0
LINE
  5
113
  100
AcDbEntity
  8
NOCUT
  100
AcDbLine
  10
35.582309
  20
2
  30
0
  11
35.3
  21
2
  31
0
  0
LINE
  5
114
  100
AcDbEntity
  8
NOCUT
  100
AcDbLine
  10
35.3
  20
2
  30
0
  11
35.3
  21
0
  31
0
  0
LINE
  5
115
  100
AcDbEntity
  8
NOCUT
  100
AcDbLine
  10
35.3
  20
0
  30
0
  11
44.7
  21
0
  31
0
  0
ARC
  5
116
  100
AcDbEntity
  8
CUT
  100
AcDbCircle
  10
44.8
  20
0
  30
0
  40
0.2
  100
AcDbArc
  50
0
  51
90
  0
LINE
  5
117
  100
AcDbEntity
  8
CUT
  100
AcDbLine
  10
44.8
  20
0.2
  30
0
  11
44.7
  21
0.2
  31
0
  0
LINE
  5
118
  100
AcDbEntity
  8
CUT
  100
AcDbLine
  10
44.7
  20
0.2
  30
0
  11
44.7
  21
0
  31
0
  0
LINE
  5
119
  100
AcDbEntity
  8
CUT
  100
AcDbLine
  10
44.7
  20
0
  30
0
  11
45
  21
0
  31
0
  0
LINE
  5
11a
  100
AcDbEntity
  8
4
  100
AcDbLine
  10
35.3
  20
0
  30
0
  11
45
  21
0
  31
0
  0
LINE
  5
11b
  100
AcDbEntity
  8
SK4
  100
AcDbLine
  10
-1
  20
0
  30
0
  11
46
  21
0
  31
0
  0
LINE
  5
11c
  100
AcDbEntity
  8
INFTOTAL
  100
AcDbLine
  10
-15.45
  20
22.45
  30
0
  11
60.45
  21
22.45
  31
0
  0
LINE
  5
11d
  100
AcDbEntity
  8
INFTOTAL
  100
AcDbLine
  10
60.45
  20
22.45
  30
0
  11
60.45
  21
-17.45
  31
0
  0
LINE
  5
11e
  100
AcDbEntity
  8
INFTOTAL
  100
AcDbLine
  10
60.45
  20
-17.45
  30
0
  11
-15.45
  21
-17.45
  31
0
  0
LINE
  5
11f
  100
AcDbEntity
  8
INFTOTAL
  100
AcDbLine
  10
-15.45
  20
-17.45
  30
0
  11
-15.45
  21
22.45
  31
0
  0
ENDSEC
  0
SECTION
  2
OBJECTS
  0
DICTIONARY
  5
120
  330
0
100
AcDbDictionary
281
    1
  3
ACAD_GROUP
  350
121
  0
DICTIONARY
  5
121
102
{ACAD_REACTORS
  330
120
102
}
  330
120
100
AcDbDictionary
281
    1
  0
ENDSEC
  0
EOF
