  0
SECTION
  2
HEADER
  9
$ACADVER
  1
AC1015
  9
$DWGCODEPAGE
  3
ANSI_932
  9
$HANDSEED
  5
106AB90
  0
ENDSEC
  0
SECTION
  2
CLASSES
  0
CLASS
  1
IMAGEDEF
  2
AcDbRasterImageDef
  3
ISM
  90
0
  91
4
  280
0
  281
0
  0
CLASS
  1
IMAGE
  2
AcDbRasterImage
  3
ISM
  90
127
  91
5
  280
0
  281
1
  0
CLASS
  1
IMAGEDEF_REACTOR
  2
AcDbRasterImageDefReactor
  3
ISM
  90
1
  91
4
  280
0
  281
0
  0
ENDSEC
  0
SECTION
  2
TABLES
  0
TABLE
  2
VPORT
  5
2
  330
0
  100
AcDbSymbolTable
  70
    0
  0
ENDTAB
  0
TABLE
  2
LTYPE
  5
3
  330
0
  100
AcDbSymbolTable
  70
    4
  0
LTYPE
  5
4
  330
3
  100
AcDbSymbolTableRecord
  100
AcDbLinetypeTableRecord
  2
ByBlock
  70
    0
  3

  72
65
  73
    0
  40
0
  0
LTYPE
  5
5
  330
3
  100
AcDbSymbolTableRecord
  100
AcDbLinetypeTableRecord
  2
ByLayer
  70
    0
  3

  72
65
  73
    0
  40
0
  0
LTYPE
  5
6
  330
3
  100
AcDbSymbolTableRecord
  100
AcDbLinetypeTableRecord
  2
CONTINUOUS
  70
    0
  3
Solid Line
  72
65
  73
    0
  40
0
  0
LTYPE
  5
7
  330
3
  100
AcDbSymbolTableRecord
  100
AcDbLinetypeTableRecord
  2
DASH
  70
    0
  3
Hidden
  72
65
  73
2
  40
2.5
  49
1.5
  74
0
  49
-1
  74
0
  0
LTYPE
  5
8
  330
3
  100
AcDbSymbolTableRecord
  100
AcDbLinetypeTableRecord
  2
LONGDASHDASH
  70
    0
  3
__ . __
  72
65
  73
    4
  40
7
  49
4
  74
    0
  49
-1
  74
    0
  49
1
  74
    0
  49
-1
  74
    0
  0
ENDTAB
  0
TABLE
  2
LAYER
  5
9
  330
0
  100
AcDbSymbolTable
  70
    40
  0
LAYER
  5
a
  330
9
  100
AcDbSymbolTableRecord
  100
AcDbLayerTableRecord
  2
0
  70
    0
  62
    0
  6
CONTINUOUS
  390
0
  0
LAYER
  5
c
  330
9
  100
AcDbSymbolTableRecord
  100
AcDbLayerTableRecord
  2
1
  70
    0
  62
    4
  6
CONTINUOUS
  370
50
  390
0
  0
LAYER
  5
d
  330
9
  100
AcDbSymbolTableRecord
  100
AcDbLayerTableRecord
  2
2
  70
    0
  62
    7
  6
CONTINUOUS
  370
25
  390
0
  0
LAYER
  5
f
  330
9
  100
AcDbSymbolTableRecord
  100
AcDbLayerTableRecord
  2
4
  70
    0
  62
    2
  6
LONGDASHDASH
  370
25
  390
0
  0
LAYER
  5
13
  330
9
  100
AcDbSymbolTableRecord
  100
AcDbLayerTableRecord
  2
SK1
  70
    0
  62
    4
  6
CONTINUOUS
  370
50
  390
0
  0
LAYER
  5
14
  330
9
  100
AcDbSymbolTableRecord
  100
AcDbLayerTableRecord
  2
SK2
  70
    0
  62
    7
  6
CONTINUOUS
  370
25
  390
0
  0
LAYER
  5
16
  330
9
  100
AcDbSymbolTableRecord
  100
AcDbLayerTableRecord
  2
SK4
  70
    0
  62
    2
  6
LONGDASHDASH
  370
25
  390
0
  0
LAYER
  5
21
  330
9
  100
AcDbSymbolTableRecord
  100
AcDbLayerTableRecord
  2
NOCUT
  70
    0
  62
    7
  6
CONTINUOUS
  370
25
  390
0
  0
LAYER
  5
22
  330
9
  100
AcDbSymbolTableRecord
  100
AcDbLayerTableRecord
  2
CUT
  70
    0
  62
    1
  6
CONTINUOUS
  370
25
  390
0
  0
LAYER
  5
26
  330
9
  100
AcDbSymbolTableRecord
  100
AcDbLayerTableRecord
  2
INFTOTAL
  70
    0
  62
    9
  6
CONTINUOUS
  370
18
  390
0
  0
ENDTAB
  0
TABLE
  2
STYLE
  5
27
  330
0
  100
AcDbSymbolTable
  70
    1
  0
STYLE
  5
28
  330
27
  100
AcDbSymbolTableRecord
  100
AcDbTextStyleTableRecord
  2
Monospac821 BT
  70
    0
  40
    3.5
  41
1
  50
0
  71
0
  42
3
  3

  4

  1001
ACAD
  1000
Monospac821 BT
  1071
256
  0
ENDTAB
  0
TABLE
  2
VIEW
  5
29
  330
0
  100
AcDbSymbolTable
  70
    0
  0
ENDTAB
  0
TABLE
  2
UCS
  5
2a
  330
0
  100
AcDbSymbolTable
  70
    0
  0
ENDTAB
  0
TABLE
  2
APPID
  5
2b
  330
0
  100
AcDbSymbolTable
  70
    1
  0
APPID
  5
2c
  330
2b
  100
AcDbSymbolTableRecord
  100
AcDbRegAppTableRecord
  2
ACAD
  70
    0
  0
ENDTAB
  0
TABLE
  2
DIMSTYLE
  5
2d
  330
0
  100
AcDbSymbolTable
  70
    1
  100
AcDbDimStyleTable
  0
DIMSTYLE
  105
2e
  330
2d
  100
AcDbSymbolTableRecord
  100
AcDbDimStyleTableRecord
  2
STANDARD
  70
    0
  41
    3
  42
0.5
  44
1
  73
0
  77
1
  78
1
  140
3.5
  141
2.5
  143
0.03937
  147
0.8
  172
1
  174
1
  178
0
  179
1
  271
2
  279
1
  284
1
  340
28
  0
ENDTAB
  0
TABLE
  2
BLOCK_RECORD
  5
2f
  330
0
  100
AcDbSymbolTable
  70
    2
  0
BLOCK_RECORD
  5
30
  330
2f
  100
AcDbSymbolTableRecord
  100
AcDbBlockTableRecord
  2
*Model_Space
  0
BLOCK_RECORD
  5
31
  330
2f
  100
AcDbSymbolTableRecord
  100
AcDbBlockTableRecord
  2
*Paper_Space
  0
BLOCK_RECORD
  5
a5
  330
2f
  100
AcDbSymbolTableRecord
  100
AcDbBlockTableRecord
  2
*Da4
  340
0
  0
BLOCK_RECORD
  5
b3
  330
2f
  100
AcDbSymbolTableRecord
  100
AcDbBlockTableRecord
  2
*Db2
  340
0
  0
BLOCK_RECORD
  5
c1
  330
2f
  100
AcDbSymbolTableRecord
  100
AcDbBlockTableRecord
  2
*Dc0
  340
0
  0
BLOCK_RECORD
  5
cf
  330
2f
  100
AcDbSymbolTableRecord
  100
AcDbBlockTableRecord
  2
*Dce
  340
0
  0
BLOCK_RECORD
  5
dd
  330
2f
  100
AcDbSymbolTableRecord
  100
AcDbBlockTableRecord
  2
*Ddc
  340
0
  0
BLOCK_RECORD
  5
e7
  330
2f
  100
AcDbSymbolTableRecord
  100
AcDbBlockTableRecord
  2
*De6
  340
0
  0
BLOCK_RECORD
  5
f5
  330
2f
  100
AcDbSymbolTableRecord
  100
AcDbBlockTableRecord
  2
*Df4
  340
0
  0
BLOCK_RECORD
  5
103
  330
2f
  100
AcDbSymbolTableRecord
  100
AcDbBlockTableRecord
  2
*D102
  340
0
  0
BLOCK_RECORD
  5
111
  330
2f
  100
AcDbSymbolTableRecord
  100
AcDbBlockTableRecord
  2
*D110
  340
0
  0
ENDTAB
  0
ENDSEC
  0
SECTION
  2
BLOCKS
  0
BLOCK
  5
32
  330
30
  100
AcDbEntity
  8
0
  100
AcDbBlockBegin
  2
*Model_Space
  70
    0
  10
0
  20
0
  30
0
  3
*Model_Space
  1

  0
ENDBLK
  5
33
  330
30
  100
AcDbEntity
  8
0
  100
AcDbBlockEnd
  0
BLOCK
  5
34
  330
31
  100
AcDbEntity
  8
0
  100
AcDbBlockBegin
  2
*Paper_Space
  70
    0
  10
0
  20
0
  30
0
  3
*Paper_Space
  1

  0
ENDBLK
  5
35
  330
31
  100
AcDbEntity
  8
0
  100
AcDbBlockEnd
  0
BLOCK
  5
a3
  330
a5
  100
AcDbEntity
  8
SK2
  100
AcDbBlockBegin
  2
*Da4
  70
1
  10
0
  20
0
  30
0
  3
*Da4
  1

  0
LINE
  5
a6
  330
a5
  100
AcDbEntity
  8
SK2
  100
AcDbLine
  10
0
  20
1.3
  30
0
  11
0
  21
14
  31
0
  0
LINE
  5
a7
  330
a5
  100
AcDbEntity
  8
SK2
  100
AcDbLine
  10
45
  20
0.4
  30
0
  11
45
  21
14
  31
0
  0
LINE
  5
a8
  330
a5
  100
AcDbEntity
  8
SK2
  100
AcDbLine
  10
0
  20
12
  30
0
  11
45
  21
12
  31
0
  0
SOLID
  5
a9
  330
a5
  100
AcDbEntity
  8
SK2
  100
AcDbTrace
  10
0
  20
12
  30
0
  11
2.478612
  21
12.326315
  31
0
  12
2.478612
  22
11.673685
  32
0
  13
2.478612
  23
11.673685
  33
0
  0
SOLID
  5
aa
  330
a5
  100
AcDbEntity
  8
SK2
  100
AcDbTrace
  10
45
  20
12
  30
0
  11
42.521388
  21
11.673685
  31
0
  12
42.521388
  22
12.326315
  32
0
  13
42.521388
  23
12.326315
  33
0
  0
MTEXT
  5
ab
  330
a5
  100
AcDbEntity
  8
SK2
  100
AcDbMText
  10
22.5
  20
12
  30
0
  11
1
  21
0
  31
0
  40
2
  41
0
  71
8
  72
1
  1
45
  0
POINT
  5
ac
  330
a5
  100
AcDbEntity
  8
SK2
  62
0
  100
AcDbPoint
  10
0
  20
1.3
  30
0
  0
POINT
  5
ad
  330
a5
  100
AcDbEntity
  8
SK2
  62
0
  100
AcDbPoint
  10
45
  20
0.4
  30
0
  0
POINT
  5
ae
  330
a5
  100
AcDbEntity
  8
SK2
  62
0
  100
AcDbPoint
  10
45
  20
12
  30
0
  0
ENDBLK
  5
af
  330
a5
  100
AcDbEntity
  8
SK2
  100
AcDbBlockEnd
  0
BLOCK
  5
b1
  330
b3
  100
AcDbEntity
  8
SK2
  100
AcDbBlockBegin
  2
*Db2
  70
1
  10
0
  20
0
  30
0
  3
*Db2
  1

  0
LINE
  5
b4
  330
b3
  100
AcDbEntity
  8
SK2
  100
AcDbLine
  10
-27.855034
  20
2
  30
0
  11
0.7
  21
2
  31
0
  0
LINE
  5
b5
  330
b3
  100
AcDbEntity
  8
SK2
  100
AcDbLine
  10
-27.855034
  20
-2
  30
0
  11
0.7
  21
-2
  31
0
  0
LINE
  5
b6
  330
b3
  100
AcDbEntity
  8
SK2
  100
AcDbLine
  10
-25.855034
  20
2
  30
0
  11
-25.855034
  21
-4.158416
  31
0
  0
SOLID
  5
b7
  330
b3
  100
AcDbEntity
  8
SK2
  100
AcDbTrace
  10
-25.855034
  20
2
  30
0
  11
-26.181349
  21
4.478612
  31
0
  12
-25.528718
  22
4.478612
  32
0
  13
-25.528718
  23
4.478612
  33
0
  0
SOLID
  5
b8
  330
b3
  100
AcDbEntity
  8
SK2
  100
AcDbTrace
  10
-25.855034
  20
-2
  30
0
  11
-25.528718
  21
-4.478612
  31
0
  12
-26.181349
  22
-4.478612
  32
0
  13
-26.181349
  23
-4.478612
  33
0
  0
MTEXT
  5
b9
  330
b3
  100
AcDbEntity
  8
SK2
  100
AcDbMText
  10
-25.855034
  20
0
  30
0
  11
-0
  21
1
  31
0
  40
2
  41
0
  71
8
  72
1
  1
ﾘ4
  0
POINT
  5
ba
  330
b3
  100
AcDbEntity
  8
SK2
  62
0
  100
AcDbPoint
  10
0.7
  20
2
  30
0
  0
POINT
  5
bb
  330
b3
  100
AcDbEntity
  8
SK2
  62
0
  100
AcDbPoint
  10
0.7
  20
-2
  30
0
  0
POINT
  5
bc
  330
b3
  100
AcDbEntity
  8
SK2
  62
0
  100
AcDbPoint
  10
-25.855034
  20
-4.158416
  30
0
  0
ENDBLK
  5
bd
  330
b3
  100
AcDbEntity
  8
SK2
  100
AcDbBlockEnd
  0
BLOCK
  5
bf
  330
c1
  100
AcDbEntity
  8
SK2
  100
AcDbBlockBegin
  2
*Dc0
  70
1
  10
0
  20
0
  30
0
  3
*Dc0
  1

  0
LINE
  5
c2
  330
c1
  100
AcDbEntity
  8
SK2
  100
AcDbLine
  10
0
  20
1.3
  30
0
  11
0
  21
9.655323
  31
0
  0
LINE
  5
c3
  330
c1
  100
AcDbEntity
  8
SK2
  100
AcDbLine
  10
34.4
  20
2
  30
0
  11
34.4
  21
9.655323
  31
0
  0
LINE
  5
c4
  330
c1
  100
AcDbEntity
  8
SK2
  100
AcDbLine
  10
0
  20
7.655323
  30
0
  11
34.4
  21
7.655323
  31
0
  0
SOLID
  5
c5
  330
c1
  100
AcDbEntity
  8
SK2
  100
AcDbTrace
  10
0
  20
7.655323
  30
0
  11
2.478612
  21
7.981638
  31
0
  12
2.478612
  22
7.329007
  32
0
  13
2.478612
  23
7.329007
  33
0
  0
SOLID
  5
c6
  330
c1
  100
AcDbEntity
  8
SK2
  100
AcDbTrace
  10
34.4
  20
7.655323
  30
0
  11
31.921388
  21
7.329007
  31
0
  12
31.921388
  22
7.981638
  32
0
  13
31.921388
  23
7.981638
  33
0
  0
MTEXT
  5
c7
  330
c1
  100
AcDbEntity
  8
SK2
  100
AcDbMText
  10
17.2
  20
7.655323
  30
0
  11
1
  21
0
  31
0
  40
2
  41
0
  71
8
  72
1
  1
34.4
  0
POINT
  5
c8
  330
c1
  100
AcDbEntity
  8
SK2
  62
0
  100
AcDbPoint
  10
0
  20
1.3
  30
0
  0
POINT
  5
c9
  330
c1
  100
AcDbEntity
  8
SK2
  62
0
  100
AcDbPoint
  10
34.4
  20
2
  30
0
  0
POINT
  5
ca
  330
c1
  100
AcDbEntity
  8
SK2
  62
0
  100
AcDbPoint
  10
34.4
  20
7.655323
  30
0
  0
ENDBLK
  5
cb
  330
c1
  100
AcDbEntity
  8
SK2
  100
AcDbBlockEnd
  0
BLOCK
  5
cd
  330
cf
  100
AcDbEntity
  8
2
  100
AcDbBlockBegin
  2
*Dce
  70
1
  10
0
  20
0
  30
0
  3
*Dce
  1

  0
LINE
  5
d0
  330
cf
  100
AcDbEntity
  8
2
  100
AcDbLine
  10
44.9
  20
-0.5
  30
0
  11
52
  21
-0.5
  31
0
  0
LINE
  5
d1
  330
cf
  100
AcDbEntity
  8
2
  100
AcDbLine
  10
44.9
  20
0.5
  30
0
  11
52
  21
0.5
  31
0
  0
LINE
  5
d2
  330
cf
  100
AcDbEntity
  8
2
  100
AcDbLine
  10
50
  20
-4.158416
  30
0
  11
50
  21
0.5
  31
0
  0
SOLID
  5
d3
  330
cf
  100
AcDbEntity
  8
2
  100
AcDbTrace
  10
50
  20
-0.5
  30
0
  11
49.673685
  21
1.978612
  31
0
  12
50.326315
  22
1.978612
  32
0
  13
50.326315
  23
1.978612
  33
0
  0
SOLID
  5
d4
  330
cf
  100
AcDbEntity
  8
2
  100
AcDbTrace
  10
50
  20
0.5
  30
0
  11
50.326315
  21
-1.978612
  31
0
  12
49.673685
  22
-1.978612
  32
0
  13
49.673685
  23
-1.978612
  33
0
  0
MTEXT
  5
d5
  330
cf
  100
AcDbEntity
  8
2
  100
AcDbMText
  10
50
  20
0
  30
0
  11
0
  21
1
  31
0
  40
2
  41
0
  71
8
  72
1
  1
ﾘ1
  0
POINT
  5
d6
  330
cf
  100
AcDbEntity
  8
2
  62
0
  100
AcDbPoint
  10
44.9
  20
-0.5
  30
0
  0
POINT
  5
d7
  330
cf
  100
AcDbEntity
  8
2
  62
0
  100
AcDbPoint
  10
44.9
  20
0.5
  30
0
  0
POINT
  5
d8
  330
cf
  100
AcDbEntity
  8
2
  62
0
  100
AcDbPoint
  10
50
  20
0.5
  30
0
  0
ENDBLK
  5
d9
  330
cf
  100
AcDbEntity
  8
2
  100
AcDbBlockEnd
  0
BLOCK
  5
db
  330
dd
  100
AcDbEntity
  8
2
  100
AcDbBlockBegin
  2
*Ddc
  70
1
  10
0
  20
0
  30
0
  3
*Ddc
  1

  0
LINE
  5
de
  330
dd
  100
AcDbEntity
  8
2
  100
AcDbLine
  10
44.962868
  20
0.477767
  30
0
  11
51.249624
  21
8.254443
  31
0
  0
MTEXT
  5
df
  330
dd
  100
AcDbEntity
  8
2
  100
AcDbMText
  10
48.106246
  20
4.366105
  30
0
  11
0.628676
  21
0.777668
  31
0
  40
2
  41
0
  71
8
  72
1
  1
R0.1
  0
SOLID
  5
e0
  330
dd
  100
AcDbEntity
  8
2
  100
AcDbTrace
  10
44.962868
  20
0.477767
  30
0
  11
46.267346
  21
2.61045
  31
0
  12
46.774876
  22
2.200156
  32
0
  13
46.774876
  23
2.200156
  33
0
  0
POINT
  5
e1
  330
dd
  100
AcDbEntity
  8
2
  62
0
  100
AcDbPoint
  10
44.962868
  20
0.477767
  30
0
  0
POINT
  5
e2
  330
dd
  100
AcDbEntity
  8
2
  62
0
  100
AcDbPoint
  10
44.9
  20
0.4
  30
0
  0
ENDBLK
  5
e3
  330
dd
  100
AcDbEntity
  8
2
  100
AcDbBlockEnd
  0
BLOCK
  5
e5
  330
e7
  100
AcDbEntity
  8
2
  100
AcDbBlockBegin
  2
*De6
  70
1
  10
0
  20
0
  30
0
  3
*De6
  1

  0
LINE
  5
e8
  330
e7
  100
AcDbEntity
  8
2
  100
AcDbLine
  10
44.4
  20
-0.475
  30
0
  11
42.4
  21
-0.475
  31
0
  0
LINE
  5
e9
  330
e7
  100
AcDbEntity
  8
2
  100
AcDbLine
  10
44.4
  20
0.475
  30
0
  11
42.4
  21
0.475
  31
0
  0
LINE
  5
ea
  330
e7
  100
AcDbEntity
  8
2
  100
AcDbLine
  10
44.4
  20
-0.475
  30
0
  11
44.4
  21
8.836634
  31
0
  0
SOLID
  5
eb
  330
e7
  100
AcDbEntity
  8
2
  100
AcDbTrace
  10
44.4
  20
-0.475
  30
0
  11
44.073685
  21
2.003612
  31
0
  12
44.726315
  22
2.003612
  32
0
  13
44.726315
  23
2.003612
  33
0
  0
SOLID
  5
ec
  330
e7
  100
AcDbEntity
  8
2
  100
AcDbTrace
  10
44.4
  20
0.475
  30
0
  11
44.726315
  21
-2.003612
  31
0
  12
44.073685
  22
-2.003612
  32
0
  13
44.073685
  23
-2.003612
  33
0
  0
MTEXT
  5
ed
  330
e7
  100
AcDbEntity
  8
2
  100
AcDbMText
  10
44.4
  20
0.475
  30
0
  11
0
  21
1
  31
0
  40
2
  41
0
  71
8
  72
1
  1
ﾘ0.95
  0
POINT
  5
ee
  330
e7
  100
AcDbEntity
  8
2
  62
0
  100
AcDbPoint
  10
42.4
  20
-0.475
  30
0
  0
POINT
  5
ef
  330
e7
  100
AcDbEntity
  8
2
  62
0
  100
AcDbPoint
  10
42.4
  20
0.475
  30
0
  0
POINT
  5
f0
  330
e7
  100
AcDbEntity
  8
2
  62
0
  100
AcDbPoint
  10
44.4
  20
8.836634
  30
0
  0
ENDBLK
  5
f1
  330
e7
  100
AcDbEntity
  8
2
  100
AcDbBlockEnd
  0
BLOCK
  5
f3
  330
f5
  100
AcDbEntity
  8
2
  100
AcDbBlockBegin
  2
*Df4
  70
1
  10
0
  20
0
  30
0
  3
*Df4
  1

  0
LINE
  5
f6
  330
f5
  100
AcDbEntity
  8
2
  100
AcDbLine
  10
44.4
  20
0.475
  30
0
  11
44.4
  21
5.269446
  31
0
  0
LINE
  5
f7
  330
f5
  100
AcDbEntity
  8
2
  100
AcDbLine
  10
40.007
  20
0.475
  30
0
  11
40.007
  21
5.269446
  31
0
  0
LINE
  5
f8
  330
f5
  100
AcDbEntity
  8
2
  100
AcDbLine
  10
44.4
  20
3.269446
  30
0
  11
33.917079
  21
3.269446
  31
0
  0
SOLID
  5
f9
  330
f5
  100
AcDbEntity
  8
2
  100
AcDbTrace
  10
44.4
  20
3.269446
  30
0
  11
46.878612
  21
3.595761
  31
0
  12
46.878612
  22
2.94313
  32
0
  13
46.878612
  23
2.94313
  33
0
  0
SOLID
  5
fa
  330
f5
  100
AcDbEntity
  8
2
  100
AcDbTrace
  10
40.007
  20
3.269446
  30
0
  11
37.528388
  21
2.94313
  31
0
  12
37.528388
  22
3.595761
  32
0
  13
37.528388
  23
3.595761
  33
0
  0
MTEXT
  5
fb
  330
f5
  100
AcDbEntity
  8
2
  100
AcDbMText
  10
42.2035
  20
3.269446
  30
0
  11
1
  21
-0
  31
0
  40
2
  41
0
  71
8
  72
1
  1
4.393
  0
POINT
  5
fc
  330
f5
  100
AcDbEntity
  8
2
  62
0
  100
AcDbPoint
  10
44.4
  20
0.475
  30
0
  0
POINT
  5
fd
  330
f5
  100
AcDbEntity
  8
2
  62
0
  100
AcDbPoint
  10
40.007
  20
0.475
  30
0
  0
POINT
  5
fe
  330
f5
  100
AcDbEntity
  8
2
  62
0
  100
AcDbPoint
  10
33.917079
  20
3.269446
  30
0
  0
ENDBLK
  5
ff
  330
f5
  100
AcDbEntity
  8
2
  100
AcDbBlockEnd
  0
BLOCK
  5
101
  330
103
  100
AcDbEntity
  8
2
  100
AcDbBlockBegin
  2
*D102
  70
1
  10
0
  20
0
  30
0
  3
*D102
  1

  0
LINE
  5
104
  330
103
  100
AcDbEntity
  8
2
  100
AcDbLine
  10
45
  20
0.4
  30
0
  11
45
  21
14
  31
0
  0
LINE
  5
105
  330
103
  100
AcDbEntity
  8
2
  100
AcDbLine
  10
34.4
  20
2
  30
0
  11
34.4
  21
9
  31
0
  0
LINE
  5
106
  330
103
  100
AcDbEntity
  8
2
  100
AcDbLine
  10
45
  20
7
  30
0
  11
34.4
  21
7
  31
0
  0
SOLID
  5
107
  330
103
  100
AcDbEntity
  8
2
  100
AcDbTrace
  10
45
  20
7
  30
0
  11
47.478612
  21
7.326315
  31
0
  12
47.478612
  22
6.673685
  32
0
  13
47.478612
  23
6.673685
  33
0
  0
SOLID
  5
108
  330
103
  100
AcDbEntity
  8
2
  100
AcDbTrace
  10
34.4
  20
7
  30
0
  11
31.921388
  21
6.673685
  31
0
  12
31.921388
  22
7.326315
  32
0
  13
31.921388
  23
7.326315
  33
0
  0
MTEXT
  5
109
  330
103
  100
AcDbEntity
  8
2
  100
AcDbMText
  10
39.7
  20
7
  30
0
  11
1
  21
-0
  31
0
  40
2
  41
0
  71
8
  72
1
  1
10.6
  0
POINT
  5
10a
  330
103
  100
AcDbEntity
  8
2
  62
0
  100
AcDbPoint
  10
45
  20
14
  30
0
  0
POINT
  5
10b
  330
103
  100
AcDbEntity
  8
2
  62
0
  100
AcDbPoint
  10
34.4
  20
2
  30
0
  0
POINT
  5
10c
  330
103
  100
AcDbEntity
  8
2
  62
0
  100
AcDbPoint
  10
34.4
  20
7
  30
0
  0
ENDBLK
  5
10d
  330
103
  100
AcDbEntity
  8
2
  100
AcDbBlockEnd
  0
BLOCK
  5
10f
  330
111
  100
AcDbEntity
  8
2
  100
AcDbBlockBegin
  2
*D110
  70
1
  10
0
  20
0
  30
0
  3
*D110
  1

  0
LINE
  5
112
  330
111
  100
AcDbEntity
  8
2
  100
AcDbLine
  10
45
  20
-9.983448
  30
0
  11
45
  21
0.4
  31
0
  0
LINE
  5
113
  330
111
  100
AcDbEntity
  8
2
  100
AcDbLine
  10
44.4
  20
-9.983448
  30
0
  11
44.4
  21
0.475
  31
0
  0
LINE
  5
114
  330
111
  100
AcDbEntity
  8
2
  100
AcDbLine
  10
45
  20
-7.983448
  30
0
  11
40.154703
  21
-7.983448
  31
0
  0
SOLID
  5
115
  330
111
  100
AcDbEntity
  8
2
  100
AcDbTrace
  10
45
  20
-7.983448
  30
0
  11
47.478612
  21
-7.657133
  31
0
  12
47.478612
  22
-8.309764
  32
0
  13
47.478612
  23
-8.309764
  33
0
  0
SOLID
  5
116
  330
111
  100
AcDbEntity
  8
2
  100
AcDbTrace
  10
44.4
  20
-7.983448
  30
0
  11
41.921388
  21
-8.309764
  31
0
  12
41.921388
  22
-7.657133
  32
0
  13
41.921388
  23
-7.657133
  33
0
  0
MTEXT
  5
117
  330
111
  100
AcDbEntity
  8
2
  100
AcDbMText
  10
44.7
  20
-7.983448
  30
0
  11
1
  21
-0
  31
0
  40
2
  41
0
  71
8
  72
1
  1
0.6
  0
POINT
  5
118
  330
111
  100
AcDbEntity
  8
2
  62
0
  100
AcDbPoint
  10
45
  20
0.4
  30
0
  0
POINT
  5
119
  330
111
  100
AcDbEntity
  8
2
  62
0
  100
AcDbPoint
  10
44.4
  20
0.475
  30
0
  0
POINT
  5
11a
  330
111
  100
AcDbEntity
  8
2
  62
0
  100
AcDbPoint
  10
40.154703
  20
-7.983448
  30
0
  0
ENDBLK
  5
11b
  330
111
  100
AcDbEntity
  8
2
  100
AcDbBlockEnd
  0
ENDSEC
  0
SECTION
  2
ENTITIES
  0
DIMENSION
  5
b0
  100
AcDbEntity
  8
SK2
  100
AcDbDimension
  2
*Da4
  10
45
  20
12
  30
0
  11
22.5
  21
12
  31
0
  70
160
  1
<>
  71
5
  3
STANDARD
  42
45
  100
AcDbAlignedDimension
  13
0
  23
1.3
  33
0
  14
45
  24
0.4
  34
0
  50
0
  100
AcDbRotatedDimension
  0
DIMENSION
  5
be
  100
AcDbEntity
  8
SK2
  100
AcDbDimension
  2
*Db2
  10
-25.855034
  20
-4.158416
  30
0
  11
-25.855034
  21
0
  31
0
  70
160
  1
%%c<>
  71
5
  3
STANDARD
  42
4
  100
AcDbAlignedDimension
  13
0.7
  23
2
  33
0
  14
0.7
  24
-2
  34
0
  50
90
  100
AcDbRotatedDimension
  0
DIMENSION
  5
cc
  100
AcDbEntity
  8
SK2
  100
AcDbDimension
  2
*Dc0
  10
34.4
  20
7.655323
  30
0
  11
17.2
  21
7.655323
  31
0
  70
160
  1
<>
  71
5
  3
STANDARD
  42
34.4
  100
AcDbAlignedDimension
  13
0
  23
1.3
  33
0
  14
34.4
  24
2
  34
0
  50
0
  100
AcDbRotatedDimension
  0
DIMENSION
  5
da
  100
AcDbEntity
  8
2
  100
AcDbDimension
  2
*Dce
  10
50
  20
0.5
  30
0
  11
50
  21
0
  31
0
  70
160
  1
%%c<>
  71
5
  3
STANDARD
  42
1
  100
AcDbAlignedDimension
  13
44.9
  23
-0.5
  33
0
  14
44.9
  24
0.5
  34
0
  50
-90
  100
AcDbRotatedDimension
  0
DIMENSION
  5
e4
  100
AcDbEntity
  8
2
  100
AcDbDimension
  2
*Ddc
  10
44.9
  20
0.4
  30
0
  11
48.106246
  21
4.366105
  31
0
  70
164
  1
R0.1
  71
5
  3
STANDARD
  100
AcDbRadialDimension
  15
44.962868
  25
0.477767
  35
0
  50
51.047516
  0
DIMENSION
  5
f2
  100
AcDbEntity
  8
2
  100
AcDbDimension
  2
*De6
  10
44.4
  20
8.836634
  30
0
  11
44.4
  21
0.475
  31
0
  70
160
  1
%%c<>
  71
5
  3
STANDARD
  42
0.95
  100
AcDbAlignedDimension
  13
42.4
  23
-0.475
  33
0
  14
42.4
  24
0.475
  34
0
  50
-90
  100
AcDbRotatedDimension
  0
DIMENSION
  5
100
  100
AcDbEntity
  8
2
  100
AcDbDimension
  2
*Df4
  10
33.917079
  20
3.269446
  30
0
  11
42.2035
  21
3.269446
  31
0
  70
160
  1
<>
  71
5
  3
STANDARD
  42
4.393
  100
AcDbAlignedDimension
  13
44.4
  23
0.475
  33
0
  14
40.007
  24
0.475
  34
0
  50
0
  100
AcDbRotatedDimension
  0
DIMENSION
  5
10e
  100
AcDbEntity
  8
2
  100
AcDbDimension
  2
*D102
  10
34.4
  20
7
  30
0
  11
39.7
  21
7
  31
0
  70
160
  1
<>
  71
5
  3
STANDARD
  42
10.6
  100
AcDbAlignedDimension
  13
45
  23
14
  33
0
  14
34.4
  24
2
  34
0
  50
0
  100
AcDbRotatedDimension
  0
DIMENSION
  5
11c
  100
AcDbEntity
  8
2
  100
AcDbDimension
  2
*D110
  10
40.154703
  20
-7.983448
  30
0
  11
44.7
  21
-7.983448
  31
0
  70
160
  1
<>
  71
5
  3
STANDARD
  42
0.6
  100
AcDbAlignedDimension
  13
45
  23
0.4
  33
0
  14
44.4
  24
0.475
  34
0
  50
0
  100
AcDbRotatedDimension
  0
LINE
  5
36
  100
AcDbEntity
  8
1
  100
AcDbLine
  10
34.4
  20
1.977391
  30
0
  11
34.4
  21
-1.977391
  31
0
  0
LINE
  5
37
  100
AcDbEntity
  8
1
  100
AcDbLine
  10
34.4
  20
-1.977391
  30
0
  11
40.007
  21
-0.475
  31
0
  0
LINE
  5
38
  100
AcDbEntity
  8
1
  100
AcDbLine
  10
40.007
  20
-0.475
  30
0
  11
44.4
  21
-0.475
  31
0
  0
LINE
  5
39
  100
AcDbEntity
  8
1
  100
AcDbLine
  10
44.4
  20
-0.475
  30
0
  11
44.4
  21
-0.5
  31
0
  0
LINE
  5
3a
  100
AcDbEntity
  8
1
  100
AcDbLine
  10
44.4
  20
-0.5
  30
0
  11
44.9
  21
-0.5
  31
0
  0
ARC
  5
3b
  100
AcDbEntity
  8
1
  100
AcDbCircle
  10
44.9
  20
-0.4
  30
0
  40
0.1
  100
AcDbArc
  50
270
  51
0
  0
LINE
  5
3c
  100
AcDbEntity
  8
1
  100
AcDbLine
  10
45
  20
-0.4
  30
0
  11
45
  21
0
  31
0
  0
LINE
  5
3d
  100
AcDbEntity
  8
1
  100
AcDbLine
  10
45
  20
0
  30
0
  11
45
  21
0.4
  31
0
  0
ARC
  5
3e
  100
AcDbEntity
  8
1
  100
AcDbCircle
  10
44.9
  20
0.4
  30
0
  40
0.1
  100
AcDbArc
  50
0
  51
90
  0
LINE
  5
3f
  100
AcDbEntity
  8
1
  100
AcDbLine
  10
44.9
  20
0.5
  30
0
  11
44.4
  21
0.5
  31
0
  0
LINE
  5
40
  100
AcDbEntity
  8
1
  100
AcDbLine
  10
44.4
  20
0.5
  30
0
  11
44.4
  21
0.475
  31
0
  0
LINE
  5
41
  100
AcDbEntity
  8
1
  100
AcDbLine
  10
44.4
  20
0.475
  30
0
  11
40.007
  21
0.475
  31
0
  0
LINE
  5
42
  100
AcDbEntity
  8
1
  100
AcDbLine
  10
40.007
  20
0.475
  30
0
  11
34.4
  21
1.977391
  31
0
  0
LINE
  5
43
  100
AcDbEntity
  8
1
  100
AcDbLine
  10
40.007
  20
0.475
  30
0
  11
40.007
  21
-0.475
  31
0
  0
LINE
  5
44
  100
AcDbEntity
  8
1
  100
AcDbLine
  10
45
  20
-0.372316
  30
0
  11
44.996757
  21
-0.374739
  31
0
  0
LINE
  5
45
  100
AcDbEntity
  8
1
  100
AcDbLine
  10
44.996757
  20
-0.374739
  30
0
  11
44.9
  21
-0.447015
  31
0
  0
LINE
  5
46
  100
AcDbEntity
  8
1
  100
AcDbLine
  10
44.9
  20
-0.447015
  30
0
  11
44.8
  21
-0.41823
  31
0
  0
LINE
  5
47
  100
AcDbEntity
  8
1
  100
AcDbLine
  10
44.8
  20
-0.41823
  30
0
  11
44.7
  21
-0.383874
  31
0
  0
LINE
  5
48
  100
AcDbEntity
  8
1
  100
AcDbLine
  10
44.7
  20
-0.383874
  30
0
  11
44.6
  21
-0.344406
  31
0
  0
LINE
  5
49
  100
AcDbEntity
  8
1
  100
AcDbLine
  10
44.6
  20
-0.344406
  30
0
  11
44.5
  21
-0.300352
  31
0
  0
LINE
  5
4a
  100
AcDbEntity
  8
1
  100
AcDbLine
  10
44.5
  20
-0.300352
  30
0
  11
44.4
  21
-0.252296
  31
0
  0
LINE
  5
4b
  100
AcDbEntity
  8
1
  100
AcDbLine
  10
44.4
  20
-0.252296
  30
0
  11
44.4
  21
-0.237508
  31
0
  0
LINE
  5
4c
  100
AcDbEntity
  8
1
  100
AcDbLine
  10
44.4
  20
-0.324863
  30
0
  11
44.4
  21
-0.346593
  31
0
  0
LINE
  5
4d
  100
AcDbEntity
  8
1
  100
AcDbLine
  10
44.4
  20
-0.346593
  30
0
  11
44.5
  21
-0.384805
  31
0
  0
LINE
  5
4e
  100
AcDbEntity
  8
1
  100
AcDbLine
  10
44.5
  20
-0.384805
  30
0
  11
44.6
  21
-0.417892
  31
0
  0
LINE
  5
4f
  100
AcDbEntity
  8
1
  100
AcDbLine
  10
44.6
  20
-0.417892
  30
0
  11
44.7
  21
-0.445414
  31
0
  0
LINE
  5
50
  100
AcDbEntity
  8
1
  100
AcDbLine
  10
44.7
  20
-0.445414
  30
0
  11
44.8
  21
-0.467003
  31
0
  0
LINE
  5
51
  100
AcDbEntity
  8
1
  100
AcDbLine
  10
44.8
  20
-0.467003
  30
0
  11
44.9
  21
-0.482373
  31
0
  0
LINE
  5
52
  100
AcDbEntity
  8
1
  100
AcDbLine
  10
44.9
  20
-0.482373
  30
0
  11
44.999481
  21
-0.389823
  31
0
  0
LINE
  5
53
  100
AcDbEntity
  8
1
  100
AcDbLine
  10
44.999481
  20
-0.389823
  30
0
  11
45
  21
-0.38934
  31
0
  0
LINE
  5
54
  100
AcDbEntity
  8
1
  100
AcDbLine
  10
45
  20
-0.399752
  30
0
  11
45
  21
-0.399752
  31
0
  0
LINE
  5
55
  100
AcDbEntity
  8
1
  100
AcDbLine
  10
45
  20
-0.399752
  30
0
  11
44.9
  21
-0.49667
  31
0
  0
LINE
  5
56
  100
AcDbEntity
  8
1
  100
AcDbLine
  10
44.9
  20
-0.49667
  30
0
  11
44.8
  21
-0.486726
  31
0
  0
LINE
  5
57
  100
AcDbEntity
  8
1
  100
AcDbLine
  10
44.8
  20
-0.486726
  30
0
  11
44.7
  21
-0.470299
  31
0
  0
LINE
  5
58
  100
AcDbEntity
  8
1
  100
AcDbLine
  10
44.7
  20
-0.470299
  30
0
  11
44.6
  21
-0.447608
  31
0
  0
LINE
  5
59
  100
AcDbEntity
  8
1
  100
AcDbLine
  10
44.6
  20
-0.447608
  30
0
  11
44.5
  21
-0.418956
  31
0
  0
LINE
  5
5a
  100
AcDbEntity
  8
1
  100
AcDbLine
  10
44.5
  20
-0.418956
  30
0
  11
44.4
  21
-0.384724
  31
0
  0
LINE
  5
5b
  100
AcDbEntity
  8
1
  100
AcDbLine
  10
44.4
  20
-0.384724
  30
0
  11
44.4
  21
-0.363232
  31
0
  0
LINE
  5
5c
  100
AcDbEntity
  8
1
  100
AcDbLine
  10
44.4
  20
-0.475
  30
0
  11
44.4
  21
0.475
  31
0
  0
LINE
  5
5d
  100
AcDbEntity
  8
1
  100
AcDbLine
  10
44.4
  20
0.5
  30
0
  11
44.4
  21
-0.5
  31
0
  0
LINE
  5
5e
  100
AcDbEntity
  8
1
  100
AcDbLine
  10
44.9
  20
0.5
  30
0
  11
44.9
  21
-0.5
  31
0
  0
LINE
  5
5f
  100
AcDbEntity
  8
1
  100
AcDbLine
  10
44.9
  20
-0.5
  30
0
  11
44.9
  21
0.5
  31
0
  0
LINE
  5
60
  100
AcDbEntity
  8
SK1
  100
AcDbLine
  10
34.4
  20
1.977391
  30
0
  11
34.315623
  21
2
  31
0
  0
LINE
  5
61
  100
AcDbEntity
  8
SK1
  100
AcDbLine
  10
34.315623
  20
2
  30
0
  11
34.4
  21
2
  31
0
  0
LINE
  5
62
  100
AcDbEntity
  8
SK1
  100
AcDbLine
  10
34.4
  20
2
  30
0
  11
0.7
  21
2
  31
0
  0
LINE
  5
63
  100
AcDbEntity
  8
SK1
  100
AcDbLine
  10
0.7
  20
2
  30
0
  11
0
  21
1.3
  31
0
  0
LINE
  5
64
  100
AcDbEntity
  8
SK1
  100
AcDbLine
  10
34.4
  20
-1.977391
  30
0
  11
34.315623
  21
-2
  31
0
  0
LINE
  5
65
  100
AcDbEntity
  8
SK1
  100
AcDbLine
  10
34.315623
  20
-2
  30
0
  11
34.4
  21
-2
  31
0
  0
LINE
  5
66
  100
AcDbEntity
  8
SK1
  100
AcDbLine
  10
34.4
  20
-2
  30
0
  11
0.7
  21
-2
  31
0
  0
LINE
  5
67
  100
AcDbEntity
  8
SK1
  100
AcDbLine
  10
0.7
  20
-2
  30
0
  11
0
  21
-1.3
  31
0
  0
LINE
  5
68
  100
AcDbEntity
  8
SK1
  100
AcDbLine
  10
34.315623
  20
2
  30
0
  11
34.315623
  21
-2
  31
0
  0
LINE
  5
69
  100
AcDbEntity
  8
SK1
  100
AcDbLine
  10
0.7
  20
2
  30
0
  11
0.7
  21
-2
  31
0
  0
LINE
  5
6a
  100
AcDbEntity
  8
SK1
  100
AcDbLine
  10
0
  20
1.3
  30
0
  11
0
  21
-1.3
  31
0
  0
LINE
  5
6b
  100
AcDbEntity
  8
SK1
  100
AcDbLine
  10
35.4401
  20
1.40688
  30
0
  11
35.8069
  21
1.0401
  31
0
  0
LINE
  5
6c
  100
AcDbEntity
  8
SK1
  100
AcDbLine
  10
34.9328
  20
1.66666
  30
0
  11
36.0667
  21
0.532833
  31
0
  0
LINE
  5
6d
  100
AcDbEntity
  8
SK1
  100
AcDbLine
  10
34.6154
  20
1.73657
  30
0
  11
36.1366
  21
0.215434
  31
0
  0
LINE
  5
6e
  100
AcDbEntity
  8
SK1
  100
AcDbLine
  10
34.4
  20
1.70452
  30
0
  11
36.1045
  21
0
  31
0
  0
LINE
  5
6f
  100
AcDbEntity
  8
SK1
  100
AcDbLine
  10
34.4
  20
1.45703
  30
0
  11
35.857
  21
0
  31
0
  0
LINE
  5
70
  100
AcDbEntity
  8
SK1
  100
AcDbLine
  10
34.4
  20
1.20954
  30
0
  11
35.6095
  21
0
  31
0
  0
LINE
  5
71
  100
AcDbEntity
  8
SK1
  100
AcDbLine
  10
34.4
  20
0.962054
  30
0
  11
35.3621
  21
0
  31
0
  0
LINE
  5
72
  100
AcDbEntity
  8
SK1
  100
AcDbLine
  10
34.4
  20
0.714566
  30
0
  11
35.1146
  21
0
  31
0
  0
LINE
  5
73
  100
AcDbEntity
  8
SK1
  100
AcDbLine
  10
34.4
  20
0.467079
  30
0
  11
34.8671
  21
0
  31
0
  0
LINE
  5
74
  100
AcDbEntity
  8
SK1
  100
AcDbLine
  10
34.4
  20
0.219592
  30
0
  11
34.6196
  21
0
  31
0
  0
LINE
  5
75
  100
AcDbEntity
  8
SK1
  100
AcDbLine
  10
34.4
  20
1.70452
  30
0
  11
34.4441
  21
1.74861
  31
0
  0
LINE
  5
76
  100
AcDbEntity
  8
SK1
  100
AcDbLine
  10
34.4
  20
1.45703
  30
0
  11
34.671
  21
1.72802
  31
0
  0
LINE
  5
77
  100
AcDbEntity
  8
SK1
  100
AcDbLine
  10
34.4
  20
1.20954
  30
0
  11
34.8742
  21
1.6837
  31
0
  0
LINE
  5
78
  100
AcDbEntity
  8
SK1
  100
AcDbLine
  10
34.4
  20
0.962054
  30
0
  11
35.0588
  21
1.62082
  31
0
  0
LINE
  5
79
  100
AcDbEntity
  8
SK1
  100
AcDbLine
  10
34.4
  20
0.714566
  30
0
  11
35.2271
  21
1.54167
  31
0
  0
LINE
  5
7a
  100
AcDbEntity
  8
SK1
  100
AcDbLine
  10
34.4
  20
0.467079
  30
0
  11
35.381
  21
1.44812
  31
0
  0
LINE
  5
7b
  100
AcDbEntity
  8
SK1
  100
AcDbLine
  10
34.4
  20
0.219592
  30
0
  11
35.5226
  21
1.34216
  31
0
  0
LINE
  5
7c
  100
AcDbEntity
  8
SK1
  100
AcDbLine
  10
34.4279
  20
0
  30
0
  11
35.6508
  21
1.22288
  31
0
  0
LINE
  5
7d
  100
AcDbEntity
  8
SK1
  100
AcDbLine
  10
34.6754
  20
0
  30
0
  11
35.767
  21
1.09157
  31
0
  0
LINE
  5
7e
  100
AcDbEntity
  8
SK1
  100
AcDbLine
  10
34.9229
  20
0
  30
0
  11
35.8707
  21
0.947822
  31
0
  0
LINE
  5
7f
  100
AcDbEntity
  8
SK1
  100
AcDbLine
  10
35.1704
  20
0
  30
0
  11
35.9605
  21
0.790145
  31
0
  0
LINE
  5
80
  100
AcDbEntity
  8
SK1
  100
AcDbLine
  10
35.4178
  20
0
  30
0
  11
36.0364
  21
0.618517
  31
0
  0
LINE
  5
81
  100
AcDbEntity
  8
SK1
  100
AcDbLine
  10
35.6653
  20
0
  30
0
  11
36.096
  21
0.430696
  31
0
  0
LINE
  5
82
  100
AcDbEntity
  8
SK1
  100
AcDbLine
  10
35.9128
  20
0
  30
0
  11
36.1356
  21
0.222827
  31
0
  0
LINE
  5
83
  100
AcDbEntity
  8
SK1
  100
AcDbLine
  10
34.4
  20
0
  30
0
  11
34.4
  21
1.75
  31
0
  0
LINE
  5
84
  100
AcDbEntity
  8
SK1
  100
AcDbLine
  10
34.4
  20
0
  30
0
  11
36.15
  21
0
  31
0
  0
ARC
  5
85
  100
AcDbEntity
  8
SK1
  100
AcDbCircle
  10
34.4
  20
0
  30
0
  40
1.75
  100
AcDbArc
  50
0
  51
90
  0
ARC
  5
86
  100
AcDbEntity
  8
SK1
  100
AcDbCircle
  10
34.4
  20
0
  30
0
  40
1.75
  100
AcDbArc
  50
90
  51
180
  0
LINE
  5
87
  100
AcDbEntity
  8
SK1
  100
AcDbLine
  10
34.3721
  20
0
  30
0
  11
34.4
  21
-0.027896
  31
0
  0
LINE
  5
88
  100
AcDbEntity
  8
SK1
  100
AcDbLine
  10
34.1246
  20
0
  30
0
  11
34.4
  21
-0.275383
  31
0
  0
LINE
  5
89
  100
AcDbEntity
  8
SK1
  100
AcDbLine
  10
33.8771
  20
0
  30
0
  11
34.4
  21
-0.522871
  31
0
  0
LINE
  5
8a
  100
AcDbEntity
  8
SK1
  100
AcDbLine
  10
33.6296
  20
0
  30
0
  11
34.4
  21
-0.770358
  31
0
  0
LINE
  5
8b
  100
AcDbEntity
  8
SK1
  100
AcDbLine
  10
33.3822
  20
0
  30
0
  11
34.4
  21
-1.01785
  31
0
  0
LINE
  5
8c
  100
AcDbEntity
  8
SK1
  100
AcDbLine
  10
33.1347
  20
0
  30
0
  11
34.4
  21
-1.26533
  31
0
  0
LINE
  5
8d
  100
AcDbEntity
  8
SK1
  100
AcDbLine
  10
32.8872
  20
0
  30
0
  11
34.4
  21
-1.51282
  31
0
  0
LINE
  5
8e
  100
AcDbEntity
  8
SK1
  100
AcDbLine
  10
32.6503
  20
-0.010642
  30
0
  11
34.3894
  21
-1.74967
  31
0
  0
LINE
  5
8f
  100
AcDbEntity
  8
SK1
  100
AcDbLine
  10
32.6736
  20
-0.281429
  30
0
  11
34.1186
  21
-1.72637
  31
0
  0
LINE
  5
90
  100
AcDbEntity
  8
SK1
  100
AcDbLine
  10
32.7639
  20
-0.619147
  30
0
  11
33.7809
  21
-1.63613
  31
0
  0
LINE
  5
91
  100
AcDbEntity
  8
SK1
  100
AcDbLine
  10
32.6514
  20
-0.044098
  30
0
  11
32.6955
  21
0
  31
0
  0
LINE
  5
92
  100
AcDbEntity
  8
SK1
  100
AcDbLine
  10
32.672
  20
-0.270991
  30
0
  11
32.943
  21
0
  31
0
  0
LINE
  5
93
  100
AcDbEntity
  8
SK1
  100
AcDbLine
  10
32.7163
  20
-0.474162
  30
0
  11
33.1905
  21
0
  31
0
  0
LINE
  5
94
  100
AcDbEntity
  8
SK1
  100
AcDbLine
  10
32.7792
  20
-0.658762
  30
0
  11
33.4379
  21
0
  31
0
  0
LINE
  5
95
  100
AcDbEntity
  8
SK1
  100
AcDbLine
  10
32.8583
  20
-0.827105
  30
0
  11
33.6854
  21
0
  31
0
  0
LINE
  5
96
  100
AcDbEntity
  8
SK1
  100
AcDbLine
  10
32.9519
  20
-0.981039
  30
0
  11
33.9329
  21
0
  31
0
  0
LINE
  5
97
  100
AcDbEntity
  8
SK1
  100
AcDbLine
  10
33.0578
  20
-1.12257
  30
0
  11
34.1804
  21
0
  31
0
  0
LINE
  5
98
  100
AcDbEntity
  8
SK1
  100
AcDbLine
  10
33.1771
  20
-1.25077
  30
0
  11
34.4
  21
-0.027896
  31
0
  0
LINE
  5
99
  100
AcDbEntity
  8
SK1
  100
AcDbLine
  10
33.3084
  20
-1.36695
  30
0
  11
34.4
  21
-0.275383
  31
0
  0
LINE
  5
9a
  100
AcDbEntity
  8
SK1
  100
AcDbLine
  10
33.4522
  20
-1.47069
  30
0
  11
34.4
  21
-0.522871
  31
0
  0
LINE
  5
9b
  100
AcDbEntity
  8
SK1
  100
AcDbLine
  10
33.6099
  20
-1.5605
  30
0
  11
34.4
  21
-0.770358
  31
0
  0
LINE
  5
9c
  100
AcDbEntity
  8
SK1
  100
AcDbLine
  10
33.7815
  20
-1.63636
  30
0
  11
34.4
  21
-1.01785
  31
0
  0
LINE
  5
9d
  100
AcDbEntity
  8
SK1
  100
AcDbLine
  10
33.9693
  20
-1.69603
  30
0
  11
34.4
  21
-1.26533
  31
0
  0
LINE
  5
9e
  100
AcDbEntity
  8
SK1
  100
AcDbLine
  10
34.1772
  20
-1.73565
  30
0
  11
34.4
  21
-1.51282
  31
0
  0
LINE
  5
9f
  100
AcDbEntity
  8
SK1
  100
AcDbLine
  10
34.4
  20
0
  30
0
  11
32.65
  21
0
  31
0
  0
LINE
  5
a0
  100
AcDbEntity
  8
SK1
  100
AcDbLine
  10
34.4
  20
-1.75
  30
0
  11
34.4
  21
0
  31
0
  0
ARC
  5
a1
  100
AcDbEntity
  8
SK1
  100
AcDbCircle
  10
34.4
  20
0
  30
0
  40
1.75
  100
AcDbArc
  50
180
  51
270
  0
ARC
  5
a2
  100
AcDbEntity
  8
SK1
  100
AcDbCircle
  10
34.4
  20
0
  30
0
  40
1.75
  100
AcDbArc
  50
270
  51
0
  0
LINE
  5
11d
  100
AcDbEntity
  8
NOCUT
  100
AcDbLine
  10
44.4
  20
0
  30
0
  11
44.4
  21
0.475
  31
0
  0
LINE
  5
11e
  100
AcDbEntity
  8
NOCUT
  100
AcDbLine
  10
44.4
  20
0.475
  30
0
  11
40.007
  21
0.475
  31
0
  0
LINE
  5
11f
  100
AcDbEntity
  8
NOCUT
  100
AcDbLine
  10
40.007
  20
0.475
  30
0
  11
34.4
  21
1.977391
  31
0
  0
LINE
  5
120
  100
AcDbEntity
  8
NOCUT
  100
AcDbLine
  10
34.4
  20
1.977391
  30
0
  11
34.4
  21
0
  31
0
  0
LINE
  5
121
  100
AcDbEntity
  8
NOCUT
  100
AcDbLine
  10
34.4
  20
0
  30
0
  11
44.4
  21
0
  31
0
  0
LINE
  5
122
  100
AcDbEntity
  8
CUT
  100
AcDbLine
  10
45
  20
0
  30
0
  11
45
  21
0.4
  31
0
  0
ARC
  5
123
  100
AcDbEntity
  8
CUT
  100
AcDbCircle
  10
44.9
  20
0.4
  30
0
  40
0.1
  100
AcDbArc
  50
0
  51
90
  0
LINE
  5
124
  100
AcDbEntity
  8
CUT
  100
AcDbLine
  10
44.9
  20
0.5
  30
0
  11
44.4
  21
0.5
  31
0
  0
LINE
  5
125
  100
AcDbEntity
  8
CUT
  100
AcDbLine
  10
44.4
  20
0.5
  30
0
  11
44.4
  21
0
  31
0
  0
LINE
  5
126
  100
AcDbEntity
  8
CUT
  100
AcDbLine
  10
44.4
  20
0
  30
0
  11
45
  21
0
  31
0
  0
LINE
  5
127
  100
AcDbEntity
  8
4
  100
AcDbLine
  10
34.4
  20
0
  30
0
  11
45
  21
0
  31
0
  0
LINE
  5
128
  100
AcDbEntity
  8
SK4
  100
AcDbLine
  10
-1
  20
0
  30
0
  11
46
  21
0
  31
0
  0
LINE
  5
129
  100
AcDbEntity
  8
INFTOTAL
  100
AcDbLine
  10
-31.847785
  20
17.992752
  30
0
  11
55.992752
  21
17.992752
  31
0
  0
LINE
  5
12a
  100
AcDbEntity
  8
INFTOTAL
  100
AcDbLine
  10
55.992752
  20
17.992752
  30
0
  11
55.992752
  21
-13.9762
  31
0
  0
LINE
  5
12b
  100
AcDbEntity
  8
INFTOTAL
  100
AcDbLine
  10
55.992752
  20
-13.9762
  30
0
  11
-31.847785
  21
-13.9762
  31
0
  0
LINE
  5
12c
  100
AcDbEntity
  8
INFTOTAL
  100
AcDbLine
  10
-31.847785
  20
-13.9762
  30
0
  11
-31.847785
  21
17.992752
  31
0
  0
ENDSEC
  0
SECTION
  2
OBJECTS
  0
DICTIONARY
  5
12d
  330
0
100
AcDbDictionary
281
    1
  3
ACAD_GROUP
  350
12e
  0
DICTIONARY
  5
12e
102
{ACAD_REACTORS
  330
12d
102
}
  330
12d
100
AcDbDictionary
281
    1
  0
ENDSEC
  0
EOF
