  0
SECTION
  2
HEADER
  9
$ACADVER
  1
AC1015
  9
$DWGCODEPAGE
  3
ANSI_932
  9
$HANDSEED
  5
106AB90
  0
ENDSEC
  0
SECTION
  2
CLASSES
  0
CLASS
  1
IMAGEDEF
  2
AcDbRasterImageDef
  3
ISM
  90
0
  91
4
  280
0
  281
0
  0
CLASS
  1
IMAGE
  2
AcDbRasterImage
  3
ISM
  90
127
  91
5
  280
0
  281
1
  0
CLASS
  1
IMAGEDEF_REACTOR
  2
AcDbRasterImageDefReactor
  3
ISM
  90
1
  91
4
  280
0
  281
0
  0
ENDSEC
  0
SECTION
  2
TABLES
  0
TABLE
  2
VPORT
  5
2
  330
0
  100
AcDbSymbolTable
  70
    0
  0
ENDTAB
  0
TABLE
  2
LTYPE
  5
3
  330
0
  100
AcDbSymbolTable
  70
    4
  0
LTYPE
  5
4
  330
3
  100
AcDbSymbolTableRecord
  100
AcDbLinetypeTableRecord
  2
ByBlock
  70
    0
  3

  72
65
  73
    0
  40
0
  0
LTYPE
  5
5
  330
3
  100
AcDbSymbolTableRecord
  100
AcDbLinetypeTableRecord
  2
ByLayer
  70
    0
  3

  72
65
  73
    0
  40
0
  0
LTYPE
  5
6
  330
3
  100
AcDbSymbolTableRecord
  100
AcDbLinetypeTableRecord
  2
CONTINUOUS
  70
    0
  3
Solid Line
  72
65
  73
    0
  40
0
  0
LTYPE
  5
7
  330
3
  100
AcDbSymbolTableRecord
  100
AcDbLinetypeTableRecord
  2
DASH
  70
    0
  3
Hidden
  72
65
  73
2
  40
2.5
  49
1.5
  74
0
  49
-1
  74
0
  0
LTYPE
  5
8
  330
3
  100
AcDbSymbolTableRecord
  100
AcDbLinetypeTableRecord
  2
LONGDASHDASH
  70
    0
  3
__ . __
  72
65
  73
    4
  40
7
  49
4
  74
    0
  49
-1
  74
    0
  49
1
  74
    0
  49
-1
  74
    0
  0
ENDTAB
  0
TABLE
  2
LAYER
  5
9
  330
0
  100
AcDbSymbolTable
  70
    40
  0
LAYER
  5
a
  330
9
  100
AcDbSymbolTableRecord
  100
AcDbLayerTableRecord
  2
0
  70
    0
  62
    0
  6
CONTINUOUS
  390
0
  0
LAYER
  5
c
  330
9
  100
AcDbSymbolTableRecord
  100
AcDbLayerTableRecord
  2
1
  70
    0
  62
    4
  6
CONTINUOUS
  370
50
  390
0
  0
LAYER
  5
d
  330
9
  100
AcDbSymbolTableRecord
  100
AcDbLayerTableRecord
  2
2
  70
    0
  62
    7
  6
CONTINUOUS
  370
25
  390
0
  0
LAYER
  5
f
  330
9
  100
AcDbSymbolTableRecord
  100
AcDbLayerTableRecord
  2
4
  70
    0
  62
    2
  6
LONGDASHDASH
  370
25
  390
0
  0
LAYER
  5
13
  330
9
  100
AcDbSymbolTableRecord
  100
AcDbLayerTableRecord
  2
SK1
  70
    0
  62
    4
  6
CONTINUOUS
  370
50
  390
0
  0
LAYER
  5
14
  330
9
  100
AcDbSymbolTableRecord
  100
AcDbLayerTableRecord
  2
SK2
  70
    0
  62
    7
  6
CONTINUOUS
  370
25
  390
0
  0
LAYER
  5
16
  330
9
  100
AcDbSymbolTableRecord
  100
AcDbLayerTableRecord
  2
SK4
  70
    0
  62
    2
  6
LONGDASHDASH
  370
25
  390
0
  0
LAYER
  5
21
  330
9
  100
AcDbSymbolTableRecord
  100
AcDbLayerTableRecord
  2
NOCUT
  70
    0
  62
    7
  6
CONTINUOUS
  370
25
  390
0
  0
LAYER
  5
22
  330
9
  100
AcDbSymbolTableRecord
  100
AcDbLayerTableRecord
  2
CUT
  70
    0
  62
    1
  6
CONTINUOUS
  370
25
  390
0
  0
LAYER
  5
26
  330
9
  100
AcDbSymbolTableRecord
  100
AcDbLayerTableRecord
  2
INFTOTAL
  70
    0
  62
    9
  6
CONTINUOUS
  370
18
  390
0
  0
ENDTAB
  0
TABLE
  2
STYLE
  5
27
  330
0
  100
AcDbSymbolTable
  70
    1
  0
STYLE
  5
28
  330
27
  100
AcDbSymbolTableRecord
  100
AcDbTextStyleTableRecord
  2
Monospac821 BT
  70
    0
  40
    3.5
  41
1
  50
0
  71
0
  42
3
  3

  4

  1001
ACAD
  1000
Monospac821 BT
  1071
256
  0
ENDTAB
  0
TABLE
  2
VIEW
  5
29
  330
0
  100
AcDbSymbolTable
  70
    0
  0
ENDTAB
  0
TABLE
  2
UCS
  5
2a
  330
0
  100
AcDbSymbolTable
  70
    0
  0
ENDTAB
  0
TABLE
  2
APPID
  5
2b
  330
0
  100
AcDbSymbolTable
  70
    1
  0
APPID
  5
2c
  330
2b
  100
AcDbSymbolTableRecord
  100
AcDbRegAppTableRecord
  2
ACAD
  70
    0
  0
ENDTAB
  0
TABLE
  2
DIMSTYLE
  5
2d
  330
0
  100
AcDbSymbolTable
  70
    1
  100
AcDbDimStyleTable
  0
DIMSTYLE
  105
2e
  330
2d
  100
AcDbSymbolTableRecord
  100
AcDbDimStyleTableRecord
  2
STANDARD
  70
    0
  41
    3
  42
0.5
  44
1
  73
0
  77
1
  78
1
  140
3.5
  141
2.5
  143
0.03937
  147
0.8
  172
1
  174
1
  178
0
  179
1
  271
2
  279
1
  284
1
  340
28
  0
ENDTAB
  0
TABLE
  2
BLOCK_RECORD
  5
2f
  330
0
  100
AcDbSymbolTable
  70
    2
  0
BLOCK_RECORD
  5
30
  330
2f
  100
AcDbSymbolTableRecord
  100
AcDbBlockTableRecord
  2
*Model_Space
  0
BLOCK_RECORD
  5
31
  330
2f
  100
AcDbSymbolTableRecord
  100
AcDbBlockTableRecord
  2
*Paper_Space
  0
BLOCK_RECORD
  5
b0
  330
2f
  100
AcDbSymbolTableRecord
  100
AcDbBlockTableRecord
  2
*Daf
  340
0
  0
BLOCK_RECORD
  5
be
  330
2f
  100
AcDbSymbolTableRecord
  100
AcDbBlockTableRecord
  2
*Dbd
  340
0
  0
BLOCK_RECORD
  5
cc
  330
2f
  100
AcDbSymbolTableRecord
  100
AcDbBlockTableRecord
  2
*Dcb
  340
0
  0
BLOCK_RECORD
  5
da
  330
2f
  100
AcDbSymbolTableRecord
  100
AcDbBlockTableRecord
  2
*Dd9
  340
0
  0
BLOCK_RECORD
  5
e8
  330
2f
  100
AcDbSymbolTableRecord
  100
AcDbBlockTableRecord
  2
*De7
  340
0
  0
BLOCK_RECORD
  5
f2
  330
2f
  100
AcDbSymbolTableRecord
  100
AcDbBlockTableRecord
  2
*Df1
  340
0
  0
BLOCK_RECORD
  5
100
  330
2f
  100
AcDbSymbolTableRecord
  100
AcDbBlockTableRecord
  2
*Dff
  340
0
  0
BLOCK_RECORD
  5
10e
  330
2f
  100
AcDbSymbolTableRecord
  100
AcDbBlockTableRecord
  2
*D10d
  340
0
  0
BLOCK_RECORD
  5
11c
  330
2f
  100
AcDbSymbolTableRecord
  100
AcDbBlockTableRecord
  2
*D11b
  340
0
  0
ENDTAB
  0
ENDSEC
  0
SECTION
  2
BLOCKS
  0
BLOCK
  5
32
  330
30
  100
AcDbEntity
  8
0
  100
AcDbBlockBegin
  2
*Model_Space
  70
    0
  10
0
  20
0
  30
0
  3
*Model_Space
  1

  0
ENDBLK
  5
33
  330
30
  100
AcDbEntity
  8
0
  100
AcDbBlockEnd
  0
BLOCK
  5
34
  330
31
  100
AcDbEntity
  8
0
  100
AcDbBlockBegin
  2
*Paper_Space
  70
    0
  10
0
  20
0
  30
0
  3
*Paper_Space
  1

  0
ENDBLK
  5
35
  330
31
  100
AcDbEntity
  8
0
  100
AcDbBlockEnd
  0
BLOCK
  5
ae
  330
b0
  100
AcDbEntity
  8
SK2
  100
AcDbBlockBegin
  2
*Daf
  70
1
  10
0
  20
0
  30
0
  3
*Daf
  1

  0
LINE
  5
b1
  330
b0
  100
AcDbEntity
  8
SK2
  100
AcDbLine
  10
0
  20
2.3
  30
0
  11
0
  21
15
  31
0
  0
LINE
  5
b2
  330
b0
  100
AcDbEntity
  8
SK2
  100
AcDbLine
  10
50
  20
0.7
  30
0
  11
50
  21
15
  31
0
  0
LINE
  5
b3
  330
b0
  100
AcDbEntity
  8
SK2
  100
AcDbLine
  10
0
  20
13
  30
0
  11
50
  21
13
  31
0
  0
SOLID
  5
b4
  330
b0
  100
AcDbEntity
  8
SK2
  100
AcDbTrace
  10
0
  20
13
  30
0
  11
2.478612
  21
13.326315
  31
0
  12
2.478612
  22
12.673685
  32
0
  13
2.478612
  23
12.673685
  33
0
  0
SOLID
  5
b5
  330
b0
  100
AcDbEntity
  8
SK2
  100
AcDbTrace
  10
50
  20
13
  30
0
  11
47.521388
  21
12.673685
  31
0
  12
47.521388
  22
13.326315
  32
0
  13
47.521388
  23
13.326315
  33
0
  0
MTEXT
  5
b6
  330
b0
  100
AcDbEntity
  8
SK2
  100
AcDbMText
  10
25
  20
13
  30
0
  11
1
  21
0
  31
0
  40
2
  41
0
  71
8
  72
1
  1
50
  0
POINT
  5
b7
  330
b0
  100
AcDbEntity
  8
SK2
  62
0
  100
AcDbPoint
  10
0
  20
2.3
  30
0
  0
POINT
  5
b8
  330
b0
  100
AcDbEntity
  8
SK2
  62
0
  100
AcDbPoint
  10
50
  20
0.7
  30
0
  0
POINT
  5
b9
  330
b0
  100
AcDbEntity
  8
SK2
  62
0
  100
AcDbPoint
  10
50
  20
13
  30
0
  0
ENDBLK
  5
ba
  330
b0
  100
AcDbEntity
  8
SK2
  100
AcDbBlockEnd
  0
BLOCK
  5
bc
  330
be
  100
AcDbEntity
  8
SK2
  100
AcDbBlockBegin
  2
*Dbd
  70
1
  10
0
  20
0
  30
0
  3
*Dbd
  1

  0
LINE
  5
bf
  330
be
  100
AcDbEntity
  8
SK2
  100
AcDbLine
  10
-22.855034
  20
3
  30
0
  11
0.7
  21
3
  31
0
  0
LINE
  5
c0
  330
be
  100
AcDbEntity
  8
SK2
  100
AcDbLine
  10
-22.855034
  20
-3
  30
0
  11
0.7
  21
-3
  31
0
  0
LINE
  5
c1
  330
be
  100
AcDbEntity
  8
SK2
  100
AcDbLine
  10
-20.855034
  20
3
  30
0
  11
-20.855034
  21
-3
  31
0
  0
SOLID
  5
c2
  330
be
  100
AcDbEntity
  8
SK2
  100
AcDbTrace
  10
-20.855034
  20
3
  30
0
  11
-21.181349
  21
5.478612
  31
0
  12
-20.528718
  22
5.478612
  32
0
  13
-20.528718
  23
5.478612
  33
0
  0
SOLID
  5
c3
  330
be
  100
AcDbEntity
  8
SK2
  100
AcDbTrace
  10
-20.855034
  20
-3
  30
0
  11
-20.528718
  21
-5.478612
  31
0
  12
-21.181349
  22
-5.478612
  32
0
  13
-21.181349
  23
-5.478612
  33
0
  0
MTEXT
  5
c4
  330
be
  100
AcDbEntity
  8
SK2
  100
AcDbMText
  10
-20.855034
  20
0
  30
0
  11
-0
  21
1
  31
0
  40
2
  41
0
  71
8
  72
1
  1
ﾘ6
  0
POINT
  5
c5
  330
be
  100
AcDbEntity
  8
SK2
  62
0
  100
AcDbPoint
  10
0.7
  20
3
  30
0
  0
POINT
  5
c6
  330
be
  100
AcDbEntity
  8
SK2
  62
0
  100
AcDbPoint
  10
0.7
  20
-3
  30
0
  0
POINT
  5
c7
  330
be
  100
AcDbEntity
  8
SK2
  62
0
  100
AcDbPoint
  10
-20.855034
  20
-3
  30
0
  0
ENDBLK
  5
c8
  330
be
  100
AcDbEntity
  8
SK2
  100
AcDbBlockEnd
  0
BLOCK
  5
ca
  330
cc
  100
AcDbEntity
  8
SK2
  100
AcDbBlockBegin
  2
*Dcb
  70
1
  10
0
  20
0
  30
0
  3
*Dcb
  1

  0
LINE
  5
cd
  330
cc
  100
AcDbEntity
  8
SK2
  100
AcDbLine
  10
0
  20
2.3
  30
0
  11
0
  21
9.655323
  31
0
  0
LINE
  5
ce
  330
cc
  100
AcDbEntity
  8
SK2
  100
AcDbLine
  10
34.1
  20
3
  30
0
  11
34.1
  21
9.655323
  31
0
  0
LINE
  5
cf
  330
cc
  100
AcDbEntity
  8
SK2
  100
AcDbLine
  10
0
  20
7.655323
  30
0
  11
34.1
  21
7.655323
  31
0
  0
SOLID
  5
d0
  330
cc
  100
AcDbEntity
  8
SK2
  100
AcDbTrace
  10
0
  20
7.655323
  30
0
  11
2.478612
  21
7.981638
  31
0
  12
2.478612
  22
7.329007
  32
0
  13
2.478612
  23
7.329007
  33
0
  0
SOLID
  5
d1
  330
cc
  100
AcDbEntity
  8
SK2
  100
AcDbTrace
  10
34.1
  20
7.655323
  30
0
  11
31.621388
  21
7.329007
  31
0
  12
31.621388
  22
7.981638
  32
0
  13
31.621388
  23
7.981638
  33
0
  0
MTEXT
  5
d2
  330
cc
  100
AcDbEntity
  8
SK2
  100
AcDbMText
  10
17.05
  20
7.655323
  30
0
  11
1
  21
0
  31
0
  40
2
  41
0
  71
8
  72
1
  1
34.1
  0
POINT
  5
d3
  330
cc
  100
AcDbEntity
  8
SK2
  62
0
  100
AcDbPoint
  10
0
  20
2.3
  30
0
  0
POINT
  5
d4
  330
cc
  100
AcDbEntity
  8
SK2
  62
0
  100
AcDbPoint
  10
34.1
  20
3
  30
0
  0
POINT
  5
d5
  330
cc
  100
AcDbEntity
  8
SK2
  62
0
  100
AcDbPoint
  10
34.1
  20
7.655323
  30
0
  0
ENDBLK
  5
d6
  330
cc
  100
AcDbEntity
  8
SK2
  100
AcDbBlockEnd
  0
BLOCK
  5
d8
  330
da
  100
AcDbEntity
  8
2
  100
AcDbBlockBegin
  2
*Dd9
  70
1
  10
0
  20
0
  30
0
  3
*Dd9
  1

  0
LINE
  5
db
  330
da
  100
AcDbEntity
  8
2
  100
AcDbLine
  10
49.95
  20
-0.75
  30
0
  11
57
  21
-0.75
  31
0
  0
LINE
  5
dc
  330
da
  100
AcDbEntity
  8
2
  100
AcDbLine
  10
49.95
  20
0.75
  30
0
  11
57
  21
0.75
  31
0
  0
LINE
  5
dd
  330
da
  100
AcDbEntity
  8
2
  100
AcDbLine
  10
55
  20
-6.757426
  30
0
  11
55
  21
0.75
  31
0
  0
SOLID
  5
de
  330
da
  100
AcDbEntity
  8
2
  100
AcDbTrace
  10
55
  20
-0.75
  30
0
  11
54.673685
  21
1.728612
  31
0
  12
55.326315
  22
1.728612
  32
0
  13
55.326315
  23
1.728612
  33
0
  0
SOLID
  5
df
  330
da
  100
AcDbEntity
  8
2
  100
AcDbTrace
  10
55
  20
0.75
  30
0
  11
55.326315
  21
-1.728612
  31
0
  12
54.673685
  22
-1.728612
  32
0
  13
54.673685
  23
-1.728612
  33
0
  0
MTEXT
  5
e0
  330
da
  100
AcDbEntity
  8
2
  100
AcDbMText
  10
55
  20
0
  30
0
  11
0
  21
1
  31
0
  40
2
  41
0
  71
8
  72
1
  1
ﾘ1.5
  0
POINT
  5
e1
  330
da
  100
AcDbEntity
  8
2
  62
0
  100
AcDbPoint
  10
49.95
  20
-0.75
  30
0
  0
POINT
  5
e2
  330
da
  100
AcDbEntity
  8
2
  62
0
  100
AcDbPoint
  10
49.95
  20
0.75
  30
0
  0
POINT
  5
e3
  330
da
  100
AcDbEntity
  8
2
  62
0
  100
AcDbPoint
  10
55
  20
0.75
  30
0
  0
ENDBLK
  5
e4
  330
da
  100
AcDbEntity
  8
2
  100
AcDbBlockEnd
  0
BLOCK
  5
e6
  330
e8
  100
AcDbEntity
  8
2
  100
AcDbBlockBegin
  2
*De7
  70
1
  10
0
  20
0
  30
0
  3
*De7
  1

  0
LINE
  5
e9
  330
e8
  100
AcDbEntity
  8
2
  100
AcDbLine
  10
49.981434
  20
0.738883
  30
0
  11
56.268191
  21
8.515559
  31
0
  0
MTEXT
  5
ea
  330
e8
  100
AcDbEntity
  8
2
  100
AcDbMText
  10
53.124812
  20
4.627221
  30
0
  11
0.628676
  21
0.777668
  31
0
  40
2
  41
0
  71
8
  72
1
  1
R0.05
  0
SOLID
  5
eb
  330
e8
  100
AcDbEntity
  8
2
  100
AcDbTrace
  10
49.981434
  20
0.738883
  30
0
  11
51.285912
  21
2.871566
  31
0
  12
51.793442
  22
2.461273
  32
0
  13
51.793442
  23
2.461273
  33
0
  0
POINT
  5
ec
  330
e8
  100
AcDbEntity
  8
2
  62
0
  100
AcDbPoint
  10
49.981434
  20
0.738883
  30
0
  0
POINT
  5
ed
  330
e8
  100
AcDbEntity
  8
2
  62
0
  100
AcDbPoint
  10
49.95
  20
0.7
  30
0
  0
ENDBLK
  5
ee
  330
e8
  100
AcDbEntity
  8
2
  100
AcDbBlockEnd
  0
BLOCK
  5
f0
  330
f2
  100
AcDbEntity
  8
2
  100
AcDbBlockBegin
  2
*Df1
  70
1
  10
0
  20
0
  30
0
  3
*Df1
  1

  0
LINE
  5
f3
  330
f2
  100
AcDbEntity
  8
2
  100
AcDbLine
  10
49.1
  20
-0.7
  30
0
  11
47.1
  21
-0.7
  31
0
  0
LINE
  5
f4
  330
f2
  100
AcDbEntity
  8
2
  100
AcDbLine
  10
49.1
  20
0.7
  30
0
  11
47.1
  21
0.7
  31
0
  0
LINE
  5
f5
  330
f2
  100
AcDbEntity
  8
2
  100
AcDbLine
  10
49.1
  20
-0.7
  30
0
  11
49.1
  21
7.277228
  31
0
  0
SOLID
  5
f6
  330
f2
  100
AcDbEntity
  8
2
  100
AcDbTrace
  10
49.1
  20
-0.7
  30
0
  11
48.773685
  21
1.778612
  31
0
  12
49.426315
  22
1.778612
  32
0
  13
49.426315
  23
1.778612
  33
0
  0
SOLID
  5
f7
  330
f2
  100
AcDbEntity
  8
2
  100
AcDbTrace
  10
49.1
  20
0.7
  30
0
  11
49.426315
  21
-1.778612
  31
0
  12
48.773685
  22
-1.778612
  32
0
  13
48.773685
  23
-1.778612
  33
0
  0
MTEXT
  5
f8
  330
f2
  100
AcDbEntity
  8
2
  100
AcDbMText
  10
49.1
  20
0.7
  30
0
  11
0
  21
1
  31
0
  40
2
  41
0
  71
8
  72
1
  1
ﾘ1.4
  0
POINT
  5
f9
  330
f2
  100
AcDbEntity
  8
2
  62
0
  100
AcDbPoint
  10
47.1
  20
-0.7
  30
0
  0
POINT
  5
fa
  330
f2
  100
AcDbEntity
  8
2
  62
0
  100
AcDbPoint
  10
47.1
  20
0.7
  30
0
  0
POINT
  5
fb
  330
f2
  100
AcDbEntity
  8
2
  62
0
  100
AcDbPoint
  10
49.1
  20
7.277228
  30
0
  0
ENDBLK
  5
fc
  330
f2
  100
AcDbEntity
  8
2
  100
AcDbBlockEnd
  0
BLOCK
  5
fe
  330
100
  100
AcDbEntity
  8
2
  100
AcDbBlockBegin
  2
*Dff
  70
1
  10
0
  20
0
  30
0
  3
*Dff
  1

  0
LINE
  5
101
  330
100
  100
AcDbEntity
  8
2
  100
AcDbLine
  10
49.1
  20
0.7
  30
0
  11
49.1
  21
5.269446
  31
0
  0
LINE
  5
102
  330
100
  100
AcDbEntity
  8
2
  100
AcDbLine
  10
42.513
  20
0.7
  30
0
  11
42.513
  21
5.269446
  31
0
  0
LINE
  5
103
  330
100
  100
AcDbEntity
  8
2
  100
AcDbLine
  10
49.1
  20
3.269446
  30
0
  11
37.555693
  21
3.269446
  31
0
  0
SOLID
  5
104
  330
100
  100
AcDbEntity
  8
2
  100
AcDbTrace
  10
49.1
  20
3.269446
  30
0
  11
51.578612
  21
3.595761
  31
0
  12
51.578612
  22
2.94313
  32
0
  13
51.578612
  23
2.94313
  33
0
  0
SOLID
  5
105
  330
100
  100
AcDbEntity
  8
2
  100
AcDbTrace
  10
42.513
  20
3.269446
  30
0
  11
40.034388
  21
2.94313
  31
0
  12
40.034388
  22
3.595761
  32
0
  13
40.034388
  23
3.595761
  33
0
  0
MTEXT
  5
106
  330
100
  100
AcDbEntity
  8
2
  100
AcDbMText
  10
45.8065
  20
3.269446
  30
0
  11
1
  21
-0
  31
0
  40
2
  41
0
  71
8
  72
1
  1
6.587
  0
POINT
  5
107
  330
100
  100
AcDbEntity
  8
2
  62
0
  100
AcDbPoint
  10
49.1
  20
0.7
  30
0
  0
POINT
  5
108
  330
100
  100
AcDbEntity
  8
2
  62
0
  100
AcDbPoint
  10
42.513
  20
0.7
  30
0
  0
POINT
  5
109
  330
100
  100
AcDbEntity
  8
2
  62
0
  100
AcDbPoint
  10
37.555693
  20
3.269446
  30
0
  0
ENDBLK
  5
10a
  330
100
  100
AcDbEntity
  8
2
  100
AcDbBlockEnd
  0
BLOCK
  5
10c
  330
10e
  100
AcDbEntity
  8
2
  100
AcDbBlockBegin
  2
*D10d
  70
1
  10
0
  20
0
  30
0
  3
*D10d
  1

  0
LINE
  5
10f
  330
10e
  100
AcDbEntity
  8
2
  100
AcDbLine
  10
50
  20
0.7
  30
0
  11
50
  21
15
  31
0
  0
LINE
  5
110
  330
10e
  100
AcDbEntity
  8
2
  100
AcDbLine
  10
34.1
  20
3
  30
0
  11
34.1
  21
10
  31
0
  0
LINE
  5
111
  330
10e
  100
AcDbEntity
  8
2
  100
AcDbLine
  10
50
  20
8
  30
0
  11
34.1
  21
8
  31
0
  0
SOLID
  5
112
  330
10e
  100
AcDbEntity
  8
2
  100
AcDbTrace
  10
50
  20
8
  30
0
  11
52.478612
  21
8.326315
  31
0
  12
52.478612
  22
7.673685
  32
0
  13
52.478612
  23
7.673685
  33
0
  0
SOLID
  5
113
  330
10e
  100
AcDbEntity
  8
2
  100
AcDbTrace
  10
34.1
  20
8
  30
0
  11
31.621388
  21
7.673685
  31
0
  12
31.621388
  22
8.326315
  32
0
  13
31.621388
  23
8.326315
  33
0
  0
MTEXT
  5
114
  330
10e
  100
AcDbEntity
  8
2
  100
AcDbMText
  10
42.05
  20
8
  30
0
  11
1
  21
-0
  31
0
  40
2
  41
0
  71
8
  72
1
  1
15.9
  0
POINT
  5
115
  330
10e
  100
AcDbEntity
  8
2
  62
0
  100
AcDbPoint
  10
50
  20
0.7
  30
0
  0
POINT
  5
116
  330
10e
  100
AcDbEntity
  8
2
  62
0
  100
AcDbPoint
  10
34.1
  20
3
  30
0
  0
POINT
  5
117
  330
10e
  100
AcDbEntity
  8
2
  62
0
  100
AcDbPoint
  10
34.1
  20
8
  30
0
  0
ENDBLK
  5
118
  330
10e
  100
AcDbEntity
  8
2
  100
AcDbBlockEnd
  0
BLOCK
  5
11a
  330
11c
  100
AcDbEntity
  8
2
  100
AcDbBlockBegin
  2
*D11b
  70
1
  10
0
  20
0
  30
0
  3
*D11b
  1

  0
LINE
  5
11d
  330
11c
  100
AcDbEntity
  8
2
  100
AcDbLine
  10
50
  20
-9.983448
  30
0
  11
50
  21
0.7
  31
0
  0
LINE
  5
11e
  330
11c
  100
AcDbEntity
  8
2
  100
AcDbLine
  10
49.1
  20
-9.983448
  30
0
  11
49.1
  21
0.7
  31
0
  0
LINE
  5
11f
  330
11c
  100
AcDbEntity
  8
2
  100
AcDbLine
  10
50
  20
-7.983448
  30
0
  11
45.092822
  21
-7.983448
  31
0
  0
SOLID
  5
120
  330
11c
  100
AcDbEntity
  8
2
  100
AcDbTrace
  10
50
  20
-7.983448
  30
0
  11
52.478612
  21
-7.657133
  31
0
  12
52.478612
  22
-8.309764
  32
0
  13
52.478612
  23
-8.309764
  33
0
  0
SOLID
  5
121
  330
11c
  100
AcDbEntity
  8
2
  100
AcDbTrace
  10
49.1
  20
-7.983448
  30
0
  11
46.621388
  21
-8.309764
  31
0
  12
46.621388
  22
-7.657133
  32
0
  13
46.621388
  23
-7.657133
  33
0
  0
MTEXT
  5
122
  330
11c
  100
AcDbEntity
  8
2
  100
AcDbMText
  10
49.55
  20
-7.983448
  30
0
  11
1
  21
-0
  31
0
  40
2
  41
0
  71
8
  72
1
  1
0.9
  0
POINT
  5
123
  330
11c
  100
AcDbEntity
  8
2
  62
0
  100
AcDbPoint
  10
50
  20
0.7
  30
0
  0
POINT
  5
124
  330
11c
  100
AcDbEntity
  8
2
  62
0
  100
AcDbPoint
  10
49.1
  20
0.7
  30
0
  0
POINT
  5
125
  330
11c
  100
AcDbEntity
  8
2
  62
0
  100
AcDbPoint
  10
45.092822
  20
-7.983448
  30
0
  0
ENDBLK
  5
126
  330
11c
  100
AcDbEntity
  8
2
  100
AcDbBlockEnd
  0
ENDSEC
  0
SECTION
  2
ENTITIES
  0
DIMENSION
  5
bb
  100
AcDbEntity
  8
SK2
  100
AcDbDimension
  2
*Daf
  10
50
  20
13
  30
0
  11
25
  21
13
  31
0
  70
160
  1
<>
  71
5
  3
STANDARD
  42
50
  100
AcDbAlignedDimension
  13
0
  23
2.3
  33
0
  14
50
  24
0.7
  34
0
  50
0
  100
AcDbRotatedDimension
  0
DIMENSION
  5
c9
  100
AcDbEntity
  8
SK2
  100
AcDbDimension
  2
*Dbd
  10
-20.855034
  20
-3
  30
0
  11
-20.855034
  21
0
  31
0
  70
160
  1
%%c<>
  71
5
  3
STANDARD
  42
6
  100
AcDbAlignedDimension
  13
0.7
  23
3
  33
0
  14
0.7
  24
-3
  34
0
  50
90
  100
AcDbRotatedDimension
  0
DIMENSION
  5
d7
  100
AcDbEntity
  8
SK2
  100
AcDbDimension
  2
*Dcb
  10
34.1
  20
7.655323
  30
0
  11
17.05
  21
7.655323
  31
0
  70
160
  1
<>
  71
5
  3
STANDARD
  42
34.1
  100
AcDbAlignedDimension
  13
0
  23
2.3
  33
0
  14
34.1
  24
3
  34
0
  50
0
  100
AcDbRotatedDimension
  0
DIMENSION
  5
e5
  100
AcDbEntity
  8
2
  100
AcDbDimension
  2
*Dd9
  10
55
  20
0.75
  30
0
  11
55
  21
0
  31
0
  70
160
  1
%%c<>
  71
5
  3
STANDARD
  42
1.5
  100
AcDbAlignedDimension
  13
49.95
  23
-0.75
  33
0
  14
49.95
  24
0.75
  34
0
  50
-90
  100
AcDbRotatedDimension
  0
DIMENSION
  5
ef
  100
AcDbEntity
  8
2
  100
AcDbDimension
  2
*De7
  10
49.95
  20
0.7
  30
0
  11
53.124812
  21
4.627221
  31
0
  70
164
  1
R0.05
  71
5
  3
STANDARD
  100
AcDbRadialDimension
  15
49.981434
  25
0.738883
  35
0
  50
51.047516
  0
DIMENSION
  5
fd
  100
AcDbEntity
  8
2
  100
AcDbDimension
  2
*Df1
  10
49.1
  20
7.277228
  30
0
  11
49.1
  21
0.7
  31
0
  70
160
  1
%%c<>
  71
5
  3
STANDARD
  42
1.4
  100
AcDbAlignedDimension
  13
47.1
  23
-0.7
  33
0
  14
47.1
  24
0.7
  34
0
  50
-90
  100
AcDbRotatedDimension
  0
DIMENSION
  5
10b
  100
AcDbEntity
  8
2
  100
AcDbDimension
  2
*Dff
  10
37.555693
  20
3.269446
  30
0
  11
45.8065
  21
3.269446
  31
0
  70
160
  1
<>
  71
5
  3
STANDARD
  42
6.587
  100
AcDbAlignedDimension
  13
49.1
  23
0.7
  33
0
  14
42.513
  24
0.7
  34
0
  50
0
  100
AcDbRotatedDimension
  0
DIMENSION
  5
119
  100
AcDbEntity
  8
2
  100
AcDbDimension
  2
*D10d
  10
34.1
  20
8
  30
0
  11
42.05
  21
8
  31
0
  70
160
  1
<>
  71
5
  3
STANDARD
  42
15.9
  100
AcDbAlignedDimension
  13
50
  23
0.7
  33
0
  14
34.1
  24
3
  34
0
  50
0
  100
AcDbRotatedDimension
  0
DIMENSION
  5
127
  100
AcDbEntity
  8
2
  100
AcDbDimension
  2
*D11b
  10
45.092822
  20
-7.983448
  30
0
  11
49.55
  21
-7.983448
  31
0
  70
160
  1
<>
  71
5
  3
STANDARD
  42
0.9
  100
AcDbAlignedDimension
  13
50
  23
0.7
  33
0
  14
49.1
  24
0.7
  34
0
  50
0
  100
AcDbRotatedDimension
  0
LINE
  5
36
  100
AcDbEntity
  8
1
  100
AcDbLine
  10
34.1
  20
2.954257
  30
0
  11
34.1
  21
-2.954257
  31
0
  0
LINE
  5
37
  100
AcDbEntity
  8
1
  100
AcDbLine
  10
34.1
  20
-2.954257
  30
0
  11
42.513
  21
-0.7
  31
0
  0
LINE
  5
38
  100
AcDbEntity
  8
1
  100
AcDbLine
  10
42.513
  20
-0.7
  30
0
  11
49.1
  21
-0.7
  31
0
  0
LINE
  5
39
  100
AcDbEntity
  8
1
  100
AcDbLine
  10
49.1
  20
-0.7
  30
0
  11
49.1
  21
-0.75
  31
0
  0
LINE
  5
3a
  100
AcDbEntity
  8
1
  100
AcDbLine
  10
49.1
  20
-0.75
  30
0
  11
49.95
  21
-0.75
  31
0
  0
ARC
  5
3b
  100
AcDbEntity
  8
1
  100
AcDbCircle
  10
49.95
  20
-0.7
  30
0
  40
0.05
  100
AcDbArc
  50
270
  51
0
  0
LINE
  5
3c
  100
AcDbEntity
  8
1
  100
AcDbLine
  10
50
  20
-0.7
  30
0
  11
50
  21
0
  31
0
  0
LINE
  5
3d
  100
AcDbEntity
  8
1
  100
AcDbLine
  10
50
  20
0
  30
0
  11
50
  21
0.7
  31
0
  0
ARC
  5
3e
  100
AcDbEntity
  8
1
  100
AcDbCircle
  10
49.95
  20
0.7
  30
0
  40
0.05
  100
AcDbArc
  50
0
  51
90
  0
LINE
  5
3f
  100
AcDbEntity
  8
1
  100
AcDbLine
  10
49.95
  20
0.75
  30
0
  11
49.1
  21
0.75
  31
0
  0
LINE
  5
40
  100
AcDbEntity
  8
1
  100
AcDbLine
  10
49.1
  20
0.75
  30
0
  11
49.1
  21
0.7
  31
0
  0
LINE
  5
41
  100
AcDbEntity
  8
1
  100
AcDbLine
  10
49.1
  20
0.7
  30
0
  11
42.513
  21
0.7
  31
0
  0
LINE
  5
42
  100
AcDbEntity
  8
1
  100
AcDbLine
  10
42.513
  20
0.7
  30
0
  11
34.1
  21
2.954257
  31
0
  0
LINE
  5
43
  100
AcDbEntity
  8
1
  100
AcDbLine
  10
42.513
  20
0.7
  30
0
  11
42.513
  21
-0.7
  31
0
  0
LINE
  5
44
  100
AcDbEntity
  8
1
  100
AcDbLine
  10
49.1
  20
-0.476414
  30
0
  11
49.1
  21
-0.519889
  31
0
  0
LINE
  5
45
  100
AcDbEntity
  8
1
  100
AcDbLine
  10
49.1
  20
-0.519889
  30
0
  11
49.2
  21
-0.55892
  31
0
  0
LINE
  5
46
  100
AcDbEntity
  8
1
  100
AcDbLine
  10
49.2
  20
-0.55892
  30
0
  11
49.3
  21
-0.59464
  31
0
  0
LINE
  5
47
  100
AcDbEntity
  8
1
  100
AcDbLine
  10
49.3
  20
-0.59464
  30
0
  11
49.4
  21
-0.626839
  31
0
  0
LINE
  5
48
  100
AcDbEntity
  8
1
  100
AcDbLine
  10
49.4
  20
-0.626839
  30
0
  11
49.5
  21
-0.655324
  31
0
  0
LINE
  5
49
  100
AcDbEntity
  8
1
  100
AcDbLine
  10
49.5
  20
-0.655324
  30
0
  11
49.6
  21
-0.679928
  31
0
  0
LINE
  5
4a
  100
AcDbEntity
  8
1
  100
AcDbLine
  10
49.6
  20
-0.679928
  30
0
  11
49.7
  21
-0.700505
  31
0
  0
LINE
  5
4b
  100
AcDbEntity
  8
1
  100
AcDbLine
  10
49.7
  20
-0.700505
  30
0
  11
49.8
  21
-0.716932
  31
0
  0
LINE
  5
4c
  100
AcDbEntity
  8
1
  100
AcDbLine
  10
49.8
  20
-0.716932
  30
0
  11
49.9
  21
-0.729114
  31
0
  0
LINE
  5
4d
  100
AcDbEntity
  8
1
  100
AcDbLine
  10
49.9
  20
-0.729114
  30
0
  11
49.998265
  21
-0.686944
  31
0
  0
LINE
  5
4e
  100
AcDbEntity
  8
1
  100
AcDbLine
  10
49.998265
  20
-0.686944
  30
0
  11
50
  21
-0.6862
  31
0
  0
LINE
  5
4f
  100
AcDbEntity
  8
1
  100
AcDbLine
  10
50
  20
-0.699965
  30
0
  11
49.9
  21
-0.747779
  31
0
  0
LINE
  5
50
  100
AcDbEntity
  8
1
  100
AcDbLine
  10
49.9
  20
-0.747779
  30
0
  11
49.8
  21
-0.741129
  31
0
  0
LINE
  5
51
  100
AcDbEntity
  8
1
  100
AcDbLine
  10
49.8
  20
-0.741129
  30
0
  11
49.7
  21
-0.730089
  31
0
  0
LINE
  5
52
  100
AcDbEntity
  8
1
  100
AcDbLine
  10
49.7
  20
-0.730089
  30
0
  11
49.6
  21
-0.714724
  31
0
  0
LINE
  5
53
  100
AcDbEntity
  8
1
  100
AcDbLine
  10
49.6
  20
-0.714724
  30
0
  11
49.5
  21
-0.695127
  31
0
  0
LINE
  5
54
  100
AcDbEntity
  8
1
  100
AcDbLine
  10
49.5
  20
-0.695127
  30
0
  11
49.4
  21
-0.671412
  31
0
  0
LINE
  5
55
  100
AcDbEntity
  8
1
  100
AcDbLine
  10
49.4
  20
-0.671412
  30
0
  11
49.3
  21
-0.643721
  31
0
  0
LINE
  5
56
  100
AcDbEntity
  8
1
  100
AcDbLine
  10
49.3
  20
-0.643721
  30
0
  11
49.2
  21
-0.612216
  31
0
  0
LINE
  5
57
  100
AcDbEntity
  8
1
  100
AcDbLine
  10
49.2
  20
-0.612216
  30
0
  11
49.1
  21
-0.577086
  31
0
  0
LINE
  5
58
  100
AcDbEntity
  8
1
  100
AcDbLine
  10
49.1
  20
-0.577086
  30
0
  11
49.1
  21
-0.534095
  31
0
  0
LINE
  5
59
  100
AcDbEntity
  8
1
  100
AcDbLine
  10
49.1
  20
-0.534095
  30
0
  11
49
  21
-0.609255
  31
0
  0
LINE
  5
5a
  100
AcDbEntity
  8
1
  100
AcDbLine
  10
49
  20
-0.609255
  30
0
  11
49
  21
-0.7
  31
0
  0
LINE
  5
5b
  100
AcDbEntity
  8
1
  100
AcDbLine
  10
49.1
  20
-0.7
  30
0
  11
49.1
  21
0.7
  31
0
  0
LINE
  5
5c
  100
AcDbEntity
  8
1
  100
AcDbLine
  10
49.1
  20
0.75
  30
0
  11
49.1
  21
-0.75
  31
0
  0
LINE
  5
5d
  100
AcDbEntity
  8
1
  100
AcDbLine
  10
49
  20
0.7
  30
0
  11
49
  21
0.251798
  31
0
  0
LINE
  5
5e
  100
AcDbEntity
  8
1
  100
AcDbLine
  10
49
  20
0.251798
  30
0
  11
49.1
  21
-0.348866
  31
0
  0
LINE
  5
5f
  100
AcDbEntity
  8
1
  100
AcDbLine
  10
49.1
  20
-0.348866
  30
0
  11
49.1
  21
-0.378445
  31
0
  0
LINE
  5
60
  100
AcDbEntity
  8
1
  100
AcDbLine
  10
49.1
  20
-0.378445
  30
0
  11
49.2
  21
-0.427121
  31
0
  0
LINE
  5
61
  100
AcDbEntity
  8
1
  100
AcDbLine
  10
49.2
  20
-0.427121
  30
0
  11
49.3
  21
-0.473267
  31
0
  0
LINE
  5
62
  100
AcDbEntity
  8
1
  100
AcDbLine
  10
49.3
  20
-0.473267
  30
0
  11
49.4
  21
-0.51661
  31
0
  0
LINE
  5
63
  100
AcDbEntity
  8
1
  100
AcDbLine
  10
49.4
  20
-0.51661
  30
0
  11
49.5
  21
-0.556893
  31
0
  0
LINE
  5
64
  100
AcDbEntity
  8
1
  100
AcDbLine
  10
49.5
  20
-0.556893
  30
0
  11
49.6
  21
-0.593877
  31
0
  0
LINE
  5
65
  100
AcDbEntity
  8
1
  100
AcDbLine
  10
49.6
  20
-0.593877
  30
0
  11
49.7
  21
-0.627345
  31
0
  0
LINE
  5
66
  100
AcDbEntity
  8
1
  100
AcDbLine
  10
49.7
  20
-0.627345
  30
0
  11
49.8
  21
-0.657096
  31
0
  0
LINE
  5
67
  100
AcDbEntity
  8
1
  100
AcDbLine
  10
49.8
  20
-0.657096
  30
0
  11
49.9
  21
-0.682955
  31
0
  0
LINE
  5
68
  100
AcDbEntity
  8
1
  100
AcDbLine
  10
49.9
  20
-0.682955
  30
0
  11
50
  21
-0.656049
  31
0
  0
LINE
  5
69
  100
AcDbEntity
  8
1
  100
AcDbLine
  10
49.95
  20
-0.75
  30
0
  11
49.95
  21
0.75
  31
0
  0
LINE
  5
6a
  100
AcDbEntity
  8
1
  100
AcDbLine
  10
49.95
  20
0.75
  30
0
  11
49.95
  21
-0.75
  31
0
  0
LINE
  5
6b
  100
AcDbEntity
  8
SK1
  100
AcDbLine
  10
34.1
  20
2.954257
  30
0
  11
33.929283
  21
3
  31
0
  0
LINE
  5
6c
  100
AcDbEntity
  8
SK1
  100
AcDbLine
  10
33.929283
  20
3
  30
0
  11
34.1
  21
3
  31
0
  0
LINE
  5
6d
  100
AcDbEntity
  8
SK1
  100
AcDbLine
  10
34.1
  20
3
  30
0
  11
0.7
  21
3
  31
0
  0
LINE
  5
6e
  100
AcDbEntity
  8
SK1
  100
AcDbLine
  10
0.7
  20
3
  30
0
  11
0
  21
2.3
  31
0
  0
LINE
  5
6f
  100
AcDbEntity
  8
SK1
  100
AcDbLine
  10
34.1
  20
-2.954257
  30
0
  11
33.929283
  21
-3
  31
0
  0
LINE
  5
70
  100
AcDbEntity
  8
SK1
  100
AcDbLine
  10
33.929283
  20
-3
  30
0
  11
34.1
  21
-3
  31
0
  0
LINE
  5
71
  100
AcDbEntity
  8
SK1
  100
AcDbLine
  10
34.1
  20
-3
  30
0
  11
0.7
  21
-3
  31
0
  0
LINE
  5
72
  100
AcDbEntity
  8
SK1
  100
AcDbLine
  10
0.7
  20
-3
  30
0
  11
0
  21
-2.3
  31
0
  0
LINE
  5
73
  100
AcDbEntity
  8
SK1
  100
AcDbLine
  10
33.929283
  20
3
  30
0
  11
33.929283
  21
-3
  31
0
  0
LINE
  5
74
  100
AcDbEntity
  8
SK1
  100
AcDbLine
  10
0.7
  20
3
  30
0
  11
0.7
  21
-3
  31
0
  0
LINE
  5
75
  100
AcDbEntity
  8
SK1
  100
AcDbLine
  10
0
  20
2.3
  30
0
  11
0
  21
-2.3
  31
0
  0
LINE
  5
76
  100
AcDbEntity
  8
SK1
  100
AcDbLine
  10
35.1401
  20
1.40688
  30
0
  11
35.5069
  21
1.0401
  31
0
  0
LINE
  5
77
  100
AcDbEntity
  8
SK1
  100
AcDbLine
  10
34.6328
  20
1.66666
  30
0
  11
35.7667
  21
0.532833
  31
0
  0
LINE
  5
78
  100
AcDbEntity
  8
SK1
  100
AcDbLine
  10
34.3154
  20
1.73657
  30
0
  11
35.8366
  21
0.215434
  31
0
  0
LINE
  5
79
  100
AcDbEntity
  8
SK1
  100
AcDbLine
  10
34.1
  20
1.70452
  30
0
  11
35.8045
  21
0
  31
0
  0
LINE
  5
7a
  100
AcDbEntity
  8
SK1
  100
AcDbLine
  10
34.1
  20
1.45703
  30
0
  11
35.557
  21
0
  31
0
  0
LINE
  5
7b
  100
AcDbEntity
  8
SK1
  100
AcDbLine
  10
34.1
  20
1.20954
  30
0
  11
35.3095
  21
0
  31
0
  0
LINE
  5
7c
  100
AcDbEntity
  8
SK1
  100
AcDbLine
  10
34.1
  20
0.962054
  30
0
  11
35.0621
  21
0
  31
0
  0
LINE
  5
7d
  100
AcDbEntity
  8
SK1
  100
AcDbLine
  10
34.1
  20
0.714566
  30
0
  11
34.8146
  21
0
  31
0
  0
LINE
  5
7e
  100
AcDbEntity
  8
SK1
  100
AcDbLine
  10
34.1
  20
0.467079
  30
0
  11
34.5671
  21
0
  31
0
  0
LINE
  5
7f
  100
AcDbEntity
  8
SK1
  100
AcDbLine
  10
34.1
  20
0.219592
  30
0
  11
34.3196
  21
0
  31
0
  0
LINE
  5
80
  100
AcDbEntity
  8
SK1
  100
AcDbLine
  10
34.1
  20
1.70452
  30
0
  11
34.1441
  21
1.74861
  31
0
  0
LINE
  5
81
  100
AcDbEntity
  8
SK1
  100
AcDbLine
  10
34.1
  20
1.45703
  30
0
  11
34.371
  21
1.72802
  31
0
  0
LINE
  5
82
  100
AcDbEntity
  8
SK1
  100
AcDbLine
  10
34.1
  20
1.20954
  30
0
  11
34.5742
  21
1.6837
  31
0
  0
LINE
  5
83
  100
AcDbEntity
  8
SK1
  100
AcDbLine
  10
34.1
  20
0.962054
  30
0
  11
34.7588
  21
1.62082
  31
0
  0
LINE
  5
84
  100
AcDbEntity
  8
SK1
  100
AcDbLine
  10
34.1
  20
0.714566
  30
0
  11
34.9271
  21
1.54167
  31
0
  0
LINE
  5
85
  100
AcDbEntity
  8
SK1
  100
AcDbLine
  10
34.1
  20
0.467079
  30
0
  11
35.081
  21
1.44812
  31
0
  0
LINE
  5
86
  100
AcDbEntity
  8
SK1
  100
AcDbLine
  10
34.1
  20
0.219592
  30
0
  11
35.2226
  21
1.34216
  31
0
  0
LINE
  5
87
  100
AcDbEntity
  8
SK1
  100
AcDbLine
  10
34.1279
  20
0
  30
0
  11
35.3508
  21
1.22288
  31
0
  0
LINE
  5
88
  100
AcDbEntity
  8
SK1
  100
AcDbLine
  10
34.3754
  20
0
  30
0
  11
35.467
  21
1.09157
  31
0
  0
LINE
  5
89
  100
AcDbEntity
  8
SK1
  100
AcDbLine
  10
34.6229
  20
0
  30
0
  11
35.5707
  21
0.947822
  31
0
  0
LINE
  5
8a
  100
AcDbEntity
  8
SK1
  100
AcDbLine
  10
34.8704
  20
0
  30
0
  11
35.6605
  21
0.790145
  31
0
  0
LINE
  5
8b
  100
AcDbEntity
  8
SK1
  100
AcDbLine
  10
35.1178
  20
0
  30
0
  11
35.7364
  21
0.618517
  31
0
  0
LINE
  5
8c
  100
AcDbEntity
  8
SK1
  100
AcDbLine
  10
35.3653
  20
0
  30
0
  11
35.796
  21
0.430696
  31
0
  0
LINE
  5
8d
  100
AcDbEntity
  8
SK1
  100
AcDbLine
  10
35.6128
  20
0
  30
0
  11
35.8356
  21
0.222827
  31
0
  0
LINE
  5
8e
  100
AcDbEntity
  8
SK1
  100
AcDbLine
  10
34.1
  20
0
  30
0
  11
34.1
  21
1.75
  31
0
  0
LINE
  5
8f
  100
AcDbEntity
  8
SK1
  100
AcDbLine
  10
34.1
  20
0
  30
0
  11
35.85
  21
0
  31
0
  0
ARC
  5
90
  100
AcDbEntity
  8
SK1
  100
AcDbCircle
  10
34.1
  20
0
  30
0
  40
1.75
  100
AcDbArc
  50
0
  51
90
  0
ARC
  5
91
  100
AcDbEntity
  8
SK1
  100
AcDbCircle
  10
34.1
  20
0
  30
0
  40
1.75
  100
AcDbArc
  50
90
  51
180
  0
LINE
  5
92
  100
AcDbEntity
  8
SK1
  100
AcDbLine
  10
34.0721
  20
0
  30
0
  11
34.1
  21
-0.027896
  31
0
  0
LINE
  5
93
  100
AcDbEntity
  8
SK1
  100
AcDbLine
  10
33.8246
  20
0
  30
0
  11
34.1
  21
-0.275383
  31
0
  0
LINE
  5
94
  100
AcDbEntity
  8
SK1
  100
AcDbLine
  10
33.5771
  20
0
  30
0
  11
34.1
  21
-0.522871
  31
0
  0
LINE
  5
95
  100
AcDbEntity
  8
SK1
  100
AcDbLine
  10
33.3296
  20
0
  30
0
  11
34.1
  21
-0.770358
  31
0
  0
LINE
  5
96
  100
AcDbEntity
  8
SK1
  100
AcDbLine
  10
33.0822
  20
0
  30
0
  11
34.1
  21
-1.01785
  31
0
  0
LINE
  5
97
  100
AcDbEntity
  8
SK1
  100
AcDbLine
  10
32.8347
  20
0
  30
0
  11
34.1
  21
-1.26533
  31
0
  0
LINE
  5
98
  100
AcDbEntity
  8
SK1
  100
AcDbLine
  10
32.5872
  20
0
  30
0
  11
34.1
  21
-1.51282
  31
0
  0
LINE
  5
99
  100
AcDbEntity
  8
SK1
  100
AcDbLine
  10
32.3503
  20
-0.010642
  30
0
  11
34.0894
  21
-1.74967
  31
0
  0
LINE
  5
9a
  100
AcDbEntity
  8
SK1
  100
AcDbLine
  10
32.3736
  20
-0.281429
  30
0
  11
33.8186
  21
-1.72637
  31
0
  0
LINE
  5
9b
  100
AcDbEntity
  8
SK1
  100
AcDbLine
  10
32.4639
  20
-0.619147
  30
0
  11
33.4809
  21
-1.63613
  31
0
  0
LINE
  5
9c
  100
AcDbEntity
  8
SK1
  100
AcDbLine
  10
32.3514
  20
-0.044098
  30
0
  11
32.3955
  21
0
  31
0
  0
LINE
  5
9d
  100
AcDbEntity
  8
SK1
  100
AcDbLine
  10
32.372
  20
-0.270991
  30
0
  11
32.643
  21
0
  31
0
  0
LINE
  5
9e
  100
AcDbEntity
  8
SK1
  100
AcDbLine
  10
32.4163
  20
-0.474162
  30
0
  11
32.8905
  21
0
  31
0
  0
LINE
  5
9f
  100
AcDbEntity
  8
SK1
  100
AcDbLine
  10
32.4792
  20
-0.658762
  30
0
  11
33.1379
  21
0
  31
0
  0
LINE
  5
a0
  100
AcDbEntity
  8
SK1
  100
AcDbLine
  10
32.5583
  20
-0.827105
  30
0
  11
33.3854
  21
0
  31
0
  0
LINE
  5
a1
  100
AcDbEntity
  8
SK1
  100
AcDbLine
  10
32.6519
  20
-0.981039
  30
0
  11
33.6329
  21
0
  31
0
  0
LINE
  5
a2
  100
AcDbEntity
  8
SK1
  100
AcDbLine
  10
32.7578
  20
-1.12257
  30
0
  11
33.8804
  21
0
  31
0
  0
LINE
  5
a3
  100
AcDbEntity
  8
SK1
  100
AcDbLine
  10
32.8771
  20
-1.25077
  30
0
  11
34.1
  21
-0.027896
  31
0
  0
LINE
  5
a4
  100
AcDbEntity
  8
SK1
  100
AcDbLine
  10
33.0084
  20
-1.36695
  30
0
  11
34.1
  21
-0.275383
  31
0
  0
LINE
  5
a5
  100
AcDbEntity
  8
SK1
  100
AcDbLine
  10
33.1522
  20
-1.47069
  30
0
  11
34.1
  21
-0.522871
  31
0
  0
LINE
  5
a6
  100
AcDbEntity
  8
SK1
  100
AcDbLine
  10
33.3099
  20
-1.5605
  30
0
  11
34.1
  21
-0.770358
  31
0
  0
LINE
  5
a7
  100
AcDbEntity
  8
SK1
  100
AcDbLine
  10
33.4815
  20
-1.63636
  30
0
  11
34.1
  21
-1.01785
  31
0
  0
LINE
  5
a8
  100
AcDbEntity
  8
SK1
  100
AcDbLine
  10
33.6693
  20
-1.69603
  30
0
  11
34.1
  21
-1.26533
  31
0
  0
LINE
  5
a9
  100
AcDbEntity
  8
SK1
  100
AcDbLine
  10
33.8772
  20
-1.73565
  30
0
  11
34.1
  21
-1.51282
  31
0
  0
LINE
  5
aa
  100
AcDbEntity
  8
SK1
  100
AcDbLine
  10
34.1
  20
0
  30
0
  11
32.35
  21
0
  31
0
  0
LINE
  5
ab
  100
AcDbEntity
  8
SK1
  100
AcDbLine
  10
34.1
  20
-1.75
  30
0
  11
34.1
  21
0
  31
0
  0
ARC
  5
ac
  100
AcDbEntity
  8
SK1
  100
AcDbCircle
  10
34.1
  20
0
  30
0
  40
1.75
  100
AcDbArc
  50
180
  51
270
  0
ARC
  5
ad
  100
AcDbEntity
  8
SK1
  100
AcDbCircle
  10
34.1
  20
0
  30
0
  40
1.75
  100
AcDbArc
  50
270
  51
0
  0
LINE
  5
128
  100
AcDbEntity
  8
NOCUT
  100
AcDbLine
  10
49.1
  20
0
  30
0
  11
49.1
  21
0.7
  31
0
  0
LINE
  5
129
  100
AcDbEntity
  8
NOCUT
  100
AcDbLine
  10
49.1
  20
0.7
  30
0
  11
42.513
  21
0.7
  31
0
  0
LINE
  5
12a
  100
AcDbEntity
  8
NOCUT
  100
AcDbLine
  10
42.513
  20
0.7
  30
0
  11
34.1
  21
2.954257
  31
0
  0
LINE
  5
12b
  100
AcDbEntity
  8
NOCUT
  100
AcDbLine
  10
34.1
  20
2.954257
  30
0
  11
34.1
  21
0
  31
0
  0
LINE
  5
12c
  100
AcDbEntity
  8
NOCUT
  100
AcDbLine
  10
34.1
  20
0
  30
0
  11
49.1
  21
0
  31
0
  0
LINE
  5
12d
  100
AcDbEntity
  8
CUT
  100
AcDbLine
  10
50
  20
0
  30
0
  11
50
  21
0.7
  31
0
  0
ARC
  5
12e
  100
AcDbEntity
  8
CUT
  100
AcDbCircle
  10
49.95
  20
0.7
  30
0
  40
0.05
  100
AcDbArc
  50
0
  51
90
  0
LINE
  5
12f
  100
AcDbEntity
  8
CUT
  100
AcDbLine
  10
49.95
  20
0.75
  30
0
  11
49.1
  21
0.75
  31
0
  0
LINE
  5
130
  100
AcDbEntity
  8
CUT
  100
AcDbLine
  10
49.1
  20
0.75
  30
0
  11
49.1
  21
0
  31
0
  0
LINE
  5
131
  100
AcDbEntity
  8
CUT
  100
AcDbLine
  10
49.1
  20
0
  30
0
  11
50
  21
0
  31
0
  0
LINE
  5
132
  100
AcDbEntity
  8
4
  100
AcDbLine
  10
34.1
  20
0
  30
0
  11
50
  21
0
  31
0
  0
LINE
  5
133
  100
AcDbEntity
  8
SK4
  100
AcDbLine
  10
-1
  20
0
  30
0
  11
51
  21
0
  31
0
  0
LINE
  5
134
  100
AcDbEntity
  8
INFTOTAL
  100
AcDbLine
  10
-26.847785
  20
18.992752
  30
0
  11
60.992752
  21
18.992752
  31
0
  0
LINE
  5
135
  100
AcDbEntity
  8
INFTOTAL
  100
AcDbLine
  10
60.992752
  20
18.992752
  30
0
  11
60.992752
  21
-13.9762
  31
0
  0
LINE
  5
136
  100
AcDbEntity
  8
INFTOTAL
  100
AcDbLine
  10
60.992752
  20
-13.9762
  30
0
  11
-26.847785
  21
-13.9762
  31
0
  0
LINE
  5
137
  100
AcDbEntity
  8
INFTOTAL
  100
AcDbLine
  10
-26.847785
  20
-13.9762
  30
0
  11
-26.847785
  21
18.992752
  31
0
  0
ENDSEC
  0
SECTION
  2
OBJECTS
  0
DICTIONARY
  5
138
  330
0
100
AcDbDictionary
281
    1
  3
ACAD_GROUP
  350
139
  0
DICTIONARY
  5
139
102
{ACAD_REACTORS
  330
138
102
}
  330
138
100
AcDbDictionary
281
    1
  0
ENDSEC
  0
EOF
