  0
SECTION
  2
HEADER
  9
$ACADVER
  1
AC1015
  9
$DWGCODEPAGE
  3
ANSI_932
  9
$HANDSEED
  5
106AB90
  0
ENDSEC
  0
SECTION
  2
CLASSES
  0
CLASS
  1
IMAGEDEF
  2
AcDbRasterImageDef
  3
ISM
  90
0
  91
4
  280
0
  281
0
  0
CLASS
  1
IMAGE
  2
AcDbRasterImage
  3
ISM
  90
127
  91
5
  280
0
  281
1
  0
CLASS
  1
IMAGEDEF_REACTOR
  2
AcDbRasterImageDefReactor
  3
ISM
  90
1
  91
4
  280
0
  281
0
  0
ENDSEC
  0
SECTION
  2
TABLES
  0
TABLE
  2
VPORT
  5
2
  330
0
  100
AcDbSymbolTable
  70
    0
  0
ENDTAB
  0
TABLE
  2
LTYPE
  5
3
  330
0
  100
AcDbSymbolTable
  70
    4
  0
LTYPE
  5
4
  330
3
  100
AcDbSymbolTableRecord
  100
AcDbLinetypeTableRecord
  2
ByBlock
  70
    0
  3

  72
65
  73
    0
  40
0
  0
LTYPE
  5
5
  330
3
  100
AcDbSymbolTableRecord
  100
AcDbLinetypeTableRecord
  2
ByLayer
  70
    0
  3

  72
65
  73
    0
  40
0
  0
LTYPE
  5
6
  330
3
  100
AcDbSymbolTableRecord
  100
AcDbLinetypeTableRecord
  2
CONTINUOUS
  70
    0
  3
Solid Line
  72
65
  73
    0
  40
0
  0
LTYPE
  5
7
  330
3
  100
AcDbSymbolTableRecord
  100
AcDbLinetypeTableRecord
  2
DASH
  70
    0
  3
Hidden
  72
65
  73
2
  40
2.5
  49
1.5
  74
0
  49
-1
  74
0
  0
LTYPE
  5
8
  330
3
  100
AcDbSymbolTableRecord
  100
AcDbLinetypeTableRecord
  2
LONGDASHDASH
  70
    0
  3
__ . __
  72
65
  73
    4
  40
7
  49
4
  74
    0
  49
-1
  74
    0
  49
1
  74
    0
  49
-1
  74
    0
  0
ENDTAB
  0
TABLE
  2
LAYER
  5
9
  330
0
  100
AcDbSymbolTable
  70
    40
  0
LAYER
  5
a
  330
9
  100
AcDbSymbolTableRecord
  100
AcDbLayerTableRecord
  2
0
  70
    0
  62
    0
  6
CONTINUOUS
  390
0
  0
LAYER
  5
c
  330
9
  100
AcDbSymbolTableRecord
  100
AcDbLayerTableRecord
  2
1
  70
    0
  62
    4
  6
CONTINUOUS
  370
50
  390
0
  0
LAYER
  5
d
  330
9
  100
AcDbSymbolTableRecord
  100
AcDbLayerTableRecord
  2
2
  70
    0
  62
    7
  6
CONTINUOUS
  370
25
  390
0
  0
LAYER
  5
f
  330
9
  100
AcDbSymbolTableRecord
  100
AcDbLayerTableRecord
  2
4
  70
    0
  62
    2
  6
LONGDASHDASH
  370
25
  390
0
  0
LAYER
  5
13
  330
9
  100
AcDbSymbolTableRecord
  100
AcDbLayerTableRecord
  2
SK1
  70
    0
  62
    4
  6
CONTINUOUS
  370
50
  390
0
  0
LAYER
  5
14
  330
9
  100
AcDbSymbolTableRecord
  100
AcDbLayerTableRecord
  2
SK2
  70
    0
  62
    7
  6
CONTINUOUS
  370
25
  390
0
  0
LAYER
  5
16
  330
9
  100
AcDbSymbolTableRecord
  100
AcDbLayerTableRecord
  2
SK4
  70
    0
  62
    2
  6
LONGDASHDASH
  370
25
  390
0
  0
LAYER
  5
21
  330
9
  100
AcDbSymbolTableRecord
  100
AcDbLayerTableRecord
  2
NOCUT
  70
    0
  62
    7
  6
CONTINUOUS
  370
25
  390
0
  0
LAYER
  5
22
  330
9
  100
AcDbSymbolTableRecord
  100
AcDbLayerTableRecord
  2
CUT
  70
    0
  62
    1
  6
CONTINUOUS
  370
25
  390
0
  0
LAYER
  5
26
  330
9
  100
AcDbSymbolTableRecord
  100
AcDbLayerTableRecord
  2
INFTOTAL
  70
    0
  62
    9
  6
CONTINUOUS
  370
18
  390
0
  0
ENDTAB
  0
TABLE
  2
STYLE
  5
27
  330
0
  100
AcDbSymbolTable
  70
    1
  0
STYLE
  5
28
  330
27
  100
AcDbSymbolTableRecord
  100
AcDbTextStyleTableRecord
  2
Monospac821 BT
  70
    0
  40
    3.5
  41
1
  50
0
  71
0
  42
3
  3

  4

  1001
ACAD
  1000
Monospac821 BT
  1071
256
  0
ENDTAB
  0
TABLE
  2
VIEW
  5
29
  330
0
  100
AcDbSymbolTable
  70
    0
  0
ENDTAB
  0
TABLE
  2
UCS
  5
2a
  330
0
  100
AcDbSymbolTable
  70
    0
  0
ENDTAB
  0
TABLE
  2
APPID
  5
2b
  330
0
  100
AcDbSymbolTable
  70
    1
  0
APPID
  5
2c
  330
2b
  100
AcDbSymbolTableRecord
  100
AcDbRegAppTableRecord
  2
ACAD
  70
    0
  0
ENDTAB
  0
TABLE
  2
DIMSTYLE
  5
2d
  330
0
  100
AcDbSymbolTable
  70
    1
  100
AcDbDimStyleTable
  0
DIMSTYLE
  105
2e
  330
2d
  100
AcDbSymbolTableRecord
  100
AcDbDimStyleTableRecord
  2
STANDARD
  70
    0
  41
    3
  42
0.5
  44
1
  73
0
  77
1
  78
1
  140
3.5
  141
2.5
  143
0.03937
  147
0.8
  172
1
  174
1
  178
0
  179
1
  271
2
  279
1
  284
1
  340
28
  0
ENDTAB
  0
TABLE
  2
BLOCK_RECORD
  5
2f
  330
0
  100
AcDbSymbolTable
  70
    2
  0
BLOCK_RECORD
  5
30
  330
2f
  100
AcDbSymbolTableRecord
  100
AcDbBlockTableRecord
  2
*Model_Space
  0
BLOCK_RECORD
  5
31
  330
2f
  100
AcDbSymbolTableRecord
  100
AcDbBlockTableRecord
  2
*Paper_Space
  0
BLOCK_RECORD
  5
cb
  330
2f
  100
AcDbSymbolTableRecord
  100
AcDbBlockTableRecord
  2
*Dca
  340
0
  0
BLOCK_RECORD
  5
d9
  330
2f
  100
AcDbSymbolTableRecord
  100
AcDbBlockTableRecord
  2
*Dd8
  340
0
  0
BLOCK_RECORD
  5
e7
  330
2f
  100
AcDbSymbolTableRecord
  100
AcDbBlockTableRecord
  2
*De6
  340
0
  0
BLOCK_RECORD
  5
f5
  330
2f
  100
AcDbSymbolTableRecord
  100
AcDbBlockTableRecord
  2
*Df4
  340
0
  0
BLOCK_RECORD
  5
103
  330
2f
  100
AcDbSymbolTableRecord
  100
AcDbBlockTableRecord
  2
*D102
  340
0
  0
BLOCK_RECORD
  5
10d
  330
2f
  100
AcDbSymbolTableRecord
  100
AcDbBlockTableRecord
  2
*D10c
  340
0
  0
BLOCK_RECORD
  5
11b
  330
2f
  100
AcDbSymbolTableRecord
  100
AcDbBlockTableRecord
  2
*D11a
  340
0
  0
BLOCK_RECORD
  5
129
  330
2f
  100
AcDbSymbolTableRecord
  100
AcDbBlockTableRecord
  2
*D128
  340
0
  0
BLOCK_RECORD
  5
137
  330
2f
  100
AcDbSymbolTableRecord
  100
AcDbBlockTableRecord
  2
*D136
  340
0
  0
ENDTAB
  0
ENDSEC
  0
SECTION
  2
BLOCKS
  0
BLOCK
  5
32
  330
30
  100
AcDbEntity
  8
0
  100
AcDbBlockBegin
  2
*Model_Space
  70
    0
  10
0
  20
0
  30
0
  3
*Model_Space
  1

  0
ENDBLK
  5
33
  330
30
  100
AcDbEntity
  8
0
  100
AcDbBlockEnd
  0
BLOCK
  5
34
  330
31
  100
AcDbEntity
  8
0
  100
AcDbBlockBegin
  2
*Paper_Space
  70
    0
  10
0
  20
0
  30
0
  3
*Paper_Space
  1

  0
ENDBLK
  5
35
  330
31
  100
AcDbEntity
  8
0
  100
AcDbBlockEnd
  0
BLOCK
  5
c9
  330
cb
  100
AcDbEntity
  8
SK2
  100
AcDbBlockBegin
  2
*Dca
  70
1
  10
0
  20
0
  30
0
  3
*Dca
  1

  0
LINE
  5
cc
  330
cb
  100
AcDbEntity
  8
SK2
  100
AcDbLine
  10
0
  20
2.3
  30
0
  11
0
  21
15
  31
0
  0
LINE
  5
cd
  330
cb
  100
AcDbEntity
  8
SK2
  100
AcDbLine
  10
50
  20
1.4
  30
0
  11
50
  21
15
  31
0
  0
LINE
  5
ce
  330
cb
  100
AcDbEntity
  8
SK2
  100
AcDbLine
  10
0
  20
13
  30
0
  11
50
  21
13
  31
0
  0
SOLID
  5
cf
  330
cb
  100
AcDbEntity
  8
SK2
  100
AcDbTrace
  10
0
  20
13
  30
0
  11
2.478612
  21
13.326315
  31
0
  12
2.478612
  22
12.673685
  32
0
  13
2.478612
  23
12.673685
  33
0
  0
SOLID
  5
d0
  330
cb
  100
AcDbEntity
  8
SK2
  100
AcDbTrace
  10
50
  20
13
  30
0
  11
47.521388
  21
12.673685
  31
0
  12
47.521388
  22
13.326315
  32
0
  13
47.521388
  23
13.326315
  33
0
  0
MTEXT
  5
d1
  330
cb
  100
AcDbEntity
  8
SK2
  100
AcDbMText
  10
25
  20
13
  30
0
  11
1
  21
0
  31
0
  40
2
  41
0
  71
8
  72
1
  1
50
  0
POINT
  5
d2
  330
cb
  100
AcDbEntity
  8
SK2
  62
0
  100
AcDbPoint
  10
0
  20
2.3
  30
0
  0
POINT
  5
d3
  330
cb
  100
AcDbEntity
  8
SK2
  62
0
  100
AcDbPoint
  10
50
  20
1.4
  30
0
  0
POINT
  5
d4
  330
cb
  100
AcDbEntity
  8
SK2
  62
0
  100
AcDbPoint
  10
50
  20
13
  30
0
  0
ENDBLK
  5
d5
  330
cb
  100
AcDbEntity
  8
SK2
  100
AcDbBlockEnd
  0
BLOCK
  5
d7
  330
d9
  100
AcDbEntity
  8
SK2
  100
AcDbBlockBegin
  2
*Dd8
  70
1
  10
0
  20
0
  30
0
  3
*Dd8
  1

  0
LINE
  5
da
  330
d9
  100
AcDbEntity
  8
SK2
  100
AcDbLine
  10
-22.855034
  20
3
  30
0
  11
0.7
  21
3
  31
0
  0
LINE
  5
db
  330
d9
  100
AcDbEntity
  8
SK2
  100
AcDbLine
  10
-22.855034
  20
-3
  30
0
  11
0.7
  21
-3
  31
0
  0
LINE
  5
dc
  330
d9
  100
AcDbEntity
  8
SK2
  100
AcDbLine
  10
-20.855034
  20
3
  30
0
  11
-20.855034
  21
-3
  31
0
  0
SOLID
  5
dd
  330
d9
  100
AcDbEntity
  8
SK2
  100
AcDbTrace
  10
-20.855034
  20
3
  30
0
  11
-21.181349
  21
5.478612
  31
0
  12
-20.528718
  22
5.478612
  32
0
  13
-20.528718
  23
5.478612
  33
0
  0
SOLID
  5
de
  330
d9
  100
AcDbEntity
  8
SK2
  100
AcDbTrace
  10
-20.855034
  20
-3
  30
0
  11
-20.528718
  21
-5.478612
  31
0
  12
-21.181349
  22
-5.478612
  32
0
  13
-21.181349
  23
-5.478612
  33
0
  0
MTEXT
  5
df
  330
d9
  100
AcDbEntity
  8
SK2
  100
AcDbMText
  10
-20.855034
  20
0
  30
0
  11
-0
  21
1
  31
0
  40
2
  41
0
  71
8
  72
1
  1
ﾘ6
  0
POINT
  5
e0
  330
d9
  100
AcDbEntity
  8
SK2
  62
0
  100
AcDbPoint
  10
0.7
  20
3
  30
0
  0
POINT
  5
e1
  330
d9
  100
AcDbEntity
  8
SK2
  62
0
  100
AcDbPoint
  10
0.7
  20
-3
  30
0
  0
POINT
  5
e2
  330
d9
  100
AcDbEntity
  8
SK2
  62
0
  100
AcDbPoint
  10
-20.855034
  20
-3
  30
0
  0
ENDBLK
  5
e3
  330
d9
  100
AcDbEntity
  8
SK2
  100
AcDbBlockEnd
  0
BLOCK
  5
e5
  330
e7
  100
AcDbEntity
  8
SK2
  100
AcDbBlockBegin
  2
*De6
  70
1
  10
0
  20
0
  30
0
  3
*De6
  1

  0
LINE
  5
e8
  330
e7
  100
AcDbEntity
  8
SK2
  100
AcDbLine
  10
0
  20
2.3
  30
0
  11
0
  21
9.655323
  31
0
  0
LINE
  5
e9
  330
e7
  100
AcDbEntity
  8
SK2
  100
AcDbLine
  10
32.4
  20
3
  30
0
  11
32.4
  21
9.655323
  31
0
  0
LINE
  5
ea
  330
e7
  100
AcDbEntity
  8
SK2
  100
AcDbLine
  10
0
  20
7.655323
  30
0
  11
32.4
  21
7.655323
  31
0
  0
SOLID
  5
eb
  330
e7
  100
AcDbEntity
  8
SK2
  100
AcDbTrace
  10
0
  20
7.655323
  30
0
  11
2.478612
  21
7.981638
  31
0
  12
2.478612
  22
7.329007
  32
0
  13
2.478612
  23
7.329007
  33
0
  0
SOLID
  5
ec
  330
e7
  100
AcDbEntity
  8
SK2
  100
AcDbTrace
  10
32.4
  20
7.655323
  30
0
  11
29.921388
  21
7.329007
  31
0
  12
29.921388
  22
7.981638
  32
0
  13
29.921388
  23
7.981638
  33
0
  0
MTEXT
  5
ed
  330
e7
  100
AcDbEntity
  8
SK2
  100
AcDbMText
  10
16.2
  20
7.655323
  30
0
  11
1
  21
0
  31
0
  40
2
  41
0
  71
8
  72
1
  1
32.4
  0
POINT
  5
ee
  330
e7
  100
AcDbEntity
  8
SK2
  62
0
  100
AcDbPoint
  10
0
  20
2.3
  30
0
  0
POINT
  5
ef
  330
e7
  100
AcDbEntity
  8
SK2
  62
0
  100
AcDbPoint
  10
32.4
  20
3
  30
0
  0
POINT
  5
f0
  330
e7
  100
AcDbEntity
  8
SK2
  62
0
  100
AcDbPoint
  10
32.4
  20
7.655323
  30
0
  0
ENDBLK
  5
f1
  330
e7
  100
AcDbEntity
  8
SK2
  100
AcDbBlockEnd
  0
BLOCK
  5
f3
  330
f5
  100
AcDbEntity
  8
2
  100
AcDbBlockBegin
  2
*Df4
  70
1
  10
0
  20
0
  30
0
  3
*Df4
  1

  0
LINE
  5
f6
  330
f5
  100
AcDbEntity
  8
2
  100
AcDbLine
  10
49.9
  20
-1.5
  30
0
  11
57
  21
-1.5
  31
0
  0
LINE
  5
f7
  330
f5
  100
AcDbEntity
  8
2
  100
AcDbLine
  10
49.9
  20
1.5
  30
0
  11
57
  21
1.5
  31
0
  0
LINE
  5
f8
  330
f5
  100
AcDbEntity
  8
2
  100
AcDbLine
  10
55
  20
-4.158416
  30
0
  11
55
  21
1.5
  31
0
  0
SOLID
  5
f9
  330
f5
  100
AcDbEntity
  8
2
  100
AcDbTrace
  10
55
  20
-1.5
  30
0
  11
54.673685
  21
0.978612
  31
0
  12
55.326315
  22
0.978612
  32
0
  13
55.326315
  23
0.978612
  33
0
  0
SOLID
  5
fa
  330
f5
  100
AcDbEntity
  8
2
  100
AcDbTrace
  10
55
  20
1.5
  30
0
  11
55.326315
  21
-0.978612
  31
0
  12
54.673685
  22
-0.978612
  32
0
  13
54.673685
  23
-0.978612
  33
0
  0
MTEXT
  5
fb
  330
f5
  100
AcDbEntity
  8
2
  100
AcDbMText
  10
55
  20
0
  30
0
  11
0
  21
1
  31
0
  40
2
  41
0
  71
8
  72
1
  1
ﾘ3
  0
POINT
  5
fc
  330
f5
  100
AcDbEntity
  8
2
  62
0
  100
AcDbPoint
  10
49.9
  20
-1.5
  30
0
  0
POINT
  5
fd
  330
f5
  100
AcDbEntity
  8
2
  62
0
  100
AcDbPoint
  10
49.9
  20
1.5
  30
0
  0
POINT
  5
fe
  330
f5
  100
AcDbEntity
  8
2
  62
0
  100
AcDbPoint
  10
55
  20
1.5
  30
0
  0
ENDBLK
  5
ff
  330
f5
  100
AcDbEntity
  8
2
  100
AcDbBlockEnd
  0
BLOCK
  5
101
  330
103
  100
AcDbEntity
  8
2
  100
AcDbBlockBegin
  2
*D102
  70
1
  10
0
  20
0
  30
0
  3
*D102
  1

  0
LINE
  5
104
  330
103
  100
AcDbEntity
  8
2
  100
AcDbLine
  10
49.962868
  20
1.477767
  30
0
  11
56.249624
  21
9.254443
  31
0
  0
MTEXT
  5
105
  330
103
  100
AcDbEntity
  8
2
  100
AcDbMText
  10
53.106246
  20
5.366105
  30
0
  11
0.628676
  21
0.777668
  31
0
  40
2
  41
0
  71
8
  72
1
  1
R0.1
  0
SOLID
  5
106
  330
103
  100
AcDbEntity
  8
2
  100
AcDbTrace
  10
49.962868
  20
1.477767
  30
0
  11
51.267346
  21
3.61045
  31
0
  12
51.774876
  22
3.200156
  32
0
  13
51.774876
  23
3.200156
  33
0
  0
POINT
  5
107
  330
103
  100
AcDbEntity
  8
2
  62
0
  100
AcDbPoint
  10
49.962868
  20
1.477767
  30
0
  0
POINT
  5
108
  330
103
  100
AcDbEntity
  8
2
  62
0
  100
AcDbPoint
  10
49.9
  20
1.4
  30
0
  0
ENDBLK
  5
109
  330
103
  100
AcDbEntity
  8
2
  100
AcDbBlockEnd
  0
BLOCK
  5
10b
  330
10d
  100
AcDbEntity
  8
2
  100
AcDbBlockBegin
  2
*D10c
  70
1
  10
0
  20
0
  30
0
  3
*D10c
  1

  0
LINE
  5
10e
  330
10d
  100
AcDbEntity
  8
2
  100
AcDbLine
  10
48.2
  20
-1.45
  30
0
  11
46.2
  21
-1.45
  31
0
  0
LINE
  5
10f
  330
10d
  100
AcDbEntity
  8
2
  100
AcDbLine
  10
48.2
  20
1.45
  30
0
  11
46.2
  21
1.45
  31
0
  0
LINE
  5
110
  330
10d
  100
AcDbEntity
  8
2
  100
AcDbLine
  10
48.2
  20
-1.45
  30
0
  11
48.2
  21
8.056931
  31
0
  0
SOLID
  5
111
  330
10d
  100
AcDbEntity
  8
2
  100
AcDbTrace
  10
48.2
  20
-1.45
  30
0
  11
47.873685
  21
1.028612
  31
0
  12
48.526315
  22
1.028612
  32
0
  13
48.526315
  23
1.028612
  33
0
  0
SOLID
  5
112
  330
10d
  100
AcDbEntity
  8
2
  100
AcDbTrace
  10
48.2
  20
1.45
  30
0
  11
48.526315
  21
-1.028612
  31
0
  12
47.873685
  22
-1.028612
  32
0
  13
47.873685
  23
-1.028612
  33
0
  0
MTEXT
  5
113
  330
10d
  100
AcDbEntity
  8
2
  100
AcDbMText
  10
48.2
  20
1.45
  30
0
  11
0
  21
1
  31
0
  40
2
  41
0
  71
8
  72
1
  1
ﾘ2.9
  0
POINT
  5
114
  330
10d
  100
AcDbEntity
  8
2
  62
0
  100
AcDbPoint
  10
46.2
  20
-1.45
  30
0
  0
POINT
  5
115
  330
10d
  100
AcDbEntity
  8
2
  62
0
  100
AcDbPoint
  10
46.2
  20
1.45
  30
0
  0
POINT
  5
116
  330
10d
  100
AcDbEntity
  8
2
  62
0
  100
AcDbPoint
  10
48.2
  20
8.056931
  30
0
  0
ENDBLK
  5
117
  330
10d
  100
AcDbEntity
  8
2
  100
AcDbBlockEnd
  0
BLOCK
  5
119
  330
11b
  100
AcDbEntity
  8
2
  100
AcDbBlockBegin
  2
*D11a
  70
1
  10
0
  20
0
  30
0
  3
*D11a
  1

  0
LINE
  5
11c
  330
11b
  100
AcDbEntity
  8
2
  100
AcDbLine
  10
48.2
  20
1.45
  30
0
  11
48.2
  21
5.269446
  31
0
  0
LINE
  5
11d
  330
11b
  100
AcDbEntity
  8
2
  100
AcDbLine
  10
38.013
  20
1.45
  30
0
  11
38.013
  21
5.269446
  31
0
  0
LINE
  5
11e
  330
11b
  100
AcDbEntity
  8
2
  100
AcDbLine
  10
48.2
  20
3.269446
  30
0
  11
38.013
  21
3.269446
  31
0
  0
SOLID
  5
11f
  330
11b
  100
AcDbEntity
  8
2
  100
AcDbTrace
  10
48.2
  20
3.269446
  30
0
  11
50.678612
  21
3.595761
  31
0
  12
50.678612
  22
2.94313
  32
0
  13
50.678612
  23
2.94313
  33
0
  0
SOLID
  5
120
  330
11b
  100
AcDbEntity
  8
2
  100
AcDbTrace
  10
38.013
  20
3.269446
  30
0
  11
35.534388
  21
2.94313
  31
0
  12
35.534388
  22
3.595761
  32
0
  13
35.534388
  23
3.595761
  33
0
  0
MTEXT
  5
121
  330
11b
  100
AcDbEntity
  8
2
  100
AcDbMText
  10
43.1065
  20
3.269446
  30
0
  11
1
  21
-0
  31
0
  40
2
  41
0
  71
8
  72
1
  1
10.187
  0
POINT
  5
122
  330
11b
  100
AcDbEntity
  8
2
  62
0
  100
AcDbPoint
  10
48.2
  20
5.269446
  30
0
  0
POINT
  5
123
  330
11b
  100
AcDbEntity
  8
2
  62
0
  100
AcDbPoint
  10
38.013
  20
5.269446
  30
0
  0
POINT
  5
124
  330
11b
  100
AcDbEntity
  8
2
  62
0
  100
AcDbPoint
  10
38.013
  20
3.269446
  30
0
  0
ENDBLK
  5
125
  330
11b
  100
AcDbEntity
  8
2
  100
AcDbBlockEnd
  0
BLOCK
  5
127
  330
129
  100
AcDbEntity
  8
2
  100
AcDbBlockBegin
  2
*D128
  70
1
  10
0
  20
0
  30
0
  3
*D128
  1

  0
LINE
  5
12a
  330
129
  100
AcDbEntity
  8
2
  100
AcDbLine
  10
50
  20
1.4
  30
0
  11
50
  21
15
  31
0
  0
LINE
  5
12b
  330
129
  100
AcDbEntity
  8
2
  100
AcDbLine
  10
32.4
  20
3
  30
0
  11
32.4
  21
10
  31
0
  0
LINE
  5
12c
  330
129
  100
AcDbEntity
  8
2
  100
AcDbLine
  10
50
  20
8
  30
0
  11
32.4
  21
8
  31
0
  0
SOLID
  5
12d
  330
129
  100
AcDbEntity
  8
2
  100
AcDbTrace
  10
50
  20
8
  30
0
  11
52.478612
  21
8.326315
  31
0
  12
52.478612
  22
7.673685
  32
0
  13
52.478612
  23
7.673685
  33
0
  0
SOLID
  5
12e
  330
129
  100
AcDbEntity
  8
2
  100
AcDbTrace
  10
32.4
  20
8
  30
0
  11
29.921388
  21
7.673685
  31
0
  12
29.921388
  22
8.326315
  32
0
  13
29.921388
  23
8.326315
  33
0
  0
MTEXT
  5
12f
  330
129
  100
AcDbEntity
  8
2
  100
AcDbMText
  10
41.2
  20
8
  30
0
  11
1
  21
-0
  31
0
  40
2
  41
0
  71
8
  72
1
  1
17.6
  0
POINT
  5
130
  330
129
  100
AcDbEntity
  8
2
  62
0
  100
AcDbPoint
  10
50
  20
15
  30
0
  0
POINT
  5
131
  330
129
  100
AcDbEntity
  8
2
  62
0
  100
AcDbPoint
  10
32.4
  20
3
  30
0
  0
POINT
  5
132
  330
129
  100
AcDbEntity
  8
2
  62
0
  100
AcDbPoint
  10
32.4
  20
8
  30
0
  0
ENDBLK
  5
133
  330
129
  100
AcDbEntity
  8
2
  100
AcDbBlockEnd
  0
BLOCK
  5
135
  330
137
  100
AcDbEntity
  8
2
  100
AcDbBlockBegin
  2
*D136
  70
1
  10
0
  20
0
  30
0
  3
*D136
  1

  0
LINE
  5
138
  330
137
  100
AcDbEntity
  8
2
  100
AcDbLine
  10
50
  20
-9.983448
  30
0
  11
50
  21
1.4
  31
0
  0
LINE
  5
139
  330
137
  100
AcDbEntity
  8
2
  100
AcDbLine
  10
48.2
  20
-9.983448
  30
0
  11
48.2
  21
1.45
  31
0
  0
LINE
  5
13a
  330
137
  100
AcDbEntity
  8
2
  100
AcDbLine
  10
50
  20
-7.983448
  30
0
  11
44.57302
  21
-7.983448
  31
0
  0
SOLID
  5
13b
  330
137
  100
AcDbEntity
  8
2
  100
AcDbTrace
  10
50
  20
-7.983448
  30
0
  11
52.478612
  21
-7.657133
  31
0
  12
52.478612
  22
-8.309764
  32
0
  13
52.478612
  23
-8.309764
  33
0
  0
SOLID
  5
13c
  330
137
  100
AcDbEntity
  8
2
  100
AcDbTrace
  10
48.2
  20
-7.983448
  30
0
  11
45.721388
  21
-8.309764
  31
0
  12
45.721388
  22
-7.657133
  32
0
  13
45.721388
  23
-7.657133
  33
0
  0
MTEXT
  5
13d
  330
137
  100
AcDbEntity
  8
2
  100
AcDbMText
  10
49.1
  20
-7.983448
  30
0
  11
1
  21
-0
  31
0
  40
2
  41
0
  71
8
  72
1
  1
1.8
  0
POINT
  5
13e
  330
137
  100
AcDbEntity
  8
2
  62
0
  100
AcDbPoint
  10
50
  20
1.4
  30
0
  0
POINT
  5
13f
  330
137
  100
AcDbEntity
  8
2
  62
0
  100
AcDbPoint
  10
48.2
  20
1.45
  30
0
  0
POINT
  5
140
  330
137
  100
AcDbEntity
  8
2
  62
0
  100
AcDbPoint
  10
44.57302
  20
-7.983448
  30
0
  0
ENDBLK
  5
141
  330
137
  100
AcDbEntity
  8
2
  100
AcDbBlockEnd
  0
ENDSEC
  0
SECTION
  2
ENTITIES
  0
DIMENSION
  5
d6
  100
AcDbEntity
  8
SK2
  100
AcDbDimension
  2
*Dca
  10
50
  20
13
  30
0
  11
25
  21
13
  31
0
  70
160
  1
<>
  71
5
  3
STANDARD
  42
50
  100
AcDbAlignedDimension
  13
0
  23
2.3
  33
0
  14
50
  24
1.4
  34
0
  50
0
  100
AcDbRotatedDimension
  0
DIMENSION
  5
e4
  100
AcDbEntity
  8
SK2
  100
AcDbDimension
  2
*Dd8
  10
-20.855034
  20
-3
  30
0
  11
-20.855034
  21
0
  31
0
  70
160
  1
%%c<>
  71
5
  3
STANDARD
  42
6
  100
AcDbAlignedDimension
  13
0.7
  23
3
  33
0
  14
0.7
  24
-3
  34
0
  50
90
  100
AcDbRotatedDimension
  0
DIMENSION
  5
f2
  100
AcDbEntity
  8
SK2
  100
AcDbDimension
  2
*De6
  10
32.4
  20
7.655323
  30
0
  11
16.2
  21
7.655323
  31
0
  70
160
  1
<>
  71
5
  3
STANDARD
  42
32.4
  100
AcDbAlignedDimension
  13
0
  23
2.3
  33
0
  14
32.4
  24
3
  34
0
  50
0
  100
AcDbRotatedDimension
  0
DIMENSION
  5
100
  100
AcDbEntity
  8
2
  100
AcDbDimension
  2
*Df4
  10
55
  20
1.5
  30
0
  11
55
  21
0
  31
0
  70
160
  1
%%c<>
  71
5
  3
STANDARD
  42
3
  100
AcDbAlignedDimension
  13
49.9
  23
-1.5
  33
0
  14
49.9
  24
1.5
  34
0
  50
-90
  100
AcDbRotatedDimension
  0
DIMENSION
  5
10a
  100
AcDbEntity
  8
2
  100
AcDbDimension
  2
*D102
  10
49.9
  20
1.4
  30
0
  11
53.106246
  21
5.366105
  31
0
  70
164
  1
R0.1
  71
5
  3
STANDARD
  100
AcDbRadialDimension
  15
49.962868
  25
1.477767
  35
0
  50
51.047516
  0
DIMENSION
  5
118
  100
AcDbEntity
  8
2
  100
AcDbDimension
  2
*D10c
  10
48.2
  20
8.056931
  30
0
  11
48.2
  21
1.45
  31
0
  70
160
  1
%%c<>
  71
5
  3
STANDARD
  42
2.9
  100
AcDbAlignedDimension
  13
46.2
  23
-1.45
  33
0
  14
46.2
  24
1.45
  34
0
  50
-90
  100
AcDbRotatedDimension
  0
DIMENSION
  5
126
  100
AcDbEntity
  8
2
  100
AcDbDimension
  2
*D11a
  10
38.013
  20
3.269446
  30
0
  11
43.1065
  21
3.269446
  31
0
  70
160
  1
<>
  71
5
  3
STANDARD
  42
10.187
  100
AcDbAlignedDimension
  13
48.2
  23
5.269446
  33
0
  14
38.013
  24
5.269446
  34
0
  50
0
  100
AcDbRotatedDimension
  0
DIMENSION
  5
134
  100
AcDbEntity
  8
2
  100
AcDbDimension
  2
*D128
  10
32.4
  20
8
  30
0
  11
41.2
  21
8
  31
0
  70
160
  1
<>
  71
5
  3
STANDARD
  42
17.6
  100
AcDbAlignedDimension
  13
50
  23
15
  33
0
  14
32.4
  24
3
  34
0
  50
0
  100
AcDbRotatedDimension
  0
DIMENSION
  5
142
  100
AcDbEntity
  8
2
  100
AcDbDimension
  2
*D136
  10
44.57302
  20
-7.983448
  30
0
  11
49.1
  21
-7.983448
  31
0
  70
160
  1
<>
  71
5
  3
STANDARD
  42
1.8
  100
AcDbAlignedDimension
  13
50
  23
1.4
  33
0
  14
48.2
  24
1.45
  34
0
  50
0
  100
AcDbRotatedDimension
  0
LINE
  5
36
  100
AcDbEntity
  8
1
  100
AcDbLine
  10
32.4
  20
2.953999
  30
0
  11
32.4
  21
-2.953999
  31
0
  0
LINE
  5
37
  100
AcDbEntity
  8
1
  100
AcDbLine
  10
32.4
  20
-2.953999
  30
0
  11
38.013
  21
-1.45
  31
0
  0
LINE
  5
38
  100
AcDbEntity
  8
1
  100
AcDbLine
  10
38.013
  20
-1.45
  30
0
  11
48.2
  21
-1.45
  31
0
  0
LINE
  5
39
  100
AcDbEntity
  8
1
  100
AcDbLine
  10
48.2
  20
-1.45
  30
0
  11
48.2
  21
-1.5
  31
0
  0
LINE
  5
3a
  100
AcDbEntity
  8
1
  100
AcDbLine
  10
48.2
  20
-1.5
  30
0
  11
49.9
  21
-1.5
  31
0
  0
ARC
  5
3b
  100
AcDbEntity
  8
1
  100
AcDbCircle
  10
49.9
  20
-1.4
  30
0
  40
0.1
  100
AcDbArc
  50
270
  51
0
  0
LINE
  5
3c
  100
AcDbEntity
  8
1
  100
AcDbLine
  10
50
  20
-1.4
  30
0
  11
50
  21
0
  31
0
  0
LINE
  5
3d
  100
AcDbEntity
  8
1
  100
AcDbLine
  10
50
  20
0
  30
0
  11
50
  21
1.4
  31
0
  0
ARC
  5
3e
  100
AcDbEntity
  8
1
  100
AcDbCircle
  10
49.9
  20
1.4
  30
0
  40
0.1
  100
AcDbArc
  50
0
  51
90
  0
LINE
  5
3f
  100
AcDbEntity
  8
1
  100
AcDbLine
  10
49.9
  20
1.5
  30
0
  11
48.2
  21
1.5
  31
0
  0
LINE
  5
40
  100
AcDbEntity
  8
1
  100
AcDbLine
  10
48.2
  20
1.5
  30
0
  11
48.2
  21
1.45
  31
0
  0
LINE
  5
41
  100
AcDbEntity
  8
1
  100
AcDbLine
  10
48.2
  20
1.45
  30
0
  11
38.013
  21
1.45
  31
0
  0
LINE
  5
42
  100
AcDbEntity
  8
1
  100
AcDbLine
  10
38.013
  20
1.45
  30
0
  11
32.4
  21
2.953999
  31
0
  0
LINE
  5
43
  100
AcDbEntity
  8
1
  100
AcDbLine
  10
38.013
  20
1.45
  30
0
  11
38.013
  21
-1.45
  31
0
  0
LINE
  5
44
  100
AcDbEntity
  8
1
  100
AcDbLine
  10
48.3
  20
-1.079609
  30
0
  11
48.4
  21
-1.11784
  31
0
  0
LINE
  5
45
  100
AcDbEntity
  8
1
  100
AcDbLine
  10
48.4
  20
-1.11784
  30
0
  11
48.5
  21
-1.154415
  31
0
  0
LINE
  5
46
  100
AcDbEntity
  8
1
  100
AcDbLine
  10
48.5
  20
-1.154415
  30
0
  11
48.6
  21
-1.189281
  31
0
  0
LINE
  5
47
  100
AcDbEntity
  8
1
  100
AcDbLine
  10
48.6
  20
-1.189281
  30
0
  11
48.7
  21
-1.222384
  31
0
  0
LINE
  5
48
  100
AcDbEntity
  8
1
  100
AcDbLine
  10
48.7
  20
-1.222384
  30
0
  11
48.8
  21
-1.253677
  31
0
  0
LINE
  5
49
  100
AcDbEntity
  8
1
  100
AcDbLine
  10
48.8
  20
-1.253677
  30
0
  11
48.9
  21
-1.283113
  31
0
  0
LINE
  5
4a
  100
AcDbEntity
  8
1
  100
AcDbLine
  10
48.9
  20
-1.283113
  30
0
  11
49
  21
-1.310648
  31
0
  0
LINE
  5
4b
  100
AcDbEntity
  8
1
  100
AcDbLine
  10
49
  20
-1.310648
  30
0
  11
49.1
  21
-1.336242
  31
0
  0
LINE
  5
4c
  100
AcDbEntity
  8
1
  100
AcDbLine
  10
49.1
  20
-1.336242
  30
0
  11
49.2
  21
-1.359856
  31
0
  0
LINE
  5
4d
  100
AcDbEntity
  8
1
  100
AcDbLine
  10
49.2
  20
-1.359856
  30
0
  11
49.3
  21
-1.381456
  31
0
  0
LINE
  5
4e
  100
AcDbEntity
  8
1
  100
AcDbLine
  10
49.3
  20
-1.381456
  30
0
  11
49.4
  21
-1.401009
  31
0
  0
LINE
  5
4f
  100
AcDbEntity
  8
1
  100
AcDbLine
  10
49.4
  20
-1.401009
  30
0
  11
49.5
  21
-1.418488
  31
0
  0
LINE
  5
50
  100
AcDbEntity
  8
1
  100
AcDbLine
  10
49.5
  20
-1.418488
  30
0
  11
49.6
  21
-1.433865
  31
0
  0
LINE
  5
51
  100
AcDbEntity
  8
1
  100
AcDbLine
  10
49.6
  20
-1.433865
  30
0
  11
49.7
  21
-1.447118
  31
0
  0
LINE
  5
52
  100
AcDbEntity
  8
1
  100
AcDbLine
  10
49.7
  20
-1.447118
  30
0
  11
49.8
  21
-1.458227
  31
0
  0
LINE
  5
53
  100
AcDbEntity
  8
1
  100
AcDbLine
  10
49.8
  20
-1.458227
  30
0
  11
49.9
  21
-1.467177
  31
0
  0
LINE
  5
54
  100
AcDbEntity
  8
1
  100
AcDbLine
  10
49.9
  20
-1.467177
  30
0
  11
49.996909
  21
-1.375329
  31
0
  0
LINE
  5
55
  100
AcDbEntity
  8
1
  100
AcDbLine
  10
49.996909
  20
-1.375329
  30
0
  11
50
  21
-1.372399
  31
0
  0
LINE
  5
56
  100
AcDbEntity
  8
1
  100
AcDbLine
  10
50
  20
-1.399929
  30
0
  11
49.9
  21
-1.498889
  31
0
  0
LINE
  5
57
  100
AcDbEntity
  8
1
  100
AcDbLine
  10
49.9
  20
-1.498889
  30
0
  11
49.8
  21
-1.495558
  31
0
  0
LINE
  5
58
  100
AcDbEntity
  8
1
  100
AcDbLine
  10
49.8
  20
-1.495558
  30
0
  11
49.7
  21
-1.490011
  31
0
  0
LINE
  5
59
  100
AcDbEntity
  8
1
  100
AcDbLine
  10
49.7
  20
-1.490011
  30
0
  11
49.6
  21
-1.482257
  31
0
  0
LINE
  5
5a
  100
AcDbEntity
  8
1
  100
AcDbLine
  10
49.6
  20
-1.482257
  30
0
  11
49.5
  21
-1.472308
  31
0
  0
LINE
  5
5b
  100
AcDbEntity
  8
1
  100
AcDbLine
  10
49.5
  20
-1.472308
  30
0
  11
49.4
  21
-1.460177
  31
0
  0
LINE
  5
5c
  100
AcDbEntity
  8
1
  100
AcDbLine
  10
49.4
  20
-1.460177
  30
0
  11
49.3
  21
-1.445884
  31
0
  0
LINE
  5
5d
  100
AcDbEntity
  8
1
  100
AcDbLine
  10
49.3
  20
-1.445884
  30
0
  11
49.2
  21
-1.429449
  31
0
  0
LINE
  5
5e
  100
AcDbEntity
  8
1
  100
AcDbLine
  10
49.2
  20
-1.429449
  30
0
  11
49.1
  21
-1.410896
  31
0
  0
LINE
  5
5f
  100
AcDbEntity
  8
1
  100
AcDbLine
  10
49.1
  20
-1.410896
  30
0
  11
49
  21
-1.390254
  31
0
  0
LINE
  5
60
  100
AcDbEntity
  8
1
  100
AcDbLine
  10
49
  20
-1.390254
  30
0
  11
48.9
  21
-1.367552
  31
0
  0
LINE
  5
61
  100
AcDbEntity
  8
1
  100
AcDbLine
  10
48.9
  20
-1.367552
  30
0
  11
48.8
  21
-1.342824
  31
0
  0
LINE
  5
62
  100
AcDbEntity
  8
1
  100
AcDbLine
  10
48.8
  20
-1.342824
  30
0
  11
48.7
  21
-1.316108
  31
0
  0
LINE
  5
63
  100
AcDbEntity
  8
1
  100
AcDbLine
  10
48.7
  20
-1.316108
  30
0
  11
48.6
  21
-1.287441
  31
0
  0
LINE
  5
64
  100
AcDbEntity
  8
1
  100
AcDbLine
  10
48.6
  20
-1.287441
  30
0
  11
48.5
  21
-1.256868
  31
0
  0
LINE
  5
65
  100
AcDbEntity
  8
1
  100
AcDbLine
  10
48.5
  20
-1.256868
  30
0
  11
48.4
  21
-1.224433
  31
0
  0
LINE
  5
66
  100
AcDbEntity
  8
1
  100
AcDbLine
  10
48.4
  20
-1.224433
  30
0
  11
48.3
  21
-1.190184
  31
0
  0
LINE
  5
67
  100
AcDbEntity
  8
1
  100
AcDbLine
  10
48.3
  20
-1.190184
  30
0
  11
48.2
  21
-1.154172
  31
0
  0
LINE
  5
68
  100
AcDbEntity
  8
1
  100
AcDbLine
  10
48.2
  20
-1.154172
  30
0
  11
48.2
  21
-1.111196
  31
0
  0
LINE
  5
69
  100
AcDbEntity
  8
1
  100
AcDbLine
  10
48.2
  20
-1.111196
  30
0
  11
48.1
  21
-1.074591
  31
0
  0
LINE
  5
6a
  100
AcDbEntity
  8
1
  100
AcDbLine
  10
48.1
  20
-1.074591
  30
0
  11
48
  21
-1.265722
  31
0
  0
LINE
  5
6b
  100
AcDbEntity
  8
1
  100
AcDbLine
  10
48
  20
-1.265722
  30
0
  11
48
  21
-1.45
  31
0
  0
LINE
  5
6c
  100
AcDbEntity
  8
1
  100
AcDbLine
  10
48.2
  20
-1.45
  30
0
  11
48.2
  21
1.45
  31
0
  0
LINE
  5
6d
  100
AcDbEntity
  8
1
  100
AcDbLine
  10
48.2
  20
1.5
  30
0
  11
48.2
  21
-1.5
  31
0
  0
LINE
  5
6e
  100
AcDbEntity
  8
1
  100
AcDbLine
  10
48
  20
1.45
  30
0
  11
48
  21
0.516552
  31
0
  0
LINE
  5
6f
  100
AcDbEntity
  8
1
  100
AcDbLine
  10
48
  20
0.516552
  30
0
  11
48.1
  21
-0.66218
  31
0
  0
LINE
  5
70
  100
AcDbEntity
  8
1
  100
AcDbLine
  10
48.1
  20
-0.66218
  30
0
  11
48.2
  21
-0.727316
  31
0
  0
LINE
  5
71
  100
AcDbEntity
  8
1
  100
AcDbLine
  10
48.2
  20
-0.727316
  30
0
  11
48.2
  21
-0.756889
  31
0
  0
LINE
  5
72
  100
AcDbEntity
  8
1
  100
AcDbLine
  10
48.2
  20
-0.756889
  30
0
  11
48.3
  21
-0.806162
  31
0
  0
LINE
  5
73
  100
AcDbEntity
  8
1
  100
AcDbLine
  10
48.3
  20
-0.806162
  30
0
  11
48.4
  21
-0.854241
  31
0
  0
LINE
  5
74
  100
AcDbEntity
  8
1
  100
AcDbLine
  10
48.4
  20
-0.854241
  30
0
  11
48.5
  21
-0.901055
  31
0
  0
LINE
  5
75
  100
AcDbEntity
  8
1
  100
AcDbLine
  10
48.5
  20
-0.901055
  30
0
  11
48.6
  21
-0.946533
  31
0
  0
LINE
  5
76
  100
AcDbEntity
  8
1
  100
AcDbLine
  10
48.6
  20
-0.946533
  30
0
  11
48.7
  21
-0.99061
  31
0
  0
LINE
  5
77
  100
AcDbEntity
  8
1
  100
AcDbLine
  10
48.7
  20
-0.99061
  30
0
  11
48.8
  21
-1.033219
  31
0
  0
LINE
  5
78
  100
AcDbEntity
  8
1
  100
AcDbLine
  10
48.8
  20
-1.033219
  30
0
  11
48.9
  21
-1.074298
  31
0
  0
LINE
  5
79
  100
AcDbEntity
  8
1
  100
AcDbLine
  10
48.9
  20
-1.074298
  30
0
  11
49
  21
-1.113786
  31
0
  0
LINE
  5
7a
  100
AcDbEntity
  8
1
  100
AcDbLine
  10
49
  20
-1.113786
  30
0
  11
49.1
  21
-1.151623
  31
0
  0
LINE
  5
7b
  100
AcDbEntity
  8
1
  100
AcDbLine
  10
49.1
  20
-1.151623
  30
0
  11
49.2
  21
-1.187755
  31
0
  0
LINE
  5
7c
  100
AcDbEntity
  8
1
  100
AcDbLine
  10
49.2
  20
-1.187755
  30
0
  11
49.3
  21
-1.222127
  31
0
  0
LINE
  5
7d
  100
AcDbEntity
  8
1
  100
AcDbLine
  10
49.3
  20
-1.222127
  30
0
  11
49.4
  21
-1.254689
  31
0
  0
LINE
  5
7e
  100
AcDbEntity
  8
1
  100
AcDbLine
  10
49.4
  20
-1.254689
  30
0
  11
49.5
  21
-1.285392
  31
0
  0
LINE
  5
7f
  100
AcDbEntity
  8
1
  100
AcDbLine
  10
49.5
  20
-1.285392
  30
0
  11
49.6
  21
-1.314192
  31
0
  0
LINE
  5
80
  100
AcDbEntity
  8
1
  100
AcDbLine
  10
49.6
  20
-1.314192
  30
0
  11
49.7
  21
-1.341044
  31
0
  0
LINE
  5
81
  100
AcDbEntity
  8
1
  100
AcDbLine
  10
49.7
  20
-1.341044
  30
0
  11
49.8
  21
-1.36591
  31
0
  0
LINE
  5
82
  100
AcDbEntity
  8
1
  100
AcDbLine
  10
49.8
  20
-1.36591
  30
0
  11
49.9
  21
-1.388753
  31
0
  0
LINE
  5
83
  100
AcDbEntity
  8
1
  100
AcDbLine
  10
49.9
  20
-1.388753
  30
0
  11
50
  21
-1.312097
  31
0
  0
LINE
  5
84
  100
AcDbEntity
  8
1
  100
AcDbLine
  10
49.9
  20
-1.5
  30
0
  11
49.9
  21
1.5
  31
0
  0
LINE
  5
85
  100
AcDbEntity
  8
1
  100
AcDbLine
  10
49.9
  20
1.5
  30
0
  11
49.9
  21
-1.5
  31
0
  0
LINE
  5
86
  100
AcDbEntity
  8
SK1
  100
AcDbLine
  10
32.4
  20
2.953999
  30
0
  11
32.228321
  21
3
  31
0
  0
LINE
  5
87
  100
AcDbEntity
  8
SK1
  100
AcDbLine
  10
32.228321
  20
3
  30
0
  11
32.4
  21
3
  31
0
  0
LINE
  5
88
  100
AcDbEntity
  8
SK1
  100
AcDbLine
  10
32.4
  20
3
  30
0
  11
0.7
  21
3
  31
0
  0
LINE
  5
89
  100
AcDbEntity
  8
SK1
  100
AcDbLine
  10
0.7
  20
3
  30
0
  11
0
  21
2.3
  31
0
  0
LINE
  5
8a
  100
AcDbEntity
  8
SK1
  100
AcDbLine
  10
32.4
  20
-2.953999
  30
0
  11
32.228321
  21
-3
  31
0
  0
LINE
  5
8b
  100
AcDbEntity
  8
SK1
  100
AcDbLine
  10
32.228321
  20
-3
  30
0
  11
32.4
  21
-3
  31
0
  0
LINE
  5
8c
  100
AcDbEntity
  8
SK1
  100
AcDbLine
  10
32.4
  20
-3
  30
0
  11
0.7
  21
-3
  31
0
  0
LINE
  5
8d
  100
AcDbEntity
  8
SK1
  100
AcDbLine
  10
0.7
  20
-3
  30
0
  11
0
  21
-2.3
  31
0
  0
LINE
  5
8e
  100
AcDbEntity
  8
SK1
  100
AcDbLine
  10
32.228321
  20
3
  30
0
  11
32.228321
  21
-3
  31
0
  0
LINE
  5
8f
  100
AcDbEntity
  8
SK1
  100
AcDbLine
  10
0.7
  20
3
  30
0
  11
0.7
  21
-3
  31
0
  0
LINE
  5
90
  100
AcDbEntity
  8
SK1
  100
AcDbLine
  10
0
  20
2.3
  30
0
  11
0
  21
-2.3
  31
0
  0
LINE
  5
91
  100
AcDbEntity
  8
SK1
  100
AcDbLine
  10
33.4401
  20
1.40688
  30
0
  11
33.8069
  21
1.0401
  31
0
  0
LINE
  5
92
  100
AcDbEntity
  8
SK1
  100
AcDbLine
  10
32.9328
  20
1.66666
  30
0
  11
34.0667
  21
0.532833
  31
0
  0
LINE
  5
93
  100
AcDbEntity
  8
SK1
  100
AcDbLine
  10
32.6154
  20
1.73657
  30
0
  11
34.1366
  21
0.215434
  31
0
  0
LINE
  5
94
  100
AcDbEntity
  8
SK1
  100
AcDbLine
  10
32.4
  20
1.70452
  30
0
  11
34.1045
  21
0
  31
0
  0
LINE
  5
95
  100
AcDbEntity
  8
SK1
  100
AcDbLine
  10
32.4
  20
1.45703
  30
0
  11
33.857
  21
0
  31
0
  0
LINE
  5
96
  100
AcDbEntity
  8
SK1
  100
AcDbLine
  10
32.4
  20
1.20954
  30
0
  11
33.6095
  21
0
  31
0
  0
LINE
  5
97
  100
AcDbEntity
  8
SK1
  100
AcDbLine
  10
32.4
  20
0.962054
  30
0
  11
33.3621
  21
0
  31
0
  0
LINE
  5
98
  100
AcDbEntity
  8
SK1
  100
AcDbLine
  10
32.4
  20
0.714566
  30
0
  11
33.1146
  21
0
  31
0
  0
LINE
  5
99
  100
AcDbEntity
  8
SK1
  100
AcDbLine
  10
32.4
  20
0.467079
  30
0
  11
32.8671
  21
0
  31
0
  0
LINE
  5
9a
  100
AcDbEntity
  8
SK1
  100
AcDbLine
  10
32.4
  20
0.219592
  30
0
  11
32.6196
  21
0
  31
0
  0
LINE
  5
9b
  100
AcDbEntity
  8
SK1
  100
AcDbLine
  10
32.4
  20
1.70452
  30
0
  11
32.4441
  21
1.74861
  31
0
  0
LINE
  5
9c
  100
AcDbEntity
  8
SK1
  100
AcDbLine
  10
32.4
  20
1.45703
  30
0
  11
32.671
  21
1.72802
  31
0
  0
LINE
  5
9d
  100
AcDbEntity
  8
SK1
  100
AcDbLine
  10
32.4
  20
1.20954
  30
0
  11
32.8742
  21
1.6837
  31
0
  0
LINE
  5
9e
  100
AcDbEntity
  8
SK1
  100
AcDbLine
  10
32.4
  20
0.962054
  30
0
  11
33.0588
  21
1.62082
  31
0
  0
LINE
  5
9f
  100
AcDbEntity
  8
SK1
  100
AcDbLine
  10
32.4
  20
0.714566
  30
0
  11
33.2271
  21
1.54167
  31
0
  0
LINE
  5
a0
  100
AcDbEntity
  8
SK1
  100
AcDbLine
  10
32.4
  20
0.467079
  30
0
  11
33.381
  21
1.44812
  31
0
  0
LINE
  5
a1
  100
AcDbEntity
  8
SK1
  100
AcDbLine
  10
32.4
  20
0.219592
  30
0
  11
33.5226
  21
1.34216
  31
0
  0
LINE
  5
a2
  100
AcDbEntity
  8
SK1
  100
AcDbLine
  10
32.4279
  20
0
  30
0
  11
33.6508
  21
1.22288
  31
0
  0
LINE
  5
a3
  100
AcDbEntity
  8
SK1
  100
AcDbLine
  10
32.6754
  20
0
  30
0
  11
33.767
  21
1.09157
  31
0
  0
LINE
  5
a4
  100
AcDbEntity
  8
SK1
  100
AcDbLine
  10
32.9229
  20
0
  30
0
  11
33.8707
  21
0.947822
  31
0
  0
LINE
  5
a5
  100
AcDbEntity
  8
SK1
  100
AcDbLine
  10
33.1704
  20
0
  30
0
  11
33.9605
  21
0.790145
  31
0
  0
LINE
  5
a6
  100
AcDbEntity
  8
SK1
  100
AcDbLine
  10
33.4178
  20
0
  30
0
  11
34.0364
  21
0.618517
  31
0
  0
LINE
  5
a7
  100
AcDbEntity
  8
SK1
  100
AcDbLine
  10
33.6653
  20
0
  30
0
  11
34.096
  21
0.430696
  31
0
  0
LINE
  5
a8
  100
AcDbEntity
  8
SK1
  100
AcDbLine
  10
33.9128
  20
0
  30
0
  11
34.1356
  21
0.222827
  31
0
  0
LINE
  5
a9
  100
AcDbEntity
  8
SK1
  100
AcDbLine
  10
32.4
  20
0
  30
0
  11
32.4
  21
1.75
  31
0
  0
LINE
  5
aa
  100
AcDbEntity
  8
SK1
  100
AcDbLine
  10
32.4
  20
0
  30
0
  11
34.15
  21
0
  31
0
  0
ARC
  5
ab
  100
AcDbEntity
  8
SK1
  100
AcDbCircle
  10
32.4
  20
0
  30
0
  40
1.75
  100
AcDbArc
  50
0
  51
90
  0
ARC
  5
ac
  100
AcDbEntity
  8
SK1
  100
AcDbCircle
  10
32.4
  20
0
  30
0
  40
1.75
  100
AcDbArc
  50
90
  51
180
  0
LINE
  5
ad
  100
AcDbEntity
  8
SK1
  100
AcDbLine
  10
32.3721
  20
0
  30
0
  11
32.4
  21
-0.027896
  31
0
  0
LINE
  5
ae
  100
AcDbEntity
  8
SK1
  100
AcDbLine
  10
32.1246
  20
0
  30
0
  11
32.4
  21
-0.275383
  31
0
  0
LINE
  5
af
  100
AcDbEntity
  8
SK1
  100
AcDbLine
  10
31.8771
  20
0
  30
0
  11
32.4
  21
-0.522871
  31
0
  0
LINE
  5
b0
  100
AcDbEntity
  8
SK1
  100
AcDbLine
  10
31.6296
  20
0
  30
0
  11
32.4
  21
-0.770358
  31
0
  0
LINE
  5
b1
  100
AcDbEntity
  8
SK1
  100
AcDbLine
  10
31.3822
  20
0
  30
0
  11
32.4
  21
-1.01785
  31
0
  0
LINE
  5
b2
  100
AcDbEntity
  8
SK1
  100
AcDbLine
  10
31.1347
  20
0
  30
0
  11
32.4
  21
-1.26533
  31
0
  0
LINE
  5
b3
  100
AcDbEntity
  8
SK1
  100
AcDbLine
  10
30.8872
  20
0
  30
0
  11
32.4
  21
-1.51282
  31
0
  0
LINE
  5
b4
  100
AcDbEntity
  8
SK1
  100
AcDbLine
  10
30.6503
  20
-0.010642
  30
0
  11
32.3894
  21
-1.74967
  31
0
  0
LINE
  5
b5
  100
AcDbEntity
  8
SK1
  100
AcDbLine
  10
30.6736
  20
-0.281429
  30
0
  11
32.1186
  21
-1.72637
  31
0
  0
LINE
  5
b6
  100
AcDbEntity
  8
SK1
  100
AcDbLine
  10
30.7639
  20
-0.619147
  30
0
  11
31.7809
  21
-1.63613
  31
0
  0
LINE
  5
b7
  100
AcDbEntity
  8
SK1
  100
AcDbLine
  10
30.6514
  20
-0.044098
  30
0
  11
30.6955
  21
0
  31
0
  0
LINE
  5
b8
  100
AcDbEntity
  8
SK1
  100
AcDbLine
  10
30.672
  20
-0.270991
  30
0
  11
30.943
  21
0
  31
0
  0
LINE
  5
b9
  100
AcDbEntity
  8
SK1
  100
AcDbLine
  10
30.7163
  20
-0.474162
  30
0
  11
31.1905
  21
0
  31
0
  0
LINE
  5
ba
  100
AcDbEntity
  8
SK1
  100
AcDbLine
  10
30.7792
  20
-0.658762
  30
0
  11
31.4379
  21
0
  31
0
  0
LINE
  5
bb
  100
AcDbEntity
  8
SK1
  100
AcDbLine
  10
30.8583
  20
-0.827105
  30
0
  11
31.6854
  21
0
  31
0
  0
LINE
  5
bc
  100
AcDbEntity
  8
SK1
  100
AcDbLine
  10
30.9519
  20
-0.981039
  30
0
  11
31.9329
  21
0
  31
0
  0
LINE
  5
bd
  100
AcDbEntity
  8
SK1
  100
AcDbLine
  10
31.0578
  20
-1.12257
  30
0
  11
32.1804
  21
0
  31
0
  0
LINE
  5
be
  100
AcDbEntity
  8
SK1
  100
AcDbLine
  10
31.1771
  20
-1.25077
  30
0
  11
32.4
  21
-0.027896
  31
0
  0
LINE
  5
bf
  100
AcDbEntity
  8
SK1
  100
AcDbLine
  10
31.3084
  20
-1.36695
  30
0
  11
32.4
  21
-0.275383
  31
0
  0
LINE
  5
c0
  100
AcDbEntity
  8
SK1
  100
AcDbLine
  10
31.4522
  20
-1.47069
  30
0
  11
32.4
  21
-0.522871
  31
0
  0
LINE
  5
c1
  100
AcDbEntity
  8
SK1
  100
AcDbLine
  10
31.6099
  20
-1.5605
  30
0
  11
32.4
  21
-0.770358
  31
0
  0
LINE
  5
c2
  100
AcDbEntity
  8
SK1
  100
AcDbLine
  10
31.7815
  20
-1.63636
  30
0
  11
32.4
  21
-1.01785
  31
0
  0
LINE
  5
c3
  100
AcDbEntity
  8
SK1
  100
AcDbLine
  10
31.9693
  20
-1.69603
  30
0
  11
32.4
  21
-1.26533
  31
0
  0
LINE
  5
c4
  100
AcDbEntity
  8
SK1
  100
AcDbLine
  10
32.1772
  20
-1.73565
  30
0
  11
32.4
  21
-1.51282
  31
0
  0
LINE
  5
c5
  100
AcDbEntity
  8
SK1
  100
AcDbLine
  10
32.4
  20
0
  30
0
  11
30.65
  21
0
  31
0
  0
LINE
  5
c6
  100
AcDbEntity
  8
SK1
  100
AcDbLine
  10
32.4
  20
-1.75
  30
0
  11
32.4
  21
0
  31
0
  0
ARC
  5
c7
  100
AcDbEntity
  8
SK1
  100
AcDbCircle
  10
32.4
  20
0
  30
0
  40
1.75
  100
AcDbArc
  50
180
  51
270
  0
ARC
  5
c8
  100
AcDbEntity
  8
SK1
  100
AcDbCircle
  10
32.4
  20
0
  30
0
  40
1.75
  100
AcDbArc
  50
270
  51
0
  0
LINE
  5
143
  100
AcDbEntity
  8
NOCUT
  100
AcDbLine
  10
48.2
  20
0
  30
0
  11
48.2
  21
1.45
  31
0
  0
LINE
  5
144
  100
AcDbEntity
  8
NOCUT
  100
AcDbLine
  10
48.2
  20
1.45
  30
0
  11
38.013
  21
1.45
  31
0
  0
LINE
  5
145
  100
AcDbEntity
  8
NOCUT
  100
AcDbLine
  10
38.013
  20
1.45
  30
0
  11
32.4
  21
2.953999
  31
0
  0
LINE
  5
146
  100
AcDbEntity
  8
NOCUT
  100
AcDbLine
  10
32.4
  20
2.953999
  30
0
  11
32.4
  21
0
  31
0
  0
LINE
  5
147
  100
AcDbEntity
  8
NOCUT
  100
AcDbLine
  10
32.4
  20
0
  30
0
  11
48.2
  21
0
  31
0
  0
LINE
  5
148
  100
AcDbEntity
  8
CUT
  100
AcDbLine
  10
50
  20
0
  30
0
  11
50
  21
1.4
  31
0
  0
ARC
  5
149
  100
AcDbEntity
  8
CUT
  100
AcDbCircle
  10
49.9
  20
1.4
  30
0
  40
0.1
  100
AcDbArc
  50
0
  51
90
  0
LINE
  5
14a
  100
AcDbEntity
  8
CUT
  100
AcDbLine
  10
49.9
  20
1.5
  30
0
  11
48.2
  21
1.5
  31
0
  0
LINE
  5
14b
  100
AcDbEntity
  8
CUT
  100
AcDbLine
  10
48.2
  20
1.5
  30
0
  11
48.2
  21
0
  31
0
  0
LINE
  5
14c
  100
AcDbEntity
  8
CUT
  100
AcDbLine
  10
48.2
  20
0
  30
0
  11
50
  21
0
  31
0
  0
LINE
  5
14d
  100
AcDbEntity
  8
4
  100
AcDbLine
  10
32.4
  20
0
  30
0
  11
50
  21
0
  31
0
  0
LINE
  5
14e
  100
AcDbEntity
  8
SK4
  100
AcDbLine
  10
-1
  20
0
  30
0
  11
51
  21
0
  31
0
  0
LINE
  5
14f
  100
AcDbEntity
  8
INFTOTAL
  100
AcDbLine
  10
-26.847785
  20
18.992752
  30
0
  11
60.992752
  21
18.992752
  31
0
  0
LINE
  5
150
  100
AcDbEntity
  8
INFTOTAL
  100
AcDbLine
  10
60.992752
  20
18.992752
  30
0
  11
60.992752
  21
-13.9762
  31
0
  0
LINE
  5
151
  100
AcDbEntity
  8
INFTOTAL
  100
AcDbLine
  10
60.992752
  20
-13.9762
  30
0
  11
-26.847785
  21
-13.9762
  31
0
  0
LINE
  5
152
  100
AcDbEntity
  8
INFTOTAL
  100
AcDbLine
  10
-26.847785
  20
-13.9762
  30
0
  11
-26.847785
  21
18.992752
  31
0
  0
ENDSEC
  0
SECTION
  2
OBJECTS
  0
DICTIONARY
  5
153
  330
0
100
AcDbDictionary
281
    1
  3
ACAD_GROUP
  350
154
  0
DICTIONARY
  5
154
102
{ACAD_REACTORS
  330
153
102
}
  330
153
100
AcDbDictionary
281
    1
  0
ENDSEC
  0
EOF
