  0
SECTION
  2
HEADER
  9
$ACADVER
  1
AC1015
  9
$DWGCODEPAGE
  3
ANSI_932
  9
$HANDSEED
  5
106AB90
  0
ENDSEC
  0
SECTION
  2
CLASSES
  0
CLASS
  1
IMAGEDEF
  2
AcDbRasterImageDef
  3
ISM
  90
0
  91
4
  280
0
  281
0
  0
CLASS
  1
IMAGE
  2
AcDbRasterImage
  3
ISM
  90
127
  91
5
  280
0
  281
1
  0
CLASS
  1
IMAGEDEF_REACTOR
  2
AcDbRasterImageDefReactor
  3
ISM
  90
1
  91
4
  280
0
  281
0
  0
ENDSEC
  0
SECTION
  2
TABLES
  0
TABLE
  2
VPORT
  5
2
  330
0
  100
AcDbSymbolTable
  70
    0
  0
ENDTAB
  0
TABLE
  2
LTYPE
  5
3
  330
0
  100
AcDbSymbolTable
  70
    4
  0
LTYPE
  5
4
  330
3
  100
AcDbSymbolTableRecord
  100
AcDbLinetypeTableRecord
  2
ByBlock
  70
    0
  3

  72
65
  73
    0
  40
0
  0
LTYPE
  5
5
  330
3
  100
AcDbSymbolTableRecord
  100
AcDbLinetypeTableRecord
  2
ByLayer
  70
    0
  3

  72
65
  73
    0
  40
0
  0
LTYPE
  5
6
  330
3
  100
AcDbSymbolTableRecord
  100
AcDbLinetypeTableRecord
  2
CONTINUOUS
  70
    0
  3
Solid Line
  72
65
  73
    0
  40
0
  0
LTYPE
  5
7
  330
3
  100
AcDbSymbolTableRecord
  100
AcDbLinetypeTableRecord
  2
DASH
  70
    0
  3
Hidden
  72
65
  73
2
  40
2.5
  49
1.5
  74
0
  49
-1
  74
0
  0
LTYPE
  5
8
  330
3
  100
AcDbSymbolTableRecord
  100
AcDbLinetypeTableRecord
  2
LONGDASHDASH
  70
    0
  3
__ . __
  72
65
  73
    4
  40
7
  49
4
  74
    0
  49
-1
  74
    0
  49
1
  74
    0
  49
-1
  74
    0
  0
ENDTAB
  0
TABLE
  2
LAYER
  5
9
  330
0
  100
AcDbSymbolTable
  70
    40
  0
LAYER
  5
a
  330
9
  100
AcDbSymbolTableRecord
  100
AcDbLayerTableRecord
  2
0
  70
    0
  62
    0
  6
CONTINUOUS
  390
0
  0
LAYER
  5
c
  330
9
  100
AcDbSymbolTableRecord
  100
AcDbLayerTableRecord
  2
1
  70
    0
  62
    4
  6
CONTINUOUS
  370
50
  390
0
  0
LAYER
  5
d
  330
9
  100
AcDbSymbolTableRecord
  100
AcDbLayerTableRecord
  2
2
  70
    0
  62
    7
  6
CONTINUOUS
  370
25
  390
0
  0
LAYER
  5
f
  330
9
  100
AcDbSymbolTableRecord
  100
AcDbLayerTableRecord
  2
4
  70
    0
  62
    2
  6
LONGDASHDASH
  370
25
  390
0
  0
LAYER
  5
13
  330
9
  100
AcDbSymbolTableRecord
  100
AcDbLayerTableRecord
  2
SK1
  70
    0
  62
    4
  6
CONTINUOUS
  370
50
  390
0
  0
LAYER
  5
14
  330
9
  100
AcDbSymbolTableRecord
  100
AcDbLayerTableRecord
  2
SK2
  70
    0
  62
    7
  6
CONTINUOUS
  370
25
  390
0
  0
LAYER
  5
16
  330
9
  100
AcDbSymbolTableRecord
  100
AcDbLayerTableRecord
  2
SK4
  70
    0
  62
    2
  6
LONGDASHDASH
  370
25
  390
0
  0
LAYER
  5
21
  330
9
  100
AcDbSymbolTableRecord
  100
AcDbLayerTableRecord
  2
NOCUT
  70
    0
  62
    7
  6
CONTINUOUS
  370
25
  390
0
  0
LAYER
  5
22
  330
9
  100
AcDbSymbolTableRecord
  100
AcDbLayerTableRecord
  2
CUT
  70
    0
  62
    1
  6
CONTINUOUS
  370
25
  390
0
  0
LAYER
  5
26
  330
9
  100
AcDbSymbolTableRecord
  100
AcDbLayerTableRecord
  2
INFTOTAL
  70
    0
  62
    9
  6
CONTINUOUS
  370
18
  390
0
  0
ENDTAB
  0
TABLE
  2
STYLE
  5
27
  330
0
  100
AcDbSymbolTable
  70
    1
  0
STYLE
  5
28
  330
27
  100
AcDbSymbolTableRecord
  100
AcDbTextStyleTableRecord
  2
Monospac821 BT
  70
    0
  40
    3.5
  41
1
  50
0
  71
0
  42
3
  3

  4

  1001
ACAD
  1000
Monospac821 BT
  1071
256
  0
ENDTAB
  0
TABLE
  2
VIEW
  5
29
  330
0
  100
AcDbSymbolTable
  70
    0
  0
ENDTAB
  0
TABLE
  2
UCS
  5
2a
  330
0
  100
AcDbSymbolTable
  70
    0
  0
ENDTAB
  0
TABLE
  2
APPID
  5
2b
  330
0
  100
AcDbSymbolTable
  70
    1
  0
APPID
  5
2c
  330
2b
  100
AcDbSymbolTableRecord
  100
AcDbRegAppTableRecord
  2
ACAD
  70
    0
  0
ENDTAB
  0
TABLE
  2
DIMSTYLE
  5
2d
  330
0
  100
AcDbSymbolTable
  70
    1
  100
AcDbDimStyleTable
  0
DIMSTYLE
  105
2e
  330
2d
  100
AcDbSymbolTableRecord
  100
AcDbDimStyleTableRecord
  2
STANDARD
  70
    0
  41
    3
  42
0.5
  44
1
  73
0
  77
1
  78
1
  140
3.5
  141
2.5
  143
0.03937
  147
0.8
  172
1
  174
1
  178
0
  179
1
  271
2
  279
1
  284
1
  340
28
  0
ENDTAB
  0
TABLE
  2
BLOCK_RECORD
  5
2f
  330
0
  100
AcDbSymbolTable
  70
    2
  0
BLOCK_RECORD
  5
30
  330
2f
  100
AcDbSymbolTableRecord
  100
AcDbBlockTableRecord
  2
*Model_Space
  0
BLOCK_RECORD
  5
31
  330
2f
  100
AcDbSymbolTableRecord
  100
AcDbBlockTableRecord
  2
*Paper_Space
  0
BLOCK_RECORD
  5
11c
  330
2f
  100
AcDbSymbolTableRecord
  100
AcDbBlockTableRecord
  2
*D11b
  340
0
  0
BLOCK_RECORD
  5
12a
  330
2f
  100
AcDbSymbolTableRecord
  100
AcDbBlockTableRecord
  2
*D129
  340
0
  0
BLOCK_RECORD
  5
138
  330
2f
  100
AcDbSymbolTableRecord
  100
AcDbBlockTableRecord
  2
*D137
  340
0
  0
BLOCK_RECORD
  5
146
  330
2f
  100
AcDbSymbolTableRecord
  100
AcDbBlockTableRecord
  2
*D145
  340
0
  0
BLOCK_RECORD
  5
154
  330
2f
  100
AcDbSymbolTableRecord
  100
AcDbBlockTableRecord
  2
*D153
  340
0
  0
BLOCK_RECORD
  5
15e
  330
2f
  100
AcDbSymbolTableRecord
  100
AcDbBlockTableRecord
  2
*D15d
  340
0
  0
BLOCK_RECORD
  5
16c
  330
2f
  100
AcDbSymbolTableRecord
  100
AcDbBlockTableRecord
  2
*D16b
  340
0
  0
ENDTAB
  0
ENDSEC
  0
SECTION
  2
BLOCKS
  0
BLOCK
  5
32
  330
30
  100
AcDbEntity
  8
0
  100
AcDbBlockBegin
  2
*Model_Space
  70
    0
  10
0
  20
0
  30
0
  3
*Model_Space
  1

  0
ENDBLK
  5
33
  330
30
  100
AcDbEntity
  8
0
  100
AcDbBlockEnd
  0
BLOCK
  5
34
  330
31
  100
AcDbEntity
  8
0
  100
AcDbBlockBegin
  2
*Paper_Space
  70
    0
  10
0
  20
0
  30
0
  3
*Paper_Space
  1

  0
ENDBLK
  5
35
  330
31
  100
AcDbEntity
  8
0
  100
AcDbBlockEnd
  0
BLOCK
  5
11a
  330
11c
  100
AcDbEntity
  8
SK2
  100
AcDbBlockBegin
  2
*D11b
  70
1
  10
0
  20
0
  30
0
  3
*D11b
  1

  0
LINE
  5
11d
  330
11c
  100
AcDbEntity
  8
SK2
  100
AcDbLine
  10
0
  20
2.3
  30
0
  11
0
  21
20
  31
0
  0
LINE
  5
11e
  330
11c
  100
AcDbEntity
  8
SK2
  100
AcDbLine
  10
60
  20
-15
  30
0
  11
60
  21
20
  31
0
  0
LINE
  5
11f
  330
11c
  100
AcDbEntity
  8
SK2
  100
AcDbLine
  10
0
  20
18
  30
0
  11
60
  21
18
  31
0
  0
SOLID
  5
120
  330
11c
  100
AcDbEntity
  8
SK2
  100
AcDbTrace
  10
0
  20
18
  30
0
  11
2.478612
  21
18.326315
  31
0
  12
2.478612
  22
17.673685
  32
0
  13
2.478612
  23
17.673685
  33
0
  0
SOLID
  5
121
  330
11c
  100
AcDbEntity
  8
SK2
  100
AcDbTrace
  10
60
  20
18
  30
0
  11
57.521388
  21
17.673685
  31
0
  12
57.521388
  22
18.326315
  32
0
  13
57.521388
  23
18.326315
  33
0
  0
MTEXT
  5
122
  330
11c
  100
AcDbEntity
  8
SK2
  100
AcDbMText
  10
30
  20
18
  30
0
  11
1
  21
0
  31
0
  40
2
  41
0
  71
8
  72
1
  1
60
  0
POINT
  5
123
  330
11c
  100
AcDbEntity
  8
SK2
  62
0
  100
AcDbPoint
  10
0
  20
2.3
  30
0
  0
POINT
  5
124
  330
11c
  100
AcDbEntity
  8
SK2
  62
0
  100
AcDbPoint
  10
60
  20
-15
  30
0
  0
POINT
  5
125
  330
11c
  100
AcDbEntity
  8
SK2
  62
0
  100
AcDbPoint
  10
60
  20
18
  30
0
  0
ENDBLK
  5
126
  330
11c
  100
AcDbEntity
  8
SK2
  100
AcDbBlockEnd
  0
BLOCK
  5
128
  330
12a
  100
AcDbEntity
  8
SK2
  100
AcDbBlockBegin
  2
*D129
  70
1
  10
0
  20
0
  30
0
  3
*D129
  1

  0
LINE
  5
12b
  330
12a
  100
AcDbEntity
  8
SK2
  100
AcDbLine
  10
47.2
  20
3
  30
0
  11
47.2
  21
15
  31
0
  0
LINE
  5
12c
  330
12a
  100
AcDbEntity
  8
SK2
  100
AcDbLine
  10
0
  20
2.3
  30
0
  11
0
  21
20
  31
0
  0
LINE
  5
12d
  330
12a
  100
AcDbEntity
  8
SK2
  100
AcDbLine
  10
47.2
  20
13
  30
0
  11
0
  21
13
  31
0
  0
SOLID
  5
12e
  330
12a
  100
AcDbEntity
  8
SK2
  100
AcDbTrace
  10
47.2
  20
13
  30
0
  11
49.678612
  21
13.326315
  31
0
  12
49.678612
  22
12.673685
  32
0
  13
49.678612
  23
12.673685
  33
0
  0
SOLID
  5
12f
  330
12a
  100
AcDbEntity
  8
SK2
  100
AcDbTrace
  10
0
  20
13
  30
0
  11
-2.478612
  21
12.673685
  31
0
  12
-2.478612
  22
13.326315
  32
0
  13
-2.478612
  23
13.326315
  33
0
  0
MTEXT
  5
130
  330
12a
  100
AcDbEntity
  8
SK2
  100
AcDbMText
  10
23.6
  20
13
  30
0
  11
1
  21
-0
  31
0
  40
2
  41
0
  71
8
  72
1
  1
47.2
  0
POINT
  5
131
  330
12a
  100
AcDbEntity
  8
SK2
  62
0
  100
AcDbPoint
  10
47.2
  20
3
  30
0
  0
POINT
  5
132
  330
12a
  100
AcDbEntity
  8
SK2
  62
0
  100
AcDbPoint
  10
0
  20
2.3
  30
0
  0
POINT
  5
133
  330
12a
  100
AcDbEntity
  8
SK2
  62
0
  100
AcDbPoint
  10
0
  20
13
  30
0
  0
ENDBLK
  5
134
  330
12a
  100
AcDbEntity
  8
SK2
  100
AcDbBlockEnd
  0
BLOCK
  5
136
  330
138
  100
AcDbEntity
  8
SK2
  100
AcDbBlockBegin
  2
*D137
  70
1
  10
0
  20
0
  30
0
  3
*D137
  1

  0
LINE
  5
139
  330
138
  100
AcDbEntity
  8
SK2
  100
AcDbLine
  10
0.7
  20
-3
  30
0
  11
-12
  21
-3
  31
0
  0
LINE
  5
13a
  330
138
  100
AcDbEntity
  8
SK2
  100
AcDbLine
  10
0.7
  20
3
  30
0
  11
-12
  21
3
  31
0
  0
LINE
  5
13b
  330
138
  100
AcDbEntity
  8
SK2
  100
AcDbLine
  10
-10
  20
-3
  30
0
  11
-10
  21
3
  31
0
  0
SOLID
  5
13c
  330
138
  100
AcDbEntity
  8
SK2
  100
AcDbTrace
  10
-10
  20
-3
  30
0
  11
-10.326315
  21
-0.521388
  31
0
  12
-9.673685
  22
-0.521388
  32
0
  13
-9.673685
  23
-0.521388
  33
0
  0
SOLID
  5
13d
  330
138
  100
AcDbEntity
  8
SK2
  100
AcDbTrace
  10
-10
  20
3
  30
0
  11
-9.673685
  21
0.521388
  31
0
  12
-10.326315
  22
0.521388
  32
0
  13
-10.326315
  23
0.521388
  33
0
  0
MTEXT
  5
13e
  330
138
  100
AcDbEntity
  8
SK2
  100
AcDbMText
  10
-10
  20
0
  30
0
  11
0
  21
1
  31
0
  40
2
  41
0
  71
8
  72
1
  1
ﾘ6
  0
POINT
  5
13f
  330
138
  100
AcDbEntity
  8
SK2
  62
0
  100
AcDbPoint
  10
0.7
  20
-3
  30
0
  0
POINT
  5
140
  330
138
  100
AcDbEntity
  8
SK2
  62
0
  100
AcDbPoint
  10
0.7
  20
3
  30
0
  0
POINT
  5
141
  330
138
  100
AcDbEntity
  8
SK2
  62
0
  100
AcDbPoint
  10
-10
  20
3
  30
0
  0
ENDBLK
  5
142
  330
138
  100
AcDbEntity
  8
SK2
  100
AcDbBlockEnd
  0
BLOCK
  5
144
  330
146
  100
AcDbEntity
  8
2
  100
AcDbBlockBegin
  2
*D145
  70
1
  10
0
  20
0
  30
0
  3
*D145
  1

  0
LINE
  5
147
  330
146
  100
AcDbEntity
  8
2
  100
AcDbLine
  10
58.75
  20
-1.25
  30
0
  11
72
  21
-1.25
  31
0
  0
LINE
  5
148
  330
146
  100
AcDbEntity
  8
2
  100
AcDbLine
  10
58.75
  20
1.25
  30
0
  11
72
  21
1.25
  31
0
  0
LINE
  5
149
  330
146
  100
AcDbEntity
  8
2
  100
AcDbLine
  10
70
  20
-7.881356
  30
0
  11
70
  21
1.25
  31
0
  0
SOLID
  5
14a
  330
146
  100
AcDbEntity
  8
2
  100
AcDbTrace
  10
70
  20
-1.25
  30
0
  11
69.673685
  21
1.228612
  31
0
  12
70.326315
  22
1.228612
  32
0
  13
70.326315
  23
1.228612
  33
0
  0
SOLID
  5
14b
  330
146
  100
AcDbEntity
  8
2
  100
AcDbTrace
  10
70
  20
1.25
  30
0
  11
70.326315
  21
-1.228612
  31
0
  12
69.673685
  22
-1.228612
  32
0
  13
69.673685
  23
-1.228612
  33
0
  0
MTEXT
  5
14c
  330
146
  100
AcDbEntity
  8
2
  100
AcDbMText
  10
70
  20
0
  30
0
  11
0
  21
1
  31
0
  40
2
  41
0
  71
8
  72
1
  1
ﾘ2.5
  0
POINT
  5
14d
  330
146
  100
AcDbEntity
  8
2
  62
0
  100
AcDbPoint
  10
58.75
  20
-1.25
  30
0
  0
POINT
  5
14e
  330
146
  100
AcDbEntity
  8
2
  62
0
  100
AcDbPoint
  10
58.75
  20
1.25
  30
0
  0
POINT
  5
14f
  330
146
  100
AcDbEntity
  8
2
  62
0
  100
AcDbPoint
  10
70
  20
1.25
  30
0
  0
ENDBLK
  5
150
  330
146
  100
AcDbEntity
  8
2
  100
AcDbBlockEnd
  0
BLOCK
  5
152
  330
154
  100
AcDbEntity
  8
2
  100
AcDbBlockBegin
  2
*D153
  70
1
  10
0
  20
0
  30
0
  3
*D153
  1

  0
LINE
  5
155
  330
154
  100
AcDbEntity
  8
2
  100
AcDbLine
  10
59.633883
  20
0.883883
  30
0
  11
49.199561
  21
11.318206
  31
0
  0
MTEXT
  5
156
  330
154
  100
AcDbEntity
  8
2
  100
AcDbMText
  10
52.562816
  20
7.954951
  30
0
  11
0.707107
  21
-0.707107
  31
0
  40
2
  41
0
  71
8
  72
1
  1
R1.25
  0
SOLID
  5
157
  330
154
  100
AcDbEntity
  8
2
  100
AcDbTrace
  10
59.633883
  20
0.883883
  30
0
  11
57.6505
  21
2.405787
  31
0
  12
58.11198
  22
2.867267
  32
0
  13
58.11198
  23
2.867267
  33
0
  0
POINT
  5
158
  330
154
  100
AcDbEntity
  8
2
  62
0
  100
AcDbPoint
  10
59.633883
  20
0.883883
  30
0
  0
POINT
  5
159
  330
154
  100
AcDbEntity
  8
2
  62
0
  100
AcDbPoint
  10
58.75
  20
0
  30
0
  0
ENDBLK
  5
15a
  330
154
  100
AcDbEntity
  8
2
  100
AcDbBlockEnd
  0
BLOCK
  5
15c
  330
15e
  100
AcDbEntity
  8
2
  100
AcDbBlockBegin
  2
*D15d
  70
1
  10
0
  20
0
  30
0
  3
*D15d
  1

  0
LINE
  5
15f
  330
15e
  100
AcDbEntity
  8
2
  100
AcDbLine
  10
60
  20
-15
  30
0
  11
60
  21
20
  31
0
  0
LINE
  5
160
  330
15e
  100
AcDbEntity
  8
2
  100
AcDbLine
  10
47.2
  20
3
  30
0
  11
47.2
  21
10
  31
0
  0
LINE
  5
161
  330
15e
  100
AcDbEntity
  8
2
  100
AcDbLine
  10
60
  20
8
  30
0
  11
47.2
  21
8
  31
0
  0
SOLID
  5
162
  330
15e
  100
AcDbEntity
  8
2
  100
AcDbTrace
  10
60
  20
8
  30
0
  11
62.478612
  21
8.326315
  31
0
  12
62.478612
  22
7.673685
  32
0
  13
62.478612
  23
7.673685
  33
0
  0
SOLID
  5
163
  330
15e
  100
AcDbEntity
  8
2
  100
AcDbTrace
  10
47.2
  20
8
  30
0
  11
44.721388
  21
7.673685
  31
0
  12
44.721388
  22
8.326315
  32
0
  13
44.721388
  23
8.326315
  33
0
  0
MTEXT
  5
164
  330
15e
  100
AcDbEntity
  8
2
  100
AcDbMText
  10
53.6
  20
8
  30
0
  11
1
  21
-0
  31
0
  40
2
  41
0
  71
8
  72
1
  1
12.8
  0
POINT
  5
165
  330
15e
  100
AcDbEntity
  8
2
  62
0
  100
AcDbPoint
  10
60
  20
-15
  30
0
  0
POINT
  5
166
  330
15e
  100
AcDbEntity
  8
2
  62
0
  100
AcDbPoint
  10
47.2
  20
3
  30
0
  0
POINT
  5
167
  330
15e
  100
AcDbEntity
  8
2
  62
0
  100
AcDbPoint
  10
47.2
  20
8
  30
0
  0
ENDBLK
  5
168
  330
15e
  100
AcDbEntity
  8
2
  100
AcDbBlockEnd
  0
BLOCK
  5
16a
  330
16c
  100
AcDbEntity
  8
2
  100
AcDbBlockBegin
  2
*D16b
  70
1
  10
0
  20
0
  30
0
  3
*D16b
  1

  0
LINE
  5
16d
  330
16c
  100
AcDbEntity
  8
2
  100
AcDbLine
  10
55
  20
-1.25
  30
0
  11
55
  21
-15
  31
0
  0
LINE
  5
16e
  330
16c
  100
AcDbEntity
  8
2
  100
AcDbLine
  10
60
  20
-15
  30
0
  11
60
  21
20
  31
0
  0
LINE
  5
16f
  330
16c
  100
AcDbEntity
  8
2
  100
AcDbLine
  10
55
  20
-13
  30
0
  11
60
  21
-13
  31
0
  0
SOLID
  5
170
  330
16c
  100
AcDbEntity
  8
2
  100
AcDbTrace
  10
55
  20
-13
  30
0
  11
57.478612
  21
-12.673685
  31
0
  12
57.478612
  22
-13.326315
  32
0
  13
57.478612
  23
-13.326315
  33
0
  0
SOLID
  5
171
  330
16c
  100
AcDbEntity
  8
2
  100
AcDbTrace
  10
60
  20
-13
  30
0
  11
57.521388
  21
-13.326315
  31
0
  12
57.521388
  22
-12.673685
  32
0
  13
57.521388
  23
-12.673685
  33
0
  0
MTEXT
  5
172
  330
16c
  100
AcDbEntity
  8
2
  100
AcDbMText
  10
57.5
  20
-13
  30
0
  11
1
  21
0
  31
0
  40
2
  41
0
  71
8
  72
1
  1
5
  0
POINT
  5
173
  330
16c
  100
AcDbEntity
  8
2
  62
0
  100
AcDbPoint
  10
55
  20
-1.25
  30
0
  0
POINT
  5
174
  330
16c
  100
AcDbEntity
  8
2
  62
0
  100
AcDbPoint
  10
60
  20
20
  30
0
  0
POINT
  5
175
  330
16c
  100
AcDbEntity
  8
2
  62
0
  100
AcDbPoint
  10
60
  20
-13
  30
0
  0
ENDBLK
  5
176
  330
16c
  100
AcDbEntity
  8
2
  100
AcDbBlockEnd
  0
ENDSEC
  0
SECTION
  2
ENTITIES
  0
DIMENSION
  5
127
  100
AcDbEntity
  8
SK2
  100
AcDbDimension
  2
*D11b
  10
60
  20
18
  30
0
  11
30
  21
18
  31
0
  70
160
  1
<>
  71
5
  3
STANDARD
  42
60
  100
AcDbAlignedDimension
  13
0
  23
2.3
  33
0
  14
60
  24
-15
  34
0
  50
0
  100
AcDbRotatedDimension
  0
DIMENSION
  5
135
  100
AcDbEntity
  8
SK2
  100
AcDbDimension
  2
*D129
  10
0
  20
13
  30
0
  11
23.6
  21
13
  31
0
  70
160
  1
<>
  71
5
  3
STANDARD
  42
47.2
  100
AcDbAlignedDimension
  13
47.2
  23
3
  33
0
  14
0
  24
2.3
  34
0
  50
0
  100
AcDbRotatedDimension
  0
DIMENSION
  5
143
  100
AcDbEntity
  8
SK2
  100
AcDbDimension
  2
*D137
  10
-10
  20
3
  30
0
  11
-10
  21
0
  31
0
  70
160
  1
%%c<>
  71
5
  3
STANDARD
  42
6
  100
AcDbAlignedDimension
  13
0.7
  23
-3
  33
0
  14
0.7
  24
3
  34
0
  50
-90
  100
AcDbRotatedDimension
  0
DIMENSION
  5
151
  100
AcDbEntity
  8
2
  100
AcDbDimension
  2
*D145
  10
70
  20
1.25
  30
0
  11
70
  21
0
  31
0
  70
160
  1
%%c<>
  71
5
  3
STANDARD
  42
2.5
  100
AcDbAlignedDimension
  13
58.75
  23
-1.25
  33
0
  14
58.75
  24
1.25
  34
0
  50
-90
  100
AcDbRotatedDimension
  0
DIMENSION
  5
15b
  100
AcDbEntity
  8
2
  100
AcDbDimension
  2
*D153
  10
58.75
  20
0
  30
0
  11
52.562816
  21
7.954951
  31
0
  70
164
  1
R1.25
  71
5
  3
STANDARD
  100
AcDbRadialDimension
  15
59.633883
  25
0.883883
  35
0
  50
-45
  0
DIMENSION
  5
169
  100
AcDbEntity
  8
2
  100
AcDbDimension
  2
*D15d
  10
47.2
  20
8
  30
0
  11
53.6
  21
8
  31
0
  70
160
  1
<>
  71
5
  3
STANDARD
  42
12.8
  100
AcDbAlignedDimension
  13
60
  23
-15
  33
0
  14
47.2
  24
3
  34
0
  50
0
  100
AcDbRotatedDimension
  0
DIMENSION
  5
177
  100
AcDbEntity
  8
2
  100
AcDbDimension
  2
*D16b
  10
60
  20
-13
  30
0
  11
57.5
  21
-13
  31
0
  70
160
  1
<>
  71
5
  3
STANDARD
  42
5
  100
AcDbAlignedDimension
  13
55
  23
-1.25
  33
0
  14
60
  24
20
  34
0
  50
0
  100
AcDbRotatedDimension
  0
LINE
  5
36
  100
AcDbEntity
  8
1
  100
AcDbLine
  10
58.75
  20
1.25
  30
0
  11
58.75
  21
-1.25
  31
0
  0
LINE
  5
37
  100
AcDbEntity
  8
1
  100
AcDbLine
  10
55
  20
-1.05649
  30
0
  11
55.1
  21
-1.098924
  31
0
  0
LINE
  5
38
  100
AcDbEntity
  8
1
  100
AcDbLine
  10
55.1
  20
-1.098924
  30
0
  11
55.2
  21
-1.136407
  31
0
  0
LINE
  5
39
  100
AcDbEntity
  8
1
  100
AcDbLine
  10
55.2
  20
-1.136407
  30
0
  11
55.3
  21
-1.168772
  31
0
  0
LINE
  5
3a
  100
AcDbEntity
  8
1
  100
AcDbLine
  10
55.3
  20
-1.168772
  30
0
  11
55.4
  21
-1.195872
  31
0
  0
LINE
  5
3b
  100
AcDbEntity
  8
1
  100
AcDbLine
  10
55.4
  20
-1.195872
  30
0
  11
55.5
  21
-1.217585
  31
0
  0
LINE
  5
3c
  100
AcDbEntity
  8
1
  100
AcDbLine
  10
55.5
  20
-1.217585
  30
0
  11
55.6
  21
-1.233814
  31
0
  0
LINE
  5
3d
  100
AcDbEntity
  8
1
  100
AcDbLine
  10
55.6
  20
-1.233814
  30
0
  11
55.7
  21
-1.244484
  31
0
  0
LINE
  5
3e
  100
AcDbEntity
  8
1
  100
AcDbLine
  10
55.7
  20
-1.244484
  30
0
  11
55.8
  21
-1.24955
  31
0
  0
LINE
  5
3f
  100
AcDbEntity
  8
1
  100
AcDbLine
  10
55.8
  20
-1.24955
  30
0
  11
55.839999
  21
-1.25
  31
0
  0
LINE
  5
40
  100
AcDbEntity
  8
1
  100
AcDbLine
  10
55
  20
-1.173825
  30
0
  11
55.1
  21
-1.196811
  31
0
  0
LINE
  5
41
  100
AcDbEntity
  8
1
  100
AcDbLine
  10
55.1
  20
-1.196811
  30
0
  11
55.2
  21
-1.214406
  31
0
  0
LINE
  5
42
  100
AcDbEntity
  8
1
  100
AcDbLine
  10
55.2
  20
-1.214406
  30
0
  11
55.3
  21
-1.226531
  31
0
  0
LINE
  5
43
  100
AcDbEntity
  8
1
  100
AcDbLine
  10
55.3
  20
-1.226531
  30
0
  11
55.4
  21
-1.233131
  31
0
  0
LINE
  5
44
  100
AcDbEntity
  8
1
  100
AcDbLine
  10
55.4
  20
-1.233131
  30
0
  11
55.46879
  21
-1.25
  31
0
  0
LINE
  5
45
  100
AcDbEntity
  8
1
  100
AcDbLine
  10
55.320002
  20
-1.25
  30
0
  11
55.3
  21
-1.249887
  31
0
  0
LINE
  5
46
  100
AcDbEntity
  8
1
  100
AcDbLine
  10
55.3
  20
-1.249887
  30
0
  11
55.2
  21
-1.245947
  31
0
  0
LINE
  5
47
  100
AcDbEntity
  8
1
  100
AcDbLine
  10
55.2
  20
-1.245947
  30
0
  11
55.1
  21
-1.236394
  31
0
  0
LINE
  5
48
  100
AcDbEntity
  8
1
  100
AcDbLine
  10
55.1
  20
-1.236394
  30
0
  11
55
  21
-1.221272
  31
0
  0
ARC
  5
49
  100
AcDbEntity
  8
1
  100
AcDbCircle
  10
54.25
  20
-11.25
  30
0
  40
10
  100
AcDbArc
  50
90
  51
95
  0
LINE
  5
4a
  100
AcDbEntity
  8
1
  100
AcDbLine
  10
54.25
  20
-1.25
  30
0
  11
58.75
  21
-1.25
  31
0
  0
ARC
  5
4b
  100
AcDbEntity
  8
1
  100
AcDbCircle
  10
58.75
  20
0
  30
0
  40
1.25
  100
AcDbArc
  50
270
  51
0
  0
ARC
  5
4c
  100
AcDbEntity
  8
1
  100
AcDbCircle
  10
58.75
  20
0
  30
0
  40
1.25
  100
AcDbArc
  50
0
  51
90
  0
LINE
  5
4d
  100
AcDbEntity
  8
1
  100
AcDbLine
  10
58.75
  20
1.25
  30
0
  11
54.25
  21
1.25
  31
0
  0
ARC
  5
4e
  100
AcDbEntity
  8
1
  100
AcDbCircle
  10
54.25
  20
11.25
  30
0
  40
10
  100
AcDbArc
  50
265
  51
270
  0
LINE
  5
4f
  100
AcDbEntity
  8
1
  100
AcDbLine
  10
53.378443
  20
1.288053
  30
0
  11
47.2
  21
3
  31
0
  0
LINE
  5
50
  100
AcDbEntity
  8
1
  100
AcDbLine
  10
47.2
  20
3
  30
0
  11
47.2
  21
-3
  31
0
  0
LINE
  5
51
  100
AcDbEntity
  8
1
  100
AcDbLine
  10
47.2
  20
-3
  30
0
  11
53.378443
  21
-1.288053
  31
0
  0
LINE
  5
52
  100
AcDbEntity
  8
1
  100
AcDbLine
  10
53.378443
  20
-1.288053
  30
0
  11
53.378443
  21
1.288053
  31
0
  0
LINE
  5
53
  100
AcDbEntity
  8
1
  100
AcDbLine
  10
54.25
  20
1.25
  30
0
  11
54.25
  21
-1.25
  31
0
  0
LINE
  5
54
  100
AcDbEntity
  8
1
  100
AcDbLine
  10
54.25
  20
-1.25
  30
0
  11
54.25
  21
1.25
  31
0
  0
LINE
  5
55
  100
AcDbEntity
  8
1
  100
AcDbLine
  10
55.320002
  20
1.25
  30
0
  11
55.4
  21
1.248198
  31
0
  0
LINE
  5
56
  100
AcDbEntity
  8
1
  100
AcDbLine
  10
55.4
  20
1.248198
  30
0
  11
55.5
  21
1.240886
  31
0
  0
LINE
  5
57
  100
AcDbEntity
  8
1
  100
AcDbLine
  10
55.5
  20
1.240886
  30
0
  11
55.6
  21
1.227984
  31
0
  0
LINE
  5
58
  100
AcDbEntity
  8
1
  100
AcDbLine
  10
55.6
  20
1.227984
  30
0
  11
55.7
  21
1.209551
  31
0
  0
LINE
  5
59
  100
AcDbEntity
  8
1
  100
AcDbLine
  10
55.7
  20
1.209551
  30
0
  11
55.8
  21
1.185669
  31
0
  0
LINE
  5
5a
  100
AcDbEntity
  8
1
  100
AcDbLine
  10
55.8
  20
1.185669
  30
0
  11
55.9
  21
1.156447
  31
0
  0
LINE
  5
5b
  100
AcDbEntity
  8
1
  100
AcDbLine
  10
55.9
  20
1.156447
  30
0
  11
56
  21
1.122015
  31
0
  0
LINE
  5
5c
  100
AcDbEntity
  8
1
  100
AcDbLine
  10
56
  20
1.122015
  30
0
  11
56.1
  21
1.08253
  31
0
  0
LINE
  5
5d
  100
AcDbEntity
  8
1
  100
AcDbLine
  10
56.1
  20
1.08253
  30
0
  11
56.2
  21
1.038168
  31
0
  0
LINE
  5
5e
  100
AcDbEntity
  8
1
  100
AcDbLine
  10
56.2
  20
1.038168
  30
0
  11
56.3
  21
0.98913
  31
0
  0
LINE
  5
5f
  100
AcDbEntity
  8
1
  100
AcDbLine
  10
56.3
  20
0.98913
  30
0
  11
56.4
  21
0.935636
  31
0
  0
LINE
  5
60
  100
AcDbEntity
  8
1
  100
AcDbLine
  10
56.4
  20
0.935636
  30
0
  11
56.5
  21
0.877928
  31
0
  0
LINE
  5
61
  100
AcDbEntity
  8
1
  100
AcDbLine
  10
56.5
  20
0.877928
  30
0
  11
56.6
  21
0.816265
  31
0
  0
LINE
  5
62
  100
AcDbEntity
  8
1
  100
AcDbLine
  10
56.6
  20
0.816265
  30
0
  11
56.7
  21
0.750925
  31
0
  0
LINE
  5
63
  100
AcDbEntity
  8
1
  100
AcDbLine
  10
56.7
  20
0.750925
  30
0
  11
56.8
  21
0.682203
  31
0
  0
LINE
  5
64
  100
AcDbEntity
  8
1
  100
AcDbLine
  10
56.8
  20
0.682203
  30
0
  11
56.9
  21
0.610408
  31
0
  0
LINE
  5
65
  100
AcDbEntity
  8
1
  100
AcDbLine
  10
56.9
  20
0.610408
  30
0
  11
57
  21
0.535863
  31
0
  0
LINE
  5
66
  100
AcDbEntity
  8
1
  100
AcDbLine
  10
57
  20
0.535863
  30
0
  11
57.1
  21
0.458905
  31
0
  0
LINE
  5
67
  100
AcDbEntity
  8
1
  100
AcDbLine
  10
57.1
  20
0.458905
  30
0
  11
57.2
  21
0.379879
  31
0
  0
LINE
  5
68
  100
AcDbEntity
  8
1
  100
AcDbLine
  10
57.2
  20
0.379879
  30
0
  11
57.3
  21
0.299142
  31
0
  0
LINE
  5
69
  100
AcDbEntity
  8
1
  100
AcDbLine
  10
57.3
  20
0.299142
  30
0
  11
57.4
  21
0.217058
  31
0
  0
LINE
  5
6a
  100
AcDbEntity
  8
1
  100
AcDbLine
  10
57.4
  20
0.217058
  30
0
  11
57.5
  21
0.133996
  31
0
  0
LINE
  5
6b
  100
AcDbEntity
  8
1
  100
AcDbLine
  10
57.5
  20
0.133996
  30
0
  11
57.6
  21
0.05033
  31
0
  0
LINE
  5
6c
  100
AcDbEntity
  8
1
  100
AcDbLine
  10
57.6
  20
0.05033
  30
0
  11
57.7
  21
-0.033562
  31
0
  0
LINE
  5
6d
  100
AcDbEntity
  8
1
  100
AcDbLine
  10
57.7
  20
-0.033562
  30
0
  11
57.8
  21
-0.117303
  31
0
  0
LINE
  5
6e
  100
AcDbEntity
  8
1
  100
AcDbLine
  10
57.8
  20
-0.117303
  30
0
  11
57.9
  21
-0.200516
  31
0
  0
LINE
  5
6f
  100
AcDbEntity
  8
1
  100
AcDbLine
  10
57.9
  20
-0.200516
  30
0
  11
58
  21
-0.282826
  31
0
  0
LINE
  5
70
  100
AcDbEntity
  8
1
  100
AcDbLine
  10
58
  20
-0.282826
  30
0
  11
58.1
  21
-0.363861
  31
0
  0
LINE
  5
71
  100
AcDbEntity
  8
1
  100
AcDbLine
  10
58.1
  20
-0.363861
  30
0
  11
58.2
  21
-0.443258
  31
0
  0
LINE
  5
72
  100
AcDbEntity
  8
1
  100
AcDbLine
  10
58.2
  20
-0.443258
  30
0
  11
58.3
  21
-0.520658
  31
0
  0
LINE
  5
73
  100
AcDbEntity
  8
1
  100
AcDbLine
  10
58.3
  20
-0.520658
  30
0
  11
58.4
  21
-0.595712
  31
0
  0
LINE
  5
74
  100
AcDbEntity
  8
1
  100
AcDbLine
  10
58.4
  20
-0.595712
  30
0
  11
58.5
  21
-0.668084
  31
0
  0
LINE
  5
75
  100
AcDbEntity
  8
1
  100
AcDbLine
  10
58.5
  20
-0.668084
  30
0
  11
58.6
  21
-0.737445
  31
0
  0
LINE
  5
76
  100
AcDbEntity
  8
1
  100
AcDbLine
  10
58.6
  20
-0.737445
  30
0
  11
58.7
  21
-0.803485
  31
0
  0
LINE
  5
77
  100
AcDbEntity
  8
1
  100
AcDbLine
  10
58.7
  20
-0.803485
  30
0
  11
58.8
  21
-0.865112
  31
0
  0
LINE
  5
78
  100
AcDbEntity
  8
1
  100
AcDbLine
  10
58.8
  20
-0.865112
  30
0
  11
58.9
  21
-0.916892
  31
0
  0
LINE
  5
79
  100
AcDbEntity
  8
1
  100
AcDbLine
  10
58.9
  20
-0.916892
  30
0
  11
59
  21
-0.956795
  31
0
  0
LINE
  5
7a
  100
AcDbEntity
  8
1
  100
AcDbLine
  10
59
  20
-0.956795
  30
0
  11
59.1
  21
-0.983571
  31
0
  0
LINE
  5
7b
  100
AcDbEntity
  8
1
  100
AcDbLine
  10
59.1
  20
-0.983571
  30
0
  11
59.2
  21
-0.99595
  31
0
  0
LINE
  5
7c
  100
AcDbEntity
  8
1
  100
AcDbLine
  10
59.2
  20
-0.99595
  30
0
  11
59.3
  21
-0.992585
  31
0
  0
LINE
  5
7d
  100
AcDbEntity
  8
1
  100
AcDbLine
  10
59.3
  20
-0.992585
  30
0
  11
59.4
  21
-0.971927
  31
0
  0
LINE
  5
7e
  100
AcDbEntity
  8
1
  100
AcDbLine
  10
59.4
  20
-0.971927
  30
0
  11
59.5
  21
-0.932013
  31
0
  0
LINE
  5
7f
  100
AcDbEntity
  8
1
  100
AcDbLine
  10
59.5
  20
-0.932013
  30
0
  11
59.6
  21
-0.87003
  31
0
  0
LINE
  5
80
  100
AcDbEntity
  8
1
  100
AcDbLine
  10
59.6
  20
-0.87003
  30
0
  11
59.7
  21
-0.78451
  31
0
  0
LINE
  5
81
  100
AcDbEntity
  8
1
  100
AcDbLine
  10
59.7
  20
-0.78451
  30
0
  11
59.8
  21
-0.674276
  31
0
  0
LINE
  5
82
  100
AcDbEntity
  8
1
  100
AcDbLine
  10
59.8
  20
-0.674276
  30
0
  11
59.8
  21
-0.678233
  31
0
  0
LINE
  5
83
  100
AcDbEntity
  8
1
  100
AcDbLine
  10
59.8
  20
-0.678233
  30
0
  11
59.8
  21
-0.674276
  31
0
  0
LINE
  5
84
  100
AcDbEntity
  8
1
  100
AcDbLine
  10
59.8
  20
-0.639419
  30
0
  11
59.7
  21
-0.731569
  31
0
  0
LINE
  5
85
  100
AcDbEntity
  8
1
  100
AcDbLine
  10
59.7
  20
-0.731569
  30
0
  11
59.6
  21
-0.810718
  31
0
  0
LINE
  5
86
  100
AcDbEntity
  8
1
  100
AcDbLine
  10
59.6
  20
-0.810718
  30
0
  11
59.5
  21
-0.867167
  31
0
  0
LINE
  5
87
  100
AcDbEntity
  8
1
  100
AcDbLine
  10
59.5
  20
-0.867167
  30
0
  11
59.4
  21
-0.901208
  31
0
  0
LINE
  5
88
  100
AcDbEntity
  8
1
  100
AcDbLine
  10
59.4
  20
-0.901208
  30
0
  11
59.3
  21
-0.915905
  31
0
  0
LINE
  5
89
  100
AcDbEntity
  8
1
  100
AcDbLine
  10
59.3
  20
-0.915905
  30
0
  11
59.2
  21
-0.913371
  31
0
  0
LINE
  5
8a
  100
AcDbEntity
  8
1
  100
AcDbLine
  10
59.2
  20
-0.913371
  30
0
  11
59.1
  21
-0.895258
  31
0
  0
LINE
  5
8b
  100
AcDbEntity
  8
1
  100
AcDbLine
  10
59.1
  20
-0.895258
  30
0
  11
59
  21
-0.862992
  31
0
  0
LINE
  5
8c
  100
AcDbEntity
  8
1
  100
AcDbLine
  10
59
  20
-0.862992
  30
0
  11
58.9
  21
-0.8179
  31
0
  0
LINE
  5
8d
  100
AcDbEntity
  8
1
  100
AcDbLine
  10
58.9
  20
-0.8179
  30
0
  11
58.8
  21
-0.761287
  31
0
  0
LINE
  5
8e
  100
AcDbEntity
  8
1
  100
AcDbLine
  10
58.8
  20
-0.761287
  30
0
  11
58.7
  21
-0.695232
  31
0
  0
LINE
  5
8f
  100
AcDbEntity
  8
1
  100
AcDbLine
  10
58.7
  20
-0.695232
  30
0
  11
58.6
  21
-0.625244
  31
0
  0
LINE
  5
90
  100
AcDbEntity
  8
1
  100
AcDbLine
  10
58.6
  20
-0.625244
  30
0
  11
58.5
  21
-0.552439
  31
0
  0
LINE
  5
91
  100
AcDbEntity
  8
1
  100
AcDbLine
  10
58.5
  20
-0.552439
  30
0
  11
58.4
  21
-0.477145
  31
0
  0
LINE
  5
92
  100
AcDbEntity
  8
1
  100
AcDbLine
  10
58.4
  20
-0.477145
  30
0
  11
58.3
  21
-0.399703
  31
0
  0
LINE
  5
93
  100
AcDbEntity
  8
1
  100
AcDbLine
  10
58.3
  20
-0.399703
  30
0
  11
58.2
  21
-0.320459
  31
0
  0
LINE
  5
94
  100
AcDbEntity
  8
1
  100
AcDbLine
  10
58.2
  20
-0.320459
  30
0
  11
58.1
  21
-0.239773
  31
0
  0
LINE
  5
95
  100
AcDbEntity
  8
1
  100
AcDbLine
  10
58.1
  20
-0.239773
  30
0
  11
58
  21
-0.158006
  31
0
  0
LINE
  5
96
  100
AcDbEntity
  8
1
  100
AcDbLine
  10
58
  20
-0.158006
  30
0
  11
57.9
  21
-0.075527
  31
0
  0
LINE
  5
97
  100
AcDbEntity
  8
1
  100
AcDbLine
  10
57.9
  20
-0.075527
  30
0
  11
57.8
  21
0.007291
  31
0
  0
LINE
  5
98
  100
AcDbEntity
  8
1
  100
AcDbLine
  10
57.8
  20
0.007291
  30
0
  11
57.7
  21
0.090077
  31
0
  0
LINE
  5
99
  100
AcDbEntity
  8
1
  100
AcDbLine
  10
57.7
  20
0.090077
  30
0
  11
57.6
  21
0.172457
  31
0
  0
LINE
  5
9a
  100
AcDbEntity
  8
1
  100
AcDbLine
  10
57.6
  20
0.172457
  30
0
  11
57.5
  21
0.254061
  31
0
  0
LINE
  5
9b
  100
AcDbEntity
  8
1
  100
AcDbLine
  10
57.5
  20
0.254061
  30
0
  11
57.4
  21
0.334519
  31
0
  0
LINE
  5
9c
  100
AcDbEntity
  8
1
  100
AcDbLine
  10
57.4
  20
0.334519
  30
0
  11
57.3
  21
0.413471
  31
0
  0
LINE
  5
9d
  100
AcDbEntity
  8
1
  100
AcDbLine
  10
57.3
  20
0.413471
  30
0
  11
57.2
  21
0.490561
  31
0
  0
LINE
  5
9e
  100
AcDbEntity
  8
1
  100
AcDbLine
  10
57.2
  20
0.490561
  30
0
  11
57.1
  21
0.565441
  31
0
  0
LINE
  5
9f
  100
AcDbEntity
  8
1
  100
AcDbLine
  10
57.1
  20
0.565441
  30
0
  11
57
  21
0.637774
  31
0
  0
LINE
  5
a0
  100
AcDbEntity
  8
1
  100
AcDbLine
  10
57
  20
0.637774
  30
0
  11
56.9
  21
0.707234
  31
0
  0
LINE
  5
a1
  100
AcDbEntity
  8
1
  100
AcDbLine
  10
56.9
  20
0.707234
  30
0
  11
56.8
  21
0.773508
  31
0
  0
LINE
  5
a2
  100
AcDbEntity
  8
1
  100
AcDbLine
  10
56.8
  20
0.773508
  30
0
  11
56.7
  21
0.836298
  31
0
  0
LINE
  5
a3
  100
AcDbEntity
  8
1
  100
AcDbLine
  10
56.7
  20
0.836298
  30
0
  11
56.6
  21
0.895321
  31
0
  0
LINE
  5
a4
  100
AcDbEntity
  8
1
  100
AcDbLine
  10
56.6
  20
0.895321
  30
0
  11
56.5
  21
0.950311
  31
0
  0
LINE
  5
a5
  100
AcDbEntity
  8
1
  100
AcDbLine
  10
56.5
  20
0.950311
  30
0
  11
56.4
  21
1.00102
  31
0
  0
LINE
  5
a6
  100
AcDbEntity
  8
1
  100
AcDbLine
  10
56.4
  20
1.00102
  30
0
  11
56.3
  21
1.047221
  31
0
  0
LINE
  5
a7
  100
AcDbEntity
  8
1
  100
AcDbLine
  10
56.3
  20
1.047221
  30
0
  11
56.2
  21
1.088704
  31
0
  0
LINE
  5
a8
  100
AcDbEntity
  8
1
  100
AcDbLine
  10
56.2
  20
1.088704
  30
0
  11
56.1
  21
1.125283
  31
0
  0
LINE
  5
a9
  100
AcDbEntity
  8
1
  100
AcDbLine
  10
56.1
  20
1.125283
  30
0
  11
56
  21
1.156793
  31
0
  0
LINE
  5
aa
  100
AcDbEntity
  8
1
  100
AcDbLine
  10
56
  20
1.156793
  30
0
  11
55.9
  21
1.183093
  31
0
  0
LINE
  5
ab
  100
AcDbEntity
  8
1
  100
AcDbLine
  10
55.9
  20
1.183093
  30
0
  11
55.8
  21
1.204063
  31
0
  0
LINE
  5
ac
  100
AcDbEntity
  8
1
  100
AcDbLine
  10
55.8
  20
1.204063
  30
0
  11
55.7
  21
1.219609
  31
0
  0
LINE
  5
ad
  100
AcDbEntity
  8
1
  100
AcDbLine
  10
55.7
  20
1.219609
  30
0
  11
55.6
  21
1.229662
  31
0
  0
LINE
  5
ae
  100
AcDbEntity
  8
1
  100
AcDbLine
  10
55.6
  20
1.229662
  30
0
  11
55.5
  21
1.234176
  31
0
  0
LINE
  5
af
  100
AcDbEntity
  8
1
  100
AcDbLine
  10
55.5
  20
1.234176
  30
0
  11
55.46879
  21
1.25
  31
0
  0
LINE
  5
b0
  100
AcDbEntity
  8
1
  100
AcDbLine
  10
55.839999
  20
1.25
  30
0
  11
55.9
  21
1.248986
  31
0
  0
LINE
  5
b1
  100
AcDbEntity
  8
1
  100
AcDbLine
  10
55.9
  20
1.248986
  30
0
  11
56
  21
1.242797
  31
0
  0
LINE
  5
b2
  100
AcDbEntity
  8
1
  100
AcDbLine
  10
56
  20
1.242797
  30
0
  11
56.1
  21
1.231009
  31
0
  0
LINE
  5
b3
  100
AcDbEntity
  8
1
  100
AcDbLine
  10
56.1
  20
1.231009
  30
0
  11
56.2
  21
1.213676
  31
0
  0
LINE
  5
b4
  100
AcDbEntity
  8
1
  100
AcDbLine
  10
56.2
  20
1.213676
  30
0
  11
56.3
  21
1.190877
  31
0
  0
LINE
  5
b5
  100
AcDbEntity
  8
1
  100
AcDbLine
  10
56.3
  20
1.190877
  30
0
  11
56.4
  21
1.162713
  31
0
  0
LINE
  5
b6
  100
AcDbEntity
  8
1
  100
AcDbLine
  10
56.4
  20
1.162713
  30
0
  11
56.5
  21
1.129312
  31
0
  0
LINE
  5
b7
  100
AcDbEntity
  8
1
  100
AcDbLine
  10
56.5
  20
1.129312
  30
0
  11
56.6
  21
1.090823
  31
0
  0
LINE
  5
b8
  100
AcDbEntity
  8
1
  100
AcDbLine
  10
56.6
  20
1.090823
  30
0
  11
56.7
  21
1.047422
  31
0
  0
LINE
  5
b9
  100
AcDbEntity
  8
1
  100
AcDbLine
  10
56.7
  20
1.047422
  30
0
  11
56.8
  21
0.999302
  31
0
  0
LINE
  5
ba
  100
AcDbEntity
  8
1
  100
AcDbLine
  10
56.8
  20
0.999302
  30
0
  11
56.9
  21
0.94668
  31
0
  0
LINE
  5
bb
  100
AcDbEntity
  8
1
  100
AcDbLine
  10
56.9
  20
0.94668
  30
0
  11
57
  21
0.889795
  31
0
  0
LINE
  5
bc
  100
AcDbEntity
  8
1
  100
AcDbLine
  10
57
  20
0.889795
  30
0
  11
57.1
  21
0.828901
  31
0
  0
LINE
  5
bd
  100
AcDbEntity
  8
1
  100
AcDbLine
  10
57.1
  20
0.828901
  30
0
  11
57.2
  21
0.764274
  31
0
  0
LINE
  5
be
  100
AcDbEntity
  8
1
  100
AcDbLine
  10
57.2
  20
0.764274
  30
0
  11
57.3
  21
0.696204
  31
0
  0
LINE
  5
bf
  100
AcDbEntity
  8
1
  100
AcDbLine
  10
57.3
  20
0.696204
  30
0
  11
57.4
  21
0.624998
  31
0
  0
LINE
  5
c0
  100
AcDbEntity
  8
1
  100
AcDbLine
  10
57.4
  20
0.624998
  30
0
  11
57.5
  21
0.550976
  31
0
  0
LINE
  5
c1
  100
AcDbEntity
  8
1
  100
AcDbLine
  10
57.5
  20
0.550976
  30
0
  11
57.6
  21
0.474473
  31
0
  0
LINE
  5
c2
  100
AcDbEntity
  8
1
  100
AcDbLine
  10
57.6
  20
0.474473
  30
0
  11
57.7
  21
0.395833
  31
0
  0
LINE
  5
c3
  100
AcDbEntity
  8
1
  100
AcDbLine
  10
57.7
  20
0.395833
  30
0
  11
57.8
  21
0.315409
  31
0
  0
LINE
  5
c4
  100
AcDbEntity
  8
1
  100
AcDbLine
  10
57.8
  20
0.315409
  30
0
  11
57.9
  21
0.233565
  31
0
  0
LINE
  5
c5
  100
AcDbEntity
  8
1
  100
AcDbLine
  10
57.9
  20
0.233565
  30
0
  11
58
  21
0.150669
  31
0
  0
LINE
  5
c6
  100
AcDbEntity
  8
1
  100
AcDbLine
  10
58
  20
0.150669
  30
0
  11
58.1
  21
0.067094
  31
0
  0
LINE
  5
c7
  100
AcDbEntity
  8
1
  100
AcDbLine
  10
58.1
  20
0.067094
  30
0
  11
58.2
  21
-0.016783
  31
0
  0
LINE
  5
c8
  100
AcDbEntity
  8
1
  100
AcDbLine
  10
58.2
  20
-0.016783
  30
0
  11
58.3
  21
-0.100585
  31
0
  0
LINE
  5
c9
  100
AcDbEntity
  8
1
  100
AcDbLine
  10
58.3
  20
-0.100585
  30
0
  11
58.4
  21
-0.183933
  31
0
  0
LINE
  5
ca
  100
AcDbEntity
  8
1
  100
AcDbLine
  10
58.4
  20
-0.183933
  30
0
  11
58.5
  21
-0.266453
  31
0
  0
LINE
  5
cb
  100
AcDbEntity
  8
1
  100
AcDbLine
  10
58.5
  20
-0.266453
  30
0
  11
58.6
  21
-0.347773
  31
0
  0
LINE
  5
cc
  100
AcDbEntity
  8
1
  100
AcDbLine
  10
58.6
  20
-0.347773
  30
0
  11
58.7
  21
-0.427526
  31
0
  0
LINE
  5
cd
  100
AcDbEntity
  8
1
  100
AcDbLine
  10
58.7
  20
-0.427526
  30
0
  11
58.8
  21
-0.504421
  31
0
  0
LINE
  5
ce
  100
AcDbEntity
  8
1
  100
AcDbLine
  10
58.8
  20
-0.504421
  30
0
  11
58.9
  21
-0.572079
  31
0
  0
LINE
  5
cf
  100
AcDbEntity
  8
1
  100
AcDbLine
  10
58.9
  20
-0.572079
  30
0
  11
59
  21
-0.628113
  31
0
  0
LINE
  5
d0
  100
AcDbEntity
  8
1
  100
AcDbLine
  10
59
  20
-0.628113
  30
0
  11
59.1
  21
-0.670971
  31
0
  0
LINE
  5
d1
  100
AcDbEntity
  8
1
  100
AcDbLine
  10
59.1
  20
-0.670971
  30
0
  11
59.2
  21
-0.69896
  31
0
  0
LINE
  5
d2
  100
AcDbEntity
  8
1
  100
AcDbLine
  10
59.2
  20
-0.69896
  30
0
  11
59.3
  21
-0.710097
  31
0
  0
LINE
  5
d3
  100
AcDbEntity
  8
1
  100
AcDbLine
  10
59.3
  20
-0.710097
  30
0
  11
59.4
  21
-0.701804
  31
0
  0
LINE
  5
d4
  100
AcDbEntity
  8
1
  100
AcDbLine
  10
59.4
  20
-0.701804
  30
0
  11
59.5
  21
-0.670259
  31
0
  0
LINE
  5
d5
  100
AcDbEntity
  8
1
  100
AcDbLine
  10
59.5
  20
-0.670259
  30
0
  11
59.6
  21
-0.608746
  31
0
  0
LINE
  5
d6
  100
AcDbEntity
  8
1
  100
AcDbLine
  10
59.6
  20
-0.608746
  30
0
  11
59.7
  21
-0.502047
  31
0
  0
LINE
  5
d7
  100
AcDbEntity
  8
1
  100
AcDbLine
  10
59.7
  20
-0.502047
  30
0
  11
59.8
  21
-0.288344
  31
0
  0
LINE
  5
d8
  100
AcDbEntity
  8
1
  100
AcDbLine
  10
59.8
  20
-0.288344
  30
0
  11
59.8
  21
0.678233
  31
0
  0
LINE
  5
d9
  100
AcDbEntity
  8
1
  100
AcDbLine
  10
59.8
  20
0.678233
  30
0
  11
59.8
  21
-0.288344
  31
0
  0
LINE
  5
da
  100
AcDbEntity
  8
1
  100
AcDbLine
  10
47.2
  20
3
  30
0
  11
47.2
  21
-3
  31
0
  0
LINE
  5
db
  100
AcDbEntity
  8
1
  100
AcDbLine
  10
47.2
  20
-3
  30
0
  11
47.2
  21
3
  31
0
  0
LINE
  5
dc
  100
AcDbEntity
  8
SK1
  100
AcDbLine
  10
47.2
  20
3
  30
0
  11
0.7
  21
3
  31
0
  0
LINE
  5
dd
  100
AcDbEntity
  8
SK1
  100
AcDbLine
  10
0.7
  20
3
  30
0
  11
0
  21
2.3
  31
0
  0
LINE
  5
de
  100
AcDbEntity
  8
SK1
  100
AcDbLine
  10
47.2
  20
-3
  30
0
  11
0.7
  21
-3
  31
0
  0
LINE
  5
df
  100
AcDbEntity
  8
SK1
  100
AcDbLine
  10
0.7
  20
-3
  30
0
  11
0
  21
-2.3
  31
0
  0
LINE
  5
e0
  100
AcDbEntity
  8
SK1
  100
AcDbLine
  10
0.7
  20
3
  30
0
  11
0.7
  21
-3
  31
0
  0
LINE
  5
e1
  100
AcDbEntity
  8
SK1
  100
AcDbLine
  10
0
  20
2.3
  30
0
  11
0
  21
-2.3
  31
0
  0
LINE
  5
e2
  100
AcDbEntity
  8
SK1
  100
AcDbLine
  10
48.2401
  20
1.40688
  30
0
  11
48.6069
  21
1.0401
  31
0
  0
LINE
  5
e3
  100
AcDbEntity
  8
SK1
  100
AcDbLine
  10
47.7328
  20
1.66666
  30
0
  11
48.8667
  21
0.532833
  31
0
  0
LINE
  5
e4
  100
AcDbEntity
  8
SK1
  100
AcDbLine
  10
47.4154
  20
1.73657
  30
0
  11
48.9366
  21
0.215434
  31
0
  0
LINE
  5
e5
  100
AcDbEntity
  8
SK1
  100
AcDbLine
  10
47.2
  20
1.70452
  30
0
  11
48.9045
  21
0
  31
0
  0
LINE
  5
e6
  100
AcDbEntity
  8
SK1
  100
AcDbLine
  10
47.2
  20
1.45703
  30
0
  11
48.657
  21
0
  31
0
  0
LINE
  5
e7
  100
AcDbEntity
  8
SK1
  100
AcDbLine
  10
47.2
  20
1.20954
  30
0
  11
48.4095
  21
0
  31
0
  0
LINE
  5
e8
  100
AcDbEntity
  8
SK1
  100
AcDbLine
  10
47.2
  20
0.962054
  30
0
  11
48.1621
  21
0
  31
0
  0
LINE
  5
e9
  100
AcDbEntity
  8
SK1
  100
AcDbLine
  10
47.2
  20
0.714566
  30
0
  11
47.9146
  21
0
  31
0
  0
LINE
  5
ea
  100
AcDbEntity
  8
SK1
  100
AcDbLine
  10
47.2
  20
0.467079
  30
0
  11
47.6671
  21
0
  31
0
  0
LINE
  5
eb
  100
AcDbEntity
  8
SK1
  100
AcDbLine
  10
47.2
  20
0.219592
  30
0
  11
47.4196
  21
0
  31
0
  0
LINE
  5
ec
  100
AcDbEntity
  8
SK1
  100
AcDbLine
  10
47.2
  20
1.70452
  30
0
  11
47.2441
  21
1.74861
  31
0
  0
LINE
  5
ed
  100
AcDbEntity
  8
SK1
  100
AcDbLine
  10
47.2
  20
1.45703
  30
0
  11
47.471
  21
1.72802
  31
0
  0
LINE
  5
ee
  100
AcDbEntity
  8
SK1
  100
AcDbLine
  10
47.2
  20
1.20954
  30
0
  11
47.6742
  21
1.6837
  31
0
  0
LINE
  5
ef
  100
AcDbEntity
  8
SK1
  100
AcDbLine
  10
47.2
  20
0.962054
  30
0
  11
47.8588
  21
1.62082
  31
0
  0
LINE
  5
f0
  100
AcDbEntity
  8
SK1
  100
AcDbLine
  10
47.2
  20
0.714566
  30
0
  11
48.0271
  21
1.54167
  31
0
  0
LINE
  5
f1
  100
AcDbEntity
  8
SK1
  100
AcDbLine
  10
47.2
  20
0.467079
  30
0
  11
48.181
  21
1.44812
  31
0
  0
LINE
  5
f2
  100
AcDbEntity
  8
SK1
  100
AcDbLine
  10
47.2
  20
0.219592
  30
0
  11
48.3226
  21
1.34216
  31
0
  0
LINE
  5
f3
  100
AcDbEntity
  8
SK1
  100
AcDbLine
  10
47.2279
  20
0
  30
0
  11
48.4508
  21
1.22288
  31
0
  0
LINE
  5
f4
  100
AcDbEntity
  8
SK1
  100
AcDbLine
  10
47.4754
  20
0
  30
0
  11
48.567
  21
1.09157
  31
0
  0
LINE
  5
f5
  100
AcDbEntity
  8
SK1
  100
AcDbLine
  10
47.7229
  20
0
  30
0
  11
48.6707
  21
0.947822
  31
0
  0
LINE
  5
f6
  100
AcDbEntity
  8
SK1
  100
AcDbLine
  10
47.9704
  20
0
  30
0
  11
48.7605
  21
0.790145
  31
0
  0
LINE
  5
f7
  100
AcDbEntity
  8
SK1
  100
AcDbLine
  10
48.2178
  20
0
  30
0
  11
48.8364
  21
0.618517
  31
0
  0
LINE
  5
f8
  100
AcDbEntity
  8
SK1
  100
AcDbLine
  10
48.4653
  20
0
  30
0
  11
48.896
  21
0.430696
  31
0
  0
LINE
  5
f9
  100
AcDbEntity
  8
SK1
  100
AcDbLine
  10
48.7128
  20
0
  30
0
  11
48.9356
  21
0.222827
  31
0
  0
LINE
  5
fa
  100
AcDbEntity
  8
SK1
  100
AcDbLine
  10
47.2
  20
0
  30
0
  11
47.2
  21
1.75
  31
0
  0
LINE
  5
fb
  100
AcDbEntity
  8
SK1
  100
AcDbLine
  10
47.2
  20
0
  30
0
  11
48.95
  21
0
  31
0
  0
ARC
  5
fc
  100
AcDbEntity
  8
SK1
  100
AcDbCircle
  10
47.2
  20
0
  30
0
  40
1.75
  100
AcDbArc
  50
0
  51
90
  0
ARC
  5
fd
  100
AcDbEntity
  8
SK1
  100
AcDbCircle
  10
47.2
  20
0
  30
0
  40
1.75
  100
AcDbArc
  50
90
  51
180
  0
LINE
  5
fe
  100
AcDbEntity
  8
SK1
  100
AcDbLine
  10
47.1721
  20
0
  30
0
  11
47.2
  21
-0.027896
  31
0
  0
LINE
  5
ff
  100
AcDbEntity
  8
SK1
  100
AcDbLine
  10
46.9246
  20
0
  30
0
  11
47.2
  21
-0.275383
  31
0
  0
LINE
  5
100
  100
AcDbEntity
  8
SK1
  100
AcDbLine
  10
46.6771
  20
0
  30
0
  11
47.2
  21
-0.522871
  31
0
  0
LINE
  5
101
  100
AcDbEntity
  8
SK1
  100
AcDbLine
  10
46.4296
  20
0
  30
0
  11
47.2
  21
-0.770358
  31
0
  0
LINE
  5
102
  100
AcDbEntity
  8
SK1
  100
AcDbLine
  10
46.1822
  20
0
  30
0
  11
47.2
  21
-1.01785
  31
0
  0
LINE
  5
103
  100
AcDbEntity
  8
SK1
  100
AcDbLine
  10
45.9347
  20
0
  30
0
  11
47.2
  21
-1.26533
  31
0
  0
LINE
  5
104
  100
AcDbEntity
  8
SK1
  100
AcDbLine
  10
45.6872
  20
0
  30
0
  11
47.2
  21
-1.51282
  31
0
  0
LINE
  5
105
  100
AcDbEntity
  8
SK1
  100
AcDbLine
  10
45.4503
  20
-0.010642
  30
0
  11
47.1894
  21
-1.74967
  31
0
  0
LINE
  5
106
  100
AcDbEntity
  8
SK1
  100
AcDbLine
  10
45.4736
  20
-0.281429
  30
0
  11
46.9186
  21
-1.72637
  31
0
  0
LINE
  5
107
  100
AcDbEntity
  8
SK1
  100
AcDbLine
  10
45.5639
  20
-0.619147
  30
0
  11
46.5809
  21
-1.63613
  31
0
  0
LINE
  5
108
  100
AcDbEntity
  8
SK1
  100
AcDbLine
  10
45.4514
  20
-0.044098
  30
0
  11
45.4955
  21
0
  31
0
  0
LINE
  5
109
  100
AcDbEntity
  8
SK1
  100
AcDbLine
  10
45.472
  20
-0.270991
  30
0
  11
45.743
  21
0
  31
0
  0
LINE
  5
10a
  100
AcDbEntity
  8
SK1
  100
AcDbLine
  10
45.5163
  20
-0.474162
  30
0
  11
45.9905
  21
0
  31
0
  0
LINE
  5
10b
  100
AcDbEntity
  8
SK1
  100
AcDbLine
  10
45.5792
  20
-0.658762
  30
0
  11
46.2379
  21
0
  31
0
  0
LINE
  5
10c
  100
AcDbEntity
  8
SK1
  100
AcDbLine
  10
45.6583
  20
-0.827105
  30
0
  11
46.4854
  21
0
  31
0
  0
LINE
  5
10d
  100
AcDbEntity
  8
SK1
  100
AcDbLine
  10
45.7519
  20
-0.981039
  30
0
  11
46.7329
  21
0
  31
0
  0
LINE
  5
10e
  100
AcDbEntity
  8
SK1
  100
AcDbLine
  10
45.8578
  20
-1.12257
  30
0
  11
46.9804
  21
0
  31
0
  0
LINE
  5
10f
  100
AcDbEntity
  8
SK1
  100
AcDbLine
  10
45.9771
  20
-1.25077
  30
0
  11
47.2
  21
-0.027896
  31
0
  0
LINE
  5
110
  100
AcDbEntity
  8
SK1
  100
AcDbLine
  10
46.1084
  20
-1.36695
  30
0
  11
47.2
  21
-0.275383
  31
0
  0
LINE
  5
111
  100
AcDbEntity
  8
SK1
  100
AcDbLine
  10
46.2522
  20
-1.47069
  30
0
  11
47.2
  21
-0.522871
  31
0
  0
LINE
  5
112
  100
AcDbEntity
  8
SK1
  100
AcDbLine
  10
46.4099
  20
-1.5605
  30
0
  11
47.2
  21
-0.770358
  31
0
  0
LINE
  5
113
  100
AcDbEntity
  8
SK1
  100
AcDbLine
  10
46.5815
  20
-1.63636
  30
0
  11
47.2
  21
-1.01785
  31
0
  0
LINE
  5
114
  100
AcDbEntity
  8
SK1
  100
AcDbLine
  10
46.7693
  20
-1.69603
  30
0
  11
47.2
  21
-1.26533
  31
0
  0
LINE
  5
115
  100
AcDbEntity
  8
SK1
  100
AcDbLine
  10
46.9772
  20
-1.73565
  30
0
  11
47.2
  21
-1.51282
  31
0
  0
LINE
  5
116
  100
AcDbEntity
  8
SK1
  100
AcDbLine
  10
47.2
  20
0
  30
0
  11
45.45
  21
0
  31
0
  0
LINE
  5
117
  100
AcDbEntity
  8
SK1
  100
AcDbLine
  10
47.2
  20
-1.75
  30
0
  11
47.2
  21
0
  31
0
  0
ARC
  5
118
  100
AcDbEntity
  8
SK1
  100
AcDbCircle
  10
47.2
  20
0
  30
0
  40
1.75
  100
AcDbArc
  50
180
  51
270
  0
ARC
  5
119
  100
AcDbEntity
  8
SK1
  100
AcDbCircle
  10
47.2
  20
0
  30
0
  40
1.75
  100
AcDbArc
  50
270
  51
0
  0
LINE
  5
178
  100
AcDbEntity
  8
NOCUT
  100
AcDbLine
  10
55
  20
0
  30
0
  11
55
  21
1.25
  31
0
  0
LINE
  5
179
  100
AcDbEntity
  8
NOCUT
  100
AcDbLine
  10
55
  20
1.25
  30
0
  11
54.25
  21
1.25
  31
0
  0
ARC
  5
17a
  100
AcDbEntity
  8
NOCUT
  100
AcDbCircle
  10
54.25
  20
11.25
  30
0
  40
10
  100
AcDbArc
  50
265
  51
270
  0
LINE
  5
17b
  100
AcDbEntity
  8
NOCUT
  100
AcDbLine
  10
53.378443
  20
1.288053
  30
0
  11
47.2
  21
3
  31
0
  0
LINE
  5
17c
  100
AcDbEntity
  8
NOCUT
  100
AcDbLine
  10
47.2
  20
3
  30
0
  11
47.2
  21
0
  31
0
  0
LINE
  5
17d
  100
AcDbEntity
  8
NOCUT
  100
AcDbLine
  10
47.2
  20
0
  30
0
  11
55
  21
0
  31
0
  0
ARC
  5
17e
  100
AcDbEntity
  8
CUT
  100
AcDbCircle
  10
58.75
  20
0
  30
0
  40
1.25
  100
AcDbArc
  50
0
  51
90
  0
LINE
  5
17f
  100
AcDbEntity
  8
CUT
  100
AcDbLine
  10
58.75
  20
1.25
  30
0
  11
55
  21
1.25
  31
0
  0
LINE
  5
180
  100
AcDbEntity
  8
CUT
  100
AcDbLine
  10
55
  20
1.25
  30
0
  11
55
  21
0
  31
0
  0
LINE
  5
181
  100
AcDbEntity
  8
CUT
  100
AcDbLine
  10
55
  20
0
  30
0
  11
60
  21
0
  31
0
  0
LINE
  5
182
  100
AcDbEntity
  8
4
  100
AcDbLine
  10
47.2
  20
0
  30
0
  11
60
  21
0
  31
0
  0
LINE
  5
183
  100
AcDbEntity
  8
SK4
  100
AcDbLine
  10
-1
  20
0
  30
0
  11
61
  21
0
  31
0
  0
LINE
  5
184
  100
AcDbEntity
  8
INFTOTAL
  100
AcDbLine
  10
-16.2
  20
24.2
  30
0
  11
76.2
  21
24.2
  31
0
  0
LINE
  5
185
  100
AcDbEntity
  8
INFTOTAL
  100
AcDbLine
  10
76.2
  20
24.2
  30
0
  11
76.2
  21
-19.2
  31
0
  0
LINE
  5
186
  100
AcDbEntity
  8
INFTOTAL
  100
AcDbLine
  10
76.2
  20
-19.2
  30
0
  11
-16.2
  21
-19.2
  31
0
  0
LINE
  5
187
  100
AcDbEntity
  8
INFTOTAL
  100
AcDbLine
  10
-16.2
  20
-19.2
  30
0
  11
-16.2
  21
24.2
  31
0
  0
ENDSEC
  0
SECTION
  2
OBJECTS
  0
DICTIONARY
  5
188
  330
0
100
AcDbDictionary
281
    1
  3
ACAD_GROUP
  350
189
  0
DICTIONARY
  5
189
102
{ACAD_REACTORS
  330
188
102
}
  330
188
100
AcDbDictionary
281
    1
  0
ENDSEC
  0
EOF
