  0
SECTION
  2
HEADER
  9
$ACADVER
  1
AC1015
  9
$DWGCODEPAGE
  3
ANSI_932
  9
$HANDSEED
  5
106AB90
  0
ENDSEC
  0
SECTION
  2
CLASSES
  0
CLASS
  1
IMAGEDEF
  2
AcDbRasterImageDef
  3
ISM
  90
0
  91
4
  280
0
  281
0
  0
CLASS
  1
IMAGE
  2
AcDbRasterImage
  3
ISM
  90
127
  91
5
  280
0
  281
1
  0
CLASS
  1
IMAGEDEF_REACTOR
  2
AcDbRasterImageDefReactor
  3
ISM
  90
1
  91
4
  280
0
  281
0
  0
ENDSEC
  0
SECTION
  2
TABLES
  0
TABLE
  2
VPORT
  5
2
  330
0
  100
AcDbSymbolTable
  70
    0
  0
ENDTAB
  0
TABLE
  2
LTYPE
  5
3
  330
0
  100
AcDbSymbolTable
  70
    4
  0
LTYPE
  5
4
  330
3
  100
AcDbSymbolTableRecord
  100
AcDbLinetypeTableRecord
  2
ByBlock
  70
    0
  3

  72
65
  73
    0
  40
0
  0
LTYPE
  5
5
  330
3
  100
AcDbSymbolTableRecord
  100
AcDbLinetypeTableRecord
  2
ByLayer
  70
    0
  3

  72
65
  73
    0
  40
0
  0
LTYPE
  5
6
  330
3
  100
AcDbSymbolTableRecord
  100
AcDbLinetypeTableRecord
  2
CONTINUOUS
  70
    0
  3
Solid Line
  72
65
  73
    0
  40
0
  0
LTYPE
  5
7
  330
3
  100
AcDbSymbolTableRecord
  100
AcDbLinetypeTableRecord
  2
DASH
  70
    0
  3
Hidden
  72
65
  73
2
  40
2.5
  49
1.5
  74
0
  49
-1
  74
0
  0
LTYPE
  5
8
  330
3
  100
AcDbSymbolTableRecord
  100
AcDbLinetypeTableRecord
  2
LONGDASHDASH
  70
    0
  3
__ . __
  72
65
  73
    4
  40
7
  49
4
  74
    0
  49
-1
  74
    0
  49
1
  74
    0
  49
-1
  74
    0
  0
ENDTAB
  0
TABLE
  2
LAYER
  5
9
  330
0
  100
AcDbSymbolTable
  70
    40
  0
LAYER
  5
a
  330
9
  100
AcDbSymbolTableRecord
  100
AcDbLayerTableRecord
  2
0
  70
    0
  62
    0
  6
CONTINUOUS
  390
0
  0
LAYER
  5
c
  330
9
  100
AcDbSymbolTableRecord
  100
AcDbLayerTableRecord
  2
1
  70
    0
  62
    4
  6
CONTINUOUS
  370
50
  390
0
  0
LAYER
  5
d
  330
9
  100
AcDbSymbolTableRecord
  100
AcDbLayerTableRecord
  2
2
  70
    0
  62
    7
  6
CONTINUOUS
  370
25
  390
0
  0
LAYER
  5
f
  330
9
  100
AcDbSymbolTableRecord
  100
AcDbLayerTableRecord
  2
4
  70
    0
  62
    2
  6
LONGDASHDASH
  370
25
  390
0
  0
LAYER
  5
13
  330
9
  100
AcDbSymbolTableRecord
  100
AcDbLayerTableRecord
  2
SK1
  70
    0
  62
    4
  6
CONTINUOUS
  370
50
  390
0
  0
LAYER
  5
14
  330
9
  100
AcDbSymbolTableRecord
  100
AcDbLayerTableRecord
  2
SK2
  70
    0
  62
    7
  6
CONTINUOUS
  370
25
  390
0
  0
LAYER
  5
16
  330
9
  100
AcDbSymbolTableRecord
  100
AcDbLayerTableRecord
  2
SK4
  70
    0
  62
    2
  6
LONGDASHDASH
  370
25
  390
0
  0
LAYER
  5
21
  330
9
  100
AcDbSymbolTableRecord
  100
AcDbLayerTableRecord
  2
NOCUT
  70
    0
  62
    7
  6
CONTINUOUS
  370
25
  390
0
  0
LAYER
  5
22
  330
9
  100
AcDbSymbolTableRecord
  100
AcDbLayerTableRecord
  2
CUT
  70
    0
  62
    1
  6
CONTINUOUS
  370
25
  390
0
  0
LAYER
  5
26
  330
9
  100
AcDbSymbolTableRecord
  100
AcDbLayerTableRecord
  2
INFTOTAL
  70
    0
  62
    9
  6
CONTINUOUS
  370
18
  390
0
  0
ENDTAB
  0
TABLE
  2
STYLE
  5
27
  330
0
  100
AcDbSymbolTable
  70
    1
  0
STYLE
  5
28
  330
27
  100
AcDbSymbolTableRecord
  100
AcDbTextStyleTableRecord
  2
Monospac821 BT
  70
    0
  40
    3.5
  41
1
  50
0
  71
0
  42
3
  3

  4

  1001
ACAD
  1000
Monospac821 BT
  1071
256
  0
ENDTAB
  0
TABLE
  2
VIEW
  5
29
  330
0
  100
AcDbSymbolTable
  70
    0
  0
ENDTAB
  0
TABLE
  2
UCS
  5
2a
  330
0
  100
AcDbSymbolTable
  70
    0
  0
ENDTAB
  0
TABLE
  2
APPID
  5
2b
  330
0
  100
AcDbSymbolTable
  70
    1
  0
APPID
  5
2c
  330
2b
  100
AcDbSymbolTableRecord
  100
AcDbRegAppTableRecord
  2
ACAD
  70
    0
  0
ENDTAB
  0
TABLE
  2
DIMSTYLE
  5
2d
  330
0
  100
AcDbSymbolTable
  70
    1
  100
AcDbDimStyleTable
  0
DIMSTYLE
  105
2e
  330
2d
  100
AcDbSymbolTableRecord
  100
AcDbDimStyleTableRecord
  2
STANDARD
  70
    0
  41
    3
  42
0.5
  44
1
  73
0
  77
1
  78
1
  140
3.5
  141
2.5
  143
0.03937
  147
0.8
  172
1
  174
1
  178
0
  179
1
  271
2
  279
1
  284
1
  340
28
  0
ENDTAB
  0
TABLE
  2
BLOCK_RECORD
  5
2f
  330
0
  100
AcDbSymbolTable
  70
    2
  0
BLOCK_RECORD
  5
30
  330
2f
  100
AcDbSymbolTableRecord
  100
AcDbBlockTableRecord
  2
*Model_Space
  0
BLOCK_RECORD
  5
31
  330
2f
  100
AcDbSymbolTableRecord
  100
AcDbBlockTableRecord
  2
*Paper_Space
  0
BLOCK_RECORD
  5
117
  330
2f
  100
AcDbSymbolTableRecord
  100
AcDbBlockTableRecord
  2
*D116
  340
0
  0
BLOCK_RECORD
  5
125
  330
2f
  100
AcDbSymbolTableRecord
  100
AcDbBlockTableRecord
  2
*D124
  340
0
  0
BLOCK_RECORD
  5
133
  330
2f
  100
AcDbSymbolTableRecord
  100
AcDbBlockTableRecord
  2
*D132
  340
0
  0
BLOCK_RECORD
  5
141
  330
2f
  100
AcDbSymbolTableRecord
  100
AcDbBlockTableRecord
  2
*D140
  340
0
  0
BLOCK_RECORD
  5
14f
  330
2f
  100
AcDbSymbolTableRecord
  100
AcDbBlockTableRecord
  2
*D14e
  340
0
  0
BLOCK_RECORD
  5
159
  330
2f
  100
AcDbSymbolTableRecord
  100
AcDbBlockTableRecord
  2
*D158
  340
0
  0
BLOCK_RECORD
  5
167
  330
2f
  100
AcDbSymbolTableRecord
  100
AcDbBlockTableRecord
  2
*D166
  340
0
  0
BLOCK_RECORD
  5
175
  330
2f
  100
AcDbSymbolTableRecord
  100
AcDbBlockTableRecord
  2
*D174
  340
0
  0
BLOCK_RECORD
  5
183
  330
2f
  100
AcDbSymbolTableRecord
  100
AcDbBlockTableRecord
  2
*D182
  340
0
  0
ENDTAB
  0
ENDSEC
  0
SECTION
  2
BLOCKS
  0
BLOCK
  5
32
  330
30
  100
AcDbEntity
  8
0
  100
AcDbBlockBegin
  2
*Model_Space
  70
    0
  10
0
  20
0
  30
0
  3
*Model_Space
  1

  0
ENDBLK
  5
33
  330
30
  100
AcDbEntity
  8
0
  100
AcDbBlockEnd
  0
BLOCK
  5
34
  330
31
  100
AcDbEntity
  8
0
  100
AcDbBlockBegin
  2
*Paper_Space
  70
    0
  10
0
  20
0
  30
0
  3
*Paper_Space
  1

  0
ENDBLK
  5
35
  330
31
  100
AcDbEntity
  8
0
  100
AcDbBlockEnd
  0
BLOCK
  5
115
  330
117
  100
AcDbEntity
  8
SK2
  100
AcDbBlockBegin
  2
*D116
  70
1
  10
0
  20
0
  30
0
  3
*D116
  1

  0
LINE
  5
118
  330
117
  100
AcDbEntity
  8
SK2
  100
AcDbLine
  10
0
  20
2.3
  30
0
  11
0
  21
20
  31
0
  0
LINE
  5
119
  330
117
  100
AcDbEntity
  8
SK2
  100
AcDbLine
  10
50
  20
-15
  30
0
  11
50
  21
20
  31
0
  0
LINE
  5
11a
  330
117
  100
AcDbEntity
  8
SK2
  100
AcDbLine
  10
0
  20
18
  30
0
  11
50
  21
18
  31
0
  0
SOLID
  5
11b
  330
117
  100
AcDbEntity
  8
SK2
  100
AcDbTrace
  10
0
  20
18
  30
0
  11
2.478612
  21
18.326315
  31
0
  12
2.478612
  22
17.673685
  32
0
  13
2.478612
  23
17.673685
  33
0
  0
SOLID
  5
11c
  330
117
  100
AcDbEntity
  8
SK2
  100
AcDbTrace
  10
50
  20
18
  30
0
  11
47.521388
  21
17.673685
  31
0
  12
47.521388
  22
18.326315
  32
0
  13
47.521388
  23
18.326315
  33
0
  0
MTEXT
  5
11d
  330
117
  100
AcDbEntity
  8
SK2
  100
AcDbMText
  10
25
  20
18
  30
0
  11
1
  21
0
  31
0
  40
2
  41
0
  71
8
  72
1
  1
50
  0
POINT
  5
11e
  330
117
  100
AcDbEntity
  8
SK2
  62
0
  100
AcDbPoint
  10
0
  20
2.3
  30
0
  0
POINT
  5
11f
  330
117
  100
AcDbEntity
  8
SK2
  62
0
  100
AcDbPoint
  10
50
  20
-15
  30
0
  0
POINT
  5
120
  330
117
  100
AcDbEntity
  8
SK2
  62
0
  100
AcDbPoint
  10
50
  20
18
  30
0
  0
ENDBLK
  5
121
  330
117
  100
AcDbEntity
  8
SK2
  100
AcDbBlockEnd
  0
BLOCK
  5
123
  330
125
  100
AcDbEntity
  8
SK2
  100
AcDbBlockBegin
  2
*D124
  70
1
  10
0
  20
0
  30
0
  3
*D124
  1

  0
LINE
  5
126
  330
125
  100
AcDbEntity
  8
SK2
  100
AcDbLine
  10
37.9
  20
3
  30
0
  11
37.9
  21
15
  31
0
  0
LINE
  5
127
  330
125
  100
AcDbEntity
  8
SK2
  100
AcDbLine
  10
0
  20
2.3
  30
0
  11
0
  21
20
  31
0
  0
LINE
  5
128
  330
125
  100
AcDbEntity
  8
SK2
  100
AcDbLine
  10
37.9
  20
13
  30
0
  11
0
  21
13
  31
0
  0
SOLID
  5
129
  330
125
  100
AcDbEntity
  8
SK2
  100
AcDbTrace
  10
37.9
  20
13
  30
0
  11
40.378612
  21
13.326315
  31
0
  12
40.378612
  22
12.673685
  32
0
  13
40.378612
  23
12.673685
  33
0
  0
SOLID
  5
12a
  330
125
  100
AcDbEntity
  8
SK2
  100
AcDbTrace
  10
0
  20
13
  30
0
  11
-2.478612
  21
12.673685
  31
0
  12
-2.478612
  22
13.326315
  32
0
  13
-2.478612
  23
13.326315
  33
0
  0
MTEXT
  5
12b
  330
125
  100
AcDbEntity
  8
SK2
  100
AcDbMText
  10
18.95
  20
13
  30
0
  11
1
  21
-0
  31
0
  40
2
  41
0
  71
8
  72
1
  1
37.9
  0
POINT
  5
12c
  330
125
  100
AcDbEntity
  8
SK2
  62
0
  100
AcDbPoint
  10
37.9
  20
3
  30
0
  0
POINT
  5
12d
  330
125
  100
AcDbEntity
  8
SK2
  62
0
  100
AcDbPoint
  10
0
  20
2.3
  30
0
  0
POINT
  5
12e
  330
125
  100
AcDbEntity
  8
SK2
  62
0
  100
AcDbPoint
  10
0
  20
13
  30
0
  0
ENDBLK
  5
12f
  330
125
  100
AcDbEntity
  8
SK2
  100
AcDbBlockEnd
  0
BLOCK
  5
131
  330
133
  100
AcDbEntity
  8
SK2
  100
AcDbBlockBegin
  2
*D132
  70
1
  10
0
  20
0
  30
0
  3
*D132
  1

  0
LINE
  5
134
  330
133
  100
AcDbEntity
  8
SK2
  100
AcDbLine
  10
0.7
  20
-3
  30
0
  11
-12
  21
-3
  31
0
  0
LINE
  5
135
  330
133
  100
AcDbEntity
  8
SK2
  100
AcDbLine
  10
0.7
  20
3
  30
0
  11
-12
  21
3
  31
0
  0
LINE
  5
136
  330
133
  100
AcDbEntity
  8
SK2
  100
AcDbLine
  10
-10
  20
-3
  30
0
  11
-10
  21
3
  31
0
  0
SOLID
  5
137
  330
133
  100
AcDbEntity
  8
SK2
  100
AcDbTrace
  10
-10
  20
-3
  30
0
  11
-10.326315
  21
-0.521388
  31
0
  12
-9.673685
  22
-0.521388
  32
0
  13
-9.673685
  23
-0.521388
  33
0
  0
SOLID
  5
138
  330
133
  100
AcDbEntity
  8
SK2
  100
AcDbTrace
  10
-10
  20
3
  30
0
  11
-9.673685
  21
0.521388
  31
0
  12
-10.326315
  22
0.521388
  32
0
  13
-10.326315
  23
0.521388
  33
0
  0
MTEXT
  5
139
  330
133
  100
AcDbEntity
  8
SK2
  100
AcDbMText
  10
-10
  20
0
  30
0
  11
0
  21
1
  31
0
  40
2
  41
0
  71
8
  72
1
  1
ﾘ6
  0
POINT
  5
13a
  330
133
  100
AcDbEntity
  8
SK2
  62
0
  100
AcDbPoint
  10
0.7
  20
-3
  30
0
  0
POINT
  5
13b
  330
133
  100
AcDbEntity
  8
SK2
  62
0
  100
AcDbPoint
  10
0.7
  20
3
  30
0
  0
POINT
  5
13c
  330
133
  100
AcDbEntity
  8
SK2
  62
0
  100
AcDbPoint
  10
-10
  20
3
  30
0
  0
ENDBLK
  5
13d
  330
133
  100
AcDbEntity
  8
SK2
  100
AcDbBlockEnd
  0
BLOCK
  5
13f
  330
141
  100
AcDbEntity
  8
2
  100
AcDbBlockBegin
  2
*D140
  70
1
  10
0
  20
0
  30
0
  3
*D140
  1

  0
LINE
  5
142
  330
141
  100
AcDbEntity
  8
2
  100
AcDbLine
  10
49
  20
-1
  30
0
  11
62
  21
-1
  31
0
  0
LINE
  5
143
  330
141
  100
AcDbEntity
  8
2
  100
AcDbLine
  10
49
  20
1
  30
0
  11
62
  21
1
  31
0
  0
LINE
  5
144
  330
141
  100
AcDbEntity
  8
2
  100
AcDbLine
  10
60
  20
-3.962264
  30
0
  11
60
  21
1
  31
0
  0
SOLID
  5
145
  330
141
  100
AcDbEntity
  8
2
  100
AcDbTrace
  10
60
  20
-1
  30
0
  11
59.673685
  21
1.478612
  31
0
  12
60.326315
  22
1.478612
  32
0
  13
60.326315
  23
1.478612
  33
0
  0
SOLID
  5
146
  330
141
  100
AcDbEntity
  8
2
  100
AcDbTrace
  10
60
  20
1
  30
0
  11
60.326315
  21
-1.478612
  31
0
  12
59.673685
  22
-1.478612
  32
0
  13
59.673685
  23
-1.478612
  33
0
  0
MTEXT
  5
147
  330
141
  100
AcDbEntity
  8
2
  100
AcDbMText
  10
60
  20
0
  30
0
  11
0
  21
1
  31
0
  40
2
  41
0
  71
8
  72
1
  1
ﾘ2
  0
POINT
  5
148
  330
141
  100
AcDbEntity
  8
2
  62
0
  100
AcDbPoint
  10
49
  20
-1
  30
0
  0
POINT
  5
149
  330
141
  100
AcDbEntity
  8
2
  62
0
  100
AcDbPoint
  10
49
  20
1
  30
0
  0
POINT
  5
14a
  330
141
  100
AcDbEntity
  8
2
  62
0
  100
AcDbPoint
  10
60
  20
1
  30
0
  0
ENDBLK
  5
14b
  330
141
  100
AcDbEntity
  8
2
  100
AcDbBlockEnd
  0
BLOCK
  5
14d
  330
14f
  100
AcDbEntity
  8
2
  100
AcDbBlockBegin
  2
*D14e
  70
1
  10
0
  20
0
  30
0
  3
*D14e
  1

  0
LINE
  5
150
  330
14f
  100
AcDbEntity
  8
2
  100
AcDbLine
  10
49.707107
  20
0.707107
  30
0
  11
41.197673
  21
9.216541
  31
0
  0
MTEXT
  5
151
  330
14f
  100
AcDbEntity
  8
2
  100
AcDbMText
  10
42.636039
  20
7.778175
  30
0
  11
0.707107
  21
-0.707107
  31
0
  40
2
  41
0
  71
8
  72
1
  1
R1
  0
SOLID
  5
152
  330
14f
  100
AcDbEntity
  8
2
  100
AcDbTrace
  10
49.707107
  20
0.707107
  30
0
  11
47.723723
  21
2.22901
  31
0
  12
48.185203
  22
2.69049
  32
0
  13
48.185203
  23
2.69049
  33
0
  0
POINT
  5
153
  330
14f
  100
AcDbEntity
  8
2
  62
0
  100
AcDbPoint
  10
49.707107
  20
0.707107
  30
0
  0
POINT
  5
154
  330
14f
  100
AcDbEntity
  8
2
  62
0
  100
AcDbPoint
  10
49
  20
0
  30
0
  0
ENDBLK
  5
155
  330
14f
  100
AcDbEntity
  8
2
  100
AcDbBlockEnd
  0
BLOCK
  5
157
  330
159
  100
AcDbEntity
  8
2
  100
AcDbBlockBegin
  2
*D158
  70
1
  10
0
  20
0
  30
0
  3
*D158
  1

  0
LINE
  5
15a
  330
159
  100
AcDbEntity
  8
2
  100
AcDbLine
  10
47.8
  20
-0.975
  30
0
  11
45.8
  21
-0.975
  31
0
  0
LINE
  5
15b
  330
159
  100
AcDbEntity
  8
2
  100
AcDbLine
  10
47.8
  20
0.975
  30
0
  11
45.8
  21
0.975
  31
0
  0
LINE
  5
15c
  330
159
  100
AcDbEntity
  8
2
  100
AcDbLine
  10
47.8
  20
-9.339623
  30
0
  11
47.8
  21
0.975
  31
0
  0
SOLID
  5
15d
  330
159
  100
AcDbEntity
  8
2
  100
AcDbTrace
  10
47.8
  20
-0.975
  30
0
  11
47.473685
  21
1.503612
  31
0
  12
48.126315
  22
1.503612
  32
0
  13
48.126315
  23
1.503612
  33
0
  0
SOLID
  5
15e
  330
159
  100
AcDbEntity
  8
2
  100
AcDbTrace
  10
47.8
  20
0.975
  30
0
  11
48.126315
  21
-1.503612
  31
0
  12
47.473685
  22
-1.503612
  32
0
  13
47.473685
  23
-1.503612
  33
0
  0
MTEXT
  5
15f
  330
159
  100
AcDbEntity
  8
2
  100
AcDbMText
  10
47.8
  20
-0.975
  30
0
  11
0
  21
1
  31
0
  40
2
  41
0
  71
8
  72
1
  1
ﾘ1.95
  0
POINT
  5
160
  330
159
  100
AcDbEntity
  8
2
  62
0
  100
AcDbPoint
  10
45.8
  20
-0.975
  30
0
  0
POINT
  5
161
  330
159
  100
AcDbEntity
  8
2
  62
0
  100
AcDbPoint
  10
45.8
  20
0.975
  30
0
  0
POINT
  5
162
  330
159
  100
AcDbEntity
  8
2
  62
0
  100
AcDbPoint
  10
47.8
  20
0.975
  30
0
  0
ENDBLK
  5
163
  330
159
  100
AcDbEntity
  8
2
  100
AcDbBlockEnd
  0
BLOCK
  5
165
  330
167
  100
AcDbEntity
  8
2
  100
AcDbBlockBegin
  2
*D166
  70
1
  10
0
  20
0
  30
0
  3
*D166
  1

  0
LINE
  5
168
  330
167
  100
AcDbEntity
  8
2
  100
AcDbLine
  10
47.8
  20
0.975
  30
0
  11
47.8
  21
9
  31
0
  0
LINE
  5
169
  330
167
  100
AcDbEntity
  8
2
  100
AcDbLine
  10
46.05
  20
0.975
  30
0
  11
46.05
  21
9
  31
0
  0
LINE
  5
16a
  330
167
  100
AcDbEntity
  8
2
  100
AcDbLine
  10
47.8
  20
7
  30
0
  11
40.471698
  21
7
  31
0
  0
SOLID
  5
16b
  330
167
  100
AcDbEntity
  8
2
  100
AcDbTrace
  10
47.8
  20
7
  30
0
  11
50.278612
  21
7.326315
  31
0
  12
50.278612
  22
6.673685
  32
0
  13
50.278612
  23
6.673685
  33
0
  0
SOLID
  5
16c
  330
167
  100
AcDbEntity
  8
2
  100
AcDbTrace
  10
46.05
  20
7
  30
0
  11
43.571388
  21
6.673685
  31
0
  12
43.571388
  22
7.326315
  32
0
  13
43.571388
  23
7.326315
  33
0
  0
MTEXT
  5
16d
  330
167
  100
AcDbEntity
  8
2
  100
AcDbMText
  10
46.584884
  20
7
  30
0
  11
1
  21
-0
  31
0
  40
2
  41
0
  71
8
  72
1
  1
1.75
  0
POINT
  5
16e
  330
167
  100
AcDbEntity
  8
2
  62
0
  100
AcDbPoint
  10
47.8
  20
0.975
  30
0
  0
POINT
  5
16f
  330
167
  100
AcDbEntity
  8
2
  62
0
  100
AcDbPoint
  10
46.05
  20
0.975
  30
0
  0
POINT
  5
170
  330
167
  100
AcDbEntity
  8
2
  62
0
  100
AcDbPoint
  10
40.471698
  20
7
  30
0
  0
ENDBLK
  5
171
  330
167
  100
AcDbEntity
  8
2
  100
AcDbBlockEnd
  0
BLOCK
  5
173
  330
175
  100
AcDbEntity
  8
2
  100
AcDbBlockBegin
  2
*D174
  70
1
  10
0
  20
0
  30
0
  3
*D174
  1

  0
LINE
  5
176
  330
175
  100
AcDbEntity
  8
2
  100
AcDbLine
  10
50
  20
-15
  30
0
  11
50
  21
20
  31
0
  0
LINE
  5
177
  330
175
  100
AcDbEntity
  8
2
  100
AcDbLine
  10
37.9
  20
3
  30
0
  11
37.9
  21
10
  31
0
  0
LINE
  5
178
  330
175
  100
AcDbEntity
  8
2
  100
AcDbLine
  10
50
  20
8
  30
0
  11
37.9
  21
8
  31
0
  0
SOLID
  5
179
  330
175
  100
AcDbEntity
  8
2
  100
AcDbTrace
  10
50
  20
8
  30
0
  11
52.478612
  21
8.326315
  31
0
  12
52.478612
  22
7.673685
  32
0
  13
52.478612
  23
7.673685
  33
0
  0
SOLID
  5
17a
  330
175
  100
AcDbEntity
  8
2
  100
AcDbTrace
  10
37.9
  20
8
  30
0
  11
35.421388
  21
7.673685
  31
0
  12
35.421388
  22
8.326315
  32
0
  13
35.421388
  23
8.326315
  33
0
  0
MTEXT
  5
17b
  330
175
  100
AcDbEntity
  8
2
  100
AcDbMText
  10
43.95
  20
8
  30
0
  11
1
  21
-0
  31
0
  40
2
  41
0
  71
8
  72
1
  1
12.1
  0
POINT
  5
17c
  330
175
  100
AcDbEntity
  8
2
  62
0
  100
AcDbPoint
  10
50
  20
-15
  30
0
  0
POINT
  5
17d
  330
175
  100
AcDbEntity
  8
2
  62
0
  100
AcDbPoint
  10
37.9
  20
3
  30
0
  0
POINT
  5
17e
  330
175
  100
AcDbEntity
  8
2
  62
0
  100
AcDbPoint
  10
37.9
  20
8
  30
0
  0
ENDBLK
  5
17f
  330
175
  100
AcDbEntity
  8
2
  100
AcDbBlockEnd
  0
BLOCK
  5
181
  330
183
  100
AcDbEntity
  8
2
  100
AcDbBlockBegin
  2
*D182
  70
1
  10
0
  20
0
  30
0
  3
*D182
  1

  0
LINE
  5
184
  330
183
  100
AcDbEntity
  8
2
  100
AcDbLine
  10
47.8
  20
-0.975
  30
0
  11
47.8
  21
-15
  31
0
  0
LINE
  5
185
  330
183
  100
AcDbEntity
  8
2
  100
AcDbLine
  10
50
  20
-15
  30
0
  11
50
  21
20
  31
0
  0
LINE
  5
186
  330
183
  100
AcDbEntity
  8
2
  100
AcDbLine
  10
44.433962
  20
-13
  30
0
  11
50
  21
-13
  31
0
  0
SOLID
  5
187
  330
183
  100
AcDbEntity
  8
2
  100
AcDbTrace
  10
47.8
  20
-13
  30
0
  11
50.278612
  21
-12.673685
  31
0
  12
50.278612
  22
-13.326315
  32
0
  13
50.278612
  23
-13.326315
  33
0
  0
SOLID
  5
188
  330
183
  100
AcDbEntity
  8
2
  100
AcDbTrace
  10
50
  20
-13
  30
0
  11
47.521388
  21
-13.326315
  31
0
  12
47.521388
  22
-12.673685
  32
0
  13
47.521388
  23
-12.673685
  33
0
  0
MTEXT
  5
189
  330
183
  100
AcDbEntity
  8
2
  100
AcDbMText
  10
48.9
  20
-13
  30
0
  11
1
  21
0
  31
0
  40
2
  41
0
  71
8
  72
1
  1
2.2
  0
POINT
  5
18a
  330
183
  100
AcDbEntity
  8
2
  62
0
  100
AcDbPoint
  10
47.8
  20
-0.975
  30
0
  0
POINT
  5
18b
  330
183
  100
AcDbEntity
  8
2
  62
0
  100
AcDbPoint
  10
50
  20
20
  30
0
  0
POINT
  5
18c
  330
183
  100
AcDbEntity
  8
2
  62
0
  100
AcDbPoint
  10
50
  20
-13
  30
0
  0
ENDBLK
  5
18d
  330
183
  100
AcDbEntity
  8
2
  100
AcDbBlockEnd
  0
ENDSEC
  0
SECTION
  2
ENTITIES
  0
DIMENSION
  5
122
  100
AcDbEntity
  8
SK2
  100
AcDbDimension
  2
*D116
  10
50
  20
18
  30
0
  11
25
  21
18
  31
0
  70
160
  1
<>
  71
5
  3
STANDARD
  42
50
  100
AcDbAlignedDimension
  13
0
  23
2.3
  33
0
  14
50
  24
-15
  34
0
  50
0
  100
AcDbRotatedDimension
  0
DIMENSION
  5
130
  100
AcDbEntity
  8
SK2
  100
AcDbDimension
  2
*D124
  10
0
  20
13
  30
0
  11
18.95
  21
13
  31
0
  70
160
  1
<>
  71
5
  3
STANDARD
  42
37.9
  100
AcDbAlignedDimension
  13
37.9
  23
3
  33
0
  14
0
  24
2.3
  34
0
  50
0
  100
AcDbRotatedDimension
  0
DIMENSION
  5
13e
  100
AcDbEntity
  8
SK2
  100
AcDbDimension
  2
*D132
  10
-10
  20
3
  30
0
  11
-10
  21
0
  31
0
  70
160
  1
%%c<>
  71
5
  3
STANDARD
  42
6
  100
AcDbAlignedDimension
  13
0.7
  23
-3
  33
0
  14
0.7
  24
3
  34
0
  50
-90
  100
AcDbRotatedDimension
  0
DIMENSION
  5
14c
  100
AcDbEntity
  8
2
  100
AcDbDimension
  2
*D140
  10
60
  20
1
  30
0
  11
60
  21
0
  31
0
  70
160
  1
%%c<>
  71
5
  3
STANDARD
  42
2
  100
AcDbAlignedDimension
  13
49
  23
-1
  33
0
  14
49
  24
1
  34
0
  50
-90
  100
AcDbRotatedDimension
  0
DIMENSION
  5
156
  100
AcDbEntity
  8
2
  100
AcDbDimension
  2
*D14e
  10
49
  20
0
  30
0
  11
42.636039
  21
7.778175
  31
0
  70
164
  1
R1
  71
5
  3
STANDARD
  100
AcDbRadialDimension
  15
49.707107
  25
0.707107
  35
0
  50
-45
  0
DIMENSION
  5
164
  100
AcDbEntity
  8
2
  100
AcDbDimension
  2
*D158
  10
47.8
  20
0.975
  30
0
  11
47.8
  21
-0.975
  31
0
  70
160
  1
%%c<>
  71
5
  3
STANDARD
  42
1.95
  100
AcDbAlignedDimension
  13
45.8
  23
-0.975
  33
0
  14
45.8
  24
0.975
  34
0
  50
-90
  100
AcDbRotatedDimension
  0
DIMENSION
  5
172
  100
AcDbEntity
  8
2
  100
AcDbDimension
  2
*D166
  10
40.471698
  20
7
  30
0
  11
46.584884
  21
7
  31
0
  70
160
  1
<>
  71
5
  3
STANDARD
  42
1.75
  100
AcDbAlignedDimension
  13
47.8
  23
0.975
  33
0
  14
46.05
  24
0.975
  34
0
  50
0
  100
AcDbRotatedDimension
  0
DIMENSION
  5
180
  100
AcDbEntity
  8
2
  100
AcDbDimension
  2
*D174
  10
37.9
  20
8
  30
0
  11
43.95
  21
8
  31
0
  70
160
  1
<>
  71
5
  3
STANDARD
  42
12.1
  100
AcDbAlignedDimension
  13
50
  23
-15
  33
0
  14
37.9
  24
3
  34
0
  50
0
  100
AcDbRotatedDimension
  0
DIMENSION
  5
18e
  100
AcDbEntity
  8
2
  100
AcDbDimension
  2
*D182
  10
50
  20
-13
  30
0
  11
48.9
  21
-13
  31
0
  70
160
  1
<>
  71
5
  3
STANDARD
  42
2.2
  100
AcDbAlignedDimension
  13
47.8
  23
-0.975
  33
0
  14
50
  24
20
  34
0
  50
0
  100
AcDbRotatedDimension
  0
ARC
  5
36
  100
AcDbEntity
  8
1
  100
AcDbCircle
  10
46.137156
  20
-1.971195
  30
0
  40
1
  100
AcDbArc
  50
95
  51
105
  0
LINE
  5
37
  100
AcDbEntity
  8
1
  100
AcDbLine
  10
46.05
  20
-0.975
  30
0
  11
47.8
  21
-0.975
  31
0
  0
LINE
  5
38
  100
AcDbEntity
  8
1
  100
AcDbLine
  10
47.8
  20
-0.975
  30
0
  11
47.8
  21
-1
  31
0
  0
LINE
  5
39
  100
AcDbEntity
  8
1
  100
AcDbLine
  10
47.8
  20
-1
  30
0
  11
49
  21
-1
  31
0
  0
ARC
  5
3a
  100
AcDbEntity
  8
1
  100
AcDbCircle
  10
49
  20
0
  30
0
  40
1
  100
AcDbArc
  50
270
  51
0
  0
ARC
  5
3b
  100
AcDbEntity
  8
1
  100
AcDbCircle
  10
49
  20
0
  30
0
  40
1
  100
AcDbArc
  50
0
  51
90
  0
LINE
  5
3c
  100
AcDbEntity
  8
1
  100
AcDbLine
  10
49
  20
1
  30
0
  11
47.8
  21
1
  31
0
  0
LINE
  5
3d
  100
AcDbEntity
  8
1
  100
AcDbLine
  10
47.8
  20
1
  30
0
  11
47.8
  21
0.975
  31
0
  0
LINE
  5
3e
  100
AcDbEntity
  8
1
  100
AcDbLine
  10
47.8
  20
0.975
  30
0
  11
46.05
  21
0.975
  31
0
  0
ARC
  5
3f
  100
AcDbEntity
  8
1
  100
AcDbCircle
  10
46.137156
  20
1.971195
  30
0
  40
1
  100
AcDbArc
  50
255
  51
265
  0
LINE
  5
40
  100
AcDbEntity
  8
1
  100
AcDbLine
  10
45.878337
  20
1.005269
  30
0
  11
38.433899
  21
3
  31
0
  0
LINE
  5
41
  100
AcDbEntity
  8
1
  100
AcDbLine
  10
38.433899
  20
3
  30
0
  11
37.9
  21
3
  31
0
  0
LINE
  5
42
  100
AcDbEntity
  8
1
  100
AcDbLine
  10
37.9
  20
3
  30
0
  11
37.9
  21
-3
  31
0
  0
LINE
  5
43
  100
AcDbEntity
  8
1
  100
AcDbLine
  10
37.9
  20
-3
  30
0
  11
38.433899
  21
-3
  31
0
  0
LINE
  5
44
  100
AcDbEntity
  8
1
  100
AcDbLine
  10
38.433899
  20
-3
  30
0
  11
45.878337
  21
-1.005269
  31
0
  0
LINE
  5
45
  100
AcDbEntity
  8
1
  100
AcDbLine
  10
37.9
  20
-3
  30
0
  11
37.9
  21
3
  31
0
  0
LINE
  5
46
  100
AcDbEntity
  8
1
  100
AcDbLine
  10
37.9
  20
3
  30
0
  11
37.9
  21
-3
  31
0
  0
LINE
  5
47
  100
AcDbEntity
  8
1
  100
AcDbLine
  10
38.433899
  20
3
  30
0
  11
38.433899
  21
-3
  31
0
  0
LINE
  5
48
  100
AcDbEntity
  8
1
  100
AcDbLine
  10
45.878337
  20
-1.005269
  30
0
  11
45.878337
  21
1.005269
  31
0
  0
LINE
  5
49
  100
AcDbEntity
  8
1
  100
AcDbLine
  10
46.05
  20
0.975
  30
0
  11
46.05
  21
-0.975
  31
0
  0
LINE
  5
4a
  100
AcDbEntity
  8
1
  100
AcDbLine
  10
47.8
  20
-0.975
  30
0
  11
47.8
  21
0.975
  31
0
  0
LINE
  5
4b
  100
AcDbEntity
  8
1
  100
AcDbLine
  10
47.8
  20
1
  30
0
  11
47.8
  21
-1
  31
0
  0
LINE
  5
4c
  100
AcDbEntity
  8
1
  100
AcDbLine
  10
47.8
  20
-0.937344
  30
0
  11
47.8
  21
-0.962365
  31
0
  0
LINE
  5
4d
  100
AcDbEntity
  8
1
  100
AcDbLine
  10
47.8
  20
-0.962365
  30
0
  11
47.9
  21
-0.981755
  31
0
  0
LINE
  5
4e
  100
AcDbEntity
  8
1
  100
AcDbLine
  10
47.9
  20
-0.981755
  30
0
  11
48
  21
-0.994238
  31
0
  0
LINE
  5
4f
  100
AcDbEntity
  8
1
  100
AcDbLine
  10
48
  20
-0.994238
  30
0
  11
48.1
  21
-0.999724
  31
0
  0
LINE
  5
50
  100
AcDbEntity
  8
1
  100
AcDbLine
  10
48.1
  20
-0.999724
  30
0
  11
48.128008
  21
-1
  31
0
  0
LINE
  5
51
  100
AcDbEntity
  8
1
  100
AcDbLine
  10
48.247041
  20
-1
  30
0
  11
48.2
  21
-0.986789
  31
0
  0
LINE
  5
52
  100
AcDbEntity
  8
1
  100
AcDbLine
  10
48.2
  20
-0.986789
  30
0
  11
48.1
  21
-0.980051
  31
0
  0
LINE
  5
53
  100
AcDbEntity
  8
1
  100
AcDbLine
  10
48.1
  20
-0.980051
  30
0
  11
48
  21
-0.966416
  31
0
  0
LINE
  5
54
  100
AcDbEntity
  8
1
  100
AcDbLine
  10
48
  20
-0.966416
  30
0
  11
47.9
  21
-0.945982
  31
0
  0
LINE
  5
55
  100
AcDbEntity
  8
1
  100
AcDbLine
  10
47.9
  20
-0.945982
  30
0
  11
47.8
  21
-0.91889
  31
0
  0
LINE
  5
56
  100
AcDbEntity
  8
1
  100
AcDbLine
  10
47.8
  20
-0.91889
  30
0
  11
47.8
  21
-0.893545
  31
0
  0
LINE
  5
57
  100
AcDbEntity
  8
1
  100
AcDbLine
  10
47.8
  20
-0.802357
  30
0
  11
47.8
  21
-0.831284
  31
0
  0
LINE
  5
58
  100
AcDbEntity
  8
1
  100
AcDbLine
  10
47.8
  20
-0.831284
  30
0
  11
47.9
  21
-0.874946
  31
0
  0
LINE
  5
59
  100
AcDbEntity
  8
1
  100
AcDbLine
  10
47.9
  20
-0.874946
  30
0
  11
48
  21
-0.912451
  31
0
  0
LINE
  5
5a
  100
AcDbEntity
  8
1
  100
AcDbLine
  10
48
  20
-0.912451
  30
0
  11
48.1
  21
-0.943535
  31
0
  0
LINE
  5
5b
  100
AcDbEntity
  8
1
  100
AcDbLine
  10
48.1
  20
-0.943535
  30
0
  11
48.2
  21
-0.96798
  31
0
  0
LINE
  5
5c
  100
AcDbEntity
  8
1
  100
AcDbLine
  10
48.2
  20
-0.96798
  30
0
  11
48.3
  21
-0.985613
  31
0
  0
LINE
  5
5d
  100
AcDbEntity
  8
1
  100
AcDbLine
  10
48.3
  20
-0.985613
  30
0
  11
48.4
  21
-0.996311
  31
0
  0
LINE
  5
5e
  100
AcDbEntity
  8
1
  100
AcDbLine
  10
48.4
  20
-0.996311
  30
0
  11
48.5
  21
-0.999998
  31
0
  0
LINE
  5
5f
  100
AcDbEntity
  8
1
  100
AcDbLine
  10
48.5
  20
-0.999998
  30
0
  11
48.502401
  21
-1
  31
0
  0
LINE
  5
60
  100
AcDbEntity
  8
1
  100
AcDbLine
  10
49
  20
-1
  30
0
  11
49
  21
1
  31
0
  0
LINE
  5
61
  100
AcDbEntity
  8
1
  100
AcDbLine
  10
48.502401
  20
1
  30
0
  11
48.6
  21
0.996648
  31
0
  0
LINE
  5
62
  100
AcDbEntity
  8
1
  100
AcDbLine
  10
48.6
  20
0.996648
  30
0
  11
48.7
  21
0.986285
  31
0
  0
LINE
  5
63
  100
AcDbEntity
  8
1
  100
AcDbLine
  10
48.7
  20
0.986285
  30
0
  11
48.8
  21
0.968982
  31
0
  0
LINE
  5
64
  100
AcDbEntity
  8
1
  100
AcDbLine
  10
48.8
  20
0.968982
  30
0
  11
48.9
  21
0.944861
  31
0
  0
LINE
  5
65
  100
AcDbEntity
  8
1
  100
AcDbLine
  10
48.9
  20
0.944861
  30
0
  11
49
  21
0.91409
  31
0
  0
LINE
  5
66
  100
AcDbEntity
  8
1
  100
AcDbLine
  10
49
  20
0.91409
  30
0
  11
49.1
  21
0.87388
  31
0
  0
LINE
  5
67
  100
AcDbEntity
  8
1
  100
AcDbLine
  10
49.1
  20
0.87388
  30
0
  11
49.2
  21
0.823081
  31
0
  0
LINE
  5
68
  100
AcDbEntity
  8
1
  100
AcDbLine
  10
49.2
  20
0.823081
  30
0
  11
49.3
  21
0.764486
  31
0
  0
LINE
  5
69
  100
AcDbEntity
  8
1
  100
AcDbLine
  10
49.3
  20
0.764486
  30
0
  11
49.4
  21
0.701136
  31
0
  0
LINE
  5
6a
  100
AcDbEntity
  8
1
  100
AcDbLine
  10
49.4
  20
0.701136
  30
0
  11
49.5
  21
0.636468
  31
0
  0
LINE
  5
6b
  100
AcDbEntity
  8
1
  100
AcDbLine
  10
49.5
  20
0.636468
  30
0
  11
49.6
  21
0.574601
  31
0
  0
LINE
  5
6c
  100
AcDbEntity
  8
1
  100
AcDbLine
  10
49.6
  20
0.574601
  30
0
  11
49.7
  21
0.521069
  31
0
  0
LINE
  5
6d
  100
AcDbEntity
  8
1
  100
AcDbLine
  10
49.7
  20
0.521069
  30
0
  11
49.8
  21
0.485699
  31
0
  0
LINE
  5
6e
  100
AcDbEntity
  8
1
  100
AcDbLine
  10
49.8
  20
0.6
  30
0
  11
49.8
  21
0.485699
  31
0
  0
LINE
  5
6f
  100
AcDbEntity
  8
1
  100
AcDbLine
  10
49.8
  20
0.485699
  30
0
  11
49.8
  21
0.6
  31
0
  0
LINE
  5
70
  100
AcDbEntity
  8
1
  100
AcDbLine
  10
49.8
  20
0.6
  30
0
  11
49.8
  21
0.529462
  31
0
  0
LINE
  5
71
  100
AcDbEntity
  8
1
  100
AcDbLine
  10
49.8
  20
0.124607
  30
0
  11
49.8
  21
-0.352274
  31
0
  0
LINE
  5
72
  100
AcDbEntity
  8
1
  100
AcDbLine
  10
49.8
  20
-0.262359
  30
0
  11
49.8
  21
0.217334
  31
0
  0
LINE
  5
73
  100
AcDbEntity
  8
1
  100
AcDbLine
  10
49.8
  20
0.217334
  30
0
  11
49.7
  21
0.305229
  31
0
  0
LINE
  5
74
  100
AcDbEntity
  8
1
  100
AcDbLine
  10
49.7
  20
0.305229
  30
0
  11
49.6
  21
0.375433
  31
0
  0
LINE
  5
75
  100
AcDbEntity
  8
1
  100
AcDbLine
  10
49.6
  20
0.375433
  30
0
  11
49.5
  21
0.451541
  31
0
  0
LINE
  5
76
  100
AcDbEntity
  8
1
  100
AcDbLine
  10
49.5
  20
0.451541
  30
0
  11
49.4
  21
0.529504
  31
0
  0
LINE
  5
77
  100
AcDbEntity
  8
1
  100
AcDbLine
  10
49.4
  20
0.529504
  30
0
  11
49.3
  21
0.605909
  31
0
  0
LINE
  5
78
  100
AcDbEntity
  8
1
  100
AcDbLine
  10
49.3
  20
0.605909
  30
0
  11
49.2
  21
0.677738
  31
0
  0
LINE
  5
79
  100
AcDbEntity
  8
1
  100
AcDbLine
  10
49.2
  20
0.677738
  30
0
  11
49.1
  21
0.742253
  31
0
  0
LINE
  5
7a
  100
AcDbEntity
  8
1
  100
AcDbLine
  10
49.1
  20
0.742253
  30
0
  11
49
  21
0.79692
  31
0
  0
LINE
  5
7b
  100
AcDbEntity
  8
1
  100
AcDbLine
  10
49
  20
0.79692
  30
0
  11
48.9
  21
0.843
  31
0
  0
LINE
  5
7c
  100
AcDbEntity
  8
1
  100
AcDbLine
  10
48.9
  20
0.843
  30
0
  11
48.8
  21
0.883148
  31
0
  0
LINE
  5
7d
  100
AcDbEntity
  8
1
  100
AcDbLine
  10
48.8
  20
0.883148
  30
0
  11
48.7
  21
0.917081
  31
0
  0
LINE
  5
7e
  100
AcDbEntity
  8
1
  100
AcDbLine
  10
48.7
  20
0.917081
  30
0
  11
48.6
  21
0.944561
  31
0
  0
LINE
  5
7f
  100
AcDbEntity
  8
1
  100
AcDbLine
  10
48.6
  20
0.944561
  30
0
  11
48.5
  21
0.965394
  31
0
  0
LINE
  5
80
  100
AcDbEntity
  8
1
  100
AcDbLine
  10
48.5
  20
0.965394
  30
0
  11
48.4
  21
0.979435
  31
0
  0
LINE
  5
81
  100
AcDbEntity
  8
1
  100
AcDbLine
  10
48.4
  20
0.979435
  30
0
  11
48.3
  21
0.986583
  31
0
  0
LINE
  5
82
  100
AcDbEntity
  8
1
  100
AcDbLine
  10
48.3
  20
0.986583
  30
0
  11
48.247041
  21
1
  31
0
  0
LINE
  5
83
  100
AcDbEntity
  8
1
  100
AcDbLine
  10
48.128008
  20
1
  30
0
  11
48.2
  21
0.998175
  31
0
  0
LINE
  5
84
  100
AcDbEntity
  8
1
  100
AcDbLine
  10
48.2
  20
0.998175
  30
0
  11
48.3
  21
0.989603
  31
0
  0
LINE
  5
85
  100
AcDbEntity
  8
1
  100
AcDbLine
  10
48.3
  20
0.989603
  30
0
  11
48.4
  21
0.974067
  31
0
  0
LINE
  5
86
  100
AcDbEntity
  8
1
  100
AcDbLine
  10
48.4
  20
0.974067
  30
0
  11
48.5
  21
0.951676
  31
0
  0
LINE
  5
87
  100
AcDbEntity
  8
1
  100
AcDbLine
  10
48.5
  20
0.951676
  30
0
  11
48.6
  21
0.922589
  31
0
  0
LINE
  5
88
  100
AcDbEntity
  8
1
  100
AcDbLine
  10
48.6
  20
0.922589
  30
0
  11
48.7
  21
0.88701
  31
0
  0
LINE
  5
89
  100
AcDbEntity
  8
1
  100
AcDbLine
  10
48.7
  20
0.88701
  30
0
  11
48.8
  21
0.845189
  31
0
  0
LINE
  5
8a
  100
AcDbEntity
  8
1
  100
AcDbLine
  10
48.8
  20
0.845189
  30
0
  11
48.9
  21
0.797421
  31
0
  0
LINE
  5
8b
  100
AcDbEntity
  8
1
  100
AcDbLine
  10
48.9
  20
0.797421
  30
0
  11
49
  21
0.744042
  31
0
  0
LINE
  5
8c
  100
AcDbEntity
  8
1
  100
AcDbLine
  10
49
  20
0.744042
  30
0
  11
49.1
  21
0.682504
  31
0
  0
LINE
  5
8d
  100
AcDbEntity
  8
1
  100
AcDbLine
  10
49.1
  20
0.682504
  30
0
  11
49.2
  21
0.611643
  31
0
  0
LINE
  5
8e
  100
AcDbEntity
  8
1
  100
AcDbLine
  10
49.2
  20
0.611643
  30
0
  11
49.3
  21
0.534027
  31
0
  0
LINE
  5
8f
  100
AcDbEntity
  8
1
  100
AcDbLine
  10
49.3
  20
0.534027
  30
0
  11
49.4
  21
0.452431
  31
0
  0
LINE
  5
90
  100
AcDbEntity
  8
1
  100
AcDbLine
  10
49.4
  20
0.452431
  30
0
  11
49.5
  21
0.369914
  31
0
  0
LINE
  5
91
  100
AcDbEntity
  8
1
  100
AcDbLine
  10
49.5
  20
0.369914
  30
0
  11
49.6
  21
0.289941
  31
0
  0
LINE
  5
92
  100
AcDbEntity
  8
1
  100
AcDbLine
  10
49.6
  20
0.289941
  30
0
  11
49.7
  21
0.216658
  31
0
  0
LINE
  5
93
  100
AcDbEntity
  8
1
  100
AcDbLine
  10
49.7
  20
0.216658
  30
0
  11
49.8
  21
0.124607
  31
0
  0
LINE
  5
94
  100
AcDbEntity
  8
1
  100
AcDbLine
  10
49.8
  20
0.124607
  30
0
  11
49.8
  21
-0.352274
  31
0
  0
LINE
  5
95
  100
AcDbEntity
  8
1
  100
AcDbLine
  10
49.8
  20
-0.352274
  30
0
  11
49.7
  21
-0.488351
  31
0
  0
LINE
  5
96
  100
AcDbEntity
  8
1
  100
AcDbLine
  10
49.7
  20
-0.488351
  30
0
  11
49.6
  21
-0.556627
  31
0
  0
LINE
  5
97
  100
AcDbEntity
  8
1
  100
AcDbLine
  10
49.6
  20
-0.556627
  30
0
  11
49.5
  21
-0.587289
  31
0
  0
LINE
  5
98
  100
AcDbEntity
  8
1
  100
AcDbLine
  10
49.5
  20
-0.587289
  30
0
  11
49.4
  21
-0.590262
  31
0
  0
LINE
  5
99
  100
AcDbEntity
  8
1
  100
AcDbLine
  10
49.4
  20
-0.590262
  30
0
  11
49.3
  21
-0.57058
  31
0
  0
LINE
  5
9a
  100
AcDbEntity
  8
1
  100
AcDbLine
  10
49.3
  20
-0.57058
  30
0
  11
49.2
  21
-0.531542
  31
0
  0
LINE
  5
9b
  100
AcDbEntity
  8
1
  100
AcDbLine
  10
49.2
  20
-0.531542
  30
0
  11
49.1
  21
-0.475745
  31
0
  0
LINE
  5
9c
  100
AcDbEntity
  8
1
  100
AcDbLine
  10
49.1
  20
-0.475745
  30
0
  11
49
  21
-0.405511
  31
0
  0
LINE
  5
9d
  100
AcDbEntity
  8
1
  100
AcDbLine
  10
49
  20
-0.405511
  30
0
  11
48.9
  21
-0.327473
  31
0
  0
LINE
  5
9e
  100
AcDbEntity
  8
1
  100
AcDbLine
  10
48.9
  20
-0.327473
  30
0
  11
48.8
  21
-0.24713
  31
0
  0
LINE
  5
9f
  100
AcDbEntity
  8
1
  100
AcDbLine
  10
48.8
  20
-0.24713
  30
0
  11
48.7
  21
-0.165049
  31
0
  0
LINE
  5
a0
  100
AcDbEntity
  8
1
  100
AcDbLine
  10
48.7
  20
-0.165049
  30
0
  11
48.6
  21
-0.081806
  31
0
  0
LINE
  5
a1
  100
AcDbEntity
  8
1
  100
AcDbLine
  10
48.6
  20
-0.081806
  30
0
  11
48.5
  21
0.002012
  31
0
  0
LINE
  5
a2
  100
AcDbEntity
  8
1
  100
AcDbLine
  10
48.5
  20
0.002012
  30
0
  11
48.4
  21
0.085817
  31
0
  0
LINE
  5
a3
  100
AcDbEntity
  8
1
  100
AcDbLine
  10
48.4
  20
0.085817
  30
0
  11
48.3
  21
0.169017
  31
0
  0
LINE
  5
a4
  100
AcDbEntity
  8
1
  100
AcDbLine
  10
48.3
  20
0.169017
  30
0
  11
48.2
  21
0.251028
  31
0
  0
LINE
  5
a5
  100
AcDbEntity
  8
1
  100
AcDbLine
  10
48.2
  20
0.251028
  30
0
  11
48.1
  21
0.331273
  31
0
  0
LINE
  5
a6
  100
AcDbEntity
  8
1
  100
AcDbLine
  10
48.1
  20
0.331273
  30
0
  11
48
  21
0.409186
  31
0
  0
LINE
  5
a7
  100
AcDbEntity
  8
1
  100
AcDbLine
  10
48
  20
0.409186
  30
0
  11
47.9
  21
0.484221
  31
0
  0
LINE
  5
a8
  100
AcDbEntity
  8
1
  100
AcDbLine
  10
47.9
  20
0.484221
  30
0
  11
47.8
  21
0.555848
  31
0
  0
LINE
  5
a9
  100
AcDbEntity
  8
1
  100
AcDbLine
  10
47.8
  20
0.555848
  30
0
  11
47.8
  21
0.553938
  31
0
  0
LINE
  5
aa
  100
AcDbEntity
  8
1
  100
AcDbLine
  10
47.8
  20
0.358246
  30
0
  11
47.8
  21
0.361817
  31
0
  0
LINE
  5
ab
  100
AcDbEntity
  8
1
  100
AcDbLine
  10
47.8
  20
0.361817
  30
0
  11
47.9
  21
0.28353
  31
0
  0
LINE
  5
ac
  100
AcDbEntity
  8
1
  100
AcDbLine
  10
47.9
  20
0.28353
  30
0
  11
48
  21
0.203248
  31
0
  0
LINE
  5
ad
  100
AcDbEntity
  8
1
  100
AcDbLine
  10
48
  20
0.203248
  30
0
  11
48.1
  21
0.121536
  31
0
  0
LINE
  5
ae
  100
AcDbEntity
  8
1
  100
AcDbLine
  10
48.1
  20
0.121536
  30
0
  11
48.2
  21
0.038969
  31
0
  0
LINE
  5
af
  100
AcDbEntity
  8
1
  100
AcDbLine
  10
48.2
  20
0.038969
  30
0
  11
48.3
  21
-0.043872
  31
0
  0
LINE
  5
b0
  100
AcDbEntity
  8
1
  100
AcDbLine
  10
48.3
  20
-0.043872
  30
0
  11
48.4
  21
-0.126405
  31
0
  0
LINE
  5
b1
  100
AcDbEntity
  8
1
  100
AcDbLine
  10
48.4
  20
-0.126405
  30
0
  11
48.5
  21
-0.208048
  31
0
  0
LINE
  5
b2
  100
AcDbEntity
  8
1
  100
AcDbLine
  10
48.5
  20
-0.208048
  30
0
  11
48.6
  21
-0.288227
  31
0
  0
LINE
  5
b3
  100
AcDbEntity
  8
1
  100
AcDbLine
  10
48.6
  20
-0.288227
  30
0
  11
48.7
  21
-0.366378
  31
0
  0
LINE
  5
b4
  100
AcDbEntity
  8
1
  100
AcDbLine
  10
48.7
  20
-0.366378
  30
0
  11
48.8
  21
-0.441951
  31
0
  0
LINE
  5
b5
  100
AcDbEntity
  8
1
  100
AcDbLine
  10
48.8
  20
-0.441951
  30
0
  11
48.9
  21
-0.514414
  31
0
  0
LINE
  5
b6
  100
AcDbEntity
  8
1
  100
AcDbLine
  10
48.9
  20
-0.514414
  30
0
  11
49
  21
-0.583257
  31
0
  0
LINE
  5
b7
  100
AcDbEntity
  8
1
  100
AcDbLine
  10
49
  20
-0.583257
  30
0
  11
49.1
  21
-0.643821
  31
0
  0
LINE
  5
b8
  100
AcDbEntity
  8
1
  100
AcDbLine
  10
49.1
  20
-0.643821
  30
0
  11
49.2
  21
-0.690393
  31
0
  0
LINE
  5
b9
  100
AcDbEntity
  8
1
  100
AcDbLine
  10
49.2
  20
-0.690393
  30
0
  11
49.3
  21
-0.720933
  31
0
  0
LINE
  5
ba
  100
AcDbEntity
  8
1
  100
AcDbLine
  10
49.3
  20
-0.720933
  30
0
  11
49.4
  21
-0.733345
  31
0
  0
LINE
  5
bb
  100
AcDbEntity
  8
1
  100
AcDbLine
  10
49.4
  20
-0.733345
  30
0
  11
49.5
  21
-0.725282
  31
0
  0
LINE
  5
bc
  100
AcDbEntity
  8
1
  100
AcDbLine
  10
49.5
  20
-0.725282
  30
0
  11
49.6
  21
-0.693734
  31
0
  0
LINE
  5
bd
  100
AcDbEntity
  8
1
  100
AcDbLine
  10
49.6
  20
-0.693734
  30
0
  11
49.7
  21
-0.634061
  31
0
  0
LINE
  5
be
  100
AcDbEntity
  8
1
  100
AcDbLine
  10
49.7
  20
-0.634061
  30
0
  11
49.8
  21
-0.54948
  31
0
  0
LINE
  5
bf
  100
AcDbEntity
  8
1
  100
AcDbLine
  10
49.8
  20
-0.54948
  30
0
  11
49.8
  21
-0.6
  31
0
  0
LINE
  5
c0
  100
AcDbEntity
  8
1
  100
AcDbLine
  10
49.8
  20
-0.586918
  30
0
  11
49.8
  21
-0.6
  31
0
  0
LINE
  5
c1
  100
AcDbEntity
  8
1
  100
AcDbLine
  10
49.8
  20
-0.6
  30
0
  11
49.8
  21
-0.586918
  31
0
  0
LINE
  5
c2
  100
AcDbEntity
  8
1
  100
AcDbLine
  10
49.8
  20
-0.586918
  30
0
  11
49.7
  21
-0.680485
  31
0
  0
LINE
  5
c3
  100
AcDbEntity
  8
1
  100
AcDbLine
  10
49.7
  20
-0.680485
  30
0
  11
49.6
  21
-0.74561
  31
0
  0
LINE
  5
c4
  100
AcDbEntity
  8
1
  100
AcDbLine
  10
49.6
  20
-0.74561
  30
0
  11
49.5
  21
-0.783048
  31
0
  0
LINE
  5
c5
  100
AcDbEntity
  8
1
  100
AcDbLine
  10
49.5
  20
-0.783048
  30
0
  11
49.4
  21
-0.797061
  31
0
  0
LINE
  5
c6
  100
AcDbEntity
  8
1
  100
AcDbLine
  10
49.4
  20
-0.797061
  30
0
  11
49.3
  21
-0.790453
  31
0
  0
LINE
  5
c7
  100
AcDbEntity
  8
1
  100
AcDbLine
  10
49.3
  20
-0.790453
  30
0
  11
49.2
  21
-0.765436
  31
0
  0
LINE
  5
c8
  100
AcDbEntity
  8
1
  100
AcDbLine
  10
49.2
  20
-0.765436
  30
0
  11
49.1
  21
-0.724009
  31
0
  0
LINE
  5
c9
  100
AcDbEntity
  8
1
  100
AcDbLine
  10
49.1
  20
-0.724009
  30
0
  11
49
  21
-0.668133
  31
0
  0
LINE
  5
ca
  100
AcDbEntity
  8
1
  100
AcDbLine
  10
49
  20
-0.668133
  30
0
  11
48.9
  21
-0.603423
  31
0
  0
LINE
  5
cb
  100
AcDbEntity
  8
1
  100
AcDbLine
  10
48.9
  20
-0.603423
  30
0
  11
48.8
  21
-0.534467
  31
0
  0
LINE
  5
cc
  100
AcDbEntity
  8
1
  100
AcDbLine
  10
48.8
  20
-0.534467
  30
0
  11
48.7
  21
-0.46175
  31
0
  0
LINE
  5
cd
  100
AcDbEntity
  8
1
  100
AcDbLine
  10
48.7
  20
-0.46175
  30
0
  11
48.6
  21
-0.385783
  31
0
  0
LINE
  5
ce
  100
AcDbEntity
  8
1
  100
AcDbLine
  10
48.6
  20
-0.385783
  30
0
  11
48.5
  21
-0.307102
  31
0
  0
LINE
  5
cf
  100
AcDbEntity
  8
1
  100
AcDbLine
  10
48.5
  20
-0.307102
  30
0
  11
48.4
  21
-0.226261
  31
0
  0
LINE
  5
d0
  100
AcDbEntity
  8
1
  100
AcDbLine
  10
48.4
  20
-0.226261
  30
0
  11
48.3
  21
-0.143826
  31
0
  0
LINE
  5
d1
  100
AcDbEntity
  8
1
  100
AcDbLine
  10
48.3
  20
-0.143826
  30
0
  11
48.2
  21
-0.06038
  31
0
  0
LINE
  5
d2
  100
AcDbEntity
  8
1
  100
AcDbLine
  10
48.2
  20
-0.06038
  30
0
  11
48.1
  21
0.023491
  31
0
  0
LINE
  5
d3
  100
AcDbEntity
  8
1
  100
AcDbLine
  10
48.1
  20
0.023491
  30
0
  11
48
  21
0.107197
  31
0
  0
LINE
  5
d4
  100
AcDbEntity
  8
1
  100
AcDbLine
  10
48
  20
0.107197
  30
0
  11
47.9
  21
0.190148
  31
0
  0
LINE
  5
d5
  100
AcDbEntity
  8
1
  100
AcDbLine
  10
47.9
  20
0.190148
  30
0
  11
47.8
  21
0.271761
  31
0
  0
LINE
  5
d6
  100
AcDbEntity
  8
1
  100
AcDbLine
  10
47.8
  20
0.271761
  30
0
  11
47.8
  21
0.268348
  31
0
  0
LINE
  5
d7
  100
AcDbEntity
  8
SK1
  100
AcDbLine
  10
37.9
  20
3
  30
0
  11
0.7
  21
3
  31
0
  0
LINE
  5
d8
  100
AcDbEntity
  8
SK1
  100
AcDbLine
  10
0.7
  20
3
  30
0
  11
0
  21
2.3
  31
0
  0
LINE
  5
d9
  100
AcDbEntity
  8
SK1
  100
AcDbLine
  10
37.9
  20
-3
  30
0
  11
0.7
  21
-3
  31
0
  0
LINE
  5
da
  100
AcDbEntity
  8
SK1
  100
AcDbLine
  10
0.7
  20
-3
  30
0
  11
0
  21
-2.3
  31
0
  0
LINE
  5
db
  100
AcDbEntity
  8
SK1
  100
AcDbLine
  10
0.7
  20
3
  30
0
  11
0.7
  21
-3
  31
0
  0
LINE
  5
dc
  100
AcDbEntity
  8
SK1
  100
AcDbLine
  10
0
  20
2.3
  30
0
  11
0
  21
-2.3
  31
0
  0
LINE
  5
dd
  100
AcDbEntity
  8
SK1
  100
AcDbLine
  10
38.9401
  20
1.40688
  30
0
  11
39.3069
  21
1.0401
  31
0
  0
LINE
  5
de
  100
AcDbEntity
  8
SK1
  100
AcDbLine
  10
38.4328
  20
1.66666
  30
0
  11
39.5667
  21
0.532833
  31
0
  0
LINE
  5
df
  100
AcDbEntity
  8
SK1
  100
AcDbLine
  10
38.1154
  20
1.73657
  30
0
  11
39.6366
  21
0.215434
  31
0
  0
LINE
  5
e0
  100
AcDbEntity
  8
SK1
  100
AcDbLine
  10
37.9
  20
1.70452
  30
0
  11
39.6045
  21
0
  31
0
  0
LINE
  5
e1
  100
AcDbEntity
  8
SK1
  100
AcDbLine
  10
37.9
  20
1.45703
  30
0
  11
39.357
  21
0
  31
0
  0
LINE
  5
e2
  100
AcDbEntity
  8
SK1
  100
AcDbLine
  10
37.9
  20
1.20954
  30
0
  11
39.1095
  21
0
  31
0
  0
LINE
  5
e3
  100
AcDbEntity
  8
SK1
  100
AcDbLine
  10
37.9
  20
0.962054
  30
0
  11
38.8621
  21
0
  31
0
  0
LINE
  5
e4
  100
AcDbEntity
  8
SK1
  100
AcDbLine
  10
37.9
  20
0.714566
  30
0
  11
38.6146
  21
0
  31
0
  0
LINE
  5
e5
  100
AcDbEntity
  8
SK1
  100
AcDbLine
  10
37.9
  20
0.467079
  30
0
  11
38.3671
  21
0
  31
0
  0
LINE
  5
e6
  100
AcDbEntity
  8
SK1
  100
AcDbLine
  10
37.9
  20
0.219592
  30
0
  11
38.1196
  21
0
  31
0
  0
LINE
  5
e7
  100
AcDbEntity
  8
SK1
  100
AcDbLine
  10
37.9
  20
1.70452
  30
0
  11
37.9441
  21
1.74861
  31
0
  0
LINE
  5
e8
  100
AcDbEntity
  8
SK1
  100
AcDbLine
  10
37.9
  20
1.45703
  30
0
  11
38.171
  21
1.72802
  31
0
  0
LINE
  5
e9
  100
AcDbEntity
  8
SK1
  100
AcDbLine
  10
37.9
  20
1.20954
  30
0
  11
38.3742
  21
1.6837
  31
0
  0
LINE
  5
ea
  100
AcDbEntity
  8
SK1
  100
AcDbLine
  10
37.9
  20
0.962054
  30
0
  11
38.5588
  21
1.62082
  31
0
  0
LINE
  5
eb
  100
AcDbEntity
  8
SK1
  100
AcDbLine
  10
37.9
  20
0.714566
  30
0
  11
38.7271
  21
1.54167
  31
0
  0
LINE
  5
ec
  100
AcDbEntity
  8
SK1
  100
AcDbLine
  10
37.9
  20
0.467079
  30
0
  11
38.881
  21
1.44812
  31
0
  0
LINE
  5
ed
  100
AcDbEntity
  8
SK1
  100
AcDbLine
  10
37.9
  20
0.219592
  30
0
  11
39.0226
  21
1.34216
  31
0
  0
LINE
  5
ee
  100
AcDbEntity
  8
SK1
  100
AcDbLine
  10
37.9279
  20
0
  30
0
  11
39.1508
  21
1.22288
  31
0
  0
LINE
  5
ef
  100
AcDbEntity
  8
SK1
  100
AcDbLine
  10
38.1754
  20
0
  30
0
  11
39.267
  21
1.09157
  31
0
  0
LINE
  5
f0
  100
AcDbEntity
  8
SK1
  100
AcDbLine
  10
38.4229
  20
0
  30
0
  11
39.3707
  21
0.947822
  31
0
  0
LINE
  5
f1
  100
AcDbEntity
  8
SK1
  100
AcDbLine
  10
38.6704
  20
0
  30
0
  11
39.4605
  21
0.790145
  31
0
  0
LINE
  5
f2
  100
AcDbEntity
  8
SK1
  100
AcDbLine
  10
38.9178
  20
0
  30
0
  11
39.5364
  21
0.618517
  31
0
  0
LINE
  5
f3
  100
AcDbEntity
  8
SK1
  100
AcDbLine
  10
39.1653
  20
0
  30
0
  11
39.596
  21
0.430696
  31
0
  0
LINE
  5
f4
  100
AcDbEntity
  8
SK1
  100
AcDbLine
  10
39.4128
  20
0
  30
0
  11
39.6356
  21
0.222827
  31
0
  0
LINE
  5
f5
  100
AcDbEntity
  8
SK1
  100
AcDbLine
  10
37.9
  20
0
  30
0
  11
37.9
  21
1.75
  31
0
  0
LINE
  5
f6
  100
AcDbEntity
  8
SK1
  100
AcDbLine
  10
37.9
  20
0
  30
0
  11
39.65
  21
0
  31
0
  0
ARC
  5
f7
  100
AcDbEntity
  8
SK1
  100
AcDbCircle
  10
37.9
  20
0
  30
0
  40
1.75
  100
AcDbArc
  50
0
  51
90
  0
ARC
  5
f8
  100
AcDbEntity
  8
SK1
  100
AcDbCircle
  10
37.9
  20
0
  30
0
  40
1.75
  100
AcDbArc
  50
90
  51
180
  0
LINE
  5
f9
  100
AcDbEntity
  8
SK1
  100
AcDbLine
  10
37.8721
  20
0
  30
0
  11
37.9
  21
-0.027896
  31
0
  0
LINE
  5
fa
  100
AcDbEntity
  8
SK1
  100
AcDbLine
  10
37.6246
  20
0
  30
0
  11
37.9
  21
-0.275383
  31
0
  0
LINE
  5
fb
  100
AcDbEntity
  8
SK1
  100
AcDbLine
  10
37.3771
  20
0
  30
0
  11
37.9
  21
-0.522871
  31
0
  0
LINE
  5
fc
  100
AcDbEntity
  8
SK1
  100
AcDbLine
  10
37.1296
  20
0
  30
0
  11
37.9
  21
-0.770358
  31
0
  0
LINE
  5
fd
  100
AcDbEntity
  8
SK1
  100
AcDbLine
  10
36.8822
  20
0
  30
0
  11
37.9
  21
-1.01785
  31
0
  0
LINE
  5
fe
  100
AcDbEntity
  8
SK1
  100
AcDbLine
  10
36.6347
  20
0
  30
0
  11
37.9
  21
-1.26533
  31
0
  0
LINE
  5
ff
  100
AcDbEntity
  8
SK1
  100
AcDbLine
  10
36.3872
  20
0
  30
0
  11
37.9
  21
-1.51282
  31
0
  0
LINE
  5
100
  100
AcDbEntity
  8
SK1
  100
AcDbLine
  10
36.1503
  20
-0.010642
  30
0
  11
37.8894
  21
-1.74967
  31
0
  0
LINE
  5
101
  100
AcDbEntity
  8
SK1
  100
AcDbLine
  10
36.1736
  20
-0.281429
  30
0
  11
37.6186
  21
-1.72637
  31
0
  0
LINE
  5
102
  100
AcDbEntity
  8
SK1
  100
AcDbLine
  10
36.2639
  20
-0.619147
  30
0
  11
37.2809
  21
-1.63613
  31
0
  0
LINE
  5
103
  100
AcDbEntity
  8
SK1
  100
AcDbLine
  10
36.1514
  20
-0.044098
  30
0
  11
36.1955
  21
0
  31
0
  0
LINE
  5
104
  100
AcDbEntity
  8
SK1
  100
AcDbLine
  10
36.172
  20
-0.270991
  30
0
  11
36.443
  21
0
  31
0
  0
LINE
  5
105
  100
AcDbEntity
  8
SK1
  100
AcDbLine
  10
36.2163
  20
-0.474162
  30
0
  11
36.6905
  21
0
  31
0
  0
LINE
  5
106
  100
AcDbEntity
  8
SK1
  100
AcDbLine
  10
36.2792
  20
-0.658762
  30
0
  11
36.9379
  21
0
  31
0
  0
LINE
  5
107
  100
AcDbEntity
  8
SK1
  100
AcDbLine
  10
36.3583
  20
-0.827105
  30
0
  11
37.1854
  21
0
  31
0
  0
LINE
  5
108
  100
AcDbEntity
  8
SK1
  100
AcDbLine
  10
36.4519
  20
-0.981039
  30
0
  11
37.4329
  21
0
  31
0
  0
LINE
  5
109
  100
AcDbEntity
  8
SK1
  100
AcDbLine
  10
36.5578
  20
-1.12257
  30
0
  11
37.6804
  21
0
  31
0
  0
LINE
  5
10a
  100
AcDbEntity
  8
SK1
  100
AcDbLine
  10
36.6771
  20
-1.25077
  30
0
  11
37.9
  21
-0.027896
  31
0
  0
LINE
  5
10b
  100
AcDbEntity
  8
SK1
  100
AcDbLine
  10
36.8084
  20
-1.36695
  30
0
  11
37.9
  21
-0.275383
  31
0
  0
LINE
  5
10c
  100
AcDbEntity
  8
SK1
  100
AcDbLine
  10
36.9522
  20
-1.47069
  30
0
  11
37.9
  21
-0.522871
  31
0
  0
LINE
  5
10d
  100
AcDbEntity
  8
SK1
  100
AcDbLine
  10
37.1099
  20
-1.5605
  30
0
  11
37.9
  21
-0.770358
  31
0
  0
LINE
  5
10e
  100
AcDbEntity
  8
SK1
  100
AcDbLine
  10
37.2815
  20
-1.63636
  30
0
  11
37.9
  21
-1.01785
  31
0
  0
LINE
  5
10f
  100
AcDbEntity
  8
SK1
  100
AcDbLine
  10
37.4693
  20
-1.69603
  30
0
  11
37.9
  21
-1.26533
  31
0
  0
LINE
  5
110
  100
AcDbEntity
  8
SK1
  100
AcDbLine
  10
37.6772
  20
-1.73565
  30
0
  11
37.9
  21
-1.51282
  31
0
  0
LINE
  5
111
  100
AcDbEntity
  8
SK1
  100
AcDbLine
  10
37.9
  20
0
  30
0
  11
36.15
  21
0
  31
0
  0
LINE
  5
112
  100
AcDbEntity
  8
SK1
  100
AcDbLine
  10
37.9
  20
-1.75
  30
0
  11
37.9
  21
0
  31
0
  0
ARC
  5
113
  100
AcDbEntity
  8
SK1
  100
AcDbCircle
  10
37.9
  20
0
  30
0
  40
1.75
  100
AcDbArc
  50
180
  51
270
  0
ARC
  5
114
  100
AcDbEntity
  8
SK1
  100
AcDbCircle
  10
37.9
  20
0
  30
0
  40
1.75
  100
AcDbArc
  50
270
  51
0
  0
LINE
  5
18f
  100
AcDbEntity
  8
NOCUT
  100
AcDbLine
  10
47.8
  20
0
  30
0
  11
47.8
  21
0.975
  31
0
  0
LINE
  5
190
  100
AcDbEntity
  8
NOCUT
  100
AcDbLine
  10
47.8
  20
0.975
  30
0
  11
46.05
  21
0.975
  31
0
  0
ARC
  5
191
  100
AcDbEntity
  8
NOCUT
  100
AcDbCircle
  10
46.137156
  20
1.971195
  30
0
  40
1
  100
AcDbArc
  50
255
  51
265
  0
LINE
  5
192
  100
AcDbEntity
  8
NOCUT
  100
AcDbLine
  10
45.878337
  20
1.005269
  30
0
  11
38.433899
  21
3
  31
0
  0
LINE
  5
193
  100
AcDbEntity
  8
NOCUT
  100
AcDbLine
  10
38.433899
  20
3
  30
0
  11
37.9
  21
3
  31
0
  0
LINE
  5
194
  100
AcDbEntity
  8
NOCUT
  100
AcDbLine
  10
37.9
  20
3
  30
0
  11
37.9
  21
0
  31
0
  0
LINE
  5
195
  100
AcDbEntity
  8
NOCUT
  100
AcDbLine
  10
37.9
  20
0
  30
0
  11
47.8
  21
0
  31
0
  0
ARC
  5
196
  100
AcDbEntity
  8
CUT
  100
AcDbCircle
  10
49
  20
0
  30
0
  40
1
  100
AcDbArc
  50
0
  51
90
  0
LINE
  5
197
  100
AcDbEntity
  8
CUT
  100
AcDbLine
  10
49
  20
1
  30
0
  11
47.8
  21
1
  31
0
  0
LINE
  5
198
  100
AcDbEntity
  8
CUT
  100
AcDbLine
  10
47.8
  20
1
  30
0
  11
47.8
  21
0
  31
0
  0
LINE
  5
199
  100
AcDbEntity
  8
CUT
  100
AcDbLine
  10
47.8
  20
0
  30
0
  11
50
  21
0
  31
0
  0
LINE
  5
19a
  100
AcDbEntity
  8
4
  100
AcDbLine
  10
37.9
  20
0
  30
0
  11
50
  21
0
  31
0
  0
LINE
  5
19b
  100
AcDbEntity
  8
SK4
  100
AcDbLine
  10
-1
  20
0
  30
0
  11
51
  21
0
  31
0
  0
LINE
  5
19c
  100
AcDbEntity
  8
INFTOTAL
  100
AcDbLine
  10
-15.7
  20
23.7
  30
0
  11
65.7
  21
23.7
  31
0
  0
LINE
  5
19d
  100
AcDbEntity
  8
INFTOTAL
  100
AcDbLine
  10
65.7
  20
23.7
  30
0
  11
65.7
  21
-18.7
  31
0
  0
LINE
  5
19e
  100
AcDbEntity
  8
INFTOTAL
  100
AcDbLine
  10
65.7
  20
-18.7
  30
0
  11
-15.7
  21
-18.7
  31
0
  0
LINE
  5
19f
  100
AcDbEntity
  8
INFTOTAL
  100
AcDbLine
  10
-15.7
  20
-18.7
  30
0
  11
-15.7
  21
23.7
  31
0
  0
ENDSEC
  0
SECTION
  2
OBJECTS
  0
DICTIONARY
  5
1a0
  330
0
100
AcDbDictionary
281
    1
  3
ACAD_GROUP
  350
1a1
  0
DICTIONARY
  5
1a1
102
{ACAD_REACTORS
  330
1a0
102
}
  330
1a0
100
AcDbDictionary
281
    1
  0
ENDSEC
  0
EOF
