  0
SECTION
  2
HEADER
  9
$ACADVER
  1
AC1015
  9
$DWGCODEPAGE
  3
ANSI_932
  9
$HANDSEED
  5
106AB90
  0
ENDSEC
  0
SECTION
  2
CLASSES
  0
CLASS
  1
IMAGEDEF
  2
AcDbRasterImageDef
  3
ISM
  90
0
  91
4
  280
0
  281
0
  0
CLASS
  1
IMAGE
  2
AcDbRasterImage
  3
ISM
  90
127
  91
5
  280
0
  281
1
  0
CLASS
  1
IMAGEDEF_REACTOR
  2
AcDbRasterImageDefReactor
  3
ISM
  90
1
  91
4
  280
0
  281
0
  0
ENDSEC
  0
SECTION
  2
TABLES
  0
TABLE
  2
VPORT
  5
2
  330
0
  100
AcDbSymbolTable
  70
    0
  0
ENDTAB
  0
TABLE
  2
LTYPE
  5
3
  330
0
  100
AcDbSymbolTable
  70
    4
  0
LTYPE
  5
4
  330
3
  100
AcDbSymbolTableRecord
  100
AcDbLinetypeTableRecord
  2
ByBlock
  70
    0
  3

  72
65
  73
    0
  40
0
  0
LTYPE
  5
5
  330
3
  100
AcDbSymbolTableRecord
  100
AcDbLinetypeTableRecord
  2
ByLayer
  70
    0
  3

  72
65
  73
    0
  40
0
  0
LTYPE
  5
6
  330
3
  100
AcDbSymbolTableRecord
  100
AcDbLinetypeTableRecord
  2
CONTINUOUS
  70
    0
  3
Solid Line
  72
65
  73
    0
  40
0
  0
LTYPE
  5
7
  330
3
  100
AcDbSymbolTableRecord
  100
AcDbLinetypeTableRecord
  2
DASH
  70
    0
  3
Hidden
  72
65
  73
2
  40
2.5
  49
1.5
  74
0
  49
-1
  74
0
  0
LTYPE
  5
8
  330
3
  100
AcDbSymbolTableRecord
  100
AcDbLinetypeTableRecord
  2
LONGDASHDASH
  70
    0
  3
__ . __
  72
65
  73
    4
  40
7
  49
4
  74
    0
  49
-1
  74
    0
  49
1
  74
    0
  49
-1
  74
    0
  0
ENDTAB
  0
TABLE
  2
LAYER
  5
9
  330
0
  100
AcDbSymbolTable
  70
    40
  0
LAYER
  5
a
  330
9
  100
AcDbSymbolTableRecord
  100
AcDbLayerTableRecord
  2
0
  70
    0
  62
    0
  6
CONTINUOUS
  390
0
  0
LAYER
  5
c
  330
9
  100
AcDbSymbolTableRecord
  100
AcDbLayerTableRecord
  2
1
  70
    0
  62
    4
  6
CONTINUOUS
  370
50
  390
0
  0
LAYER
  5
d
  330
9
  100
AcDbSymbolTableRecord
  100
AcDbLayerTableRecord
  2
2
  70
    0
  62
    7
  6
CONTINUOUS
  370
25
  390
0
  0
LAYER
  5
f
  330
9
  100
AcDbSymbolTableRecord
  100
AcDbLayerTableRecord
  2
4
  70
    0
  62
    2
  6
LONGDASHDASH
  370
25
  390
0
  0
LAYER
  5
13
  330
9
  100
AcDbSymbolTableRecord
  100
AcDbLayerTableRecord
  2
SK1
  70
    0
  62
    4
  6
CONTINUOUS
  370
50
  390
0
  0
LAYER
  5
14
  330
9
  100
AcDbSymbolTableRecord
  100
AcDbLayerTableRecord
  2
SK2
  70
    0
  62
    7
  6
CONTINUOUS
  370
25
  390
0
  0
LAYER
  5
16
  330
9
  100
AcDbSymbolTableRecord
  100
AcDbLayerTableRecord
  2
SK4
  70
    0
  62
    2
  6
LONGDASHDASH
  370
25
  390
0
  0
LAYER
  5
21
  330
9
  100
AcDbSymbolTableRecord
  100
AcDbLayerTableRecord
  2
NOCUT
  70
    0
  62
    7
  6
CONTINUOUS
  370
25
  390
0
  0
LAYER
  5
22
  330
9
  100
AcDbSymbolTableRecord
  100
AcDbLayerTableRecord
  2
CUT
  70
    0
  62
    1
  6
CONTINUOUS
  370
25
  390
0
  0
LAYER
  5
26
  330
9
  100
AcDbSymbolTableRecord
  100
AcDbLayerTableRecord
  2
INFTOTAL
  70
    0
  62
    9
  6
CONTINUOUS
  370
18
  390
0
  0
ENDTAB
  0
TABLE
  2
STYLE
  5
27
  330
0
  100
AcDbSymbolTable
  70
    1
  0
STYLE
  5
28
  330
27
  100
AcDbSymbolTableRecord
  100
AcDbTextStyleTableRecord
  2
Monospac821 BT
  70
    0
  40
    3.5
  41
1
  50
0
  71
0
  42
3
  3

  4

  1001
ACAD
  1000
Monospac821 BT
  1071
256
  0
ENDTAB
  0
TABLE
  2
VIEW
  5
29
  330
0
  100
AcDbSymbolTable
  70
    0
  0
ENDTAB
  0
TABLE
  2
UCS
  5
2a
  330
0
  100
AcDbSymbolTable
  70
    0
  0
ENDTAB
  0
TABLE
  2
APPID
  5
2b
  330
0
  100
AcDbSymbolTable
  70
    1
  0
APPID
  5
2c
  330
2b
  100
AcDbSymbolTableRecord
  100
AcDbRegAppTableRecord
  2
ACAD
  70
    0
  0
ENDTAB
  0
TABLE
  2
DIMSTYLE
  5
2d
  330
0
  100
AcDbSymbolTable
  70
    1
  100
AcDbDimStyleTable
  0
DIMSTYLE
  105
2e
  330
2d
  100
AcDbSymbolTableRecord
  100
AcDbDimStyleTableRecord
  2
STANDARD
  70
    0
  41
    3
  42
0.5
  44
1
  73
0
  77
1
  78
1
  140
3.5
  141
2.5
  143
0.03937
  147
0.8
  172
1
  174
1
  178
0
  179
1
  271
2
  279
1
  284
1
  340
28
  0
ENDTAB
  0
TABLE
  2
BLOCK_RECORD
  5
2f
  330
0
  100
AcDbSymbolTable
  70
    2
  0
BLOCK_RECORD
  5
30
  330
2f
  100
AcDbSymbolTableRecord
  100
AcDbBlockTableRecord
  2
*Model_Space
  0
BLOCK_RECORD
  5
31
  330
2f
  100
AcDbSymbolTableRecord
  100
AcDbBlockTableRecord
  2
*Paper_Space
  0
BLOCK_RECORD
  5
14d
  330
2f
  100
AcDbSymbolTableRecord
  100
AcDbBlockTableRecord
  2
*D14c
  340
0
  0
BLOCK_RECORD
  5
15b
  330
2f
  100
AcDbSymbolTableRecord
  100
AcDbBlockTableRecord
  2
*D15a
  340
0
  0
BLOCK_RECORD
  5
169
  330
2f
  100
AcDbSymbolTableRecord
  100
AcDbBlockTableRecord
  2
*D168
  340
0
  0
BLOCK_RECORD
  5
177
  330
2f
  100
AcDbSymbolTableRecord
  100
AcDbBlockTableRecord
  2
*D176
  340
0
  0
BLOCK_RECORD
  5
185
  330
2f
  100
AcDbSymbolTableRecord
  100
AcDbBlockTableRecord
  2
*D184
  340
0
  0
BLOCK_RECORD
  5
18f
  330
2f
  100
AcDbSymbolTableRecord
  100
AcDbBlockTableRecord
  2
*D18e
  340
0
  0
BLOCK_RECORD
  5
19d
  330
2f
  100
AcDbSymbolTableRecord
  100
AcDbBlockTableRecord
  2
*D19c
  340
0
  0
BLOCK_RECORD
  5
1ab
  330
2f
  100
AcDbSymbolTableRecord
  100
AcDbBlockTableRecord
  2
*D1aa
  340
0
  0
BLOCK_RECORD
  5
1b9
  330
2f
  100
AcDbSymbolTableRecord
  100
AcDbBlockTableRecord
  2
*D1b8
  340
0
  0
ENDTAB
  0
ENDSEC
  0
SECTION
  2
BLOCKS
  0
BLOCK
  5
32
  330
30
  100
AcDbEntity
  8
0
  100
AcDbBlockBegin
  2
*Model_Space
  70
    0
  10
0
  20
0
  30
0
  3
*Model_Space
  1

  0
ENDBLK
  5
33
  330
30
  100
AcDbEntity
  8
0
  100
AcDbBlockEnd
  0
BLOCK
  5
34
  330
31
  100
AcDbEntity
  8
0
  100
AcDbBlockBegin
  2
*Paper_Space
  70
    0
  10
0
  20
0
  30
0
  3
*Paper_Space
  1

  0
ENDBLK
  5
35
  330
31
  100
AcDbEntity
  8
0
  100
AcDbBlockEnd
  0
BLOCK
  5
14b
  330
14d
  100
AcDbEntity
  8
SK2
  100
AcDbBlockBegin
  2
*D14c
  70
1
  10
0
  20
0
  30
0
  3
*D14c
  1

  0
LINE
  5
14e
  330
14d
  100
AcDbEntity
  8
SK2
  100
AcDbLine
  10
0
  20
2.3
  30
0
  11
0
  21
20
  31
0
  0
LINE
  5
14f
  330
14d
  100
AcDbEntity
  8
SK2
  100
AcDbLine
  10
50
  20
-15
  30
0
  11
50
  21
20
  31
0
  0
LINE
  5
150
  330
14d
  100
AcDbEntity
  8
SK2
  100
AcDbLine
  10
0
  20
18
  30
0
  11
50
  21
18
  31
0
  0
SOLID
  5
151
  330
14d
  100
AcDbEntity
  8
SK2
  100
AcDbTrace
  10
0
  20
18
  30
0
  11
2.478612
  21
18.326315
  31
0
  12
2.478612
  22
17.673685
  32
0
  13
2.478612
  23
17.673685
  33
0
  0
SOLID
  5
152
  330
14d
  100
AcDbEntity
  8
SK2
  100
AcDbTrace
  10
50
  20
18
  30
0
  11
47.521388
  21
17.673685
  31
0
  12
47.521388
  22
18.326315
  32
0
  13
47.521388
  23
18.326315
  33
0
  0
MTEXT
  5
153
  330
14d
  100
AcDbEntity
  8
SK2
  100
AcDbMText
  10
25
  20
18
  30
0
  11
1
  21
0
  31
0
  40
2
  41
0
  71
8
  72
1
  1
50
  0
POINT
  5
154
  330
14d
  100
AcDbEntity
  8
SK2
  62
0
  100
AcDbPoint
  10
0
  20
2.3
  30
0
  0
POINT
  5
155
  330
14d
  100
AcDbEntity
  8
SK2
  62
0
  100
AcDbPoint
  10
50
  20
-15
  30
0
  0
POINT
  5
156
  330
14d
  100
AcDbEntity
  8
SK2
  62
0
  100
AcDbPoint
  10
50
  20
18
  30
0
  0
ENDBLK
  5
157
  330
14d
  100
AcDbEntity
  8
SK2
  100
AcDbBlockEnd
  0
BLOCK
  5
159
  330
15b
  100
AcDbEntity
  8
SK2
  100
AcDbBlockBegin
  2
*D15a
  70
1
  10
0
  20
0
  30
0
  3
*D15a
  1

  0
LINE
  5
15c
  330
15b
  100
AcDbEntity
  8
SK2
  100
AcDbLine
  10
38
  20
3
  30
0
  11
38
  21
15
  31
0
  0
LINE
  5
15d
  330
15b
  100
AcDbEntity
  8
SK2
  100
AcDbLine
  10
0
  20
2.3
  30
0
  11
0
  21
20
  31
0
  0
LINE
  5
15e
  330
15b
  100
AcDbEntity
  8
SK2
  100
AcDbLine
  10
38
  20
13
  30
0
  11
0
  21
13
  31
0
  0
SOLID
  5
15f
  330
15b
  100
AcDbEntity
  8
SK2
  100
AcDbTrace
  10
38
  20
13
  30
0
  11
40.478612
  21
13.326315
  31
0
  12
40.478612
  22
12.673685
  32
0
  13
40.478612
  23
12.673685
  33
0
  0
SOLID
  5
160
  330
15b
  100
AcDbEntity
  8
SK2
  100
AcDbTrace
  10
0
  20
13
  30
0
  11
-2.478612
  21
12.673685
  31
0
  12
-2.478612
  22
13.326315
  32
0
  13
-2.478612
  23
13.326315
  33
0
  0
MTEXT
  5
161
  330
15b
  100
AcDbEntity
  8
SK2
  100
AcDbMText
  10
19
  20
13
  30
0
  11
1
  21
-0
  31
0
  40
2
  41
0
  71
8
  72
1
  1
38
  0
POINT
  5
162
  330
15b
  100
AcDbEntity
  8
SK2
  62
0
  100
AcDbPoint
  10
38
  20
3
  30
0
  0
POINT
  5
163
  330
15b
  100
AcDbEntity
  8
SK2
  62
0
  100
AcDbPoint
  10
0
  20
2.3
  30
0
  0
POINT
  5
164
  330
15b
  100
AcDbEntity
  8
SK2
  62
0
  100
AcDbPoint
  10
0
  20
13
  30
0
  0
ENDBLK
  5
165
  330
15b
  100
AcDbEntity
  8
SK2
  100
AcDbBlockEnd
  0
BLOCK
  5
167
  330
169
  100
AcDbEntity
  8
SK2
  100
AcDbBlockBegin
  2
*D168
  70
1
  10
0
  20
0
  30
0
  3
*D168
  1

  0
LINE
  5
16a
  330
169
  100
AcDbEntity
  8
SK2
  100
AcDbLine
  10
0.7
  20
-3
  30
0
  11
-12
  21
-3
  31
0
  0
LINE
  5
16b
  330
169
  100
AcDbEntity
  8
SK2
  100
AcDbLine
  10
0.7
  20
3
  30
0
  11
-12
  21
3
  31
0
  0
LINE
  5
16c
  330
169
  100
AcDbEntity
  8
SK2
  100
AcDbLine
  10
-10
  20
-3
  30
0
  11
-10
  21
3
  31
0
  0
SOLID
  5
16d
  330
169
  100
AcDbEntity
  8
SK2
  100
AcDbTrace
  10
-10
  20
-3
  30
0
  11
-10.326315
  21
-0.521388
  31
0
  12
-9.673685
  22
-0.521388
  32
0
  13
-9.673685
  23
-0.521388
  33
0
  0
SOLID
  5
16e
  330
169
  100
AcDbEntity
  8
SK2
  100
AcDbTrace
  10
-10
  20
3
  30
0
  11
-9.673685
  21
0.521388
  31
0
  12
-10.326315
  22
0.521388
  32
0
  13
-10.326315
  23
0.521388
  33
0
  0
MTEXT
  5
16f
  330
169
  100
AcDbEntity
  8
SK2
  100
AcDbMText
  10
-10
  20
0
  30
0
  11
0
  21
1
  31
0
  40
2
  41
0
  71
8
  72
1
  1
ﾘ6
  0
POINT
  5
170
  330
169
  100
AcDbEntity
  8
SK2
  62
0
  100
AcDbPoint
  10
0.7
  20
-3
  30
0
  0
POINT
  5
171
  330
169
  100
AcDbEntity
  8
SK2
  62
0
  100
AcDbPoint
  10
0.7
  20
3
  30
0
  0
POINT
  5
172
  330
169
  100
AcDbEntity
  8
SK2
  62
0
  100
AcDbPoint
  10
-10
  20
3
  30
0
  0
ENDBLK
  5
173
  330
169
  100
AcDbEntity
  8
SK2
  100
AcDbBlockEnd
  0
BLOCK
  5
175
  330
177
  100
AcDbEntity
  8
2
  100
AcDbBlockBegin
  2
*D176
  70
1
  10
0
  20
0
  30
0
  3
*D176
  1

  0
LINE
  5
178
  330
177
  100
AcDbEntity
  8
2
  100
AcDbLine
  10
48.5
  20
-1.5
  30
0
  11
62
  21
-1.5
  31
0
  0
LINE
  5
179
  330
177
  100
AcDbEntity
  8
2
  100
AcDbLine
  10
48.5
  20
1.5
  30
0
  11
62
  21
1.5
  31
0
  0
LINE
  5
17a
  330
177
  100
AcDbEntity
  8
2
  100
AcDbLine
  10
60
  20
-3.962264
  30
0
  11
60
  21
1.5
  31
0
  0
SOLID
  5
17b
  330
177
  100
AcDbEntity
  8
2
  100
AcDbTrace
  10
60
  20
-1.5
  30
0
  11
59.673685
  21
0.978612
  31
0
  12
60.326315
  22
0.978612
  32
0
  13
60.326315
  23
0.978612
  33
0
  0
SOLID
  5
17c
  330
177
  100
AcDbEntity
  8
2
  100
AcDbTrace
  10
60
  20
1.5
  30
0
  11
60.326315
  21
-0.978612
  31
0
  12
59.673685
  22
-0.978612
  32
0
  13
59.673685
  23
-0.978612
  33
0
  0
MTEXT
  5
17d
  330
177
  100
AcDbEntity
  8
2
  100
AcDbMText
  10
60
  20
0
  30
0
  11
0
  21
1
  31
0
  40
2
  41
0
  71
8
  72
1
  1
ﾘ3
  0
POINT
  5
17e
  330
177
  100
AcDbEntity
  8
2
  62
0
  100
AcDbPoint
  10
48.5
  20
-1.5
  30
0
  0
POINT
  5
17f
  330
177
  100
AcDbEntity
  8
2
  62
0
  100
AcDbPoint
  10
48.5
  20
1.5
  30
0
  0
POINT
  5
180
  330
177
  100
AcDbEntity
  8
2
  62
0
  100
AcDbPoint
  10
60
  20
1.5
  30
0
  0
ENDBLK
  5
181
  330
177
  100
AcDbEntity
  8
2
  100
AcDbBlockEnd
  0
BLOCK
  5
183
  330
185
  100
AcDbEntity
  8
2
  100
AcDbBlockBegin
  2
*D184
  70
1
  10
0
  20
0
  30
0
  3
*D184
  1

  0
LINE
  5
186
  330
185
  100
AcDbEntity
  8
2
  100
AcDbLine
  10
49.56066
  20
1.06066
  30
0
  11
40.31066
  21
10.31066
  31
0
  0
MTEXT
  5
187
  330
185
  100
AcDbEntity
  8
2
  100
AcDbMText
  10
42.489592
  20
8.131728
  30
0
  11
0.707107
  21
-0.707107
  31
0
  40
2
  41
0
  71
8
  72
1
  1
R1.5
  0
SOLID
  5
188
  330
185
  100
AcDbEntity
  8
2
  100
AcDbTrace
  10
49.56066
  20
1.06066
  30
0
  11
47.577277
  21
2.582564
  31
0
  12
48.038757
  22
3.044044
  32
0
  13
48.038757
  23
3.044044
  33
0
  0
POINT
  5
189
  330
185
  100
AcDbEntity
  8
2
  62
0
  100
AcDbPoint
  10
49.56066
  20
1.06066
  30
0
  0
POINT
  5
18a
  330
185
  100
AcDbEntity
  8
2
  62
0
  100
AcDbPoint
  10
48.5
  20
0
  30
0
  0
ENDBLK
  5
18b
  330
185
  100
AcDbEntity
  8
2
  100
AcDbBlockEnd
  0
BLOCK
  5
18d
  330
18f
  100
AcDbEntity
  8
2
  100
AcDbBlockBegin
  2
*D18e
  70
1
  10
0
  20
0
  30
0
  3
*D18e
  1

  0
LINE
  5
190
  330
18f
  100
AcDbEntity
  8
2
  100
AcDbLine
  10
46.8
  20
-1.425
  30
0
  11
44.8
  21
-1.425
  31
0
  0
LINE
  5
191
  330
18f
  100
AcDbEntity
  8
2
  100
AcDbLine
  10
46.8
  20
1.425
  30
0
  11
44.8
  21
1.425
  31
0
  0
LINE
  5
192
  330
18f
  100
AcDbEntity
  8
2
  100
AcDbLine
  10
46.8
  20
-9.90566
  30
0
  11
46.8
  21
1.425
  31
0
  0
SOLID
  5
193
  330
18f
  100
AcDbEntity
  8
2
  100
AcDbTrace
  10
46.8
  20
-1.425
  30
0
  11
46.473685
  21
1.053612
  31
0
  12
47.126315
  22
1.053612
  32
0
  13
47.126315
  23
1.053612
  33
0
  0
SOLID
  5
194
  330
18f
  100
AcDbEntity
  8
2
  100
AcDbTrace
  10
46.8
  20
1.425
  30
0
  11
47.126315
  21
-1.053612
  31
0
  12
46.473685
  22
-1.053612
  32
0
  13
46.473685
  23
-1.053612
  33
0
  0
MTEXT
  5
195
  330
18f
  100
AcDbEntity
  8
2
  100
AcDbMText
  10
46.8
  20
-1.425
  30
0
  11
0
  21
1
  31
0
  40
2
  41
0
  71
8
  72
1
  1
ﾘ2.85
  0
POINT
  5
196
  330
18f
  100
AcDbEntity
  8
2
  62
0
  100
AcDbPoint
  10
44.8
  20
-1.425
  30
0
  0
POINT
  5
197
  330
18f
  100
AcDbEntity
  8
2
  62
0
  100
AcDbPoint
  10
44.8
  20
1.425
  30
0
  0
POINT
  5
198
  330
18f
  100
AcDbEntity
  8
2
  62
0
  100
AcDbPoint
  10
46.8
  20
1.425
  30
0
  0
ENDBLK
  5
199
  330
18f
  100
AcDbEntity
  8
2
  100
AcDbBlockEnd
  0
BLOCK
  5
19b
  330
19d
  100
AcDbEntity
  8
2
  100
AcDbBlockBegin
  2
*D19c
  70
1
  10
0
  20
0
  30
0
  3
*D19c
  1

  0
LINE
  5
19e
  330
19d
  100
AcDbEntity
  8
2
  100
AcDbLine
  10
46.8
  20
1.425
  30
0
  11
46.8
  21
9
  31
0
  0
LINE
  5
19f
  330
19d
  100
AcDbEntity
  8
2
  100
AcDbLine
  10
44.43
  20
1.425
  30
0
  11
44.43
  21
9
  31
0
  0
LINE
  5
1a0
  330
19d
  100
AcDbEntity
  8
2
  100
AcDbLine
  10
46.8
  20
7
  30
0
  11
39.622642
  21
7
  31
0
  0
SOLID
  5
1a1
  330
19d
  100
AcDbEntity
  8
2
  100
AcDbTrace
  10
46.8
  20
7
  30
0
  11
49.278612
  21
7.326315
  31
0
  12
49.278612
  22
6.673685
  32
0
  13
49.278612
  23
6.673685
  33
0
  0
SOLID
  5
1a2
  330
19d
  100
AcDbEntity
  8
2
  100
AcDbTrace
  10
44.43
  20
7
  30
0
  11
41.951388
  21
6.673685
  31
0
  12
41.951388
  22
7.326315
  32
0
  13
41.951388
  23
7.326315
  33
0
  0
MTEXT
  5
1a3
  330
19d
  100
AcDbEntity
  8
2
  100
AcDbMText
  10
45.584884
  20
7
  30
0
  11
1
  21
-0
  31
0
  40
2
  41
0
  71
8
  72
1
  1
2.37
  0
POINT
  5
1a4
  330
19d
  100
AcDbEntity
  8
2
  62
0
  100
AcDbPoint
  10
46.8
  20
1.425
  30
0
  0
POINT
  5
1a5
  330
19d
  100
AcDbEntity
  8
2
  62
0
  100
AcDbPoint
  10
44.43
  20
1.425
  30
0
  0
POINT
  5
1a6
  330
19d
  100
AcDbEntity
  8
2
  62
0
  100
AcDbPoint
  10
39.622642
  20
7
  30
0
  0
ENDBLK
  5
1a7
  330
19d
  100
AcDbEntity
  8
2
  100
AcDbBlockEnd
  0
BLOCK
  5
1a9
  330
1ab
  100
AcDbEntity
  8
2
  100
AcDbBlockBegin
  2
*D1aa
  70
1
  10
0
  20
0
  30
0
  3
*D1aa
  1

  0
LINE
  5
1ac
  330
1ab
  100
AcDbEntity
  8
2
  100
AcDbLine
  10
50
  20
-15
  30
0
  11
50
  21
20
  31
0
  0
LINE
  5
1ad
  330
1ab
  100
AcDbEntity
  8
2
  100
AcDbLine
  10
38
  20
3
  30
0
  11
38
  21
10
  31
0
  0
LINE
  5
1ae
  330
1ab
  100
AcDbEntity
  8
2
  100
AcDbLine
  10
50
  20
8
  30
0
  11
38
  21
8
  31
0
  0
SOLID
  5
1af
  330
1ab
  100
AcDbEntity
  8
2
  100
AcDbTrace
  10
50
  20
8
  30
0
  11
52.478612
  21
8.326315
  31
0
  12
52.478612
  22
7.673685
  32
0
  13
52.478612
  23
7.673685
  33
0
  0
SOLID
  5
1b0
  330
1ab
  100
AcDbEntity
  8
2
  100
AcDbTrace
  10
38
  20
8
  30
0
  11
35.521388
  21
7.673685
  31
0
  12
35.521388
  22
8.326315
  32
0
  13
35.521388
  23
8.326315
  33
0
  0
MTEXT
  5
1b1
  330
1ab
  100
AcDbEntity
  8
2
  100
AcDbMText
  10
44
  20
8
  30
0
  11
1
  21
-0
  31
0
  40
2
  41
0
  71
8
  72
1
  1
12
  0
POINT
  5
1b2
  330
1ab
  100
AcDbEntity
  8
2
  62
0
  100
AcDbPoint
  10
50
  20
-15
  30
0
  0
POINT
  5
1b3
  330
1ab
  100
AcDbEntity
  8
2
  62
0
  100
AcDbPoint
  10
38
  20
3
  30
0
  0
POINT
  5
1b4
  330
1ab
  100
AcDbEntity
  8
2
  62
0
  100
AcDbPoint
  10
38
  20
8
  30
0
  0
ENDBLK
  5
1b5
  330
1ab
  100
AcDbEntity
  8
2
  100
AcDbBlockEnd
  0
BLOCK
  5
1b7
  330
1b9
  100
AcDbEntity
  8
2
  100
AcDbBlockBegin
  2
*D1b8
  70
1
  10
0
  20
0
  30
0
  3
*D1b8
  1

  0
LINE
  5
1ba
  330
1b9
  100
AcDbEntity
  8
2
  100
AcDbLine
  10
46.8
  20
-1.425
  30
0
  11
46.8
  21
-15
  31
0
  0
LINE
  5
1bb
  330
1b9
  100
AcDbEntity
  8
2
  100
AcDbLine
  10
50
  20
-15
  30
0
  11
50
  21
20
  31
0
  0
LINE
  5
1bc
  330
1b9
  100
AcDbEntity
  8
2
  100
AcDbLine
  10
44.150943
  20
-13
  30
0
  11
50
  21
-13
  31
0
  0
SOLID
  5
1bd
  330
1b9
  100
AcDbEntity
  8
2
  100
AcDbTrace
  10
46.8
  20
-13
  30
0
  11
49.278612
  21
-12.673685
  31
0
  12
49.278612
  22
-13.326315
  32
0
  13
49.278612
  23
-13.326315
  33
0
  0
SOLID
  5
1be
  330
1b9
  100
AcDbEntity
  8
2
  100
AcDbTrace
  10
50
  20
-13
  30
0
  11
47.521388
  21
-13.326315
  31
0
  12
47.521388
  22
-12.673685
  32
0
  13
47.521388
  23
-12.673685
  33
0
  0
MTEXT
  5
1bf
  330
1b9
  100
AcDbEntity
  8
2
  100
AcDbMText
  10
48.4
  20
-13
  30
0
  11
1
  21
0
  31
0
  40
2
  41
0
  71
8
  72
1
  1
3.2
  0
POINT
  5
1c0
  330
1b9
  100
AcDbEntity
  8
2
  62
0
  100
AcDbPoint
  10
46.8
  20
-1.425
  30
0
  0
POINT
  5
1c1
  330
1b9
  100
AcDbEntity
  8
2
  62
0
  100
AcDbPoint
  10
50
  20
20
  30
0
  0
POINT
  5
1c2
  330
1b9
  100
AcDbEntity
  8
2
  62
0
  100
AcDbPoint
  10
50
  20
-13
  30
0
  0
ENDBLK
  5
1c3
  330
1b9
  100
AcDbEntity
  8
2
  100
AcDbBlockEnd
  0
ENDSEC
  0
SECTION
  2
ENTITIES
  0
DIMENSION
  5
158
  100
AcDbEntity
  8
SK2
  100
AcDbDimension
  2
*D14c
  10
50
  20
18
  30
0
  11
25
  21
18
  31
0
  70
160
  1
<>
  71
5
  3
STANDARD
  42
50
  100
AcDbAlignedDimension
  13
0
  23
2.3
  33
0
  14
50
  24
-15
  34
0
  50
0
  100
AcDbRotatedDimension
  0
DIMENSION
  5
166
  100
AcDbEntity
  8
SK2
  100
AcDbDimension
  2
*D15a
  10
0
  20
13
  30
0
  11
19
  21
13
  31
0
  70
160
  1
<>
  71
5
  3
STANDARD
  42
38
  100
AcDbAlignedDimension
  13
38
  23
3
  33
0
  14
0
  24
2.3
  34
0
  50
0
  100
AcDbRotatedDimension
  0
DIMENSION
  5
174
  100
AcDbEntity
  8
SK2
  100
AcDbDimension
  2
*D168
  10
-10
  20
3
  30
0
  11
-10
  21
0
  31
0
  70
160
  1
%%c<>
  71
5
  3
STANDARD
  42
6
  100
AcDbAlignedDimension
  13
0.7
  23
-3
  33
0
  14
0.7
  24
3
  34
0
  50
-90
  100
AcDbRotatedDimension
  0
DIMENSION
  5
182
  100
AcDbEntity
  8
2
  100
AcDbDimension
  2
*D176
  10
60
  20
1.5
  30
0
  11
60
  21
0
  31
0
  70
160
  1
%%c<>
  71
5
  3
STANDARD
  42
3
  100
AcDbAlignedDimension
  13
48.5
  23
-1.5
  33
0
  14
48.5
  24
1.5
  34
0
  50
-90
  100
AcDbRotatedDimension
  0
DIMENSION
  5
18c
  100
AcDbEntity
  8
2
  100
AcDbDimension
  2
*D184
  10
48.5
  20
0
  30
0
  11
42.489592
  21
8.131728
  31
0
  70
164
  1
R1.5
  71
5
  3
STANDARD
  100
AcDbRadialDimension
  15
49.56066
  25
1.06066
  35
0
  50
-45
  0
DIMENSION
  5
19a
  100
AcDbEntity
  8
2
  100
AcDbDimension
  2
*D18e
  10
46.8
  20
1.425
  30
0
  11
46.8
  21
-1.425
  31
0
  70
160
  1
%%c<>
  71
5
  3
STANDARD
  42
2.85
  100
AcDbAlignedDimension
  13
44.8
  23
-1.425
  33
0
  14
44.8
  24
1.425
  34
0
  50
-90
  100
AcDbRotatedDimension
  0
DIMENSION
  5
1a8
  100
AcDbEntity
  8
2
  100
AcDbDimension
  2
*D19c
  10
39.622642
  20
7
  30
0
  11
45.584884
  21
7
  31
0
  70
160
  1
<>
  71
5
  3
STANDARD
  42
2.37
  100
AcDbAlignedDimension
  13
46.8
  23
1.425
  33
0
  14
44.43
  24
1.425
  34
0
  50
0
  100
AcDbRotatedDimension
  0
DIMENSION
  5
1b6
  100
AcDbEntity
  8
2
  100
AcDbDimension
  2
*D1aa
  10
38
  20
8
  30
0
  11
44
  21
8
  31
0
  70
160
  1
<>
  71
5
  3
STANDARD
  42
12
  100
AcDbAlignedDimension
  13
50
  23
-15
  33
0
  14
38
  24
3
  34
0
  50
0
  100
AcDbRotatedDimension
  0
DIMENSION
  5
1c4
  100
AcDbEntity
  8
2
  100
AcDbDimension
  2
*D1b8
  10
50
  20
-13
  30
0
  11
48.4
  21
-13
  31
0
  70
160
  1
<>
  71
5
  3
STANDARD
  42
3.2
  100
AcDbAlignedDimension
  13
46.8
  23
-1.425
  33
0
  14
50
  24
20
  34
0
  50
0
  100
AcDbRotatedDimension
  0
ARC
  5
36
  100
AcDbEntity
  8
1
  100
AcDbCircle
  10
44.517156
  20
-2.421195
  30
0
  40
1
  100
AcDbArc
  50
95
  51
105
  0
LINE
  5
37
  100
AcDbEntity
  8
1
  100
AcDbLine
  10
44.43
  20
-1.425
  30
0
  11
46.8
  21
-1.425
  31
0
  0
LINE
  5
38
  100
AcDbEntity
  8
1
  100
AcDbLine
  10
46.8
  20
-1.425
  30
0
  11
46.8
  21
-1.5
  31
0
  0
LINE
  5
39
  100
AcDbEntity
  8
1
  100
AcDbLine
  10
46.8
  20
-1.5
  30
0
  11
48.5
  21
-1.5
  31
0
  0
ARC
  5
3a
  100
AcDbEntity
  8
1
  100
AcDbCircle
  10
48.5
  20
0
  30
0
  40
1.5
  100
AcDbArc
  50
270
  51
0
  0
ARC
  5
3b
  100
AcDbEntity
  8
1
  100
AcDbCircle
  10
48.5
  20
0
  30
0
  40
1.5
  100
AcDbArc
  50
0
  51
90
  0
LINE
  5
3c
  100
AcDbEntity
  8
1
  100
AcDbLine
  10
48.5
  20
1.5
  30
0
  11
46.8
  21
1.5
  31
0
  0
LINE
  5
3d
  100
AcDbEntity
  8
1
  100
AcDbLine
  10
46.8
  20
1.5
  30
0
  11
46.8
  21
1.425
  31
0
  0
LINE
  5
3e
  100
AcDbEntity
  8
1
  100
AcDbLine
  10
46.8
  20
1.425
  30
0
  11
44.43
  21
1.425
  31
0
  0
ARC
  5
3f
  100
AcDbEntity
  8
1
  100
AcDbCircle
  10
44.517156
  20
2.421195
  30
0
  40
1
  100
AcDbArc
  50
255
  51
265
  0
LINE
  5
40
  100
AcDbEntity
  8
1
  100
AcDbLine
  10
44.258337
  20
1.455269
  30
0
  11
38.493322
  21
3
  31
0
  0
LINE
  5
41
  100
AcDbEntity
  8
1
  100
AcDbLine
  10
38.493322
  20
3
  30
0
  11
38
  21
3
  31
0
  0
LINE
  5
42
  100
AcDbEntity
  8
1
  100
AcDbLine
  10
38
  20
3
  30
0
  11
38
  21
-3
  31
0
  0
LINE
  5
43
  100
AcDbEntity
  8
1
  100
AcDbLine
  10
38
  20
-3
  30
0
  11
38.493322
  21
-3
  31
0
  0
LINE
  5
44
  100
AcDbEntity
  8
1
  100
AcDbLine
  10
38.493322
  20
-3
  30
0
  11
44.258337
  21
-1.455269
  31
0
  0
LINE
  5
45
  100
AcDbEntity
  8
1
  100
AcDbLine
  10
38
  20
-3
  30
0
  11
38
  21
3
  31
0
  0
LINE
  5
46
  100
AcDbEntity
  8
1
  100
AcDbLine
  10
38
  20
3
  30
0
  11
38
  21
-3
  31
0
  0
LINE
  5
47
  100
AcDbEntity
  8
1
  100
AcDbLine
  10
38.493322
  20
3
  30
0
  11
38.493322
  21
-3
  31
0
  0
LINE
  5
48
  100
AcDbEntity
  8
1
  100
AcDbLine
  10
44.258337
  20
-1.455269
  30
0
  11
44.258337
  21
1.455269
  31
0
  0
LINE
  5
49
  100
AcDbEntity
  8
1
  100
AcDbLine
  10
44.43
  20
1.425
  30
0
  11
44.43
  21
-1.425
  31
0
  0
LINE
  5
4a
  100
AcDbEntity
  8
1
  100
AcDbLine
  10
46.8
  20
-1.425
  30
0
  11
46.8
  21
1.425
  31
0
  0
LINE
  5
4b
  100
AcDbEntity
  8
1
  100
AcDbLine
  10
46.8
  20
1.5
  30
0
  11
46.8
  21
-1.5
  31
0
  0
LINE
  5
4c
  100
AcDbEntity
  8
1
  100
AcDbLine
  10
46.8
  20
-1.388544
  30
0
  11
46.8
  21
-1.464081
  31
0
  0
LINE
  5
4d
  100
AcDbEntity
  8
1
  100
AcDbLine
  10
46.8
  20
-1.464081
  30
0
  11
46.9
  21
-1.480034
  31
0
  0
LINE
  5
4e
  100
AcDbEntity
  8
1
  100
AcDbLine
  10
46.9
  20
-1.480034
  30
0
  11
47
  21
-1.491357
  31
0
  0
LINE
  5
4f
  100
AcDbEntity
  8
1
  100
AcDbLine
  10
47
  20
-1.491357
  30
0
  11
47.1
  21
-1.498014
  31
0
  0
LINE
  5
50
  100
AcDbEntity
  8
1
  100
AcDbLine
  10
47.1
  20
-1.498014
  30
0
  11
47.191994
  21
-1.5
  31
0
  0
LINE
  5
51
  100
AcDbEntity
  8
1
  100
AcDbLine
  10
47.370554
  20
-1.5
  30
0
  11
47.3
  21
-1.480183
  31
0
  0
LINE
  5
52
  100
AcDbEntity
  8
1
  100
AcDbLine
  10
47.3
  20
-1.480183
  30
0
  11
47.2
  21
-1.474599
  31
0
  0
LINE
  5
53
  100
AcDbEntity
  8
1
  100
AcDbLine
  10
47.2
  20
-1.474599
  30
0
  11
47.1
  21
-1.464403
  31
0
  0
LINE
  5
54
  100
AcDbEntity
  8
1
  100
AcDbLine
  10
47.1
  20
-1.464403
  30
0
  11
47
  21
-1.449624
  31
0
  0
LINE
  5
55
  100
AcDbEntity
  8
1
  100
AcDbLine
  10
47
  20
-1.449624
  30
0
  11
46.9
  21
-1.430311
  31
0
  0
LINE
  5
56
  100
AcDbEntity
  8
1
  100
AcDbLine
  10
46.9
  20
-1.430311
  30
0
  11
46.8
  21
-1.406523
  31
0
  0
LINE
  5
57
  100
AcDbEntity
  8
1
  100
AcDbLine
  10
46.8
  20
-1.406523
  30
0
  11
46.8
  21
-1.329964
  31
0
  0
LINE
  5
58
  100
AcDbEntity
  8
1
  100
AcDbLine
  10
46.8
  20
-1.204228
  30
0
  11
46.8
  21
-1.291593
  31
0
  0
LINE
  5
59
  100
AcDbEntity
  8
1
  100
AcDbLine
  10
46.8
  20
-1.291593
  30
0
  11
46.9
  21
-1.332218
  31
0
  0
LINE
  5
5a
  100
AcDbEntity
  8
1
  100
AcDbLine
  10
46.9
  20
-1.332218
  30
0
  11
47
  21
-1.368676
  31
0
  0
LINE
  5
5b
  100
AcDbEntity
  8
1
  100
AcDbLine
  10
47
  20
-1.368676
  30
0
  11
47.1
  21
-1.400852
  31
0
  0
LINE
  5
5c
  100
AcDbEntity
  8
1
  100
AcDbLine
  10
47.1
  20
-1.400852
  30
0
  11
47.2
  21
-1.428646
  31
0
  0
LINE
  5
5d
  100
AcDbEntity
  8
1
  100
AcDbLine
  10
47.2
  20
-1.428646
  30
0
  11
47.3
  21
-1.45197
  31
0
  0
LINE
  5
5e
  100
AcDbEntity
  8
1
  100
AcDbLine
  10
47.3
  20
-1.45197
  30
0
  11
47.4
  21
-1.470751
  31
0
  0
LINE
  5
5f
  100
AcDbEntity
  8
1
  100
AcDbLine
  10
47.4
  20
-1.470751
  30
0
  11
47.5
  21
-1.484932
  31
0
  0
LINE
  5
60
  100
AcDbEntity
  8
1
  100
AcDbLine
  10
47.5
  20
-1.484932
  30
0
  11
47.6
  21
-1.494466
  31
0
  0
LINE
  5
61
  100
AcDbEntity
  8
1
  100
AcDbLine
  10
47.6
  20
-1.494466
  30
0
  11
47.7
  21
-1.499326
  31
0
  0
LINE
  5
62
  100
AcDbEntity
  8
1
  100
AcDbLine
  10
47.7
  20
-1.499326
  30
0
  11
47.753596
  21
-1.5
  31
0
  0
LINE
  5
63
  100
AcDbEntity
  8
1
  100
AcDbLine
  10
48.5
  20
-1.5
  30
0
  11
48.5
  21
1.5
  31
0
  0
LINE
  5
64
  100
AcDbEntity
  8
1
  100
AcDbLine
  10
47.753596
  20
1.5
  30
0
  11
47.8
  21
1.499495
  31
0
  0
LINE
  5
65
  100
AcDbEntity
  8
1
  100
AcDbLine
  10
47.8
  20
1.499495
  30
0
  11
47.9
  21
1.494972
  31
0
  0
LINE
  5
66
  100
AcDbEntity
  8
1
  100
AcDbLine
  10
47.9
  20
1.494972
  30
0
  11
48
  21
1.485773
  31
0
  0
LINE
  5
67
  100
AcDbEntity
  8
1
  100
AcDbLine
  10
48
  20
1.485773
  30
0
  11
48.1
  21
1.471926
  31
0
  0
LINE
  5
68
  100
AcDbEntity
  8
1
  100
AcDbLine
  10
48.1
  20
1.471926
  30
0
  11
48.2
  21
1.453473
  31
0
  0
LINE
  5
69
  100
AcDbEntity
  8
1
  100
AcDbLine
  10
48.2
  20
1.453473
  30
0
  11
48.3
  21
1.430474
  31
0
  0
LINE
  5
6a
  100
AcDbEntity
  8
1
  100
AcDbLine
  10
48.3
  20
1.430474
  30
0
  11
48.4
  21
1.402999
  31
0
  0
LINE
  5
6b
  100
AcDbEntity
  8
1
  100
AcDbLine
  10
48.4
  20
1.402999
  30
0
  11
48.5
  21
1.371135
  31
0
  0
LINE
  5
6c
  100
AcDbEntity
  8
1
  100
AcDbLine
  10
48.5
  20
1.371135
  30
0
  11
48.6
  21
1.33289
  31
0
  0
LINE
  5
6d
  100
AcDbEntity
  8
1
  100
AcDbLine
  10
48.6
  20
1.33289
  30
0
  11
48.7
  21
1.286985
  31
0
  0
LINE
  5
6e
  100
AcDbEntity
  8
1
  100
AcDbLine
  10
48.7
  20
1.286985
  30
0
  11
48.8
  21
1.234622
  31
0
  0
LINE
  5
6f
  100
AcDbEntity
  8
1
  100
AcDbLine
  10
48.8
  20
1.234622
  30
0
  11
48.9
  21
1.177054
  31
0
  0
LINE
  5
70
  100
AcDbEntity
  8
1
  100
AcDbLine
  10
48.9
  20
1.177054
  30
0
  11
49
  21
1.115606
  31
0
  0
LINE
  5
71
  100
AcDbEntity
  8
1
  100
AcDbLine
  10
49
  20
1.115606
  30
0
  11
49.1
  21
1.051703
  31
0
  0
LINE
  5
72
  100
AcDbEntity
  8
1
  100
AcDbLine
  10
49.1
  20
1.051703
  30
0
  11
49.2
  21
0.986902
  31
0
  0
LINE
  5
73
  100
AcDbEntity
  8
1
  100
AcDbLine
  10
49.2
  20
0.986902
  30
0
  11
49.3
  21
0.922952
  31
0
  0
LINE
  5
74
  100
AcDbEntity
  8
1
  100
AcDbLine
  10
49.3
  20
0.922952
  30
0
  11
49.4
  21
0.861901
  31
0
  0
LINE
  5
75
  100
AcDbEntity
  8
1
  100
AcDbLine
  10
49.4
  20
0.861901
  30
0
  11
49.5
  21
0.806305
  31
0
  0
LINE
  5
76
  100
AcDbEntity
  8
1
  100
AcDbLine
  10
49.5
  20
0.806305
  30
0
  11
49.6
  21
0.759746
  31
0
  0
LINE
  5
77
  100
AcDbEntity
  8
1
  100
AcDbLine
  10
49.6
  20
0.759746
  30
0
  11
49.7
  21
0.728548
  31
0
  0
LINE
  5
78
  100
AcDbEntity
  8
1
  100
AcDbLine
  10
49.7
  20
0.9
  30
0
  11
49.7
  21
0.728548
  31
0
  0
LINE
  5
79
  100
AcDbEntity
  8
1
  100
AcDbLine
  10
49.7
  20
0.728548
  30
0
  11
49.7
  21
0.9
  31
0
  0
LINE
  5
7a
  100
AcDbEntity
  8
1
  100
AcDbLine
  10
49.7
  20
0.9
  30
0
  11
49.7
  21
0.794193
  31
0
  0
LINE
  5
7b
  100
AcDbEntity
  8
1
  100
AcDbLine
  10
49.7
  20
0.18691
  30
0
  11
49.7
  21
-0.528411
  31
0
  0
LINE
  5
7c
  100
AcDbEntity
  8
1
  100
AcDbLine
  10
49.7
  20
-0.393538
  30
0
  11
49.7
  21
0.326001
  31
0
  0
LINE
  5
7d
  100
AcDbEntity
  8
1
  100
AcDbLine
  10
49.7
  20
0.326001
  30
0
  11
49.6
  21
0.422565
  31
0
  0
LINE
  5
7e
  100
AcDbEntity
  8
1
  100
AcDbLine
  10
49.6
  20
0.422565
  30
0
  11
49.5
  21
0.491527
  31
0
  0
LINE
  5
7f
  100
AcDbEntity
  8
1
  100
AcDbLine
  10
49.5
  20
0.491527
  30
0
  11
49.4
  21
0.563149
  31
0
  0
LINE
  5
80
  100
AcDbEntity
  8
1
  100
AcDbLine
  10
49.4
  20
0.563149
  30
0
  11
49.3
  21
0.638673
  31
0
  0
LINE
  5
81
  100
AcDbEntity
  8
1
  100
AcDbLine
  10
49.3
  20
0.638673
  30
0
  11
49.2
  21
0.716252
  31
0
  0
LINE
  5
82
  100
AcDbEntity
  8
1
  100
AcDbLine
  10
49.2
  20
0.716252
  30
0
  11
49.1
  21
0.794256
  31
0
  0
LINE
  5
83
  100
AcDbEntity
  8
1
  100
AcDbLine
  10
49.1
  20
0.794256
  30
0
  11
49
  21
0.87121
  31
0
  0
LINE
  5
84
  100
AcDbEntity
  8
1
  100
AcDbLine
  10
49
  20
0.87121
  30
0
  11
48.9
  21
0.945751
  31
0
  0
LINE
  5
85
  100
AcDbEntity
  8
1
  100
AcDbLine
  10
48.9
  20
0.945751
  30
0
  11
48.8
  21
1.016607
  31
0
  0
LINE
  5
86
  100
AcDbEntity
  8
1
  100
AcDbLine
  10
48.8
  20
1.016607
  30
0
  11
48.7
  21
1.082581
  31
0
  0
LINE
  5
87
  100
AcDbEntity
  8
1
  100
AcDbLine
  10
48.7
  20
1.082581
  30
0
  11
48.6
  21
1.142534
  31
0
  0
LINE
  5
88
  100
AcDbEntity
  8
1
  100
AcDbLine
  10
48.6
  20
1.142534
  30
0
  11
48.5
  21
1.19538
  31
0
  0
LINE
  5
89
  100
AcDbEntity
  8
1
  100
AcDbLine
  10
48.5
  20
1.19538
  30
0
  11
48.4
  21
1.242426
  31
0
  0
LINE
  5
8a
  100
AcDbEntity
  8
1
  100
AcDbLine
  10
48.4
  20
1.242426
  30
0
  11
48.3
  21
1.285584
  31
0
  0
LINE
  5
8b
  100
AcDbEntity
  8
1
  100
AcDbLine
  10
48.3
  20
1.285584
  30
0
  11
48.2
  21
1.324721
  31
0
  0
LINE
  5
8c
  100
AcDbEntity
  8
1
  100
AcDbLine
  10
48.2
  20
1.324721
  30
0
  11
48.1
  21
1.359714
  31
0
  0
LINE
  5
8d
  100
AcDbEntity
  8
1
  100
AcDbLine
  10
48.1
  20
1.359714
  30
0
  11
48
  21
1.390453
  31
0
  0
LINE
  5
8e
  100
AcDbEntity
  8
1
  100
AcDbLine
  10
48
  20
1.390453
  30
0
  11
47.9
  21
1.416842
  31
0
  0
LINE
  5
8f
  100
AcDbEntity
  8
1
  100
AcDbLine
  10
47.9
  20
1.416842
  30
0
  11
47.8
  21
1.438798
  31
0
  0
LINE
  5
90
  100
AcDbEntity
  8
1
  100
AcDbLine
  10
47.8
  20
1.438798
  30
0
  11
47.7
  21
1.456253
  31
0
  0
LINE
  5
91
  100
AcDbEntity
  8
1
  100
AcDbLine
  10
47.7
  20
1.456253
  30
0
  11
47.6
  21
1.469152
  31
0
  0
LINE
  5
92
  100
AcDbEntity
  8
1
  100
AcDbLine
  10
47.6
  20
1.469152
  30
0
  11
47.5
  21
1.477455
  31
0
  0
LINE
  5
93
  100
AcDbEntity
  8
1
  100
AcDbLine
  10
47.5
  20
1.477455
  30
0
  11
47.4
  21
1.481136
  31
0
  0
LINE
  5
94
  100
AcDbEntity
  8
1
  100
AcDbLine
  10
47.4
  20
1.481136
  30
0
  11
47.370554
  21
1.5
  31
0
  0
LINE
  5
95
  100
AcDbEntity
  8
1
  100
AcDbLine
  10
47.191994
  20
1.5
  30
0
  11
47.2
  21
1.499985
  31
0
  0
LINE
  5
96
  100
AcDbEntity
  8
1
  100
AcDbLine
  10
47.2
  20
1.499985
  30
0
  11
47.3
  21
1.497263
  31
0
  0
LINE
  5
97
  100
AcDbEntity
  8
1
  100
AcDbLine
  10
47.3
  20
1.497263
  30
0
  11
47.4
  21
1.489857
  31
0
  0
LINE
  5
98
  100
AcDbEntity
  8
1
  100
AcDbLine
  10
47.4
  20
1.489857
  30
0
  11
47.5
  21
1.47779
  31
0
  0
LINE
  5
99
  100
AcDbEntity
  8
1
  100
AcDbLine
  10
47.5
  20
1.47779
  30
0
  11
47.6
  21
1.4611
  31
0
  0
LINE
  5
9a
  100
AcDbEntity
  8
1
  100
AcDbLine
  10
47.6
  20
1.4611
  30
0
  11
47.7
  21
1.439839
  31
0
  0
LINE
  5
9b
  100
AcDbEntity
  8
1
  100
AcDbLine
  10
47.7
  20
1.439839
  30
0
  11
47.8
  21
1.414074
  31
0
  0
LINE
  5
9c
  100
AcDbEntity
  8
1
  100
AcDbLine
  10
47.8
  20
1.414074
  30
0
  11
47.9
  21
1.383884
  31
0
  0
LINE
  5
9d
  100
AcDbEntity
  8
1
  100
AcDbLine
  10
47.9
  20
1.383884
  30
0
  11
48
  21
1.349365
  31
0
  0
LINE
  5
9e
  100
AcDbEntity
  8
1
  100
AcDbLine
  10
48
  20
1.349365
  30
0
  11
48.1
  21
1.310625
  31
0
  0
LINE
  5
9f
  100
AcDbEntity
  8
1
  100
AcDbLine
  10
48.1
  20
1.310625
  30
0
  11
48.2
  21
1.267784
  31
0
  0
LINE
  5
a0
  100
AcDbEntity
  8
1
  100
AcDbLine
  10
48.2
  20
1.267784
  30
0
  11
48.3
  21
1.220977
  31
0
  0
LINE
  5
a1
  100
AcDbEntity
  8
1
  100
AcDbLine
  10
48.3
  20
1.220977
  30
0
  11
48.4
  21
1.170351
  31
0
  0
LINE
  5
a2
  100
AcDbEntity
  8
1
  100
AcDbLine
  10
48.4
  20
1.170351
  30
0
  11
48.5
  21
1.116063
  31
0
  0
LINE
  5
a3
  100
AcDbEntity
  8
1
  100
AcDbLine
  10
48.5
  20
1.116063
  30
0
  11
48.6
  21
1.056261
  31
0
  0
LINE
  5
a4
  100
AcDbEntity
  8
1
  100
AcDbLine
  10
48.6
  20
1.056261
  30
0
  11
48.7
  21
0.989695
  31
0
  0
LINE
  5
a5
  100
AcDbEntity
  8
1
  100
AcDbLine
  10
48.7
  20
0.989695
  30
0
  11
48.8
  21
0.917465
  31
0
  0
LINE
  5
a6
  100
AcDbEntity
  8
1
  100
AcDbLine
  10
48.8
  20
0.917465
  30
0
  11
48.9
  21
0.840725
  31
0
  0
LINE
  5
a7
  100
AcDbEntity
  8
1
  100
AcDbLine
  10
48.9
  20
0.840725
  30
0
  11
49
  21
0.760689
  31
0
  0
LINE
  5
a8
  100
AcDbEntity
  8
1
  100
AcDbLine
  10
49
  20
0.760689
  30
0
  11
49.1
  21
0.678647
  31
0
  0
LINE
  5
a9
  100
AcDbEntity
  8
1
  100
AcDbLine
  10
49.1
  20
0.678647
  30
0
  11
49.2
  21
0.595977
  31
0
  0
LINE
  5
aa
  100
AcDbEntity
  8
1
  100
AcDbLine
  10
49.2
  20
0.595977
  30
0
  11
49.3
  21
0.514179
  31
0
  0
LINE
  5
ab
  100
AcDbEntity
  8
1
  100
AcDbLine
  10
49.3
  20
0.514179
  30
0
  11
49.4
  21
0.434911
  31
0
  0
LINE
  5
ac
  100
AcDbEntity
  8
1
  100
AcDbLine
  10
49.4
  20
0.434911
  30
0
  11
49.5
  21
0.360065
  31
0
  0
LINE
  5
ad
  100
AcDbEntity
  8
1
  100
AcDbLine
  10
49.5
  20
0.360065
  30
0
  11
49.6
  21
0.288228
  31
0
  0
LINE
  5
ae
  100
AcDbEntity
  8
1
  100
AcDbLine
  10
49.6
  20
0.288228
  30
0
  11
49.7
  21
0.18691
  31
0
  0
LINE
  5
af
  100
AcDbEntity
  8
1
  100
AcDbLine
  10
49.7
  20
0.18691
  30
0
  11
49.7
  21
-0.528411
  31
0
  0
LINE
  5
b0
  100
AcDbEntity
  8
1
  100
AcDbLine
  10
49.7
  20
-0.528411
  30
0
  11
49.6
  21
-0.680284
  31
0
  0
LINE
  5
b1
  100
AcDbEntity
  8
1
  100
AcDbLine
  10
49.6
  20
-0.680284
  30
0
  11
49.5
  21
-0.774514
  31
0
  0
LINE
  5
b2
  100
AcDbEntity
  8
1
  100
AcDbLine
  10
49.5
  20
-0.774514
  30
0
  11
49.4
  21
-0.834941
  31
0
  0
LINE
  5
b3
  100
AcDbEntity
  8
1
  100
AcDbLine
  10
49.4
  20
-0.834941
  30
0
  11
49.3
  21
-0.870723
  31
0
  0
LINE
  5
b4
  100
AcDbEntity
  8
1
  100
AcDbLine
  10
49.3
  20
-0.870723
  30
0
  11
49.2
  21
-0.88658
  31
0
  0
LINE
  5
b5
  100
AcDbEntity
  8
1
  100
AcDbLine
  10
49.2
  20
-0.88658
  30
0
  11
49.1
  21
-0.885393
  31
0
  0
LINE
  5
b6
  100
AcDbEntity
  8
1
  100
AcDbLine
  10
49.1
  20
-0.885393
  30
0
  11
49
  21
-0.869151
  31
0
  0
LINE
  5
b7
  100
AcDbEntity
  8
1
  100
AcDbLine
  10
49
  20
-0.869151
  30
0
  11
48.9
  21
-0.839372
  31
0
  0
LINE
  5
b8
  100
AcDbEntity
  8
1
  100
AcDbLine
  10
48.9
  20
-0.839372
  30
0
  11
48.8
  21
-0.797313
  31
0
  0
LINE
  5
b9
  100
AcDbEntity
  8
1
  100
AcDbLine
  10
48.8
  20
-0.797313
  30
0
  11
48.7
  21
-0.74409
  31
0
  0
LINE
  5
ba
  100
AcDbEntity
  8
1
  100
AcDbLine
  10
48.7
  20
-0.74409
  30
0
  11
48.6
  21
-0.680739
  31
0
  0
LINE
  5
bb
  100
AcDbEntity
  8
1
  100
AcDbLine
  10
48.6
  20
-0.680739
  30
0
  11
48.5
  21
-0.608266
  31
0
  0
LINE
  5
bc
  100
AcDbEntity
  8
1
  100
AcDbLine
  10
48.5
  20
-0.608266
  30
0
  11
48.4
  21
-0.530653
  31
0
  0
LINE
  5
bd
  100
AcDbEntity
  8
1
  100
AcDbLine
  10
48.4
  20
-0.530653
  30
0
  11
48.3
  21
-0.45138
  31
0
  0
LINE
  5
be
  100
AcDbEntity
  8
1
  100
AcDbLine
  10
48.3
  20
-0.45138
  30
0
  11
48.2
  21
-0.370695
  31
0
  0
LINE
  5
bf
  100
AcDbEntity
  8
1
  100
AcDbLine
  10
48.2
  20
-0.370695
  30
0
  11
48.1
  21
-0.288851
  31
0
  0
LINE
  5
c0
  100
AcDbEntity
  8
1
  100
AcDbLine
  10
48.1
  20
-0.288851
  30
0
  11
48
  21
-0.206102
  31
0
  0
LINE
  5
c1
  100
AcDbEntity
  8
1
  100
AcDbLine
  10
48
  20
-0.206102
  30
0
  11
47.9
  21
-0.122709
  31
0
  0
LINE
  5
c2
  100
AcDbEntity
  8
1
  100
AcDbLine
  10
47.9
  20
-0.122709
  30
0
  11
47.8
  21
-0.038932
  31
0
  0
LINE
  5
c3
  100
AcDbEntity
  8
1
  100
AcDbLine
  10
47.8
  20
-0.038932
  30
0
  11
47.7
  21
0.044967
  31
0
  0
LINE
  5
c4
  100
AcDbEntity
  8
1
  100
AcDbLine
  10
47.7
  20
0.044967
  30
0
  11
47.6
  21
0.128725
  31
0
  0
LINE
  5
c5
  100
AcDbEntity
  8
1
  100
AcDbLine
  10
47.6
  20
0.128725
  30
0
  11
47.5
  21
0.21208
  31
0
  0
LINE
  5
c6
  100
AcDbEntity
  8
1
  100
AcDbLine
  10
47.5
  20
0.21208
  30
0
  11
47.4
  21
0.294772
  31
0
  0
LINE
  5
c7
  100
AcDbEntity
  8
1
  100
AcDbLine
  10
47.4
  20
0.294772
  30
0
  11
47.3
  21
0.376542
  31
0
  0
LINE
  5
c8
  100
AcDbEntity
  8
1
  100
AcDbLine
  10
47.3
  20
0.376542
  30
0
  11
47.2
  21
0.457134
  31
0
  0
LINE
  5
c9
  100
AcDbEntity
  8
1
  100
AcDbLine
  10
47.2
  20
0.457134
  30
0
  11
47.1
  21
0.536296
  31
0
  0
LINE
  5
ca
  100
AcDbEntity
  8
1
  100
AcDbLine
  10
47.1
  20
0.536296
  30
0
  11
47
  21
0.61378
  31
0
  0
LINE
  5
cb
  100
AcDbEntity
  8
1
  100
AcDbLine
  10
47
  20
0.61378
  30
0
  11
46.9
  21
0.689343
  31
0
  0
LINE
  5
cc
  100
AcDbEntity
  8
1
  100
AcDbLine
  10
46.9
  20
0.689343
  30
0
  11
46.8
  21
0.76275
  31
0
  0
LINE
  5
cd
  100
AcDbEntity
  8
1
  100
AcDbLine
  10
46.8
  20
0.76275
  30
0
  11
46.8
  21
0.76188
  31
0
  0
LINE
  5
ce
  100
AcDbEntity
  8
1
  100
AcDbLine
  10
46.8
  20
0.458353
  30
0
  11
46.8
  21
0.464812
  31
0
  0
LINE
  5
cf
  100
AcDbEntity
  8
1
  100
AcDbLine
  10
46.8
  20
0.464812
  30
0
  11
46.9
  21
0.385445
  31
0
  0
LINE
  5
d0
  100
AcDbEntity
  8
1
  100
AcDbLine
  10
46.9
  20
0.385445
  30
0
  11
47
  21
0.304873
  31
0
  0
LINE
  5
d1
  100
AcDbEntity
  8
1
  100
AcDbLine
  10
47
  20
0.304873
  30
0
  11
47.1
  21
0.223346
  31
0
  0
LINE
  5
d2
  100
AcDbEntity
  8
1
  100
AcDbLine
  10
47.1
  20
0.223346
  30
0
  11
47.2
  21
0.141121
  31
0
  0
LINE
  5
d3
  100
AcDbEntity
  8
1
  100
AcDbLine
  10
47.2
  20
0.141121
  30
0
  11
47.3
  21
0.058454
  31
0
  0
LINE
  5
d4
  100
AcDbEntity
  8
1
  100
AcDbLine
  10
47.3
  20
0.058454
  30
0
  11
47.4
  21
-0.024396
  31
0
  0
LINE
  5
d5
  100
AcDbEntity
  8
1
  100
AcDbLine
  10
47.4
  20
-0.024396
  30
0
  11
47.5
  21
-0.107169
  31
0
  0
LINE
  5
d6
  100
AcDbEntity
  8
1
  100
AcDbLine
  10
47.5
  20
-0.107169
  30
0
  11
47.6
  21
-0.189607
  31
0
  0
LINE
  5
d7
  100
AcDbEntity
  8
1
  100
AcDbLine
  10
47.6
  20
-0.189607
  30
0
  11
47.7
  21
-0.271452
  31
0
  0
LINE
  5
d8
  100
AcDbEntity
  8
1
  100
AcDbLine
  10
47.7
  20
-0.271452
  30
0
  11
47.8
  21
-0.352448
  31
0
  0
LINE
  5
d9
  100
AcDbEntity
  8
1
  100
AcDbLine
  10
47.8
  20
-0.352448
  30
0
  11
47.9
  21
-0.432341
  31
0
  0
LINE
  5
da
  100
AcDbEntity
  8
1
  100
AcDbLine
  10
47.9
  20
-0.432341
  30
0
  11
48
  21
-0.510881
  31
0
  0
LINE
  5
db
  100
AcDbEntity
  8
1
  100
AcDbLine
  10
48
  20
-0.510881
  30
0
  11
48.1
  21
-0.587823
  31
0
  0
LINE
  5
dc
  100
AcDbEntity
  8
1
  100
AcDbLine
  10
48.1
  20
-0.587823
  30
0
  11
48.2
  21
-0.662926
  31
0
  0
LINE
  5
dd
  100
AcDbEntity
  8
1
  100
AcDbLine
  10
48.2
  20
-0.662926
  30
0
  11
48.3
  21
-0.735956
  31
0
  0
LINE
  5
de
  100
AcDbEntity
  8
1
  100
AcDbLine
  10
48.3
  20
-0.735956
  30
0
  11
48.4
  21
-0.806683
  31
0
  0
LINE
  5
df
  100
AcDbEntity
  8
1
  100
AcDbLine
  10
48.4
  20
-0.806683
  30
0
  11
48.5
  21
-0.874886
  31
0
  0
LINE
  5
e0
  100
AcDbEntity
  8
1
  100
AcDbLine
  10
48.5
  20
-0.874886
  30
0
  11
48.6
  21
-0.937629
  31
0
  0
LINE
  5
e1
  100
AcDbEntity
  8
1
  100
AcDbLine
  10
48.6
  20
-0.937629
  30
0
  11
48.7
  21
-0.991501
  31
0
  0
LINE
  5
e2
  100
AcDbEntity
  8
1
  100
AcDbLine
  10
48.7
  20
-0.991501
  30
0
  11
48.8
  21
-1.03559
  31
0
  0
LINE
  5
e3
  100
AcDbEntity
  8
1
  100
AcDbLine
  10
48.8
  20
-1.03559
  30
0
  11
48.9
  21
-1.068992
  31
0
  0
LINE
  5
e4
  100
AcDbEntity
  8
1
  100
AcDbLine
  10
48.9
  20
-1.068992
  30
0
  11
49
  21
-1.090789
  31
0
  0
LINE
  5
e5
  100
AcDbEntity
  8
1
  100
AcDbLine
  10
49
  20
-1.090789
  30
0
  11
49.1
  21
-1.100018
  31
0
  0
LINE
  5
e6
  100
AcDbEntity
  8
1
  100
AcDbLine
  10
49.1
  20
-1.100018
  30
0
  11
49.2
  21
-1.095615
  31
0
  0
LINE
  5
e7
  100
AcDbEntity
  8
1
  100
AcDbLine
  10
49.2
  20
-1.095615
  30
0
  11
49.3
  21
-1.076335
  31
0
  0
LINE
  5
e8
  100
AcDbEntity
  8
1
  100
AcDbLine
  10
49.3
  20
-1.076335
  30
0
  11
49.4
  21
-1.040601
  31
0
  0
LINE
  5
e9
  100
AcDbEntity
  8
1
  100
AcDbLine
  10
49.4
  20
-1.040601
  30
0
  11
49.5
  21
-0.986234
  31
0
  0
LINE
  5
ea
  100
AcDbEntity
  8
1
  100
AcDbLine
  10
49.5
  20
-0.986234
  30
0
  11
49.6
  21
-0.911489
  31
0
  0
LINE
  5
eb
  100
AcDbEntity
  8
1
  100
AcDbLine
  10
49.6
  20
-0.911489
  30
0
  11
49.7
  21
-0.82422
  31
0
  0
LINE
  5
ec
  100
AcDbEntity
  8
1
  100
AcDbLine
  10
49.7
  20
-0.82422
  30
0
  11
49.7
  21
-0.9
  31
0
  0
LINE
  5
ed
  100
AcDbEntity
  8
1
  100
AcDbLine
  10
49.7
  20
-0.880378
  30
0
  11
49.7
  21
-0.9
  31
0
  0
LINE
  5
ee
  100
AcDbEntity
  8
1
  100
AcDbLine
  10
49.7
  20
-0.9
  30
0
  11
49.7
  21
-0.880378
  31
0
  0
LINE
  5
ef
  100
AcDbEntity
  8
1
  100
AcDbLine
  10
49.7
  20
-0.880378
  30
0
  11
49.6
  21
-0.978225
  31
0
  0
LINE
  5
f0
  100
AcDbEntity
  8
1
  100
AcDbLine
  10
49.6
  20
-0.978225
  30
0
  11
49.5
  21
-1.058467
  31
0
  0
LINE
  5
f1
  100
AcDbEntity
  8
1
  100
AcDbLine
  10
49.5
  20
-1.058467
  30
0
  11
49.4
  21
-1.118415
  31
0
  0
LINE
  5
f2
  100
AcDbEntity
  8
1
  100
AcDbLine
  10
49.4
  20
-1.118415
  30
0
  11
49.3
  21
-1.160008
  31
0
  0
LINE
  5
f3
  100
AcDbEntity
  8
1
  100
AcDbLine
  10
49.3
  20
-1.160008
  30
0
  11
49.2
  21
-1.185247
  31
0
  0
LINE
  5
f4
  100
AcDbEntity
  8
1
  100
AcDbLine
  10
49.2
  20
-1.185247
  30
0
  11
49.1
  21
-1.195591
  31
0
  0
LINE
  5
f5
  100
AcDbEntity
  8
1
  100
AcDbLine
  10
49.1
  20
-1.195591
  30
0
  11
49
  21
-1.192205
  31
0
  0
LINE
  5
f6
  100
AcDbEntity
  8
1
  100
AcDbLine
  10
49
  20
-1.192205
  30
0
  11
48.9
  21
-1.176088
  31
0
  0
LINE
  5
f7
  100
AcDbEntity
  8
1
  100
AcDbLine
  10
48.9
  20
-1.176088
  30
0
  11
48.8
  21
-1.148154
  31
0
  0
LINE
  5
f8
  100
AcDbEntity
  8
1
  100
AcDbLine
  10
48.8
  20
-1.148154
  30
0
  11
48.7
  21
-1.109281
  31
0
  0
LINE
  5
f9
  100
AcDbEntity
  8
1
  100
AcDbLine
  10
48.7
  20
-1.109281
  30
0
  11
48.6
  21
-1.060336
  31
0
  0
LINE
  5
fa
  100
AcDbEntity
  8
1
  100
AcDbLine
  10
48.6
  20
-1.060336
  30
0
  11
48.5
  21
-1.0022
  31
0
  0
LINE
  5
fb
  100
AcDbEntity
  8
1
  100
AcDbLine
  10
48.5
  20
-1.0022
  30
0
  11
48.4
  21
-0.938232
  31
0
  0
LINE
  5
fc
  100
AcDbEntity
  8
1
  100
AcDbLine
  10
48.4
  20
-0.938232
  30
0
  11
48.3
  21
-0.871329
  31
0
  0
LINE
  5
fd
  100
AcDbEntity
  8
1
  100
AcDbLine
  10
48.3
  20
-0.871329
  30
0
  11
48.2
  21
-0.8017
  31
0
  0
LINE
  5
fe
  100
AcDbEntity
  8
1
  100
AcDbLine
  10
48.2
  20
-0.8017
  30
0
  11
48.1
  21
-0.729563
  31
0
  0
LINE
  5
ff
  100
AcDbEntity
  8
1
  100
AcDbLine
  10
48.1
  20
-0.729563
  30
0
  11
48
  21
-0.655144
  31
0
  0
LINE
  5
100
  100
AcDbEntity
  8
1
  100
AcDbLine
  10
48
  20
-0.655144
  30
0
  11
47.9
  21
-0.578675
  31
0
  0
LINE
  5
101
  100
AcDbEntity
  8
1
  100
AcDbLine
  10
47.9
  20
-0.578675
  30
0
  11
47.8
  21
-0.500396
  31
0
  0
LINE
  5
102
  100
AcDbEntity
  8
1
  100
AcDbLine
  10
47.8
  20
-0.500396
  30
0
  11
47.7
  21
-0.420551
  31
0
  0
LINE
  5
103
  100
AcDbEntity
  8
1
  100
AcDbLine
  10
47.7
  20
-0.420551
  30
0
  11
47.6
  21
-0.339391
  31
0
  0
LINE
  5
104
  100
AcDbEntity
  8
1
  100
AcDbLine
  10
47.6
  20
-0.339391
  30
0
  11
47.5
  21
-0.257169
  31
0
  0
LINE
  5
105
  100
AcDbEntity
  8
1
  100
AcDbLine
  10
47.5
  20
-0.257169
  30
0
  11
47.4
  21
-0.174142
  31
0
  0
LINE
  5
106
  100
AcDbEntity
  8
1
  100
AcDbLine
  10
47.4
  20
-0.174142
  30
0
  11
47.3
  21
-0.09057
  31
0
  0
LINE
  5
107
  100
AcDbEntity
  8
1
  100
AcDbLine
  10
47.3
  20
-0.09057
  30
0
  11
47.2
  21
-0.006716
  31
0
  0
LINE
  5
108
  100
AcDbEntity
  8
1
  100
AcDbLine
  10
47.2
  20
-0.006716
  30
0
  11
47.1
  21
0.07716
  31
0
  0
LINE
  5
109
  100
AcDbEntity
  8
1
  100
AcDbLine
  10
47.1
  20
0.07716
  30
0
  11
47
  21
0.160795
  31
0
  0
LINE
  5
10a
  100
AcDbEntity
  8
1
  100
AcDbLine
  10
47
  20
0.160795
  30
0
  11
46.9
  21
0.243926
  31
0
  0
LINE
  5
10b
  100
AcDbEntity
  8
1
  100
AcDbLine
  10
46.9
  20
0.243926
  30
0
  11
46.8
  21
0.326295
  31
0
  0
LINE
  5
10c
  100
AcDbEntity
  8
1
  100
AcDbLine
  10
46.8
  20
0.326295
  30
0
  11
46.8
  21
0.320265
  31
0
  0
LINE
  5
10d
  100
AcDbEntity
  8
SK1
  100
AcDbLine
  10
38
  20
3
  30
0
  11
0.7
  21
3
  31
0
  0
LINE
  5
10e
  100
AcDbEntity
  8
SK1
  100
AcDbLine
  10
0.7
  20
3
  30
0
  11
0
  21
2.3
  31
0
  0
LINE
  5
10f
  100
AcDbEntity
  8
SK1
  100
AcDbLine
  10
38
  20
-3
  30
0
  11
0.7
  21
-3
  31
0
  0
LINE
  5
110
  100
AcDbEntity
  8
SK1
  100
AcDbLine
  10
0.7
  20
-3
  30
0
  11
0
  21
-2.3
  31
0
  0
LINE
  5
111
  100
AcDbEntity
  8
SK1
  100
AcDbLine
  10
0.7
  20
3
  30
0
  11
0.7
  21
-3
  31
0
  0
LINE
  5
112
  100
AcDbEntity
  8
SK1
  100
AcDbLine
  10
0
  20
2.3
  30
0
  11
0
  21
-2.3
  31
0
  0
LINE
  5
113
  100
AcDbEntity
  8
SK1
  100
AcDbLine
  10
39.0401
  20
1.40688
  30
0
  11
39.4069
  21
1.0401
  31
0
  0
LINE
  5
114
  100
AcDbEntity
  8
SK1
  100
AcDbLine
  10
38.5328
  20
1.66666
  30
0
  11
39.6667
  21
0.532833
  31
0
  0
LINE
  5
115
  100
AcDbEntity
  8
SK1
  100
AcDbLine
  10
38.2154
  20
1.73657
  30
0
  11
39.7366
  21
0.215434
  31
0
  0
LINE
  5
116
  100
AcDbEntity
  8
SK1
  100
AcDbLine
  10
38
  20
1.70452
  30
0
  11
39.7045
  21
0
  31
0
  0
LINE
  5
117
  100
AcDbEntity
  8
SK1
  100
AcDbLine
  10
38
  20
1.45703
  30
0
  11
39.457
  21
0
  31
0
  0
LINE
  5
118
  100
AcDbEntity
  8
SK1
  100
AcDbLine
  10
38
  20
1.20954
  30
0
  11
39.2095
  21
0
  31
0
  0
LINE
  5
119
  100
AcDbEntity
  8
SK1
  100
AcDbLine
  10
38
  20
0.962054
  30
0
  11
38.9621
  21
0
  31
0
  0
LINE
  5
11a
  100
AcDbEntity
  8
SK1
  100
AcDbLine
  10
38
  20
0.714566
  30
0
  11
38.7146
  21
0
  31
0
  0
LINE
  5
11b
  100
AcDbEntity
  8
SK1
  100
AcDbLine
  10
38
  20
0.467079
  30
0
  11
38.4671
  21
0
  31
0
  0
LINE
  5
11c
  100
AcDbEntity
  8
SK1
  100
AcDbLine
  10
38
  20
0.219592
  30
0
  11
38.2196
  21
0
  31
0
  0
LINE
  5
11d
  100
AcDbEntity
  8
SK1
  100
AcDbLine
  10
38
  20
1.70452
  30
0
  11
38.0441
  21
1.74861
  31
0
  0
LINE
  5
11e
  100
AcDbEntity
  8
SK1
  100
AcDbLine
  10
38
  20
1.45703
  30
0
  11
38.271
  21
1.72802
  31
0
  0
LINE
  5
11f
  100
AcDbEntity
  8
SK1
  100
AcDbLine
  10
38
  20
1.20954
  30
0
  11
38.4742
  21
1.6837
  31
0
  0
LINE
  5
120
  100
AcDbEntity
  8
SK1
  100
AcDbLine
  10
38
  20
0.962054
  30
0
  11
38.6588
  21
1.62082
  31
0
  0
LINE
  5
121
  100
AcDbEntity
  8
SK1
  100
AcDbLine
  10
38
  20
0.714566
  30
0
  11
38.8271
  21
1.54167
  31
0
  0
LINE
  5
122
  100
AcDbEntity
  8
SK1
  100
AcDbLine
  10
38
  20
0.467079
  30
0
  11
38.981
  21
1.44812
  31
0
  0
LINE
  5
123
  100
AcDbEntity
  8
SK1
  100
AcDbLine
  10
38
  20
0.219592
  30
0
  11
39.1226
  21
1.34216
  31
0
  0
LINE
  5
124
  100
AcDbEntity
  8
SK1
  100
AcDbLine
  10
38.0279
  20
0
  30
0
  11
39.2508
  21
1.22288
  31
0
  0
LINE
  5
125
  100
AcDbEntity
  8
SK1
  100
AcDbLine
  10
38.2754
  20
0
  30
0
  11
39.367
  21
1.09157
  31
0
  0
LINE
  5
126
  100
AcDbEntity
  8
SK1
  100
AcDbLine
  10
38.5229
  20
0
  30
0
  11
39.4707
  21
0.947822
  31
0
  0
LINE
  5
127
  100
AcDbEntity
  8
SK1
  100
AcDbLine
  10
38.7704
  20
0
  30
0
  11
39.5605
  21
0.790145
  31
0
  0
LINE
  5
128
  100
AcDbEntity
  8
SK1
  100
AcDbLine
  10
39.0178
  20
0
  30
0
  11
39.6364
  21
0.618517
  31
0
  0
LINE
  5
129
  100
AcDbEntity
  8
SK1
  100
AcDbLine
  10
39.2653
  20
0
  30
0
  11
39.696
  21
0.430696
  31
0
  0
LINE
  5
12a
  100
AcDbEntity
  8
SK1
  100
AcDbLine
  10
39.5128
  20
0
  30
0
  11
39.7356
  21
0.222827
  31
0
  0
LINE
  5
12b
  100
AcDbEntity
  8
SK1
  100
AcDbLine
  10
38
  20
0
  30
0
  11
38
  21
1.75
  31
0
  0
LINE
  5
12c
  100
AcDbEntity
  8
SK1
  100
AcDbLine
  10
38
  20
0
  30
0
  11
39.75
  21
0
  31
0
  0
ARC
  5
12d
  100
AcDbEntity
  8
SK1
  100
AcDbCircle
  10
38
  20
0
  30
0
  40
1.75
  100
AcDbArc
  50
0
  51
90
  0
ARC
  5
12e
  100
AcDbEntity
  8
SK1
  100
AcDbCircle
  10
38
  20
0
  30
0
  40
1.75
  100
AcDbArc
  50
90
  51
180
  0
LINE
  5
12f
  100
AcDbEntity
  8
SK1
  100
AcDbLine
  10
37.9721
  20
0
  30
0
  11
38
  21
-0.027896
  31
0
  0
LINE
  5
130
  100
AcDbEntity
  8
SK1
  100
AcDbLine
  10
37.7246
  20
0
  30
0
  11
38
  21
-0.275383
  31
0
  0
LINE
  5
131
  100
AcDbEntity
  8
SK1
  100
AcDbLine
  10
37.4771
  20
0
  30
0
  11
38
  21
-0.522871
  31
0
  0
LINE
  5
132
  100
AcDbEntity
  8
SK1
  100
AcDbLine
  10
37.2296
  20
0
  30
0
  11
38
  21
-0.770358
  31
0
  0
LINE
  5
133
  100
AcDbEntity
  8
SK1
  100
AcDbLine
  10
36.9822
  20
0
  30
0
  11
38
  21
-1.01785
  31
0
  0
LINE
  5
134
  100
AcDbEntity
  8
SK1
  100
AcDbLine
  10
36.7347
  20
0
  30
0
  11
38
  21
-1.26533
  31
0
  0
LINE
  5
135
  100
AcDbEntity
  8
SK1
  100
AcDbLine
  10
36.4872
  20
0
  30
0
  11
38
  21
-1.51282
  31
0
  0
LINE
  5
136
  100
AcDbEntity
  8
SK1
  100
AcDbLine
  10
36.2503
  20
-0.010642
  30
0
  11
37.9894
  21
-1.74967
  31
0
  0
LINE
  5
137
  100
AcDbEntity
  8
SK1
  100
AcDbLine
  10
36.2736
  20
-0.281429
  30
0
  11
37.7186
  21
-1.72637
  31
0
  0
LINE
  5
138
  100
AcDbEntity
  8
SK1
  100
AcDbLine
  10
36.3639
  20
-0.619147
  30
0
  11
37.3809
  21
-1.63613
  31
0
  0
LINE
  5
139
  100
AcDbEntity
  8
SK1
  100
AcDbLine
  10
36.2514
  20
-0.044098
  30
0
  11
36.2955
  21
0
  31
0
  0
LINE
  5
13a
  100
AcDbEntity
  8
SK1
  100
AcDbLine
  10
36.272
  20
-0.270991
  30
0
  11
36.543
  21
0
  31
0
  0
LINE
  5
13b
  100
AcDbEntity
  8
SK1
  100
AcDbLine
  10
36.3163
  20
-0.474162
  30
0
  11
36.7905
  21
0
  31
0
  0
LINE
  5
13c
  100
AcDbEntity
  8
SK1
  100
AcDbLine
  10
36.3792
  20
-0.658762
  30
0
  11
37.0379
  21
0
  31
0
  0
LINE
  5
13d
  100
AcDbEntity
  8
SK1
  100
AcDbLine
  10
36.4583
  20
-0.827105
  30
0
  11
37.2854
  21
0
  31
0
  0
LINE
  5
13e
  100
AcDbEntity
  8
SK1
  100
AcDbLine
  10
36.5519
  20
-0.981039
  30
0
  11
37.5329
  21
0
  31
0
  0
LINE
  5
13f
  100
AcDbEntity
  8
SK1
  100
AcDbLine
  10
36.6578
  20
-1.12257
  30
0
  11
37.7804
  21
0
  31
0
  0
LINE
  5
140
  100
AcDbEntity
  8
SK1
  100
AcDbLine
  10
36.7771
  20
-1.25077
  30
0
  11
38
  21
-0.027896
  31
0
  0
LINE
  5
141
  100
AcDbEntity
  8
SK1
  100
AcDbLine
  10
36.9084
  20
-1.36695
  30
0
  11
38
  21
-0.275383
  31
0
  0
LINE
  5
142
  100
AcDbEntity
  8
SK1
  100
AcDbLine
  10
37.0522
  20
-1.47069
  30
0
  11
38
  21
-0.522871
  31
0
  0
LINE
  5
143
  100
AcDbEntity
  8
SK1
  100
AcDbLine
  10
37.2099
  20
-1.5605
  30
0
  11
38
  21
-0.770358
  31
0
  0
LINE
  5
144
  100
AcDbEntity
  8
SK1
  100
AcDbLine
  10
37.3815
  20
-1.63636
  30
0
  11
38
  21
-1.01785
  31
0
  0
LINE
  5
145
  100
AcDbEntity
  8
SK1
  100
AcDbLine
  10
37.5693
  20
-1.69603
  30
0
  11
38
  21
-1.26533
  31
0
  0
LINE
  5
146
  100
AcDbEntity
  8
SK1
  100
AcDbLine
  10
37.7772
  20
-1.73565
  30
0
  11
38
  21
-1.51282
  31
0
  0
LINE
  5
147
  100
AcDbEntity
  8
SK1
  100
AcDbLine
  10
38
  20
0
  30
0
  11
36.25
  21
0
  31
0
  0
LINE
  5
148
  100
AcDbEntity
  8
SK1
  100
AcDbLine
  10
38
  20
-1.75
  30
0
  11
38
  21
0
  31
0
  0
ARC
  5
149
  100
AcDbEntity
  8
SK1
  100
AcDbCircle
  10
38
  20
0
  30
0
  40
1.75
  100
AcDbArc
  50
180
  51
270
  0
ARC
  5
14a
  100
AcDbEntity
  8
SK1
  100
AcDbCircle
  10
38
  20
0
  30
0
  40
1.75
  100
AcDbArc
  50
270
  51
0
  0
LINE
  5
1c5
  100
AcDbEntity
  8
NOCUT
  100
AcDbLine
  10
46.8
  20
0
  30
0
  11
46.8
  21
1.425
  31
0
  0
LINE
  5
1c6
  100
AcDbEntity
  8
NOCUT
  100
AcDbLine
  10
46.8
  20
1.425
  30
0
  11
44.43
  21
1.425
  31
0
  0
ARC
  5
1c7
  100
AcDbEntity
  8
NOCUT
  100
AcDbCircle
  10
44.517156
  20
2.421195
  30
0
  40
1
  100
AcDbArc
  50
255
  51
265
  0
LINE
  5
1c8
  100
AcDbEntity
  8
NOCUT
  100
AcDbLine
  10
44.258337
  20
1.455269
  30
0
  11
38.493322
  21
3
  31
0
  0
LINE
  5
1c9
  100
AcDbEntity
  8
NOCUT
  100
AcDbLine
  10
38.493322
  20
3
  30
0
  11
38
  21
3
  31
0
  0
LINE
  5
1ca
  100
AcDbEntity
  8
NOCUT
  100
AcDbLine
  10
38
  20
3
  30
0
  11
38
  21
0
  31
0
  0
LINE
  5
1cb
  100
AcDbEntity
  8
NOCUT
  100
AcDbLine
  10
38
  20
0
  30
0
  11
46.8
  21
0
  31
0
  0
ARC
  5
1cc
  100
AcDbEntity
  8
CUT
  100
AcDbCircle
  10
48.5
  20
0
  30
0
  40
1.5
  100
AcDbArc
  50
0
  51
90
  0
LINE
  5
1cd
  100
AcDbEntity
  8
CUT
  100
AcDbLine
  10
48.5
  20
1.5
  30
0
  11
46.8
  21
1.5
  31
0
  0
LINE
  5
1ce
  100
AcDbEntity
  8
CUT
  100
AcDbLine
  10
46.8
  20
1.5
  30
0
  11
46.8
  21
0
  31
0
  0
LINE
  5
1cf
  100
AcDbEntity
  8
CUT
  100
AcDbLine
  10
46.8
  20
0
  30
0
  11
50
  21
0
  31
0
  0
LINE
  5
1d0
  100
AcDbEntity
  8
4
  100
AcDbLine
  10
38
  20
0
  30
0
  11
50
  21
0
  31
0
  0
LINE
  5
1d1
  100
AcDbEntity
  8
SK4
  100
AcDbLine
  10
-1
  20
0
  30
0
  11
51
  21
0
  31
0
  0
LINE
  5
1d2
  100
AcDbEntity
  8
INFTOTAL
  100
AcDbLine
  10
-15.7
  20
23.7
  30
0
  11
65.7
  21
23.7
  31
0
  0
LINE
  5
1d3
  100
AcDbEntity
  8
INFTOTAL
  100
AcDbLine
  10
65.7
  20
23.7
  30
0
  11
65.7
  21
-18.7
  31
0
  0
LINE
  5
1d4
  100
AcDbEntity
  8
INFTOTAL
  100
AcDbLine
  10
65.7
  20
-18.7
  30
0
  11
-15.7
  21
-18.7
  31
0
  0
LINE
  5
1d5
  100
AcDbEntity
  8
INFTOTAL
  100
AcDbLine
  10
-15.7
  20
-18.7
  30
0
  11
-15.7
  21
23.7
  31
0
  0
ENDSEC
  0
SECTION
  2
OBJECTS
  0
DICTIONARY
  5
1d6
  330
0
100
AcDbDictionary
281
    1
  3
ACAD_GROUP
  350
1d7
  0
DICTIONARY
  5
1d7
102
{ACAD_REACTORS
  330
1d6
102
}
  330
1d6
100
AcDbDictionary
281
    1
  0
ENDSEC
  0
EOF
