  0
SECTION
  2
HEADER
  9
$ACADVER
  1
AC1015
  9
$DWGCODEPAGE
  3
ANSI_932
  9
$HANDSEED
  5
106AB90
  0
ENDSEC
  0
SECTION
  2
CLASSES
  0
CLASS
  1
IMAGEDEF
  2
AcDbRasterImageDef
  3
ISM
  90
0
  91
4
  280
0
  281
0
  0
CLASS
  1
IMAGE
  2
AcDbRasterImage
  3
ISM
  90
127
  91
5
  280
0
  281
1
  0
CLASS
  1
IMAGEDEF_REACTOR
  2
AcDbRasterImageDefReactor
  3
ISM
  90
1
  91
4
  280
0
  281
0
  0
ENDSEC
  0
SECTION
  2
TABLES
  0
TABLE
  2
VPORT
  5
2
  330
0
  100
AcDbSymbolTable
  70
    0
  0
ENDTAB
  0
TABLE
  2
LTYPE
  5
3
  330
0
  100
AcDbSymbolTable
  70
    4
  0
LTYPE
  5
4
  330
3
  100
AcDbSymbolTableRecord
  100
AcDbLinetypeTableRecord
  2
ByBlock
  70
    0
  3

  72
65
  73
    0
  40
0
  0
LTYPE
  5
5
  330
3
  100
AcDbSymbolTableRecord
  100
AcDbLinetypeTableRecord
  2
ByLayer
  70
    0
  3

  72
65
  73
    0
  40
0
  0
LTYPE
  5
6
  330
3
  100
AcDbSymbolTableRecord
  100
AcDbLinetypeTableRecord
  2
CONTINUOUS
  70
    0
  3
Solid Line
  72
65
  73
    0
  40
0
  0
LTYPE
  5
7
  330
3
  100
AcDbSymbolTableRecord
  100
AcDbLinetypeTableRecord
  2
DASH
  70
    0
  3
Hidden
  72
65
  73
2
  40
2.5
  49
1.5
  74
0
  49
-1
  74
0
  0
LTYPE
  5
8
  330
3
  100
AcDbSymbolTableRecord
  100
AcDbLinetypeTableRecord
  2
LONGDASHDASH
  70
    0
  3
__ . __
  72
65
  73
    4
  40
7
  49
4
  74
    0
  49
-1
  74
    0
  49
1
  74
    0
  49
-1
  74
    0
  0
ENDTAB
  0
TABLE
  2
LAYER
  5
9
  330
0
  100
AcDbSymbolTable
  70
    40
  0
LAYER
  5
a
  330
9
  100
AcDbSymbolTableRecord
  100
AcDbLayerTableRecord
  2
0
  70
    0
  62
    0
  6
CONTINUOUS
  390
0
  0
LAYER
  5
c
  330
9
  100
AcDbSymbolTableRecord
  100
AcDbLayerTableRecord
  2
1
  70
    0
  62
    4
  6
CONTINUOUS
  370
50
  390
0
  0
LAYER
  5
d
  330
9
  100
AcDbSymbolTableRecord
  100
AcDbLayerTableRecord
  2
2
  70
    0
  62
    7
  6
CONTINUOUS
  370
25
  390
0
  0
LAYER
  5
f
  330
9
  100
AcDbSymbolTableRecord
  100
AcDbLayerTableRecord
  2
4
  70
    0
  62
    2
  6
LONGDASHDASH
  370
25
  390
0
  0
LAYER
  5
13
  330
9
  100
AcDbSymbolTableRecord
  100
AcDbLayerTableRecord
  2
SK1
  70
    0
  62
    4
  6
CONTINUOUS
  370
50
  390
0
  0
LAYER
  5
14
  330
9
  100
AcDbSymbolTableRecord
  100
AcDbLayerTableRecord
  2
SK2
  70
    0
  62
    7
  6
CONTINUOUS
  370
25
  390
0
  0
LAYER
  5
16
  330
9
  100
AcDbSymbolTableRecord
  100
AcDbLayerTableRecord
  2
SK4
  70
    0
  62
    2
  6
LONGDASHDASH
  370
25
  390
0
  0
LAYER
  5
21
  330
9
  100
AcDbSymbolTableRecord
  100
AcDbLayerTableRecord
  2
NOCUT
  70
    0
  62
    7
  6
CONTINUOUS
  370
25
  390
0
  0
LAYER
  5
22
  330
9
  100
AcDbSymbolTableRecord
  100
AcDbLayerTableRecord
  2
CUT
  70
    0
  62
    1
  6
CONTINUOUS
  370
25
  390
0
  0
LAYER
  5
26
  330
9
  100
AcDbSymbolTableRecord
  100
AcDbLayerTableRecord
  2
INFTOTAL
  70
    0
  62
    9
  6
CONTINUOUS
  370
18
  390
0
  0
ENDTAB
  0
TABLE
  2
STYLE
  5
27
  330
0
  100
AcDbSymbolTable
  70
    1
  0
STYLE
  5
28
  330
27
  100
AcDbSymbolTableRecord
  100
AcDbTextStyleTableRecord
  2
Monospac821 BT
  70
    0
  40
    3.5
  41
1
  50
0
  71
0
  42
3
  3

  4

  1001
ACAD
  1000
Monospac821 BT
  1071
256
  0
ENDTAB
  0
TABLE
  2
VIEW
  5
29
  330
0
  100
AcDbSymbolTable
  70
    0
  0
ENDTAB
  0
TABLE
  2
UCS
  5
2a
  330
0
  100
AcDbSymbolTable
  70
    0
  0
ENDTAB
  0
TABLE
  2
APPID
  5
2b
  330
0
  100
AcDbSymbolTable
  70
    1
  0
APPID
  5
2c
  330
2b
  100
AcDbSymbolTableRecord
  100
AcDbRegAppTableRecord
  2
ACAD
  70
    0
  0
ENDTAB
  0
TABLE
  2
DIMSTYLE
  5
2d
  330
0
  100
AcDbSymbolTable
  70
    1
  100
AcDbDimStyleTable
  0
DIMSTYLE
  105
2e
  330
2d
  100
AcDbSymbolTableRecord
  100
AcDbDimStyleTableRecord
  2
STANDARD
  70
    0
  41
    3
  42
0.5
  44
1
  73
0
  77
1
  78
1
  140
3.5
  141
2.5
  143
0.03937
  147
0.8
  172
1
  174
1
  178
0
  179
1
  271
2
  279
1
  284
1
  340
28
  0
ENDTAB
  0
TABLE
  2
BLOCK_RECORD
  5
2f
  330
0
  100
AcDbSymbolTable
  70
    2
  0
BLOCK_RECORD
  5
30
  330
2f
  100
AcDbSymbolTableRecord
  100
AcDbBlockTableRecord
  2
*Model_Space
  0
BLOCK_RECORD
  5
31
  330
2f
  100
AcDbSymbolTableRecord
  100
AcDbBlockTableRecord
  2
*Paper_Space
  0
BLOCK_RECORD
  5
1bf
  330
2f
  100
AcDbSymbolTableRecord
  100
AcDbBlockTableRecord
  2
*D1be
  340
0
  0
BLOCK_RECORD
  5
1cd
  330
2f
  100
AcDbSymbolTableRecord
  100
AcDbBlockTableRecord
  2
*D1cc
  340
0
  0
BLOCK_RECORD
  5
1db
  330
2f
  100
AcDbSymbolTableRecord
  100
AcDbBlockTableRecord
  2
*D1da
  340
0
  0
BLOCK_RECORD
  5
1e9
  330
2f
  100
AcDbSymbolTableRecord
  100
AcDbBlockTableRecord
  2
*D1e8
  340
0
  0
BLOCK_RECORD
  5
1f7
  330
2f
  100
AcDbSymbolTableRecord
  100
AcDbBlockTableRecord
  2
*D1f6
  340
0
  0
BLOCK_RECORD
  5
201
  330
2f
  100
AcDbSymbolTableRecord
  100
AcDbBlockTableRecord
  2
*D200
  340
0
  0
BLOCK_RECORD
  5
20f
  330
2f
  100
AcDbSymbolTableRecord
  100
AcDbBlockTableRecord
  2
*D20e
  340
0
  0
BLOCK_RECORD
  5
21d
  330
2f
  100
AcDbSymbolTableRecord
  100
AcDbBlockTableRecord
  2
*D21c
  340
0
  0
BLOCK_RECORD
  5
22b
  330
2f
  100
AcDbSymbolTableRecord
  100
AcDbBlockTableRecord
  2
*D22a
  340
0
  0
ENDTAB
  0
ENDSEC
  0
SECTION
  2
BLOCKS
  0
BLOCK
  5
32
  330
30
  100
AcDbEntity
  8
0
  100
AcDbBlockBegin
  2
*Model_Space
  70
    0
  10
0
  20
0
  30
0
  3
*Model_Space
  1

  0
ENDBLK
  5
33
  330
30
  100
AcDbEntity
  8
0
  100
AcDbBlockEnd
  0
BLOCK
  5
34
  330
31
  100
AcDbEntity
  8
0
  100
AcDbBlockBegin
  2
*Paper_Space
  70
    0
  10
0
  20
0
  30
0
  3
*Paper_Space
  1

  0
ENDBLK
  5
35
  330
31
  100
AcDbEntity
  8
0
  100
AcDbBlockEnd
  0
BLOCK
  5
1bd
  330
1bf
  100
AcDbEntity
  8
SK2
  100
AcDbBlockBegin
  2
*D1be
  70
1
  10
0
  20
0
  30
0
  3
*D1be
  1

  0
LINE
  5
1c0
  330
1bf
  100
AcDbEntity
  8
SK2
  100
AcDbLine
  10
0
  20
2.3
  30
0
  11
0
  21
20
  31
0
  0
LINE
  5
1c1
  330
1bf
  100
AcDbEntity
  8
SK2
  100
AcDbLine
  10
60
  20
-15
  30
0
  11
60
  21
20
  31
0
  0
LINE
  5
1c2
  330
1bf
  100
AcDbEntity
  8
SK2
  100
AcDbLine
  10
0
  20
18
  30
0
  11
60
  21
18
  31
0
  0
SOLID
  5
1c3
  330
1bf
  100
AcDbEntity
  8
SK2
  100
AcDbTrace
  10
0
  20
18
  30
0
  11
2.478612
  21
18.326315
  31
0
  12
2.478612
  22
17.673685
  32
0
  13
2.478612
  23
17.673685
  33
0
  0
SOLID
  5
1c4
  330
1bf
  100
AcDbEntity
  8
SK2
  100
AcDbTrace
  10
60
  20
18
  30
0
  11
57.521388
  21
17.673685
  31
0
  12
57.521388
  22
18.326315
  32
0
  13
57.521388
  23
18.326315
  33
0
  0
MTEXT
  5
1c5
  330
1bf
  100
AcDbEntity
  8
SK2
  100
AcDbMText
  10
30
  20
18
  30
0
  11
1
  21
0
  31
0
  40
2
  41
0
  71
8
  72
1
  1
60
  0
POINT
  5
1c6
  330
1bf
  100
AcDbEntity
  8
SK2
  62
0
  100
AcDbPoint
  10
0
  20
2.3
  30
0
  0
POINT
  5
1c7
  330
1bf
  100
AcDbEntity
  8
SK2
  62
0
  100
AcDbPoint
  10
60
  20
-15
  30
0
  0
POINT
  5
1c8
  330
1bf
  100
AcDbEntity
  8
SK2
  62
0
  100
AcDbPoint
  10
60
  20
18
  30
0
  0
ENDBLK
  5
1c9
  330
1bf
  100
AcDbEntity
  8
SK2
  100
AcDbBlockEnd
  0
BLOCK
  5
1cb
  330
1cd
  100
AcDbEntity
  8
SK2
  100
AcDbBlockBegin
  2
*D1cc
  70
1
  10
0
  20
0
  30
0
  3
*D1cc
  1

  0
LINE
  5
1ce
  330
1cd
  100
AcDbEntity
  8
SK2
  100
AcDbLine
  10
47.7
  20
3
  30
0
  11
47.7
  21
15
  31
0
  0
LINE
  5
1cf
  330
1cd
  100
AcDbEntity
  8
SK2
  100
AcDbLine
  10
0
  20
2.3
  30
0
  11
0
  21
20
  31
0
  0
LINE
  5
1d0
  330
1cd
  100
AcDbEntity
  8
SK2
  100
AcDbLine
  10
47.7
  20
13
  30
0
  11
0
  21
13
  31
0
  0
SOLID
  5
1d1
  330
1cd
  100
AcDbEntity
  8
SK2
  100
AcDbTrace
  10
47.7
  20
13
  30
0
  11
50.178612
  21
13.326315
  31
0
  12
50.178612
  22
12.673685
  32
0
  13
50.178612
  23
12.673685
  33
0
  0
SOLID
  5
1d2
  330
1cd
  100
AcDbEntity
  8
SK2
  100
AcDbTrace
  10
0
  20
13
  30
0
  11
-2.478612
  21
12.673685
  31
0
  12
-2.478612
  22
13.326315
  32
0
  13
-2.478612
  23
13.326315
  33
0
  0
MTEXT
  5
1d3
  330
1cd
  100
AcDbEntity
  8
SK2
  100
AcDbMText
  10
23.85
  20
13
  30
0
  11
1
  21
-0
  31
0
  40
2
  41
0
  71
8
  72
1
  1
47.7
  0
POINT
  5
1d4
  330
1cd
  100
AcDbEntity
  8
SK2
  62
0
  100
AcDbPoint
  10
47.7
  20
3
  30
0
  0
POINT
  5
1d5
  330
1cd
  100
AcDbEntity
  8
SK2
  62
0
  100
AcDbPoint
  10
0
  20
2.3
  30
0
  0
POINT
  5
1d6
  330
1cd
  100
AcDbEntity
  8
SK2
  62
0
  100
AcDbPoint
  10
0
  20
13
  30
0
  0
ENDBLK
  5
1d7
  330
1cd
  100
AcDbEntity
  8
SK2
  100
AcDbBlockEnd
  0
BLOCK
  5
1d9
  330
1db
  100
AcDbEntity
  8
SK2
  100
AcDbBlockBegin
  2
*D1da
  70
1
  10
0
  20
0
  30
0
  3
*D1da
  1

  0
LINE
  5
1dc
  330
1db
  100
AcDbEntity
  8
SK2
  100
AcDbLine
  10
0.7
  20
-3
  30
0
  11
-12
  21
-3
  31
0
  0
LINE
  5
1dd
  330
1db
  100
AcDbEntity
  8
SK2
  100
AcDbLine
  10
0.7
  20
3
  30
0
  11
-12
  21
3
  31
0
  0
LINE
  5
1de
  330
1db
  100
AcDbEntity
  8
SK2
  100
AcDbLine
  10
-10
  20
-3
  30
0
  11
-10
  21
3
  31
0
  0
SOLID
  5
1df
  330
1db
  100
AcDbEntity
  8
SK2
  100
AcDbTrace
  10
-10
  20
-3
  30
0
  11
-10.326315
  21
-0.521388
  31
0
  12
-9.673685
  22
-0.521388
  32
0
  13
-9.673685
  23
-0.521388
  33
0
  0
SOLID
  5
1e0
  330
1db
  100
AcDbEntity
  8
SK2
  100
AcDbTrace
  10
-10
  20
3
  30
0
  11
-9.673685
  21
0.521388
  31
0
  12
-10.326315
  22
0.521388
  32
0
  13
-10.326315
  23
0.521388
  33
0
  0
MTEXT
  5
1e1
  330
1db
  100
AcDbEntity
  8
SK2
  100
AcDbMText
  10
-10
  20
0
  30
0
  11
0
  21
1
  31
0
  40
2
  41
0
  71
8
  72
1
  1
ﾘ6
  0
POINT
  5
1e2
  330
1db
  100
AcDbEntity
  8
SK2
  62
0
  100
AcDbPoint
  10
0.7
  20
-3
  30
0
  0
POINT
  5
1e3
  330
1db
  100
AcDbEntity
  8
SK2
  62
0
  100
AcDbPoint
  10
0.7
  20
3
  30
0
  0
POINT
  5
1e4
  330
1db
  100
AcDbEntity
  8
SK2
  62
0
  100
AcDbPoint
  10
-10
  20
3
  30
0
  0
ENDBLK
  5
1e5
  330
1db
  100
AcDbEntity
  8
SK2
  100
AcDbBlockEnd
  0
BLOCK
  5
1e7
  330
1e9
  100
AcDbEntity
  8
2
  100
AcDbBlockBegin
  2
*D1e8
  70
1
  10
0
  20
0
  30
0
  3
*D1e8
  1

  0
LINE
  5
1ea
  330
1e9
  100
AcDbEntity
  8
2
  100
AcDbLine
  10
57.5
  20
-2.5
  30
0
  11
72
  21
-2.5
  31
0
  0
LINE
  5
1eb
  330
1e9
  100
AcDbEntity
  8
2
  100
AcDbLine
  10
57.5
  20
2.5
  30
0
  11
72
  21
2.5
  31
0
  0
LINE
  5
1ec
  330
1e9
  100
AcDbEntity
  8
2
  100
AcDbLine
  10
70
  20
-2.5
  30
0
  11
70
  21
2.5
  31
0
  0
SOLID
  5
1ed
  330
1e9
  100
AcDbEntity
  8
2
  100
AcDbTrace
  10
70
  20
-2.5
  30
0
  11
69.673685
  21
-0.021388
  31
0
  12
70.326315
  22
-0.021388
  32
0
  13
70.326315
  23
-0.021388
  33
0
  0
SOLID
  5
1ee
  330
1e9
  100
AcDbEntity
  8
2
  100
AcDbTrace
  10
70
  20
2.5
  30
0
  11
70.326315
  21
0.021388
  31
0
  12
69.673685
  22
0.021388
  32
0
  13
69.673685
  23
0.021388
  33
0
  0
MTEXT
  5
1ef
  330
1e9
  100
AcDbEntity
  8
2
  100
AcDbMText
  10
70
  20
0
  30
0
  11
0
  21
1
  31
0
  40
2
  41
0
  71
8
  72
1
  1
ﾘ5
  0
POINT
  5
1f0
  330
1e9
  100
AcDbEntity
  8
2
  62
0
  100
AcDbPoint
  10
57.5
  20
-2.5
  30
0
  0
POINT
  5
1f1
  330
1e9
  100
AcDbEntity
  8
2
  62
0
  100
AcDbPoint
  10
57.5
  20
2.5
  30
0
  0
POINT
  5
1f2
  330
1e9
  100
AcDbEntity
  8
2
  62
0
  100
AcDbPoint
  10
70
  20
2.5
  30
0
  0
ENDBLK
  5
1f3
  330
1e9
  100
AcDbEntity
  8
2
  100
AcDbBlockEnd
  0
BLOCK
  5
1f5
  330
1f7
  100
AcDbEntity
  8
2
  100
AcDbBlockBegin
  2
*D1f6
  70
1
  10
0
  20
0
  30
0
  3
*D1f6
  1

  0
LINE
  5
1f8
  330
1f7
  100
AcDbEntity
  8
2
  100
AcDbLine
  10
59.267767
  20
1.767767
  30
0
  11
49.904559
  21
11.130975
  31
0
  0
MTEXT
  5
1f9
  330
1f7
  100
AcDbEntity
  8
2
  100
AcDbMText
  10
52.196699
  20
8.838835
  30
0
  11
0.707107
  21
-0.707107
  31
0
  40
2
  41
0
  71
8
  72
1
  1
R2.5
  0
SOLID
  5
1fa
  330
1f7
  100
AcDbEntity
  8
2
  100
AcDbTrace
  10
59.267767
  20
1.767767
  30
0
  11
57.284384
  21
3.289671
  31
0
  12
57.745863
  22
3.75115
  32
0
  13
57.745863
  23
3.75115
  33
0
  0
POINT
  5
1fb
  330
1f7
  100
AcDbEntity
  8
2
  62
0
  100
AcDbPoint
  10
59.267767
  20
1.767767
  30
0
  0
POINT
  5
1fc
  330
1f7
  100
AcDbEntity
  8
2
  62
0
  100
AcDbPoint
  10
57.5
  20
0
  30
0
  0
ENDBLK
  5
1fd
  330
1f7
  100
AcDbEntity
  8
2
  100
AcDbBlockEnd
  0
BLOCK
  5
1ff
  330
201
  100
AcDbEntity
  8
2
  100
AcDbBlockBegin
  2
*D200
  70
1
  10
0
  20
0
  30
0
  3
*D200
  1

  0
LINE
  5
202
  330
201
  100
AcDbEntity
  8
2
  100
AcDbLine
  10
54.8
  20
-2.425
  30
0
  11
52.8
  21
-2.425
  31
0
  0
LINE
  5
203
  330
201
  100
AcDbEntity
  8
2
  100
AcDbLine
  10
54.8
  20
2.425
  30
0
  11
52.8
  21
2.425
  31
0
  0
LINE
  5
204
  330
201
  100
AcDbEntity
  8
2
  100
AcDbLine
  10
54.8
  20
-10.754717
  30
0
  11
54.8
  21
2.425
  31
0
  0
SOLID
  5
205
  330
201
  100
AcDbEntity
  8
2
  100
AcDbTrace
  10
54.8
  20
-2.425
  30
0
  11
54.473685
  21
0.053612
  31
0
  12
55.126315
  22
0.053612
  32
0
  13
55.126315
  23
0.053612
  33
0
  0
SOLID
  5
206
  330
201
  100
AcDbEntity
  8
2
  100
AcDbTrace
  10
54.8
  20
2.425
  30
0
  11
55.126315
  21
-0.053612
  31
0
  12
54.473685
  22
-0.053612
  32
0
  13
54.473685
  23
-0.053612
  33
0
  0
MTEXT
  5
207
  330
201
  100
AcDbEntity
  8
2
  100
AcDbMText
  10
54.8
  20
-2.425
  30
0
  11
0
  21
1
  31
0
  40
2
  41
0
  71
8
  72
1
  1
ﾘ4.85
  0
POINT
  5
208
  330
201
  100
AcDbEntity
  8
2
  62
0
  100
AcDbPoint
  10
52.8
  20
-2.425
  30
0
  0
POINT
  5
209
  330
201
  100
AcDbEntity
  8
2
  62
0
  100
AcDbPoint
  10
52.8
  20
2.425
  30
0
  0
POINT
  5
20a
  330
201
  100
AcDbEntity
  8
2
  62
0
  100
AcDbPoint
  10
54.8
  20
2.425
  30
0
  0
ENDBLK
  5
20b
  330
201
  100
AcDbEntity
  8
2
  100
AcDbBlockEnd
  0
BLOCK
  5
20d
  330
20f
  100
AcDbEntity
  8
2
  100
AcDbBlockBegin
  2
*D20e
  70
1
  10
0
  20
0
  30
0
  3
*D20e
  1

  0
LINE
  5
210
  330
20f
  100
AcDbEntity
  8
2
  100
AcDbLine
  10
54.8
  20
2.425
  30
0
  11
54.8
  21
9
  31
0
  0
LINE
  5
211
  330
20f
  100
AcDbEntity
  8
2
  100
AcDbLine
  10
50.43
  20
2.425
  30
0
  11
50.43
  21
9
  31
0
  0
LINE
  5
212
  330
20f
  100
AcDbEntity
  8
2
  100
AcDbLine
  10
54.8
  20
7
  30
0
  11
47.54717
  21
7
  31
0
  0
SOLID
  5
213
  330
20f
  100
AcDbEntity
  8
2
  100
AcDbTrace
  10
54.8
  20
7
  30
0
  11
57.278612
  21
7.326315
  31
0
  12
57.278612
  22
6.673685
  32
0
  13
57.278612
  23
6.673685
  33
0
  0
SOLID
  5
214
  330
20f
  100
AcDbEntity
  8
2
  100
AcDbTrace
  10
50.43
  20
7
  30
0
  11
47.951388
  21
6.673685
  31
0
  12
47.951388
  22
7.326315
  32
0
  13
47.951388
  23
7.326315
  33
0
  0
MTEXT
  5
215
  330
20f
  100
AcDbEntity
  8
2
  100
AcDbMText
  10
53.584884
  20
7
  30
0
  11
1
  21
-0
  31
0
  40
2
  41
0
  71
8
  72
1
  1
4.37
  0
POINT
  5
216
  330
20f
  100
AcDbEntity
  8
2
  62
0
  100
AcDbPoint
  10
54.8
  20
2.425
  30
0
  0
POINT
  5
217
  330
20f
  100
AcDbEntity
  8
2
  62
0
  100
AcDbPoint
  10
50.43
  20
2.425
  30
0
  0
POINT
  5
218
  330
20f
  100
AcDbEntity
  8
2
  62
0
  100
AcDbPoint
  10
47.54717
  20
7
  30
0
  0
ENDBLK
  5
219
  330
20f
  100
AcDbEntity
  8
2
  100
AcDbBlockEnd
  0
BLOCK
  5
21b
  330
21d
  100
AcDbEntity
  8
2
  100
AcDbBlockBegin
  2
*D21c
  70
1
  10
0
  20
0
  30
0
  3
*D21c
  1

  0
LINE
  5
21e
  330
21d
  100
AcDbEntity
  8
2
  100
AcDbLine
  10
60
  20
-15
  30
0
  11
60
  21
20
  31
0
  0
LINE
  5
21f
  330
21d
  100
AcDbEntity
  8
2
  100
AcDbLine
  10
47.7
  20
3
  30
0
  11
47.7
  21
10
  31
0
  0
LINE
  5
220
  330
21d
  100
AcDbEntity
  8
2
  100
AcDbLine
  10
60
  20
8
  30
0
  11
47.7
  21
8
  31
0
  0
SOLID
  5
221
  330
21d
  100
AcDbEntity
  8
2
  100
AcDbTrace
  10
60
  20
8
  30
0
  11
62.478612
  21
8.326315
  31
0
  12
62.478612
  22
7.673685
  32
0
  13
62.478612
  23
7.673685
  33
0
  0
SOLID
  5
222
  330
21d
  100
AcDbEntity
  8
2
  100
AcDbTrace
  10
47.7
  20
8
  30
0
  11
45.221388
  21
7.673685
  31
0
  12
45.221388
  22
8.326315
  32
0
  13
45.221388
  23
8.326315
  33
0
  0
MTEXT
  5
223
  330
21d
  100
AcDbEntity
  8
2
  100
AcDbMText
  10
53.85
  20
8
  30
0
  11
1
  21
-0
  31
0
  40
2
  41
0
  71
8
  72
1
  1
12.3
  0
POINT
  5
224
  330
21d
  100
AcDbEntity
  8
2
  62
0
  100
AcDbPoint
  10
60
  20
-15
  30
0
  0
POINT
  5
225
  330
21d
  100
AcDbEntity
  8
2
  62
0
  100
AcDbPoint
  10
47.7
  20
3
  30
0
  0
POINT
  5
226
  330
21d
  100
AcDbEntity
  8
2
  62
0
  100
AcDbPoint
  10
47.7
  20
8
  30
0
  0
ENDBLK
  5
227
  330
21d
  100
AcDbEntity
  8
2
  100
AcDbBlockEnd
  0
BLOCK
  5
229
  330
22b
  100
AcDbEntity
  8
2
  100
AcDbBlockBegin
  2
*D22a
  70
1
  10
0
  20
0
  30
0
  3
*D22a
  1

  0
LINE
  5
22c
  330
22b
  100
AcDbEntity
  8
2
  100
AcDbLine
  10
54.8
  20
-2.425
  30
0
  11
54.8
  21
-15
  31
0
  0
LINE
  5
22d
  330
22b
  100
AcDbEntity
  8
2
  100
AcDbLine
  10
60
  20
-15
  30
0
  11
60
  21
20
  31
0
  0
LINE
  5
22e
  330
22b
  100
AcDbEntity
  8
2
  100
AcDbLine
  10
54.8
  20
-13
  30
0
  11
60
  21
-13
  31
0
  0
SOLID
  5
22f
  330
22b
  100
AcDbEntity
  8
2
  100
AcDbTrace
  10
54.8
  20
-13
  30
0
  11
57.278612
  21
-12.673685
  31
0
  12
57.278612
  22
-13.326315
  32
0
  13
57.278612
  23
-13.326315
  33
0
  0
SOLID
  5
230
  330
22b
  100
AcDbEntity
  8
2
  100
AcDbTrace
  10
60
  20
-13
  30
0
  11
57.521388
  21
-13.326315
  31
0
  12
57.521388
  22
-12.673685
  32
0
  13
57.521388
  23
-12.673685
  33
0
  0
MTEXT
  5
231
  330
22b
  100
AcDbEntity
  8
2
  100
AcDbMText
  10
57.4
  20
-13
  30
0
  11
1
  21
0
  31
0
  40
2
  41
0
  71
8
  72
1
  1
5.2
  0
POINT
  5
232
  330
22b
  100
AcDbEntity
  8
2
  62
0
  100
AcDbPoint
  10
54.8
  20
-2.425
  30
0
  0
POINT
  5
233
  330
22b
  100
AcDbEntity
  8
2
  62
0
  100
AcDbPoint
  10
60
  20
20
  30
0
  0
POINT
  5
234
  330
22b
  100
AcDbEntity
  8
2
  62
0
  100
AcDbPoint
  10
60
  20
-13
  30
0
  0
ENDBLK
  5
235
  330
22b
  100
AcDbEntity
  8
2
  100
AcDbBlockEnd
  0
ENDSEC
  0
SECTION
  2
ENTITIES
  0
DIMENSION
  5
1ca
  100
AcDbEntity
  8
SK2
  100
AcDbDimension
  2
*D1be
  10
60
  20
18
  30
0
  11
30
  21
18
  31
0
  70
160
  1
<>
  71
5
  3
STANDARD
  42
60
  100
AcDbAlignedDimension
  13
0
  23
2.3
  33
0
  14
60
  24
-15
  34
0
  50
0
  100
AcDbRotatedDimension
  0
DIMENSION
  5
1d8
  100
AcDbEntity
  8
SK2
  100
AcDbDimension
  2
*D1cc
  10
0
  20
13
  30
0
  11
23.85
  21
13
  31
0
  70
160
  1
<>
  71
5
  3
STANDARD
  42
47.7
  100
AcDbAlignedDimension
  13
47.7
  23
3
  33
0
  14
0
  24
2.3
  34
0
  50
0
  100
AcDbRotatedDimension
  0
DIMENSION
  5
1e6
  100
AcDbEntity
  8
SK2
  100
AcDbDimension
  2
*D1da
  10
-10
  20
3
  30
0
  11
-10
  21
0
  31
0
  70
160
  1
%%c<>
  71
5
  3
STANDARD
  42
6
  100
AcDbAlignedDimension
  13
0.7
  23
-3
  33
0
  14
0.7
  24
3
  34
0
  50
-90
  100
AcDbRotatedDimension
  0
DIMENSION
  5
1f4
  100
AcDbEntity
  8
2
  100
AcDbDimension
  2
*D1e8
  10
70
  20
2.5
  30
0
  11
70
  21
0
  31
0
  70
160
  1
%%c<>
  71
5
  3
STANDARD
  42
5
  100
AcDbAlignedDimension
  13
57.5
  23
-2.5
  33
0
  14
57.5
  24
2.5
  34
0
  50
-90
  100
AcDbRotatedDimension
  0
DIMENSION
  5
1fe
  100
AcDbEntity
  8
2
  100
AcDbDimension
  2
*D1f6
  10
57.5
  20
0
  30
0
  11
52.196699
  21
8.838835
  31
0
  70
164
  1
R2.5
  71
5
  3
STANDARD
  100
AcDbRadialDimension
  15
59.267767
  25
1.767767
  35
0
  50
-45
  0
DIMENSION
  5
20c
  100
AcDbEntity
  8
2
  100
AcDbDimension
  2
*D200
  10
54.8
  20
2.425
  30
0
  11
54.8
  21
-2.425
  31
0
  70
160
  1
%%c<>
  71
5
  3
STANDARD
  42
4.85
  100
AcDbAlignedDimension
  13
52.8
  23
-2.425
  33
0
  14
52.8
  24
2.425
  34
0
  50
-90
  100
AcDbRotatedDimension
  0
DIMENSION
  5
21a
  100
AcDbEntity
  8
2
  100
AcDbDimension
  2
*D20e
  10
47.54717
  20
7
  30
0
  11
53.584884
  21
7
  31
0
  70
160
  1
<>
  71
5
  3
STANDARD
  42
4.37
  100
AcDbAlignedDimension
  13
54.8
  23
2.425
  33
0
  14
50.43
  24
2.425
  34
0
  50
0
  100
AcDbRotatedDimension
  0
DIMENSION
  5
228
  100
AcDbEntity
  8
2
  100
AcDbDimension
  2
*D21c
  10
47.7
  20
8
  30
0
  11
53.85
  21
8
  31
0
  70
160
  1
<>
  71
5
  3
STANDARD
  42
12.3
  100
AcDbAlignedDimension
  13
60
  23
-15
  33
0
  14
47.7
  24
3
  34
0
  50
0
  100
AcDbRotatedDimension
  0
DIMENSION
  5
236
  100
AcDbEntity
  8
2
  100
AcDbDimension
  2
*D22a
  10
60
  20
-13
  30
0
  11
57.4
  21
-13
  31
0
  70
160
  1
<>
  71
5
  3
STANDARD
  42
5.2
  100
AcDbAlignedDimension
  13
54.8
  23
-2.425
  33
0
  14
60
  24
20
  34
0
  50
0
  100
AcDbRotatedDimension
  0
ARC
  5
36
  100
AcDbEntity
  8
1
  100
AcDbCircle
  10
50.517156
  20
-3.421195
  30
0
  40
1
  100
AcDbArc
  50
95
  51
105
  0
LINE
  5
37
  100
AcDbEntity
  8
1
  100
AcDbLine
  10
50.43
  20
-2.425
  30
0
  11
54.8
  21
-2.425
  31
0
  0
LINE
  5
38
  100
AcDbEntity
  8
1
  100
AcDbLine
  10
54.8
  20
-2.425
  30
0
  11
54.8
  21
-2.5
  31
0
  0
LINE
  5
39
  100
AcDbEntity
  8
1
  100
AcDbLine
  10
54.8
  20
-2.5
  30
0
  11
57.5
  21
-2.5
  31
0
  0
ARC
  5
3a
  100
AcDbEntity
  8
1
  100
AcDbCircle
  10
57.5
  20
0
  30
0
  40
2.5
  100
AcDbArc
  50
270
  51
0
  0
ARC
  5
3b
  100
AcDbEntity
  8
1
  100
AcDbCircle
  10
57.5
  20
0
  30
0
  40
2.5
  100
AcDbArc
  50
0
  51
90
  0
LINE
  5
3c
  100
AcDbEntity
  8
1
  100
AcDbLine
  10
57.5
  20
2.5
  30
0
  11
54.8
  21
2.5
  31
0
  0
LINE
  5
3d
  100
AcDbEntity
  8
1
  100
AcDbLine
  10
54.8
  20
2.5
  30
0
  11
54.8
  21
2.425
  31
0
  0
LINE
  5
3e
  100
AcDbEntity
  8
1
  100
AcDbLine
  10
54.8
  20
2.425
  30
0
  11
50.43
  21
2.425
  31
0
  0
ARC
  5
3f
  100
AcDbEntity
  8
1
  100
AcDbCircle
  10
50.517156
  20
3.421195
  30
0
  40
1
  100
AcDbArc
  50
255
  51
265
  0
LINE
  5
40
  100
AcDbEntity
  8
1
  100
AcDbLine
  10
50.258337
  20
2.455269
  30
0
  11
48.225372
  21
3
  31
0
  0
LINE
  5
41
  100
AcDbEntity
  8
1
  100
AcDbLine
  10
48.225372
  20
3
  30
0
  11
47.7
  21
3
  31
0
  0
LINE
  5
42
  100
AcDbEntity
  8
1
  100
AcDbLine
  10
47.7
  20
3
  30
0
  11
47.7
  21
-3
  31
0
  0
LINE
  5
43
  100
AcDbEntity
  8
1
  100
AcDbLine
  10
47.7
  20
-3
  30
0
  11
48.225372
  21
-3
  31
0
  0
LINE
  5
44
  100
AcDbEntity
  8
1
  100
AcDbLine
  10
48.225372
  20
-3
  30
0
  11
50.258337
  21
-2.455269
  31
0
  0
LINE
  5
45
  100
AcDbEntity
  8
1
  100
AcDbLine
  10
47.7
  20
-3
  30
0
  11
47.7
  21
3
  31
0
  0
LINE
  5
46
  100
AcDbEntity
  8
1
  100
AcDbLine
  10
47.7
  20
3
  30
0
  11
47.7
  21
-3
  31
0
  0
LINE
  5
47
  100
AcDbEntity
  8
1
  100
AcDbLine
  10
48.225372
  20
3
  30
0
  11
48.225372
  21
-3
  31
0
  0
LINE
  5
48
  100
AcDbEntity
  8
1
  100
AcDbLine
  10
50.258337
  20
-2.455269
  30
0
  11
50.258337
  21
2.455269
  31
0
  0
LINE
  5
49
  100
AcDbEntity
  8
1
  100
AcDbLine
  10
50.43
  20
2.425
  30
0
  11
50.43
  21
-2.425
  31
0
  0
LINE
  5
4a
  100
AcDbEntity
  8
1
  100
AcDbLine
  10
54.8
  20
-2.425
  30
0
  11
54.8
  21
2.425
  31
0
  0
LINE
  5
4b
  100
AcDbEntity
  8
1
  100
AcDbLine
  10
54.8
  20
2.5
  30
0
  11
54.8
  21
-2.5
  31
0
  0
LINE
  5
4c
  100
AcDbEntity
  8
1
  100
AcDbLine
  10
54.8
  20
-2.386306
  30
0
  11
54.8
  21
-2.46202
  31
0
  0
LINE
  5
4d
  100
AcDbEntity
  8
1
  100
AcDbLine
  10
54.8
  20
-2.46202
  30
0
  11
54.9
  21
-2.475202
  31
0
  0
LINE
  5
4e
  100
AcDbEntity
  8
1
  100
AcDbLine
  10
54.9
  20
-2.475202
  30
0
  11
55
  21
-2.485595
  31
0
  0
LINE
  5
4f
  100
AcDbEntity
  8
1
  100
AcDbLine
  10
55
  20
-2.485595
  30
0
  11
55.1
  21
-2.493188
  31
0
  0
LINE
  5
50
  100
AcDbEntity
  8
1
  100
AcDbLine
  10
55.1
  20
-2.493188
  30
0
  11
55.2
  21
-2.497973
  31
0
  0
LINE
  5
51
  100
AcDbEntity
  8
1
  100
AcDbLine
  10
55.2
  20
-2.497973
  30
0
  11
55.3
  21
-2.499944
  31
0
  0
LINE
  5
52
  100
AcDbEntity
  8
1
  100
AcDbLine
  10
55.3
  20
-2.499944
  30
0
  11
55.319996
  21
-2.5
  31
0
  0
LINE
  5
53
  100
AcDbEntity
  8
1
  100
AcDbLine
  10
55.6176
  20
-2.5
  30
0
  11
55.6
  21
-2.468851
  31
0
  0
LINE
  5
54
  100
AcDbEntity
  8
1
  100
AcDbLine
  10
55.6
  20
-2.468851
  30
0
  11
55.5
  21
-2.466972
  31
0
  0
LINE
  5
55
  100
AcDbEntity
  8
1
  100
AcDbLine
  10
55.5
  20
-2.466972
  30
0
  11
55.4
  21
-2.462313
  31
0
  0
LINE
  5
56
  100
AcDbEntity
  8
1
  100
AcDbLine
  10
55.4
  20
-2.462313
  30
0
  11
55.3
  21
-2.45488
  31
0
  0
LINE
  5
57
  100
AcDbEntity
  8
1
  100
AcDbLine
  10
55.3
  20
-2.45488
  30
0
  11
55.2
  21
-2.444683
  31
0
  0
LINE
  5
58
  100
AcDbEntity
  8
1
  100
AcDbLine
  10
55.2
  20
-2.444683
  30
0
  11
55.1
  21
-2.431731
  31
0
  0
LINE
  5
59
  100
AcDbEntity
  8
1
  100
AcDbLine
  10
55.1
  20
-2.431731
  30
0
  11
55
  21
-2.416041
  31
0
  0
LINE
  5
5a
  100
AcDbEntity
  8
1
  100
AcDbLine
  10
55
  20
-2.416041
  30
0
  11
54.9
  21
-2.397629
  31
0
  0
LINE
  5
5b
  100
AcDbEntity
  8
1
  100
AcDbLine
  10
54.9
  20
-2.397629
  30
0
  11
54.8
  21
-2.376516
  31
0
  0
LINE
  5
5c
  100
AcDbEntity
  8
1
  100
AcDbLine
  10
54.8
  20
-2.376516
  30
0
  11
54.8
  21
-2.299781
  31
0
  0
LINE
  5
5d
  100
AcDbEntity
  8
1
  100
AcDbLine
  10
54.8
  20
-2.120377
  30
0
  11
54.8
  21
-2.207371
  31
0
  0
LINE
  5
5e
  100
AcDbEntity
  8
1
  100
AcDbLine
  10
54.8
  20
-2.207371
  30
0
  11
54.9
  21
-2.245514
  31
0
  0
LINE
  5
5f
  100
AcDbEntity
  8
1
  100
AcDbLine
  10
54.9
  20
-2.245514
  30
0
  11
55
  21
-2.281127
  31
0
  0
LINE
  5
60
  100
AcDbEntity
  8
1
  100
AcDbLine
  10
55
  20
-2.281127
  30
0
  11
55.1
  21
-2.314171
  31
0
  0
LINE
  5
61
  100
AcDbEntity
  8
1
  100
AcDbLine
  10
55.1
  20
-2.314171
  30
0
  11
55.2
  21
-2.344607
  31
0
  0
LINE
  5
62
  100
AcDbEntity
  8
1
  100
AcDbLine
  10
55.2
  20
-2.344607
  30
0
  11
55.3
  21
-2.372403
  31
0
  0
LINE
  5
63
  100
AcDbEntity
  8
1
  100
AcDbLine
  10
55.3
  20
-2.372403
  30
0
  11
55.4
  21
-2.397527
  31
0
  0
LINE
  5
64
  100
AcDbEntity
  8
1
  100
AcDbLine
  10
55.4
  20
-2.397527
  30
0
  11
55.5
  21
-2.419949
  31
0
  0
LINE
  5
65
  100
AcDbEntity
  8
1
  100
AcDbLine
  10
55.5
  20
-2.419949
  30
0
  11
55.6
  21
-2.439646
  31
0
  0
LINE
  5
66
  100
AcDbEntity
  8
1
  100
AcDbLine
  10
55.6
  20
-2.439646
  30
0
  11
55.7
  21
-2.456595
  31
0
  0
LINE
  5
67
  100
AcDbEntity
  8
1
  100
AcDbLine
  10
55.7
  20
-2.456595
  30
0
  11
55.8
  21
-2.470777
  31
0
  0
LINE
  5
68
  100
AcDbEntity
  8
1
  100
AcDbLine
  10
55.8
  20
-2.470777
  30
0
  11
55.9
  21
-2.482175
  31
0
  0
LINE
  5
69
  100
AcDbEntity
  8
1
  100
AcDbLine
  10
55.9
  20
-2.482175
  30
0
  11
56
  21
-2.490777
  31
0
  0
LINE
  5
6a
  100
AcDbEntity
  8
1
  100
AcDbLine
  10
56
  20
-2.490777
  30
0
  11
56.1
  21
-2.496574
  31
0
  0
LINE
  5
6b
  100
AcDbEntity
  8
1
  100
AcDbLine
  10
56.1
  20
-2.496574
  30
0
  11
56.2
  21
-2.499558
  31
0
  0
LINE
  5
6c
  100
AcDbEntity
  8
1
  100
AcDbLine
  10
56.2
  20
-2.499558
  30
0
  11
56.255995
  21
-2.5
  31
0
  0
LINE
  5
6d
  100
AcDbEntity
  8
1
  100
AcDbLine
  10
57.5
  20
-2.5
  30
0
  11
57.5
  21
2.5
  31
0
  0
LINE
  5
6e
  100
AcDbEntity
  8
1
  100
AcDbLine
  10
56.255995
  20
2.5
  30
0
  11
56.3
  21
2.499727
  31
0
  0
LINE
  5
6f
  100
AcDbEntity
  8
1
  100
AcDbLine
  10
56.3
  20
2.499727
  30
0
  11
56.4
  21
2.49708
  31
0
  0
LINE
  5
70
  100
AcDbEntity
  8
1
  100
AcDbLine
  10
56.4
  20
2.49708
  30
0
  11
56.5
  21
2.491621
  31
0
  0
LINE
  5
71
  100
AcDbEntity
  8
1
  100
AcDbLine
  10
56.5
  20
2.491621
  30
0
  11
56.6
  21
2.483354
  31
0
  0
LINE
  5
72
  100
AcDbEntity
  8
1
  100
AcDbLine
  10
56.6
  20
2.483354
  30
0
  11
56.7
  21
2.472291
  31
0
  0
LINE
  5
73
  100
AcDbEntity
  8
1
  100
AcDbLine
  10
56.7
  20
2.472291
  30
0
  11
56.8
  21
2.458442
  31
0
  0
LINE
  5
74
  100
AcDbEntity
  8
1
  100
AcDbLine
  10
56.8
  20
2.458442
  30
0
  11
56.9
  21
2.441824
  31
0
  0
LINE
  5
75
  100
AcDbEntity
  8
1
  100
AcDbLine
  10
56.9
  20
2.441824
  30
0
  11
57
  21
2.422456
  31
0
  0
LINE
  5
76
  100
AcDbEntity
  8
1
  100
AcDbLine
  10
57
  20
2.422456
  30
0
  11
57.1
  21
2.400359
  31
0
  0
LINE
  5
77
  100
AcDbEntity
  8
1
  100
AcDbLine
  10
57.1
  20
2.400359
  30
0
  11
57.2
  21
2.375558
  31
0
  0
LINE
  5
78
  100
AcDbEntity
  8
1
  100
AcDbLine
  10
57.2
  20
2.375558
  30
0
  11
57.3
  21
2.348081
  31
0
  0
LINE
  5
79
  100
AcDbEntity
  8
1
  100
AcDbLine
  10
57.3
  20
2.348081
  30
0
  11
57.4
  21
2.317959
  31
0
  0
LINE
  5
7a
  100
AcDbEntity
  8
1
  100
AcDbLine
  10
57.4
  20
2.317959
  30
0
  11
57.5
  21
2.285226
  31
0
  0
LINE
  5
7b
  100
AcDbEntity
  8
1
  100
AcDbLine
  10
57.5
  20
2.285226
  30
0
  11
57.6
  21
2.248621
  31
0
  0
LINE
  5
7c
  100
AcDbEntity
  8
1
  100
AcDbLine
  10
57.6
  20
2.248621
  30
0
  11
57.7
  21
2.207139
  31
0
  0
LINE
  5
7d
  100
AcDbEntity
  8
1
  100
AcDbLine
  10
57.7
  20
2.207139
  30
0
  11
57.8
  21
2.161203
  31
0
  0
LINE
  5
7e
  100
AcDbEntity
  8
1
  100
AcDbLine
  10
57.8
  20
2.161203
  30
0
  11
57.9
  21
2.111243
  31
0
  0
LINE
  5
7f
  100
AcDbEntity
  8
1
  100
AcDbLine
  10
57.9
  20
2.111243
  30
0
  11
58
  21
2.057703
  31
0
  0
LINE
  5
80
  100
AcDbEntity
  8
1
  100
AcDbLine
  10
58
  20
2.057703
  30
0
  11
58.1
  21
2.001038
  31
0
  0
LINE
  5
81
  100
AcDbEntity
  8
1
  100
AcDbLine
  10
58.1
  20
2.001038
  30
0
  11
58.2
  21
1.941718
  31
0
  0
LINE
  5
82
  100
AcDbEntity
  8
1
  100
AcDbLine
  10
58.2
  20
1.941718
  30
0
  11
58.3
  21
1.880232
  31
0
  0
LINE
  5
83
  100
AcDbEntity
  8
1
  100
AcDbLine
  10
58.3
  20
1.880232
  30
0
  11
58.4
  21
1.817093
  31
0
  0
LINE
  5
84
  100
AcDbEntity
  8
1
  100
AcDbLine
  10
58.4
  20
1.817093
  30
0
  11
58.5
  21
1.752839
  31
0
  0
LINE
  5
85
  100
AcDbEntity
  8
1
  100
AcDbLine
  10
58.5
  20
1.752839
  30
0
  11
58.6
  21
1.688039
  31
0
  0
LINE
  5
86
  100
AcDbEntity
  8
1
  100
AcDbLine
  10
58.6
  20
1.688039
  30
0
  11
58.7
  21
1.623306
  31
0
  0
LINE
  5
87
  100
AcDbEntity
  8
1
  100
AcDbLine
  10
58.7
  20
1.623306
  30
0
  11
58.8
  21
1.559302
  31
0
  0
LINE
  5
88
  100
AcDbEntity
  8
1
  100
AcDbLine
  10
58.8
  20
1.559302
  30
0
  11
58.9
  21
1.496759
  31
0
  0
LINE
  5
89
  100
AcDbEntity
  8
1
  100
AcDbLine
  10
58.9
  20
1.496759
  30
0
  11
59
  21
1.436502
  31
0
  0
LINE
  5
8a
  100
AcDbEntity
  8
1
  100
AcDbLine
  10
59
  20
1.436502
  30
0
  11
59.1
  21
1.379488
  31
0
  0
LINE
  5
8b
  100
AcDbEntity
  8
1
  100
AcDbLine
  10
59.1
  20
1.379488
  30
0
  11
59.2
  21
1.326878
  31
0
  0
LINE
  5
8c
  100
AcDbEntity
  8
1
  100
AcDbLine
  10
59.2
  20
1.326878
  30
0
  11
59.3
  21
1.280166
  31
0
  0
LINE
  5
8d
  100
AcDbEntity
  8
1
  100
AcDbLine
  10
59.3
  20
1.280166
  30
0
  11
59.4
  21
1.24146
  31
0
  0
LINE
  5
8e
  100
AcDbEntity
  8
1
  100
AcDbLine
  10
59.4
  20
1.24146
  30
0
  11
59.5
  21
1.214247
  31
0
  0
LINE
  5
8f
  100
AcDbEntity
  8
1
  100
AcDbLine
  10
59.5
  20
1.214247
  30
0
  11
59.6
  21
1.206668
  31
0
  0
LINE
  5
90
  100
AcDbEntity
  8
1
  100
AcDbLine
  10
59.6
  20
1.206668
  30
0
  11
59.6
  21
1.356466
  31
0
  0
LINE
  5
91
  100
AcDbEntity
  8
1
  100
AcDbLine
  10
59.6
  20
1.356466
  30
0
  11
59.6
  21
1.280516
  31
0
  0
LINE
  5
92
  100
AcDbEntity
  8
1
  100
AcDbLine
  10
59.6
  20
1.356466
  30
0
  11
59.6
  21
1.206668
  31
0
  0
LINE
  5
93
  100
AcDbEntity
  8
1
  100
AcDbLine
  10
59.6
  20
0.146308
  30
0
  11
59.6
  21
-0.61964
  31
0
  0
LINE
  5
94
  100
AcDbEntity
  8
1
  100
AcDbLine
  10
59.6
  20
-0.380796
  30
0
  11
59.6
  21
0.386391
  31
0
  0
LINE
  5
95
  100
AcDbEntity
  8
1
  100
AcDbLine
  10
59.6
  20
0.386391
  30
0
  11
59.5
  21
0.543335
  31
0
  0
LINE
  5
96
  100
AcDbEntity
  8
1
  100
AcDbLine
  10
59.5
  20
0.543335
  30
0
  11
59.4
  21
0.648579
  31
0
  0
LINE
  5
97
  100
AcDbEntity
  8
1
  100
AcDbLine
  10
59.4
  20
0.648579
  30
0
  11
59.3
  21
0.729041
  31
0
  0
LINE
  5
98
  100
AcDbEntity
  8
1
  100
AcDbLine
  10
59.3
  20
0.729041
  30
0
  11
59.2
  21
0.796426
  31
0
  0
LINE
  5
99
  100
AcDbEntity
  8
1
  100
AcDbLine
  10
59.2
  20
0.796426
  30
0
  11
59.1
  21
0.865962
  31
0
  0
LINE
  5
9a
  100
AcDbEntity
  8
1
  100
AcDbLine
  10
59.1
  20
0.865962
  30
0
  11
59
  21
0.938582
  31
0
  0
LINE
  5
9b
  100
AcDbEntity
  8
1
  100
AcDbLine
  10
59
  20
0.938582
  30
0
  11
58.9
  21
1.013532
  31
0
  0
LINE
  5
9c
  100
AcDbEntity
  8
1
  100
AcDbLine
  10
58.9
  20
1.013532
  30
0
  11
58.8
  21
1.090132
  31
0
  0
LINE
  5
9d
  100
AcDbEntity
  8
1
  100
AcDbLine
  10
58.8
  20
1.090132
  30
0
  11
58.7
  21
1.167755
  31
0
  0
LINE
  5
9e
  100
AcDbEntity
  8
1
  100
AcDbLine
  10
58.7
  20
1.167755
  30
0
  11
58.6
  21
1.245814
  31
0
  0
LINE
  5
9f
  100
AcDbEntity
  8
1
  100
AcDbLine
  10
58.6
  20
1.245814
  30
0
  11
58.5
  21
1.323761
  31
0
  0
LINE
  5
a0
  100
AcDbEntity
  8
1
  100
AcDbLine
  10
58.5
  20
1.323761
  30
0
  11
58.4
  21
1.401073
  31
0
  0
LINE
  5
a1
  100
AcDbEntity
  8
1
  100
AcDbLine
  10
58.4
  20
1.401073
  30
0
  11
58.3
  21
1.477255
  31
0
  0
LINE
  5
a2
  100
AcDbEntity
  8
1
  100
AcDbLine
  10
58.3
  20
1.477255
  30
0
  11
58.2
  21
1.551829
  31
0
  0
LINE
  5
a3
  100
AcDbEntity
  8
1
  100
AcDbLine
  10
58.2
  20
1.551829
  30
0
  11
58.1
  21
1.62434
  31
0
  0
LINE
  5
a4
  100
AcDbEntity
  8
1
  100
AcDbLine
  10
58.1
  20
1.62434
  30
0
  11
58
  21
1.694345
  31
0
  0
LINE
  5
a5
  100
AcDbEntity
  8
1
  100
AcDbLine
  10
58
  20
1.694345
  30
0
  11
57.9
  21
1.761419
  31
0
  0
LINE
  5
a6
  100
AcDbEntity
  8
1
  100
AcDbLine
  10
57.9
  20
1.761419
  30
0
  11
57.8
  21
1.825148
  31
0
  0
LINE
  5
a7
  100
AcDbEntity
  8
1
  100
AcDbLine
  10
57.8
  20
1.825148
  30
0
  11
57.7
  21
1.88513
  31
0
  0
LINE
  5
a8
  100
AcDbEntity
  8
1
  100
AcDbLine
  10
57.7
  20
1.88513
  30
0
  11
57.6
  21
1.940974
  31
0
  0
LINE
  5
a9
  100
AcDbEntity
  8
1
  100
AcDbLine
  10
57.6
  20
1.940974
  30
0
  11
57.5
  21
1.9923
  31
0
  0
LINE
  5
aa
  100
AcDbEntity
  8
1
  100
AcDbLine
  10
57.5
  20
1.9923
  30
0
  11
57.4
  21
2.04011
  31
0
  0
LINE
  5
ab
  100
AcDbEntity
  8
1
  100
AcDbLine
  10
57.4
  20
2.04011
  30
0
  11
57.3
  21
2.085621
  31
0
  0
LINE
  5
ac
  100
AcDbEntity
  8
1
  100
AcDbLine
  10
57.3
  20
2.085621
  30
0
  11
57.2
  21
2.128784
  31
0
  0
LINE
  5
ad
  100
AcDbEntity
  8
1
  100
AcDbLine
  10
57.2
  20
2.128784
  30
0
  11
57.1
  21
2.169548
  31
0
  0
LINE
  5
ae
  100
AcDbEntity
  8
1
  100
AcDbLine
  10
57.1
  20
2.169548
  30
0
  11
57
  21
2.207869
  31
0
  0
LINE
  5
af
  100
AcDbEntity
  8
1
  100
AcDbLine
  10
57
  20
2.207869
  30
0
  11
56.9
  21
2.243703
  31
0
  0
LINE
  5
b0
  100
AcDbEntity
  8
1
  100
AcDbLine
  10
56.9
  20
2.243703
  30
0
  11
56.8
  21
2.277009
  31
0
  0
LINE
  5
b1
  100
AcDbEntity
  8
1
  100
AcDbLine
  10
56.8
  20
2.277009
  30
0
  11
56.7
  21
2.30775
  31
0
  0
LINE
  5
b2
  100
AcDbEntity
  8
1
  100
AcDbLine
  10
56.7
  20
2.30775
  30
0
  11
56.6
  21
2.335892
  31
0
  0
LINE
  5
b3
  100
AcDbEntity
  8
1
  100
AcDbLine
  10
56.6
  20
2.335892
  30
0
  11
56.5
  21
2.361403
  31
0
  0
LINE
  5
b4
  100
AcDbEntity
  8
1
  100
AcDbLine
  10
56.5
  20
2.361403
  30
0
  11
56.4
  21
2.384253
  31
0
  0
LINE
  5
b5
  100
AcDbEntity
  8
1
  100
AcDbLine
  10
56.4
  20
2.384253
  30
0
  11
56.3
  21
2.404418
  31
0
  0
LINE
  5
b6
  100
AcDbEntity
  8
1
  100
AcDbLine
  10
56.3
  20
2.404418
  30
0
  11
56.2
  21
2.421875
  31
0
  0
LINE
  5
b7
  100
AcDbEntity
  8
1
  100
AcDbLine
  10
56.2
  20
2.421875
  30
0
  11
56.1
  21
2.436603
  31
0
  0
LINE
  5
b8
  100
AcDbEntity
  8
1
  100
AcDbLine
  10
56.1
  20
2.436603
  30
0
  11
56
  21
2.448587
  31
0
  0
LINE
  5
b9
  100
AcDbEntity
  8
1
  100
AcDbLine
  10
56
  20
2.448587
  30
0
  11
55.9
  21
2.457812
  31
0
  0
LINE
  5
ba
  100
AcDbEntity
  8
1
  100
AcDbLine
  10
55.9
  20
2.457812
  30
0
  11
55.8
  21
2.464269
  31
0
  0
LINE
  5
bb
  100
AcDbEntity
  8
1
  100
AcDbLine
  10
55.8
  20
2.464269
  30
0
  11
55.7
  21
2.46795
  31
0
  0
LINE
  5
bc
  100
AcDbEntity
  8
1
  100
AcDbLine
  10
55.7
  20
2.46795
  30
0
  11
55.6176
  21
2.5
  31
0
  0
LINE
  5
bd
  100
AcDbEntity
  8
1
  100
AcDbLine
  10
55.319996
  20
2.5
  30
0
  11
55.4
  21
2.499099
  31
0
  0
LINE
  5
be
  100
AcDbEntity
  8
1
  100
AcDbLine
  10
55.4
  20
2.499099
  30
0
  11
55.5
  21
2.495439
  31
0
  0
LINE
  5
bf
  100
AcDbEntity
  8
1
  100
AcDbLine
  10
55.5
  20
2.495439
  30
0
  11
55.6
  21
2.488968
  31
0
  0
LINE
  5
c0
  100
AcDbEntity
  8
1
  100
AcDbLine
  10
55.6
  20
2.488968
  30
0
  11
55.7
  21
2.479693
  31
0
  0
LINE
  5
c1
  100
AcDbEntity
  8
1
  100
AcDbLine
  10
55.7
  20
2.479693
  30
0
  11
55.8
  21
2.467625
  31
0
  0
LINE
  5
c2
  100
AcDbEntity
  8
1
  100
AcDbLine
  10
55.8
  20
2.467625
  30
0
  11
55.9
  21
2.452777
  31
0
  0
LINE
  5
c3
  100
AcDbEntity
  8
1
  100
AcDbLine
  10
55.9
  20
2.452777
  30
0
  11
56
  21
2.435167
  31
0
  0
LINE
  5
c4
  100
AcDbEntity
  8
1
  100
AcDbLine
  10
56
  20
2.435167
  30
0
  11
56.1
  21
2.414814
  31
0
  0
LINE
  5
c5
  100
AcDbEntity
  8
1
  100
AcDbLine
  10
56.1
  20
2.414814
  30
0
  11
56.2
  21
2.39174
  31
0
  0
LINE
  5
c6
  100
AcDbEntity
  8
1
  100
AcDbLine
  10
56.2
  20
2.39174
  30
0
  11
56.3
  21
2.365972
  31
0
  0
LINE
  5
c7
  100
AcDbEntity
  8
1
  100
AcDbLine
  10
56.3
  20
2.365972
  30
0
  11
56.4
  21
2.337539
  31
0
  0
LINE
  5
c8
  100
AcDbEntity
  8
1
  100
AcDbLine
  10
56.4
  20
2.337539
  30
0
  11
56.5
  21
2.306473
  31
0
  0
LINE
  5
c9
  100
AcDbEntity
  8
1
  100
AcDbLine
  10
56.5
  20
2.306473
  30
0
  11
56.6
  21
2.272809
  31
0
  0
LINE
  5
ca
  100
AcDbEntity
  8
1
  100
AcDbLine
  10
56.6
  20
2.272809
  30
0
  11
56.7
  21
2.236585
  31
0
  0
LINE
  5
cb
  100
AcDbEntity
  8
1
  100
AcDbLine
  10
56.7
  20
2.236585
  30
0
  11
56.8
  21
2.197842
  31
0
  0
LINE
  5
cc
  100
AcDbEntity
  8
1
  100
AcDbLine
  10
56.8
  20
2.197842
  30
0
  11
56.9
  21
2.156622
  31
0
  0
LINE
  5
cd
  100
AcDbEntity
  8
1
  100
AcDbLine
  10
56.9
  20
2.156622
  30
0
  11
57
  21
2.112974
  31
0
  0
LINE
  5
ce
  100
AcDbEntity
  8
1
  100
AcDbLine
  10
57
  20
2.112974
  30
0
  11
57.1
  21
2.066945
  31
0
  0
LINE
  5
cf
  100
AcDbEntity
  8
1
  100
AcDbLine
  10
57.1
  20
2.066945
  30
0
  11
57.2
  21
2.018588
  31
0
  0
LINE
  5
d0
  100
AcDbEntity
  8
1
  100
AcDbLine
  10
57.2
  20
2.018588
  30
0
  11
57.3
  21
1.967957
  31
0
  0
LINE
  5
d1
  100
AcDbEntity
  8
1
  100
AcDbLine
  10
57.3
  20
1.967957
  30
0
  11
57.4
  21
1.915109
  31
0
  0
LINE
  5
d2
  100
AcDbEntity
  8
1
  100
AcDbLine
  10
57.4
  20
1.915109
  30
0
  11
57.5
  21
1.860105
  31
0
  0
LINE
  5
d3
  100
AcDbEntity
  8
1
  100
AcDbLine
  10
57.5
  20
1.860105
  30
0
  11
57.6
  21
1.801756
  31
0
  0
LINE
  5
d4
  100
AcDbEntity
  8
1
  100
AcDbLine
  10
57.6
  20
1.801756
  30
0
  11
57.7
  21
1.739091
  31
0
  0
LINE
  5
d5
  100
AcDbEntity
  8
1
  100
AcDbLine
  10
57.7
  20
1.739091
  30
0
  11
57.8
  21
1.672495
  31
0
  0
LINE
  5
d6
  100
AcDbEntity
  8
1
  100
AcDbLine
  10
57.8
  20
1.672495
  30
0
  11
57.9
  21
1.602365
  31
0
  0
LINE
  5
d7
  100
AcDbEntity
  8
1
  100
AcDbLine
  10
57.9
  20
1.602365
  30
0
  11
58
  21
1.529108
  31
0
  0
LINE
  5
d8
  100
AcDbEntity
  8
1
  100
AcDbLine
  10
58
  20
1.529108
  30
0
  11
58.1
  21
1.453143
  31
0
  0
LINE
  5
d9
  100
AcDbEntity
  8
1
  100
AcDbLine
  10
58.1
  20
1.453143
  30
0
  11
58.2
  21
1.374902
  31
0
  0
LINE
  5
da
  100
AcDbEntity
  8
1
  100
AcDbLine
  10
58.2
  20
1.374902
  30
0
  11
58.3
  21
1.294832
  31
0
  0
LINE
  5
db
  100
AcDbEntity
  8
1
  100
AcDbLine
  10
58.3
  20
1.294832
  30
0
  11
58.4
  21
1.213396
  31
0
  0
LINE
  5
dc
  100
AcDbEntity
  8
1
  100
AcDbLine
  10
58.4
  20
1.213396
  30
0
  11
58.5
  21
1.131078
  31
0
  0
LINE
  5
dd
  100
AcDbEntity
  8
1
  100
AcDbLine
  10
58.5
  20
1.131078
  30
0
  11
58.6
  21
1.048379
  31
0
  0
LINE
  5
de
  100
AcDbEntity
  8
1
  100
AcDbLine
  10
58.6
  20
1.048379
  30
0
  11
58.7
  21
0.965829
  31
0
  0
LINE
  5
df
  100
AcDbEntity
  8
1
  100
AcDbLine
  10
58.7
  20
0.965829
  30
0
  11
58.8
  21
0.883987
  31
0
  0
LINE
  5
e0
  100
AcDbEntity
  8
1
  100
AcDbLine
  10
58.8
  20
0.883987
  30
0
  11
58.9
  21
0.803448
  31
0
  0
LINE
  5
e1
  100
AcDbEntity
  8
1
  100
AcDbLine
  10
58.9
  20
0.803448
  30
0
  11
59
  21
0.724852
  31
0
  0
LINE
  5
e2
  100
AcDbEntity
  8
1
  100
AcDbLine
  10
59
  20
0.724852
  30
0
  11
59.1
  21
0.648898
  31
0
  0
LINE
  5
e3
  100
AcDbEntity
  8
1
  100
AcDbLine
  10
59.1
  20
0.648898
  30
0
  11
59.2
  21
0.576361
  31
0
  0
LINE
  5
e4
  100
AcDbEntity
  8
1
  100
AcDbLine
  10
59.2
  20
0.576361
  30
0
  11
59.3
  21
0.506219
  31
0
  0
LINE
  5
e5
  100
AcDbEntity
  8
1
  100
AcDbLine
  10
59.3
  20
0.506219
  30
0
  11
59.4
  21
0.422108
  31
0
  0
LINE
  5
e6
  100
AcDbEntity
  8
1
  100
AcDbLine
  10
59.4
  20
0.422108
  30
0
  11
59.5
  21
0.311517
  31
0
  0
LINE
  5
e7
  100
AcDbEntity
  8
1
  100
AcDbLine
  10
59.5
  20
0.311517
  30
0
  11
59.6
  21
0.146308
  31
0
  0
LINE
  5
e8
  100
AcDbEntity
  8
1
  100
AcDbLine
  10
59.6
  20
0.146308
  30
0
  11
59.6
  21
-0.61964
  31
0
  0
LINE
  5
e9
  100
AcDbEntity
  8
1
  100
AcDbLine
  10
59.6
  20
-0.61964
  30
0
  11
59.5
  21
-0.880685
  31
0
  0
LINE
  5
ea
  100
AcDbEntity
  8
1
  100
AcDbLine
  10
59.5
  20
-0.880685
  30
0
  11
59.4
  21
-1.048226
  31
0
  0
LINE
  5
eb
  100
AcDbEntity
  8
1
  100
AcDbLine
  10
59.4
  20
-1.048226
  30
0
  11
59.3
  21
-1.170971
  31
0
  0
LINE
  5
ec
  100
AcDbEntity
  8
1
  100
AcDbLine
  10
59.3
  20
-1.170971
  30
0
  11
59.2
  21
-1.264672
  31
0
  0
LINE
  5
ed
  100
AcDbEntity
  8
1
  100
AcDbLine
  10
59.2
  20
-1.264672
  30
0
  11
59.1
  21
-1.336792
  31
0
  0
LINE
  5
ee
  100
AcDbEntity
  8
1
  100
AcDbLine
  10
59.1
  20
-1.336792
  30
0
  11
59
  21
-1.391569
  31
0
  0
LINE
  5
ef
  100
AcDbEntity
  8
1
  100
AcDbLine
  10
59
  20
-1.391569
  30
0
  11
58.9
  21
-1.431682
  31
0
  0
LINE
  5
f0
  100
AcDbEntity
  8
1
  100
AcDbLine
  10
58.9
  20
-1.431682
  30
0
  11
58.8
  21
-1.458964
  31
0
  0
LINE
  5
f1
  100
AcDbEntity
  8
1
  100
AcDbLine
  10
58.8
  20
-1.458964
  30
0
  11
58.7
  21
-1.474746
  31
0
  0
LINE
  5
f2
  100
AcDbEntity
  8
1
  100
AcDbLine
  10
58.7
  20
-1.474746
  30
0
  11
58.6
  21
-1.480042
  31
0
  0
LINE
  5
f3
  100
AcDbEntity
  8
1
  100
AcDbLine
  10
58.6
  20
-1.480042
  30
0
  11
58.5
  21
-1.475654
  31
0
  0
LINE
  5
f4
  100
AcDbEntity
  8
1
  100
AcDbLine
  10
58.5
  20
-1.475654
  30
0
  11
58.4
  21
-1.462249
  31
0
  0
LINE
  5
f5
  100
AcDbEntity
  8
1
  100
AcDbLine
  10
58.4
  20
-1.462249
  30
0
  11
58.3
  21
-1.440391
  31
0
  0
LINE
  5
f6
  100
AcDbEntity
  8
1
  100
AcDbLine
  10
58.3
  20
-1.440391
  30
0
  11
58.2
  21
-1.410579
  31
0
  0
LINE
  5
f7
  100
AcDbEntity
  8
1
  100
AcDbLine
  10
58.2
  20
-1.410579
  30
0
  11
58.1
  21
-1.373262
  31
0
  0
LINE
  5
f8
  100
AcDbEntity
  8
1
  100
AcDbLine
  10
58.1
  20
-1.373262
  30
0
  11
58
  21
-1.328856
  31
0
  0
LINE
  5
f9
  100
AcDbEntity
  8
1
  100
AcDbLine
  10
58
  20
-1.328856
  30
0
  11
57.9
  21
-1.277752
  31
0
  0
LINE
  5
fa
  100
AcDbEntity
  8
1
  100
AcDbLine
  10
57.9
  20
-1.277752
  30
0
  11
57.8
  21
-1.220329
  31
0
  0
LINE
  5
fb
  100
AcDbEntity
  8
1
  100
AcDbLine
  10
57.8
  20
-1.220329
  30
0
  11
57.7
  21
-1.156951
  31
0
  0
LINE
  5
fc
  100
AcDbEntity
  8
1
  100
AcDbLine
  10
57.7
  20
-1.156951
  30
0
  11
57.6
  21
-1.087981
  31
0
  0
LINE
  5
fd
  100
AcDbEntity
  8
1
  100
AcDbLine
  10
57.6
  20
-1.087981
  30
0
  11
57.5
  21
-1.013777
  31
0
  0
LINE
  5
fe
  100
AcDbEntity
  8
1
  100
AcDbLine
  10
57.5
  20
-1.013777
  30
0
  11
57.4
  21
-0.936519
  31
0
  0
LINE
  5
ff
  100
AcDbEntity
  8
1
  100
AcDbLine
  10
57.4
  20
-0.936519
  30
0
  11
57.3
  21
-0.858206
  31
0
  0
LINE
  5
100
  100
AcDbEntity
  8
1
  100
AcDbLine
  10
57.3
  20
-0.858206
  30
0
  11
57.2
  21
-0.778927
  31
0
  0
LINE
  5
101
  100
AcDbEntity
  8
1
  100
AcDbLine
  10
57.2
  20
-0.778927
  30
0
  11
57.1
  21
-0.69877
  31
0
  0
LINE
  5
102
  100
AcDbEntity
  8
1
  100
AcDbLine
  10
57.1
  20
-0.69877
  30
0
  11
57
  21
-0.617826
  31
0
  0
LINE
  5
103
  100
AcDbEntity
  8
1
  100
AcDbLine
  10
57
  20
-0.617826
  30
0
  11
56.9
  21
-0.536186
  31
0
  0
LINE
  5
104
  100
AcDbEntity
  8
1
  100
AcDbLine
  10
56.9
  20
-0.536186
  30
0
  11
56.8
  21
-0.453942
  31
0
  0
LINE
  5
105
  100
AcDbEntity
  8
1
  100
AcDbLine
  10
56.8
  20
-0.453942
  30
0
  11
56.7
  21
-0.371186
  31
0
  0
LINE
  5
106
  100
AcDbEntity
  8
1
  100
AcDbLine
  10
56.7
  20
-0.371186
  30
0
  11
56.6
  21
-0.288013
  31
0
  0
LINE
  5
107
  100
AcDbEntity
  8
1
  100
AcDbLine
  10
56.6
  20
-0.288013
  30
0
  11
56.5
  21
-0.204515
  31
0
  0
LINE
  5
108
  100
AcDbEntity
  8
1
  100
AcDbLine
  10
56.5
  20
-0.204515
  30
0
  11
56.4
  21
-0.120787
  31
0
  0
LINE
  5
109
  100
AcDbEntity
  8
1
  100
AcDbLine
  10
56.4
  20
-0.120787
  30
0
  11
56.3
  21
-0.036923
  31
0
  0
LINE
  5
10a
  100
AcDbEntity
  8
1
  100
AcDbLine
  10
56.3
  20
-0.036923
  30
0
  11
56.2
  21
0.046983
  31
0
  0
LINE
  5
10b
  100
AcDbEntity
  8
1
  100
AcDbLine
  10
56.2
  20
0.046983
  30
0
  11
56.1
  21
0.130836
  31
0
  0
LINE
  5
10c
  100
AcDbEntity
  8
1
  100
AcDbLine
  10
56.1
  20
0.130836
  30
0
  11
56
  21
0.214542
  31
0
  0
LINE
  5
10d
  100
AcDbEntity
  8
1
  100
AcDbLine
  10
56
  20
0.214542
  30
0
  11
55.9
  21
0.298006
  31
0
  0
LINE
  5
10e
  100
AcDbEntity
  8
1
  100
AcDbLine
  10
55.9
  20
0.298006
  30
0
  11
55.8
  21
0.381134
  31
0
  0
LINE
  5
10f
  100
AcDbEntity
  8
1
  100
AcDbLine
  10
55.8
  20
0.381134
  30
0
  11
55.7
  21
0.463833
  31
0
  0
LINE
  5
110
  100
AcDbEntity
  8
1
  100
AcDbLine
  10
55.7
  20
0.463833
  30
0
  11
55.6
  21
0.546009
  31
0
  0
LINE
  5
111
  100
AcDbEntity
  8
1
  100
AcDbLine
  10
55.6
  20
0.546009
  30
0
  11
55.5
  21
0.62757
  31
0
  0
LINE
  5
112
  100
AcDbEntity
  8
1
  100
AcDbLine
  10
55.5
  20
0.62757
  30
0
  11
55.4
  21
0.708425
  31
0
  0
LINE
  5
113
  100
AcDbEntity
  8
1
  100
AcDbLine
  10
55.4
  20
0.708425
  30
0
  11
55.3
  21
0.788481
  31
0
  0
LINE
  5
114
  100
AcDbEntity
  8
1
  100
AcDbLine
  10
55.3
  20
0.788481
  30
0
  11
55.2
  21
0.86765
  31
0
  0
LINE
  5
115
  100
AcDbEntity
  8
1
  100
AcDbLine
  10
55.2
  20
0.86765
  30
0
  11
55.1
  21
0.94584
  31
0
  0
LINE
  5
116
  100
AcDbEntity
  8
1
  100
AcDbLine
  10
55.1
  20
0.94584
  30
0
  11
55
  21
1.022966
  31
0
  0
LINE
  5
117
  100
AcDbEntity
  8
1
  100
AcDbLine
  10
55
  20
1.022966
  30
0
  11
54.9
  21
1.098939
  31
0
  0
LINE
  5
118
  100
AcDbEntity
  8
1
  100
AcDbLine
  10
54.9
  20
1.098939
  30
0
  11
54.8
  21
1.173674
  31
0
  0
LINE
  5
119
  100
AcDbEntity
  8
1
  100
AcDbLine
  10
54.8
  20
1.173674
  30
0
  11
54.8
  21
1.176702
  31
0
  0
LINE
  5
11a
  100
AcDbEntity
  8
1
  100
AcDbLine
  10
54.8
  20
0.666021
  30
0
  11
54.8
  21
0.669039
  31
0
  0
LINE
  5
11b
  100
AcDbEntity
  8
1
  100
AcDbLine
  10
54.8
  20
0.669039
  30
0
  11
54.9
  21
0.588912
  31
0
  0
LINE
  5
11c
  100
AcDbEntity
  8
1
  100
AcDbLine
  10
54.9
  20
0.588912
  30
0
  11
55
  21
0.508121
  31
0
  0
LINE
  5
11d
  100
AcDbEntity
  8
1
  100
AcDbLine
  10
55
  20
0.508121
  30
0
  11
55.1
  21
0.426758
  31
0
  0
LINE
  5
11e
  100
AcDbEntity
  8
1
  100
AcDbLine
  10
55.1
  20
0.426758
  30
0
  11
55.2
  21
0.344915
  31
0
  0
LINE
  5
11f
  100
AcDbEntity
  8
1
  100
AcDbLine
  10
55.2
  20
0.344915
  30
0
  11
55.3
  21
0.262682
  31
0
  0
LINE
  5
120
  100
AcDbEntity
  8
1
  100
AcDbLine
  10
55.3
  20
0.262682
  30
0
  11
55.4
  21
0.180154
  31
0
  0
LINE
  5
121
  100
AcDbEntity
  8
1
  100
AcDbLine
  10
55.4
  20
0.180154
  30
0
  11
55.5
  21
0.097423
  31
0
  0
LINE
  5
122
  100
AcDbEntity
  8
1
  100
AcDbLine
  10
55.5
  20
0.097423
  30
0
  11
55.6
  21
0.014583
  31
0
  0
LINE
  5
123
  100
AcDbEntity
  8
1
  100
AcDbLine
  10
55.6
  20
0.014583
  30
0
  11
55.7
  21
-0.068275
  31
0
  0
LINE
  5
124
  100
AcDbEntity
  8
1
  100
AcDbLine
  10
55.7
  20
-0.068275
  30
0
  11
55.8
  21
-0.151055
  31
0
  0
LINE
  5
125
  100
AcDbEntity
  8
1
  100
AcDbLine
  10
55.8
  20
-0.151055
  30
0
  11
55.9
  21
-0.233665
  31
0
  0
LINE
  5
126
  100
AcDbEntity
  8
1
  100
AcDbLine
  10
55.9
  20
-0.233665
  30
0
  11
56
  21
-0.316012
  31
0
  0
LINE
  5
127
  100
AcDbEntity
  8
1
  100
AcDbLine
  10
56
  20
-0.316012
  30
0
  11
56.1
  21
-0.398003
  31
0
  0
LINE
  5
128
  100
AcDbEntity
  8
1
  100
AcDbLine
  10
56.1
  20
-0.398003
  30
0
  11
56.2
  21
-0.479545
  31
0
  0
LINE
  5
129
  100
AcDbEntity
  8
1
  100
AcDbLine
  10
56.2
  20
-0.479545
  30
0
  11
56.3
  21
-0.560548
  31
0
  0
LINE
  5
12a
  100
AcDbEntity
  8
1
  100
AcDbLine
  10
56.3
  20
-0.560548
  30
0
  11
56.4
  21
-0.640919
  31
0
  0
LINE
  5
12b
  100
AcDbEntity
  8
1
  100
AcDbLine
  10
56.4
  20
-0.640919
  30
0
  11
56.5
  21
-0.720568
  31
0
  0
LINE
  5
12c
  100
AcDbEntity
  8
1
  100
AcDbLine
  10
56.5
  20
-0.720568
  30
0
  11
56.6
  21
-0.799405
  31
0
  0
LINE
  5
12d
  100
AcDbEntity
  8
1
  100
AcDbLine
  10
56.6
  20
-0.799405
  30
0
  11
56.7
  21
-0.877342
  31
0
  0
LINE
  5
12e
  100
AcDbEntity
  8
1
  100
AcDbLine
  10
56.7
  20
-0.877342
  30
0
  11
56.8
  21
-0.954291
  31
0
  0
LINE
  5
12f
  100
AcDbEntity
  8
1
  100
AcDbLine
  10
56.8
  20
-0.954291
  30
0
  11
56.9
  21
-1.030164
  31
0
  0
LINE
  5
130
  100
AcDbEntity
  8
1
  100
AcDbLine
  10
56.9
  20
-1.030164
  30
0
  11
57
  21
-1.104877
  31
0
  0
LINE
  5
131
  100
AcDbEntity
  8
1
  100
AcDbLine
  10
57
  20
-1.104877
  30
0
  11
57.1
  21
-1.178346
  31
0
  0
LINE
  5
132
  100
AcDbEntity
  8
1
  100
AcDbLine
  10
57.1
  20
-1.178346
  30
0
  11
57.2
  21
-1.250487
  31
0
  0
LINE
  5
133
  100
AcDbEntity
  8
1
  100
AcDbLine
  10
57.2
  20
-1.250487
  30
0
  11
57.3
  21
-1.32122
  31
0
  0
LINE
  5
134
  100
AcDbEntity
  8
1
  100
AcDbLine
  10
57.3
  20
-1.32122
  30
0
  11
57.4
  21
-1.390465
  31
0
  0
LINE
  5
135
  100
AcDbEntity
  8
1
  100
AcDbLine
  10
57.4
  20
-1.390465
  30
0
  11
57.5
  21
-1.458143
  31
0
  0
LINE
  5
136
  100
AcDbEntity
  8
1
  100
AcDbLine
  10
57.5
  20
-1.458143
  30
0
  11
57.6
  21
-1.522574
  31
0
  0
LINE
  5
137
  100
AcDbEntity
  8
1
  100
AcDbLine
  10
57.6
  20
-1.522574
  30
0
  11
57.7
  21
-1.581904
  31
0
  0
LINE
  5
138
  100
AcDbEntity
  8
1
  100
AcDbLine
  10
57.7
  20
-1.581904
  30
0
  11
57.8
  21
-1.635801
  31
0
  0
LINE
  5
139
  100
AcDbEntity
  8
1
  100
AcDbLine
  10
57.8
  20
-1.635801
  30
0
  11
57.9
  21
-1.683935
  31
0
  0
LINE
  5
13a
  100
AcDbEntity
  8
1
  100
AcDbLine
  10
57.9
  20
-1.683935
  30
0
  11
58
  21
-1.725983
  31
0
  0
LINE
  5
13b
  100
AcDbEntity
  8
1
  100
AcDbLine
  10
58
  20
-1.725983
  30
0
  11
58.1
  21
-1.761619
  31
0
  0
LINE
  5
13c
  100
AcDbEntity
  8
1
  100
AcDbLine
  10
58.1
  20
-1.761619
  30
0
  11
58.2
  21
-1.790516
  31
0
  0
LINE
  5
13d
  100
AcDbEntity
  8
1
  100
AcDbLine
  10
58.2
  20
-1.790516
  30
0
  11
58.3
  21
-1.812339
  31
0
  0
LINE
  5
13e
  100
AcDbEntity
  8
1
  100
AcDbLine
  10
58.3
  20
-1.812339
  30
0
  11
58.4
  21
-1.826742
  31
0
  0
LINE
  5
13f
  100
AcDbEntity
  8
1
  100
AcDbLine
  10
58.4
  20
-1.826742
  30
0
  11
58.5
  21
-1.833363
  31
0
  0
LINE
  5
140
  100
AcDbEntity
  8
1
  100
AcDbLine
  10
58.5
  20
-1.833363
  30
0
  11
58.6
  21
-1.83181
  31
0
  0
LINE
  5
141
  100
AcDbEntity
  8
1
  100
AcDbLine
  10
58.6
  20
-1.83181
  30
0
  11
58.7
  21
-1.821656
  31
0
  0
LINE
  5
142
  100
AcDbEntity
  8
1
  100
AcDbLine
  10
58.7
  20
-1.821656
  30
0
  11
58.8
  21
-1.802417
  31
0
  0
LINE
  5
143
  100
AcDbEntity
  8
1
  100
AcDbLine
  10
58.8
  20
-1.802417
  30
0
  11
58.9
  21
-1.773533
  31
0
  0
LINE
  5
144
  100
AcDbEntity
  8
1
  100
AcDbLine
  10
58.9
  20
-1.773533
  30
0
  11
59
  21
-1.734335
  31
0
  0
LINE
  5
145
  100
AcDbEntity
  8
1
  100
AcDbLine
  10
59
  20
-1.734335
  30
0
  11
59.1
  21
-1.683991
  31
0
  0
LINE
  5
146
  100
AcDbEntity
  8
1
  100
AcDbLine
  10
59.1
  20
-1.683991
  30
0
  11
59.2
  21
-1.621436
  31
0
  0
LINE
  5
147
  100
AcDbEntity
  8
1
  100
AcDbLine
  10
59.2
  20
-1.621436
  30
0
  11
59.3
  21
-1.54608
  31
0
  0
LINE
  5
148
  100
AcDbEntity
  8
1
  100
AcDbLine
  10
59.3
  20
-1.54608
  30
0
  11
59.4
  21
-1.463138
  31
0
  0
LINE
  5
149
  100
AcDbEntity
  8
1
  100
AcDbLine
  10
59.4
  20
-1.463138
  30
0
  11
59.5
  21
-1.3737
  31
0
  0
LINE
  5
14a
  100
AcDbEntity
  8
1
  100
AcDbLine
  10
59.5
  20
-1.3737
  30
0
  11
59.6
  21
-1.278839
  31
0
  0
LINE
  5
14b
  100
AcDbEntity
  8
1
  100
AcDbLine
  10
59.6
  20
-1.278839
  30
0
  11
59.6
  21
-1.356466
  31
0
  0
LINE
  5
14c
  100
AcDbEntity
  8
1
  100
AcDbLine
  10
59.6
  20
-1.356466
  30
0
  11
59.6
  21
-1.348553
  31
0
  0
LINE
  5
14d
  100
AcDbEntity
  8
1
  100
AcDbLine
  10
59.6
  20
-1.348553
  30
0
  11
59.5
  21
-1.467296
  31
0
  0
LINE
  5
14e
  100
AcDbEntity
  8
1
  100
AcDbLine
  10
59.5
  20
-1.467296
  30
0
  11
59.4
  21
-1.56902
  31
0
  0
LINE
  5
14f
  100
AcDbEntity
  8
1
  100
AcDbLine
  10
59.4
  20
-1.56902
  30
0
  11
59.3
  21
-1.65944
  31
0
  0
LINE
  5
150
  100
AcDbEntity
  8
1
  100
AcDbLine
  10
59.3
  20
-1.65944
  30
0
  11
59.2
  21
-1.74006
  31
0
  0
LINE
  5
151
  100
AcDbEntity
  8
1
  100
AcDbLine
  10
59.2
  20
-1.74006
  30
0
  11
59.1
  21
-1.808019
  31
0
  0
LINE
  5
152
  100
AcDbEntity
  8
1
  100
AcDbLine
  10
59.1
  20
-1.808019
  30
0
  11
59
  21
-1.864025
  31
0
  0
LINE
  5
153
  100
AcDbEntity
  8
1
  100
AcDbLine
  10
59
  20
-1.864025
  30
0
  11
58.9
  21
-1.90905
  31
0
  0
LINE
  5
154
  100
AcDbEntity
  8
1
  100
AcDbLine
  10
58.9
  20
-1.90905
  30
0
  11
58.8
  21
-1.943853
  31
0
  0
LINE
  5
155
  100
AcDbEntity
  8
1
  100
AcDbLine
  10
58.8
  20
-1.943853
  30
0
  11
58.7
  21
-1.969054
  31
0
  0
LINE
  5
156
  100
AcDbEntity
  8
1
  100
AcDbLine
  10
58.7
  20
-1.969054
  30
0
  11
58.6
  21
-1.98517
  31
0
  0
LINE
  5
157
  100
AcDbEntity
  8
1
  100
AcDbLine
  10
58.6
  20
-1.98517
  30
0
  11
58.5
  21
-1.992652
  31
0
  0
LINE
  5
158
  100
AcDbEntity
  8
1
  100
AcDbLine
  10
58.5
  20
-1.992652
  30
0
  11
58.4
  21
-1.991901
  31
0
  0
LINE
  5
159
  100
AcDbEntity
  8
1
  100
AcDbLine
  10
58.4
  20
-1.991901
  30
0
  11
58.3
  21
-1.983283
  31
0
  0
LINE
  5
15a
  100
AcDbEntity
  8
1
  100
AcDbLine
  10
58.3
  20
-1.983283
  30
0
  11
58.2
  21
-1.967141
  31
0
  0
LINE
  5
15b
  100
AcDbEntity
  8
1
  100
AcDbLine
  10
58.2
  20
-1.967141
  30
0
  11
58.1
  21
-1.943805
  31
0
  0
LINE
  5
15c
  100
AcDbEntity
  8
1
  100
AcDbLine
  10
58.1
  20
-1.943805
  30
0
  11
58
  21
-1.913591
  31
0
  0
LINE
  5
15d
  100
AcDbEntity
  8
1
  100
AcDbLine
  10
58
  20
-1.913591
  30
0
  11
57.9
  21
-1.876813
  31
0
  0
LINE
  5
15e
  100
AcDbEntity
  8
1
  100
AcDbLine
  10
57.9
  20
-1.876813
  30
0
  11
57.8
  21
-1.833783
  31
0
  0
LINE
  5
15f
  100
AcDbEntity
  8
1
  100
AcDbLine
  10
57.8
  20
-1.833783
  30
0
  11
57.7
  21
-1.784815
  31
0
  0
LINE
  5
160
  100
AcDbEntity
  8
1
  100
AcDbLine
  10
57.7
  20
-1.784815
  30
0
  11
57.6
  21
-1.730224
  31
0
  0
LINE
  5
161
  100
AcDbEntity
  8
1
  100
AcDbLine
  10
57.6
  20
-1.730224
  30
0
  11
57.5
  21
-1.670333
  31
0
  0
LINE
  5
162
  100
AcDbEntity
  8
1
  100
AcDbLine
  10
57.5
  20
-1.670333
  30
0
  11
57.4
  21
-1.606971
  31
0
  0
LINE
  5
163
  100
AcDbEntity
  8
1
  100
AcDbLine
  10
57.4
  20
-1.606971
  30
0
  11
57.3
  21
-1.541799
  31
0
  0
LINE
  5
164
  100
AcDbEntity
  8
1
  100
AcDbLine
  10
57.3
  20
-1.541799
  30
0
  11
57.2
  21
-1.474891
  31
0
  0
LINE
  5
165
  100
AcDbEntity
  8
1
  100
AcDbLine
  10
57.2
  20
-1.474891
  30
0
  11
57.1
  21
-1.406321
  31
0
  0
LINE
  5
166
  100
AcDbEntity
  8
1
  100
AcDbLine
  10
57.1
  20
-1.406321
  30
0
  11
57
  21
-1.336167
  31
0
  0
LINE
  5
167
  100
AcDbEntity
  8
1
  100
AcDbLine
  10
57
  20
-1.336167
  30
0
  11
56.9
  21
-1.264508
  31
0
  0
LINE
  5
168
  100
AcDbEntity
  8
1
  100
AcDbLine
  10
56.9
  20
-1.264508
  30
0
  11
56.8
  21
-1.191425
  31
0
  0
LINE
  5
169
  100
AcDbEntity
  8
1
  100
AcDbLine
  10
56.8
  20
-1.191425
  30
0
  11
56.7
  21
-1.116999
  31
0
  0
LINE
  5
16a
  100
AcDbEntity
  8
1
  100
AcDbLine
  10
56.7
  20
-1.116999
  30
0
  11
56.6
  21
-1.041315
  31
0
  0
LINE
  5
16b
  100
AcDbEntity
  8
1
  100
AcDbLine
  10
56.6
  20
-1.041315
  30
0
  11
56.5
  21
-0.964459
  31
0
  0
LINE
  5
16c
  100
AcDbEntity
  8
1
  100
AcDbLine
  10
56.5
  20
-0.964459
  30
0
  11
56.4
  21
-0.886515
  31
0
  0
LINE
  5
16d
  100
AcDbEntity
  8
1
  100
AcDbLine
  10
56.4
  20
-0.886515
  30
0
  11
56.3
  21
-0.807574
  31
0
  0
LINE
  5
16e
  100
AcDbEntity
  8
1
  100
AcDbLine
  10
56.3
  20
-0.807574
  30
0
  11
56.2
  21
-0.727722
  31
0
  0
LINE
  5
16f
  100
AcDbEntity
  8
1
  100
AcDbLine
  10
56.2
  20
-0.727722
  30
0
  11
56.1
  21
-0.647051
  31
0
  0
LINE
  5
170
  100
AcDbEntity
  8
1
  100
AcDbLine
  10
56.1
  20
-0.647051
  30
0
  11
56
  21
-0.565651
  31
0
  0
LINE
  5
171
  100
AcDbEntity
  8
1
  100
AcDbLine
  10
56
  20
-0.565651
  30
0
  11
55.9
  21
-0.483614
  31
0
  0
LINE
  5
172
  100
AcDbEntity
  8
1
  100
AcDbLine
  10
55.9
  20
-0.483614
  30
0
  11
55.8
  21
-0.401032
  31
0
  0
LINE
  5
173
  100
AcDbEntity
  8
1
  100
AcDbLine
  10
55.8
  20
-0.401032
  30
0
  11
55.7
  21
-0.317999
  31
0
  0
LINE
  5
174
  100
AcDbEntity
  8
1
  100
AcDbLine
  10
55.7
  20
-0.317999
  30
0
  11
55.6
  21
-0.234607
  31
0
  0
LINE
  5
175
  100
AcDbEntity
  8
1
  100
AcDbLine
  10
55.6
  20
-0.234607
  30
0
  11
55.5
  21
-0.150951
  31
0
  0
LINE
  5
176
  100
AcDbEntity
  8
1
  100
AcDbLine
  10
55.5
  20
-0.150951
  30
0
  11
55.4
  21
-0.067124
  31
0
  0
LINE
  5
177
  100
AcDbEntity
  8
1
  100
AcDbLine
  10
55.4
  20
-0.067124
  30
0
  11
55.3
  21
0.016777
  31
0
  0
LINE
  5
178
  100
AcDbEntity
  8
1
  100
AcDbLine
  10
55.3
  20
0.016777
  30
0
  11
55.2
  21
0.10066
  31
0
  0
LINE
  5
179
  100
AcDbEntity
  8
1
  100
AcDbLine
  10
55.2
  20
0.10066
  30
0
  11
55.1
  21
0.18443
  31
0
  0
LINE
  5
17a
  100
AcDbEntity
  8
1
  100
AcDbLine
  10
55.1
  20
0.18443
  30
0
  11
55
  21
0.267991
  31
0
  0
LINE
  5
17b
  100
AcDbEntity
  8
1
  100
AcDbLine
  10
55
  20
0.267991
  30
0
  11
54.9
  21
0.351251
  31
0
  0
LINE
  5
17c
  100
AcDbEntity
  8
1
  100
AcDbLine
  10
54.9
  20
0.351251
  30
0
  11
54.8
  21
0.434115
  31
0
  0
LINE
  5
17d
  100
AcDbEntity
  8
1
  100
AcDbLine
  10
54.8
  20
0.434115
  30
0
  11
54.8
  21
0.431472
  31
0
  0
LINE
  5
17e
  100
AcDbEntity
  8
1
  100
AcDbLine
  10
59.6
  20
-1.348553
  30
0
  11
59.6
  21
-1.356466
  31
0
  0
LINE
  5
17f
  100
AcDbEntity
  8
SK1
  100
AcDbLine
  10
47.7
  20
3
  30
0
  11
0.7
  21
3
  31
0
  0
LINE
  5
180
  100
AcDbEntity
  8
SK1
  100
AcDbLine
  10
0.7
  20
3
  30
0
  11
0
  21
2.3
  31
0
  0
LINE
  5
181
  100
AcDbEntity
  8
SK1
  100
AcDbLine
  10
47.7
  20
-3
  30
0
  11
0.7
  21
-3
  31
0
  0
LINE
  5
182
  100
AcDbEntity
  8
SK1
  100
AcDbLine
  10
0.7
  20
-3
  30
0
  11
0
  21
-2.3
  31
0
  0
LINE
  5
183
  100
AcDbEntity
  8
SK1
  100
AcDbLine
  10
0.7
  20
3
  30
0
  11
0.7
  21
-3
  31
0
  0
LINE
  5
184
  100
AcDbEntity
  8
SK1
  100
AcDbLine
  10
0
  20
2.3
  30
0
  11
0
  21
-2.3
  31
0
  0
LINE
  5
185
  100
AcDbEntity
  8
SK1
  100
AcDbLine
  10
48.7401
  20
1.40688
  30
0
  11
49.1069
  21
1.0401
  31
0
  0
LINE
  5
186
  100
AcDbEntity
  8
SK1
  100
AcDbLine
  10
48.2328
  20
1.66666
  30
0
  11
49.3667
  21
0.532833
  31
0
  0
LINE
  5
187
  100
AcDbEntity
  8
SK1
  100
AcDbLine
  10
47.9154
  20
1.73657
  30
0
  11
49.4366
  21
0.215434
  31
0
  0
LINE
  5
188
  100
AcDbEntity
  8
SK1
  100
AcDbLine
  10
47.7
  20
1.70452
  30
0
  11
49.4045
  21
0
  31
0
  0
LINE
  5
189
  100
AcDbEntity
  8
SK1
  100
AcDbLine
  10
47.7
  20
1.45703
  30
0
  11
49.157
  21
0
  31
0
  0
LINE
  5
18a
  100
AcDbEntity
  8
SK1
  100
AcDbLine
  10
47.7
  20
1.20954
  30
0
  11
48.9095
  21
0
  31
0
  0
LINE
  5
18b
  100
AcDbEntity
  8
SK1
  100
AcDbLine
  10
47.7
  20
0.962054
  30
0
  11
48.6621
  21
0
  31
0
  0
LINE
  5
18c
  100
AcDbEntity
  8
SK1
  100
AcDbLine
  10
47.7
  20
0.714566
  30
0
  11
48.4146
  21
0
  31
0
  0
LINE
  5
18d
  100
AcDbEntity
  8
SK1
  100
AcDbLine
  10
47.7
  20
0.467079
  30
0
  11
48.1671
  21
0
  31
0
  0
LINE
  5
18e
  100
AcDbEntity
  8
SK1
  100
AcDbLine
  10
47.7
  20
0.219592
  30
0
  11
47.9196
  21
0
  31
0
  0
LINE
  5
18f
  100
AcDbEntity
  8
SK1
  100
AcDbLine
  10
47.7
  20
1.70452
  30
0
  11
47.7441
  21
1.74861
  31
0
  0
LINE
  5
190
  100
AcDbEntity
  8
SK1
  100
AcDbLine
  10
47.7
  20
1.45703
  30
0
  11
47.971
  21
1.72802
  31
0
  0
LINE
  5
191
  100
AcDbEntity
  8
SK1
  100
AcDbLine
  10
47.7
  20
1.20954
  30
0
  11
48.1742
  21
1.6837
  31
0
  0
LINE
  5
192
  100
AcDbEntity
  8
SK1
  100
AcDbLine
  10
47.7
  20
0.962054
  30
0
  11
48.3588
  21
1.62082
  31
0
  0
LINE
  5
193
  100
AcDbEntity
  8
SK1
  100
AcDbLine
  10
47.7
  20
0.714566
  30
0
  11
48.5271
  21
1.54167
  31
0
  0
LINE
  5
194
  100
AcDbEntity
  8
SK1
  100
AcDbLine
  10
47.7
  20
0.467079
  30
0
  11
48.681
  21
1.44812
  31
0
  0
LINE
  5
195
  100
AcDbEntity
  8
SK1
  100
AcDbLine
  10
47.7
  20
0.219592
  30
0
  11
48.8226
  21
1.34216
  31
0
  0
LINE
  5
196
  100
AcDbEntity
  8
SK1
  100
AcDbLine
  10
47.7279
  20
0
  30
0
  11
48.9508
  21
1.22288
  31
0
  0
LINE
  5
197
  100
AcDbEntity
  8
SK1
  100
AcDbLine
  10
47.9754
  20
0
  30
0
  11
49.067
  21
1.09157
  31
0
  0
LINE
  5
198
  100
AcDbEntity
  8
SK1
  100
AcDbLine
  10
48.2229
  20
0
  30
0
  11
49.1707
  21
0.947822
  31
0
  0
LINE
  5
199
  100
AcDbEntity
  8
SK1
  100
AcDbLine
  10
48.4704
  20
0
  30
0
  11
49.2605
  21
0.790145
  31
0
  0
LINE
  5
19a
  100
AcDbEntity
  8
SK1
  100
AcDbLine
  10
48.7178
  20
0
  30
0
  11
49.3364
  21
0.618517
  31
0
  0
LINE
  5
19b
  100
AcDbEntity
  8
SK1
  100
AcDbLine
  10
48.9653
  20
0
  30
0
  11
49.396
  21
0.430696
  31
0
  0
LINE
  5
19c
  100
AcDbEntity
  8
SK1
  100
AcDbLine
  10
49.2128
  20
0
  30
0
  11
49.4356
  21
0.222827
  31
0
  0
LINE
  5
19d
  100
AcDbEntity
  8
SK1
  100
AcDbLine
  10
47.7
  20
0
  30
0
  11
47.7
  21
1.75
  31
0
  0
LINE
  5
19e
  100
AcDbEntity
  8
SK1
  100
AcDbLine
  10
47.7
  20
0
  30
0
  11
49.45
  21
0
  31
0
  0
ARC
  5
19f
  100
AcDbEntity
  8
SK1
  100
AcDbCircle
  10
47.7
  20
0
  30
0
  40
1.75
  100
AcDbArc
  50
0
  51
90
  0
ARC
  5
1a0
  100
AcDbEntity
  8
SK1
  100
AcDbCircle
  10
47.7
  20
0
  30
0
  40
1.75
  100
AcDbArc
  50
90
  51
180
  0
LINE
  5
1a1
  100
AcDbEntity
  8
SK1
  100
AcDbLine
  10
47.6721
  20
0
  30
0
  11
47.7
  21
-0.027896
  31
0
  0
LINE
  5
1a2
  100
AcDbEntity
  8
SK1
  100
AcDbLine
  10
47.4246
  20
0
  30
0
  11
47.7
  21
-0.275383
  31
0
  0
LINE
  5
1a3
  100
AcDbEntity
  8
SK1
  100
AcDbLine
  10
47.1771
  20
0
  30
0
  11
47.7
  21
-0.522871
  31
0
  0
LINE
  5
1a4
  100
AcDbEntity
  8
SK1
  100
AcDbLine
  10
46.9296
  20
0
  30
0
  11
47.7
  21
-0.770358
  31
0
  0
LINE
  5
1a5
  100
AcDbEntity
  8
SK1
  100
AcDbLine
  10
46.6822
  20
0
  30
0
  11
47.7
  21
-1.01785
  31
0
  0
LINE
  5
1a6
  100
AcDbEntity
  8
SK1
  100
AcDbLine
  10
46.4347
  20
0
  30
0
  11
47.7
  21
-1.26533
  31
0
  0
LINE
  5
1a7
  100
AcDbEntity
  8
SK1
  100
AcDbLine
  10
46.1872
  20
0
  30
0
  11
47.7
  21
-1.51282
  31
0
  0
LINE
  5
1a8
  100
AcDbEntity
  8
SK1
  100
AcDbLine
  10
45.9503
  20
-0.010642
  30
0
  11
47.6894
  21
-1.74967
  31
0
  0
LINE
  5
1a9
  100
AcDbEntity
  8
SK1
  100
AcDbLine
  10
45.9736
  20
-0.281429
  30
0
  11
47.4186
  21
-1.72637
  31
0
  0
LINE
  5
1aa
  100
AcDbEntity
  8
SK1
  100
AcDbLine
  10
46.0639
  20
-0.619147
  30
0
  11
47.0809
  21
-1.63613
  31
0
  0
LINE
  5
1ab
  100
AcDbEntity
  8
SK1
  100
AcDbLine
  10
45.9514
  20
-0.044098
  30
0
  11
45.9955
  21
0
  31
0
  0
LINE
  5
1ac
  100
AcDbEntity
  8
SK1
  100
AcDbLine
  10
45.972
  20
-0.270991
  30
0
  11
46.243
  21
0
  31
0
  0
LINE
  5
1ad
  100
AcDbEntity
  8
SK1
  100
AcDbLine
  10
46.0163
  20
-0.474162
  30
0
  11
46.4905
  21
0
  31
0
  0
LINE
  5
1ae
  100
AcDbEntity
  8
SK1
  100
AcDbLine
  10
46.0792
  20
-0.658762
  30
0
  11
46.7379
  21
0
  31
0
  0
LINE
  5
1af
  100
AcDbEntity
  8
SK1
  100
AcDbLine
  10
46.1583
  20
-0.827105
  30
0
  11
46.9854
  21
0
  31
0
  0
LINE
  5
1b0
  100
AcDbEntity
  8
SK1
  100
AcDbLine
  10
46.2519
  20
-0.981039
  30
0
  11
47.2329
  21
0
  31
0
  0
LINE
  5
1b1
  100
AcDbEntity
  8
SK1
  100
AcDbLine
  10
46.3578
  20
-1.12257
  30
0
  11
47.4804
  21
0
  31
0
  0
LINE
  5
1b2
  100
AcDbEntity
  8
SK1
  100
AcDbLine
  10
46.4771
  20
-1.25077
  30
0
  11
47.7
  21
-0.027896
  31
0
  0
LINE
  5
1b3
  100
AcDbEntity
  8
SK1
  100
AcDbLine
  10
46.6084
  20
-1.36695
  30
0
  11
47.7
  21
-0.275383
  31
0
  0
LINE
  5
1b4
  100
AcDbEntity
  8
SK1
  100
AcDbLine
  10
46.7522
  20
-1.47069
  30
0
  11
47.7
  21
-0.522871
  31
0
  0
LINE
  5
1b5
  100
AcDbEntity
  8
SK1
  100
AcDbLine
  10
46.9099
  20
-1.5605
  30
0
  11
47.7
  21
-0.770358
  31
0
  0
LINE
  5
1b6
  100
AcDbEntity
  8
SK1
  100
AcDbLine
  10
47.0815
  20
-1.63636
  30
0
  11
47.7
  21
-1.01785
  31
0
  0
LINE
  5
1b7
  100
AcDbEntity
  8
SK1
  100
AcDbLine
  10
47.2693
  20
-1.69603
  30
0
  11
47.7
  21
-1.26533
  31
0
  0
LINE
  5
1b8
  100
AcDbEntity
  8
SK1
  100
AcDbLine
  10
47.4772
  20
-1.73565
  30
0
  11
47.7
  21
-1.51282
  31
0
  0
LINE
  5
1b9
  100
AcDbEntity
  8
SK1
  100
AcDbLine
  10
47.7
  20
0
  30
0
  11
45.95
  21
0
  31
0
  0
LINE
  5
1ba
  100
AcDbEntity
  8
SK1
  100
AcDbLine
  10
47.7
  20
-1.75
  30
0
  11
47.7
  21
0
  31
0
  0
ARC
  5
1bb
  100
AcDbEntity
  8
SK1
  100
AcDbCircle
  10
47.7
  20
0
  30
0
  40
1.75
  100
AcDbArc
  50
180
  51
270
  0
ARC
  5
1bc
  100
AcDbEntity
  8
SK1
  100
AcDbCircle
  10
47.7
  20
0
  30
0
  40
1.75
  100
AcDbArc
  50
270
  51
0
  0
LINE
  5
237
  100
AcDbEntity
  8
NOCUT
  100
AcDbLine
  10
54.8
  20
0
  30
0
  11
54.8
  21
2.425
  31
0
  0
LINE
  5
238
  100
AcDbEntity
  8
NOCUT
  100
AcDbLine
  10
54.8
  20
2.425
  30
0
  11
50.43
  21
2.425
  31
0
  0
ARC
  5
239
  100
AcDbEntity
  8
NOCUT
  100
AcDbCircle
  10
50.517156
  20
3.421195
  30
0
  40
1
  100
AcDbArc
  50
255
  51
265
  0
LINE
  5
23a
  100
AcDbEntity
  8
NOCUT
  100
AcDbLine
  10
50.258337
  20
2.455269
  30
0
  11
48.225372
  21
3
  31
0
  0
LINE
  5
23b
  100
AcDbEntity
  8
NOCUT
  100
AcDbLine
  10
48.225372
  20
3
  30
0
  11
47.7
  21
3
  31
0
  0
LINE
  5
23c
  100
AcDbEntity
  8
NOCUT
  100
AcDbLine
  10
47.7
  20
3
  30
0
  11
47.7
  21
0
  31
0
  0
LINE
  5
23d
  100
AcDbEntity
  8
NOCUT
  100
AcDbLine
  10
47.7
  20
0
  30
0
  11
54.8
  21
0
  31
0
  0
ARC
  5
23e
  100
AcDbEntity
  8
CUT
  100
AcDbCircle
  10
57.5
  20
0
  30
0
  40
2.5
  100
AcDbArc
  50
0
  51
90
  0
LINE
  5
23f
  100
AcDbEntity
  8
CUT
  100
AcDbLine
  10
57.5
  20
2.5
  30
0
  11
54.8
  21
2.5
  31
0
  0
LINE
  5
240
  100
AcDbEntity
  8
CUT
  100
AcDbLine
  10
54.8
  20
2.5
  30
0
  11
54.8
  21
0
  31
0
  0
LINE
  5
241
  100
AcDbEntity
  8
CUT
  100
AcDbLine
  10
54.8
  20
0
  30
0
  11
60
  21
0
  31
0
  0
LINE
  5
242
  100
AcDbEntity
  8
4
  100
AcDbLine
  10
47.7
  20
0
  30
0
  11
60
  21
0
  31
0
  0
LINE
  5
243
  100
AcDbEntity
  8
SK4
  100
AcDbLine
  10
-1
  20
0
  30
0
  11
61
  21
0
  31
0
  0
LINE
  5
244
  100
AcDbEntity
  8
INFTOTAL
  100
AcDbLine
  10
-16.2
  20
24.2
  30
0
  11
76.2
  21
24.2
  31
0
  0
LINE
  5
245
  100
AcDbEntity
  8
INFTOTAL
  100
AcDbLine
  10
76.2
  20
24.2
  30
0
  11
76.2
  21
-19.2
  31
0
  0
LINE
  5
246
  100
AcDbEntity
  8
INFTOTAL
  100
AcDbLine
  10
76.2
  20
-19.2
  30
0
  11
-16.2
  21
-19.2
  31
0
  0
LINE
  5
247
  100
AcDbEntity
  8
INFTOTAL
  100
AcDbLine
  10
-16.2
  20
-19.2
  30
0
  11
-16.2
  21
24.2
  31
0
  0
ENDSEC
  0
SECTION
  2
OBJECTS
  0
DICTIONARY
  5
248
  330
0
100
AcDbDictionary
281
    1
  3
ACAD_GROUP
  350
249
  0
DICTIONARY
  5
249
102
{ACAD_REACTORS
  330
248
102
}
  330
248
100
AcDbDictionary
281
    1
  0
ENDSEC
  0
EOF
