  0
SECTION
  2
HEADER
  9
$ACADVER
  1
AC1015
  9
$ACADMAINTVER
 70
     6
  9
$DWGCODEPAGE
  3
ANSI_932
  9
$INSBASE
 10
0.0
 20
0.0
 30
0.0
  9
$EXTMIN
 10
-15.45
 20
-24.07357029635972
 30
0.0
  9
$EXTMAX
 10
70.45
 20
45.95
 30
0.0
  9
$LIMMIN
 10
0.0
 20
0.0
  9
$LIMMAX
 10
12.0
 20
9.0
  9
$ORTHOMODE
 70
     0
  9
$REGENMODE
 70
     1
  9
$FILLMODE
 70
     1
  9
$QTEXTMODE
 70
     0
  9
$MIRRTEXT
 70
     1
  9
$LTSCALE
 40
1.0
  9
$ATTMODE
 70
     1
  9
$TEXTSIZE
 40
0.2
  9
$TRACEWID
 40
0.05
  9
$TEXTSTYLE
  7
Standard
  9
$CLAYER
  8
0
  9
$CELTYPE
  6
ByBlock
  9
$CECOLOR
 62
   256
  9
$CELTSCALE
 40
1.0
  9
$DISPSILH
 70
     0
  9
$DIMSCALE
 40
1.0
  9
$DIMASZ
 40
0.18
  9
$DIMEXO
 40
0.0625
  9
$DIMDLI
 40
0.38
  9
$DIMRND
 40
0.0
  9
$DIMDLE
 40
0.0
  9
$DIMEXE
 40
0.18
  9
$DIMTP
 40
0.0
  9
$DIMTM
 40
0.0
  9
$DIMTXT
 40
0.18
  9
$DIMCEN
 40
0.09
  9
$DIMTSZ
 40
0.0
  9
$DIMTOL
 70
     0
  9
$DIMLIM
 70
     0
  9
$DIMTIH
 70
     1
  9
$DIMTOH
 70
     1
  9
$DIMSE1
 70
     0
  9
$DIMSE2
 70
     0
  9
$DIMTAD
 70
     0
  9
$DIMZIN
 70
     0
  9
$DIMBLK
  1

  9
$DIMASO
 70
     1
  9
$DIMSHO
 70
     1
  9
$DIMPOST
  1

  9
$DIMAPOST
  1

  9
$DIMALT
 70
     0
  9
$DIMALTD
 70
     2
  9
$DIMALTF
 40
25.4
  9
$DIMLFAC
 40
1.0
  9
$DIMTOFL
 70
     0
  9
$DIMTVP
 40
0.0
  9
$DIMTIX
 70
     0
  9
$DIMSOXD
 70
     0
  9
$DIMSAH
 70
     0
  9
$DIMBLK1
  1

  9
$DIMBLK2
  1

  9
$DIMSTYLE
  2
STANDARD
  9
$DIMCLRD
 70
     0
  9
$DIMCLRE
 70
     0
  9
$DIMCLRT
 70
     0
  9
$DIMTFAC
 40
1.0
  9
$DIMGAP
 40
0.09
  9
$DIMJUST
 70
     0
  9
$DIMSD1
 70
     0
  9
$DIMSD2
 70
     0
  9
$DIMTOLJ
 70
     1
  9
$DIMTZIN
 70
     0
  9
$DIMALTZ
 70
     0
  9
$DIMALTTZ
 70
     0
  9
$DIMUPT
 70
     0
  9
$DIMDEC
 70
     4
  9
$DIMTDEC
 70
     4
  9
$DIMALTU
 70
     2
  9
$DIMALTTD
 70
     2
  9
$DIMTXSTY
  7
Standard
  9
$DIMAUNIT
 70
     0
  9
$DIMADEC
 70
     0
  9
$DIMALTRND
 40
0.0
  9
$DIMAZIN
 70
     0
  9
$DIMDSEP
 70
    46
  9
$DIMATFIT
 70
     3
  9
$DIMFRAC
 70
     0
  9
$DIMLDRBLK
  1

  9
$DIMLUNIT
 70
     2
  9
$DIMLWD
 70
    -2
  9
$DIMLWE
 70
    -2
  9
$DIMTMOVE
 70
     0
  9
$LUNITS
 70
     2
  9
$LUPREC
 70
     4
  9
$SKETCHINC
 40
0.1
  9
$FILLETRAD
 40
0.5
  9
$AUNITS
 70
     0
  9
$AUPREC
 70
     0
  9
$MENU
  1
.
  9
$ELEVATION
 40
0.0
  9
$PELEVATION
 40
0.0
  9
$THICKNESS
 40
0.0
  9
$LIMCHECK
 70
     0
  9
$CHAMFERA
 40
0.0
  9
$CHAMFERB
 40
0.0
  9
$CHAMFERC
 40
0.0
  9
$CHAMFERD
 40
0.0
  9
$SKPOLY
 70
     0
  9
$TDCREATE
 40
2447893.375
  9
$TDUCREATE
 40
0.0
  9
$TDUPDATE
 40
2460796.400019491
  9
$TDUUPDATE
 40
2460796.025019491
  9
$TDINDWG
 40
0.0024335301
  9
$TDUSRTIMER
 40
0.0003971065
  9
$USRTIMER
 70
     1
  9
$ANGBASE
 50
0.0
  9
$ANGDIR
 70
     0
  9
$PDMODE
 70
     0
  9
$PDSIZE
 40
0.0
  9
$PLINEWID
 40
0.0
  9
$SPLFRAME
 70
     0
  9
$SPLINETYPE
 70
     6
  9
$SPLINESEGS
 70
     8
  9
$HANDSEED
  5
106AC74
  9
$SURFTAB1
 70
     6
  9
$SURFTAB2
 70
     6
  9
$SURFTYPE
 70
     6
  9
$SURFU
 70
     6
  9
$SURFV
 70
     6
  9
$UCSBASE
  2

  9
$UCSNAME
  2

  9
$UCSORG
 10
0.0
 20
0.0
 30
0.0
  9
$UCSXDIR
 10
1.0
 20
0.0
 30
0.0
  9
$UCSYDIR
 10
0.0
 20
1.0
 30
0.0
  9
$UCSORTHOREF
  2

  9
$UCSORTHOVIEW
 70
     0
  9
$UCSORGTOP
 10
0.0
 20
0.0
 30
0.0
  9
$UCSORGBOTTOM
 10
0.0
 20
0.0
 30
0.0
  9
$UCSORGLEFT
 10
0.0
 20
0.0
 30
0.0
  9
$UCSORGRIGHT
 10
0.0
 20
0.0
 30
0.0
  9
$UCSORGFRONT
 10
0.0
 20
0.0
 30
0.0
  9
$UCSORGBACK
 10
0.0
 20
0.0
 30
0.0
  9
$PUCSBASE
  2

  9
$PUCSNAME
  2

  9
$PUCSORG
 10
0.0
 20
0.0
 30
0.0
  9
$PUCSXDIR
 10
1.0
 20
0.0
 30
0.0
  9
$PUCSYDIR
 10
0.0
 20
1.0
 30
0.0
  9
$PUCSORTHOREF
  2

  9
$PUCSORTHOVIEW
 70
     0
  9
$PUCSORGTOP
 10
0.0
 20
0.0
 30
0.0
  9
$PUCSORGBOTTOM
 10
0.0
 20
0.0
 30
0.0
  9
$PUCSORGLEFT
 10
0.0
 20
0.0
 30
0.0
  9
$PUCSORGRIGHT
 10
0.0
 20
0.0
 30
0.0
  9
$PUCSORGFRONT
 10
0.0
 20
0.0
 30
0.0
  9
$PUCSORGBACK
 10
0.0
 20
0.0
 30
0.0
  9
$USERI1
 70
     0
  9
$USERI2
 70
     0
  9
$USERI3
 70
     0
  9
$USERI4
 70
     0
  9
$USERI5
 70
     0
  9
$USERR1
 40
0.0
  9
$USERR2
 40
0.0
  9
$USERR3
 40
0.0
  9
$USERR4
 40
0.0
  9
$USERR5
 40
0.0
  9
$WORLDVIEW
 70
     1
  9
$SHADEDGE
 70
     3
  9
$SHADEDIF
 70
    70
  9
$TILEMODE
 70
     1
  9
$MAXACTVP
 70
    64
  9
$PINSBASE
 10
0.0
 20
0.0
 30
0.0
  9
$PLIMCHECK
 70
     0
  9
$PEXTMIN
 10
1.000000000000000E+20
 20
1.000000000000000E+20
 30
1.000000000000000E+20
  9
$PEXTMAX
 10
-1.000000000000000E+20
 20
-1.000000000000000E+20
 30
-1.000000000000000E+20
  9
$PLIMMIN
 10
0.0
 20
0.0
  9
$PLIMMAX
 10
0.0
 20
0.0
  9
$UNITMODE
 70
     0
  9
$VISRETAIN
 70
     1
  9
$PLINEGEN
 70
     0
  9
$PSLTSCALE
 70
     1
  9
$TREEDEPTH
 70
  3020
  9
$CMLSTYLE
  2
Standard
  9
$CMLJUST
 70
     0
  9
$CMLSCALE
 40
1.0
  9
$PROXYGRAPHICS
 70
     1
  9
$MEASUREMENT
 70
     0
  9
$CELWEIGHT
370
    -1
  9
$ENDCAPS
280
     0
  9
$JOINSTYLE
280
     0
  9
$LWDISPLAY
290
     0
  9
$INSUNITS
 70
     4
  9
$HYPERLINKBASE
  1

  9
$STYLESHEET
  1

  9
$XEDIT
290
     1
  9
$CEPSNTYPE
380
     0
  9
$PSTYLEMODE
290
     1
  9
$FINGERPRINTGUID
  2
{68a838c7-2b02-4e53-b82c-18189db36c79}
  9
$VERSIONGUID
  2
{FAEB1C32-E019-11D5-929B-00C0DF256EC4}
  9
$EXTNAMES
290
     1
  9
$PSVPSCALE
 40
0.0
  9
$OLESTARTUP
290
     0
  0
ENDSEC
  0
SECTION
  2
CLASSES
  0
CLASS
  1
ACDBDICTIONARYWDFLT
  2
AcDbDictionaryWithDefault
  3
ObjectDBX Classes
 90
        0
280
     0
281
     0
  0
CLASS
  1
SCALE
  2
AcDbScale
  3
ObjectDBX Classes
 90
     1153
280
     0
281
     0
  0
CLASS
  1
MATERIAL
  2
AcDbMaterial
  3
ObjectDBX Classes
 90
     1153
280
     0
281
     0
  0
CLASS
  1
VISUALSTYLE
  2
AcDbVisualStyle
  3
ObjectDBX Classes
 90
     4095
280
     0
281
     0
  0
CLASS
  1
TABLESTYLE
  2
AcDbTableStyle
  3
ObjectDBX Classes
 90
     4095
280
     0
281
     0
  0
CLASS
  1
MLEADERSTYLE
  2
AcDbMLeaderStyle
  3
ACDB_MLEADERSTYLE_CLASS
 90
     4095
280
     0
281
     0
  0
CLASS
  1
RASTERVARIABLES
  2
AcDbRasterVariables
  3
ISM
 90
        0
280
     0
281
     0
  0
CLASS
  1
DICTIONARYVAR
  2
AcDbDictionaryVar
  3
ObjectDBX Classes
 90
        0
280
     0
281
     0
  0
CLASS
  1
ACDBPLACEHOLDER
  2
AcDbPlaceHolder
  3
ObjectDBX Classes
 90
        0
280
     0
281
     0
  0
CLASS
  1
LAYOUT
  2
AcDbLayout
  3
ObjectDBX Classes
 90
        0
280
     0
281
     0
  0
ENDSEC
  0
SECTION
  2
TABLES
  0
TABLE
  2
VPORT
  5
2
102
{ACAD_XDICTIONARY
360
106AC39
102
}
330
0
100
AcDbSymbolTable
 70
     1
  0
VPORT
  5
106AB91
330
2
100
AcDbSymbolTableRecord
100
AcDbViewportTableRecord
  2
*Active
 70
     0
 10
0.0
 20
0.0
 11
1.0
 21
1.0
 12
27.5
 22
10.93821485182014
 13
0.0
 23
0.0
 14
0.5
 24
0.5
 15
0.5
 25
0.5
 16
0.0
 26
0.0
 36
1.0
 17
0.0
 27
0.0
 37
0.0
 40
71.42404170228691
 41
2.051748251748252
 42
50.0
 43
0.0
 44
0.0
 50
0.0
 51
0.0
 71
    16
 72
   100
 73
     1
 74
     3
 75
     0
 76
     0
 77
     0
 78
     0
281
     0
 65
     1
110
0.0
120
0.0
130
0.0
111
1.0
121
0.0
131
0.0
112
0.0
122
1.0
132
0.0
 79
     0
146
0.0
  0
ENDTAB
  0
TABLE
  2
LTYPE
  5
3
330
0
100
AcDbSymbolTable
 70
     3
  0
LTYPE
  5
4
330
3
100
AcDbSymbolTableRecord
100
AcDbLinetypeTableRecord
  2
ByBlock
 70
     0
  3

 72
    65
 73
     0
 40
0.0
  0
LTYPE
  5
5
330
3
100
AcDbSymbolTableRecord
100
AcDbLinetypeTableRecord
  2
ByLayer
 70
     0
  3

 72
    65
 73
     0
 40
0.0
  0
LTYPE
  5
6
330
3
100
AcDbSymbolTableRecord
100
AcDbLinetypeTableRecord
  2
CONTINUOUS
 70
     0
  3
Solid Line
 72
    65
 73
     0
 40
0.0
  0
LTYPE
  5
7
330
3
100
AcDbSymbolTableRecord
100
AcDbLinetypeTableRecord
  2
DASH
 70
     0
  3
Hidden
 72
    65
 73
     2
 40
2.5
 49
1.5
 74
     0
 49
-1.0
 74
     0
  0
LTYPE
  5
8
330
3
100
AcDbSymbolTableRecord
100
AcDbLinetypeTableRecord
  2
LONGDASHDASH
 70
     0
  3
__ . __
 72
    65
 73
     4
 40
7.0
 49
4.0
 74
     0
 49
-1.0
 74
     0
 49
1.0
 74
     0
 49
-1.0
 74
     0
  0
ENDTAB
  0
TABLE
  2
LAYER
  5
9
330
0
100
AcDbSymbolTable
 70
    11
  0
LAYER
  5
A
330
9
100
AcDbSymbolTableRecord
100
AcDbLayerTableRecord
  2
0
 70
     0
 62
     7
  6
CONTINUOUS
370
    -3
390
106AB96
  0
LAYER
  5
C
330
9
100
AcDbSymbolTableRecord
100
AcDbLayerTableRecord
  2
1
 70
     0
 62
     4
  6
CONTINUOUS
370
    50
390
106AB96
  0
LAYER
  5
D
330
9
100
AcDbSymbolTableRecord
100
AcDbLayerTableRecord
  2
2
 70
     0
 62
     7
  6
CONTINUOUS
370
    25
390
106AB96
  0
LAYER
  5
F
330
9
100
AcDbSymbolTableRecord
100
AcDbLayerTableRecord
  2
4
 70
     0
 62
     2
  6
LONGDASHDASH
370
    25
390
106AB96
  0
LAYER
  5
13
330
9
100
AcDbSymbolTableRecord
100
AcDbLayerTableRecord
  2
SK1
 70
     0
 62
     4
  6
CONTINUOUS
370
    50
390
106AB96
  0
LAYER
  5
14
330
9
100
AcDbSymbolTableRecord
100
AcDbLayerTableRecord
  2
SK2
 70
     0
 62
     7
  6
CONTINUOUS
370
    25
390
106AB96
  0
LAYER
  5
16
330
9
100
AcDbSymbolTableRecord
100
AcDbLayerTableRecord
  2
SK4
 70
     0
 62
     2
  6
LONGDASHDASH
370
    25
390
106AB96
  0
LAYER
  5
21
330
9
100
AcDbSymbolTableRecord
100
AcDbLayerTableRecord
  2
NOCUT
 70
     0
 62
     7
  6
CONTINUOUS
370
    25
390
106AB96
  0
LAYER
  5
22
330
9
100
AcDbSymbolTableRecord
100
AcDbLayerTableRecord
  2
CUT
 70
     0
 62
     1
  6
CONTINUOUS
370
    25
390
106AB96
  0
LAYER
  5
26
330
9
100
AcDbSymbolTableRecord
100
AcDbLayerTableRecord
  2
INFTOTAL
 70
     0
 62
     9
  6
CONTINUOUS
370
    18
390
106AB96
  0
LAYER
  5
106ABE0
330
9
100
AcDbSymbolTableRecord
100
AcDbLayerTableRecord
  2
Defpoints
 70
     0
 62
     7
  6
CONTINUOUS
290
     0
370
    -3
390
106AB96
  0
ENDTAB
  0
TABLE
  2
STYLE
  5
27
330
0
100
AcDbSymbolTable
 70
     2
  0
STYLE
  5
28
330
27
100
AcDbSymbolTableRecord
100
AcDbTextStyleTableRecord
  2
Monospac821 BT
 70
     0
 40
3.5
 41
1.0
 50
0.0
 71
     0
 42
3.0
  3

  4

1001
ACAD
1000
Monospac821 BT
1071
      256
  0
STYLE
  5
106AB90
330
27
100
AcDbSymbolTableRecord
100
AcDbTextStyleTableRecord
  2
Standard
 70
     0
 40
0.0
 41
1.0
 50
0.0
 71
     0
 42
0.2
  3
txt
  4

  0
ENDTAB
  0
TABLE
  2
VIEW
  5
29
330
0
100
AcDbSymbolTable
 70
     0
  0
ENDTAB
  0
TABLE
  2
UCS
  5
2A
330
0
100
AcDbSymbolTable
 70
     0
  0
ENDTAB
  0
TABLE
  2
APPID
  5
2B
330
0
100
AcDbSymbolTable
 70
     3
  0
APPID
  5
2C
330
2B
100
AcDbSymbolTableRecord
100
AcDbRegAppTableRecord
  2
ACAD
 70
     0
  0
APPID
  5
106ABE2
330
2B
100
AcDbSymbolTableRecord
100
AcDbRegAppTableRecord
  2
FX_DIMP_FAV_VERSION
 70
     0
  0
APPID
  5
106AC32
330
2B
100
AcDbSymbolTableRecord
100
AcDbRegAppTableRecord
  2
ACAD_MLEADERVER
 70
     0
  0
ENDTAB
  0
TABLE
  2
DIMSTYLE
  5
2D
330
0
100
AcDbSymbolTable
 70
     1
100
AcDbDimStyleTable
  0
DIMSTYLE
105
2E
330
2D
100
AcDbSymbolTableRecord
100
AcDbDimStyleTableRecord
  2
STANDARD
 70
     0
 41
3.0
 42
0.5
 44
1.0
 73
     0
 77
     1
 78
     1
140
3.5
141
2.5
143
0.03937
147
0.8
172
     1
174
     1
178
     0
179
     1
271
     2
279
     1
284
     1
340
28
  0
ENDTAB
  0
TABLE
  2
BLOCK_RECORD
  5
2F
330
0
100
AcDbSymbolTable
 70
     9
  0
BLOCK_RECORD
  5
30
102
{ACAD_XDICTIONARY
360
106ABEE
102
}
330
2F
100
AcDbSymbolTableRecord
100
AcDbBlockTableRecord
  2
*Model_Space
340
106AB98
  0
BLOCK_RECORD
  5
31
330
2F
100
AcDbSymbolTableRecord
100
AcDbBlockTableRecord
  2
*Paper_Space
340
106AB99
  0
BLOCK_RECORD
  5
3E1
330
2F
100
AcDbSymbolTableRecord
100
AcDbBlockTableRecord
  2
*D0
340
0
  0
BLOCK_RECORD
  5
3EF
330
2F
100
AcDbSymbolTableRecord
100
AcDbBlockTableRecord
  2
*D1
340
0
  0
BLOCK_RECORD
  5
3FD
330
2F
100
AcDbSymbolTableRecord
100
AcDbBlockTableRecord
  2
*D2
340
0
  0
BLOCK_RECORD
  5
40B
330
2F
100
AcDbSymbolTableRecord
100
AcDbBlockTableRecord
  2
*D3
340
0
  0
BLOCK_RECORD
  5
419
330
2F
100
AcDbSymbolTableRecord
100
AcDbBlockTableRecord
  2
*D4
340
0
  0
BLOCK_RECORD
  5
423
330
2F
100
AcDbSymbolTableRecord
100
AcDbBlockTableRecord
  2
*D5
340
0
  0
BLOCK_RECORD
  5
431
330
2F
100
AcDbSymbolTableRecord
100
AcDbBlockTableRecord
  2
*D6
340
0
  0
BLOCK_RECORD
  5
43F
330
2F
100
AcDbSymbolTableRecord
100
AcDbBlockTableRecord
  2
*D7
340
0
  0
BLOCK_RECORD
  5
44D
330
2F
100
AcDbSymbolTableRecord
100
AcDbBlockTableRecord
  2
*D8
340
0
  0
ENDTAB
  0
ENDSEC
  0
SECTION
  2
BLOCKS
  0
BLOCK
  5
32
330
30
100
AcDbEntity
  8
0
100
AcDbBlockBegin
  2
*Model_Space
 70
     0
 10
0.0
 20
0.0
 30
0.0
  3
*Model_Space
  1

  0
ENDBLK
  5
33
330
30
100
AcDbEntity
  8
0
100
AcDbBlockEnd
  0
BLOCK
  5
34
330
31
100
AcDbEntity
 67
     1
  8
0
100
AcDbBlockBegin
  2
*Paper_Space
 70
     0
 10
0.0
 20
0.0
 30
0.0
  3
*Paper_Space
  1

  0
ENDBLK
  5
35
330
31
100
AcDbEntity
 67
     1
  8
0
100
AcDbBlockEnd
  0
BLOCK
  5
3DF
330
3E1
100
AcDbEntity
  8
SK2
100
AcDbBlockBegin
  2
*D0
 70
     1
 10
0.0
 20
0.0
 30
0.0
  3
*D0
  1

  0
LINE
  5
3E2
330
3E1
100
AcDbEntity
  8
SK2
 62
     0
370
    -2
100
AcDbLine
 10
0.0
 20
1.490475
 30
0.0
 11
0.0
 21
36.5
 31
0.0
  0
LINE
  5
3E3
330
3E1
100
AcDbEntity
  8
SK2
 62
     0
370
    -2
100
AcDbLine
 10
40.0
 20
0.5
 30
0.0
 11
40.0
 21
36.5
 31
0.0
  0
LINE
  5
3E4
330
3E1
100
AcDbEntity
  8
SK2
 62
     0
370
    -2
100
AcDbLine
 10
3.0
 20
35.5
 30
0.0
 11
37.0
 21
35.5
 31
0.0
  0
SOLID
  5
3E5
330
3E1
100
AcDbEntity
  8
SK2
 62
     0
100
AcDbTrace
 10
3.0
 20
36.0
 30
0.0
 11
3.0
 21
35.0
 31
0.0
 12
0.0
 22
35.5
 32
0.0
 13
0.0
 23
35.5
 33
0.0
  0
SOLID
  5
3E6
330
3E1
100
AcDbEntity
  8
SK2
 62
     0
100
AcDbTrace
 10
37.0
 20
35.0
 30
0.0
 11
37.0
 21
36.0
 31
0.0
 12
40.0
 22
35.5
 32
0.0
 13
40.0
 23
35.5
 33
0.0
  0
MTEXT
  5
3E7
330
3E1
100
AcDbEntity
  8
SK2
  6
ByBlock
 62
     0
100
AcDbMText
 10
20.582931
 20
38.11125
 30
0.0
 40
3.5
 41
0.0
 71
     5
 72
     1
  1
\A1;40
 73
     1
 44
1.0
  0
POINT
  5
3E8
330
3E1
100
AcDbEntity
  8
Defpoints
 62
     0
100
AcDbPoint
 10
0.0
 20
0.990475
 30
0.0
  0
POINT
  5
3E9
330
3E1
100
AcDbEntity
  8
Defpoints
 62
     0
100
AcDbPoint
 10
40.0
 20
0.0
 30
0.0
  0
POINT
  5
3EA
330
3E1
100
AcDbEntity
  8
Defpoints
 62
     0
100
AcDbPoint
 10
40.0
 20
35.5
 30
0.0
  0
ENDBLK
  5
3EB
330
3E1
100
AcDbEntity
  8
SK2
100
AcDbBlockEnd
  0
BLOCK
  5
3ED
330
3EF
100
AcDbEntity
  8
SK2
100
AcDbBlockBegin
  2
*D1
 70
     1
 10
0.0
 20
0.0
 30
0.0
  3
*D1
  1

  0
LINE
  5
3F0
330
3EF
100
AcDbEntity
  8
SK2
 62
     0
370
    -2
100
AcDbLine
 10
13.0
 20
4.0
 30
0.0
 11
13.0
 21
29.0
 31
0.0
  0
LINE
  5
3F1
330
3EF
100
AcDbEntity
  8
SK2
 62
     0
370
    -2
100
AcDbLine
 10
0.0
 20
1.490475
 30
0.0
 11
0.0
 21
29.0
 31
0.0
  0
LINE
  5
3F2
330
3EF
100
AcDbEntity
  8
SK2
 62
     0
370
    -2
100
AcDbLine
 10
10.0
 20
28.0
 30
0.0
 11
3.0
 21
28.0
 31
0.0
  0
SOLID
  5
3F3
330
3EF
100
AcDbEntity
  8
SK2
 62
     0
100
AcDbTrace
 10
10.0
 20
27.5
 30
0.0
 11
10.0
 21
28.5
 31
0.0
 12
13.0
 22
28.0
 32
0.0
 13
13.0
 23
28.0
 33
0.0
  0
SOLID
  5
3F4
330
3EF
100
AcDbEntity
  8
SK2
 62
     0
100
AcDbTrace
 10
3.0
 20
28.5
 30
0.0
 11
3.0
 21
27.5
 31
0.0
 12
0.0
 22
28.0
 32
0.0
 13
0.0
 23
28.0
 33
0.0
  0
MTEXT
  5
3F5
330
3EF
100
AcDbEntity
  8
SK2
  6
ByBlock
 62
     0
100
AcDbMText
 10
6.329894880248503
 20
30.61125
 30
0.0
 40
3.5
 41
0.0
 71
     5
 72
     1
  1
\A1;13
 73
     1
 44
1.0
  0
POINT
  5
3F6
330
3EF
100
AcDbEntity
  8
Defpoints
 62
     0
100
AcDbPoint
 10
13.0
 20
3.5
 30
0.0
  0
POINT
  5
3F7
330
3EF
100
AcDbEntity
  8
Defpoints
 62
     0
100
AcDbPoint
 10
0.0
 20
0.990475
 30
0.0
  0
POINT
  5
3F8
330
3EF
100
AcDbEntity
  8
Defpoints
 62
     0
100
AcDbPoint
 10
0.0
 20
28.1119696793003
 30
0.0
  0
ENDBLK
  5
3F9
330
3EF
100
AcDbEntity
  8
SK2
100
AcDbBlockEnd
  0
BLOCK
  5
3FB
330
3FD
100
AcDbEntity
  8
SK2
100
AcDbBlockBegin
  2
*D2
 70
     1
 10
0.0
 20
0.0
 30
0.0
  3
*D2
  1

  0
LINE
  5
3FE
330
3FD
100
AcDbEntity
  8
SK2
 62
     0
370
    -2
100
AcDbLine
 10
0.5
 20
-1.5
 30
0.0
 11
-7.9
 21
-1.5
 31
0.0
  0
LINE
  5
3FF
330
3FD
100
AcDbEntity
  8
SK2
 62
     0
370
    -2
100
AcDbLine
 10
0.5
 20
1.5
 30
0.0
 11
-7.9
 21
1.5
 31
0.0
  0
LINE
  5
400
330
3FD
100
AcDbEntity
  8
SK2
 62
     0
370
    -2
100
AcDbLine
 10
-6.9
 20
1.5
 30
0.0
 11
-6.9
 21
14.686
 31
0.0
  0
LINE
  5
401
330
3FD
100
AcDbEntity
  8
SK2
 62
     0
370
    -2
100
AcDbLine
 10
-6.9
 20
-1.5
 30
0.0
 11
-6.9
 21
1.5
 31
0.0
  0
LINE
  5
402
330
3FD
100
AcDbEntity
  8
SK2
 62
     0
370
    -2
100
AcDbLine
 10
-6.9
 20
-4.5
 30
0.0
 11
-6.9
 21
-7.5
 31
0.0
  0
LINE
  5
403
330
3FD
100
AcDbEntity
  8
SK2
 62
     0
370
    -2
100
AcDbLine
 10
-6.9
 20
4.5
 30
0.0
 11
-6.9
 21
7.5
 31
0.0
  0
SOLID
  5
404
330
3FD
100
AcDbEntity
  8
SK2
 62
     0
100
AcDbTrace
 10
-6.4
 20
-4.5
 30
0.0
 11
-7.4
 21
-4.5
 31
0.0
 12
-6.9
 22
-1.5
 32
0.0
 13
-6.9
 23
-1.5
 33
0.0
  0
SOLID
  5
405
330
3FD
100
AcDbEntity
  8
SK2
 62
     0
100
AcDbTrace
 10
-7.4
 20
4.5
 30
0.0
 11
-6.4
 21
4.5
 31
0.0
 12
-6.9
 22
1.5
 32
0.0
 13
-6.9
 23
1.5
 33
0.0
  0
MTEXT
  5
406
330
3FD
100
AcDbEntity
  8
SK2
  6
ByBlock
 62
     0
100
AcDbMText
 10
-9.562000000000001
 20
11.093
 30
0.0
 40
3.5
 41
0.0
 71
     5
 72
     1
  1
\A1;%%c3
 11
0.0
 21
1.0
 31
0.0
 73
     1
 44
1.0
  0
POINT
  5
106ABE5
330
3FD
100
AcDbEntity
  8
Defpoints
 62
     0
100
AcDbPoint
 10
1.0
 20
-1.5
 30
0.0
  0
POINT
  5
106ABE6
330
3FD
100
AcDbEntity
  8
Defpoints
 62
     0
100
AcDbPoint
 10
1.0
 20
1.5
 30
0.0
  0
POINT
  5
106ABED
330
3FD
100
AcDbEntity
  8
Defpoints
 62
     0
100
AcDbPoint
 10
-6.9
 20
1.5
 30
0.0
  0
ENDBLK
  5
407
330
3FD
100
AcDbEntity
  8
SK2
100
AcDbBlockEnd
  0
BLOCK
  5
409
330
40B
100
AcDbEntity
  8
2
100
AcDbBlockBegin
  2
*D3
 70
     1
 10
0.0
 20
0.0
 30
0.0
  3
*D3
  1

  0
LINE
  5
40C
330
40B
100
AcDbEntity
  8
2
 62
     0
370
    -2
100
AcDbLine
 10
39.5
 20
-1.0
 30
0.0
 11
62.9
 21
-0.9999999999999981
 31
0.0
  0
LINE
  5
40D
330
40B
100
AcDbEntity
  8
2
 62
     0
370
    -2
100
AcDbLine
 10
39.5
 20
1.0
 30
0.0
 11
62.9
 21
1.000000000000002
 31
0.0
  0
LINE
  5
40E
330
40B
100
AcDbEntity
  8
2
 62
     0
370
    -2
100
AcDbLine
 10
61.9
 20
1.000000000000002
 30
0.0
 11
61.9
 21
14.18599999999999
 31
0.0
  0
LINE
  5
40F
330
40B
100
AcDbEntity
  8
2
 62
     0
370
    -2
100
AcDbLine
 10
61.9
 20
-0.9999999999999982
 30
0.0
 11
61.9
 21
1.000000000000002
 31
0.0
  0
LINE
  5
410
330
40B
100
AcDbEntity
  8
2
 62
     0
370
    -2
100
AcDbLine
 10
61.9
 20
-3.999999999999998
 30
0.0
 11
61.9
 21
-6.999999999999998
 31
0.0
  0
LINE
  5
411
330
40B
100
AcDbEntity
  8
2
 62
     0
370
    -2
100
AcDbLine
 10
61.9
 20
4.000000000000002
 30
0.0
 11
61.9
 21
7.000000000000002
 31
0.0
  0
SOLID
  5
412
330
40B
100
AcDbEntity
  8
2
 62
     0
100
AcDbTrace
 10
62.4
 20
-3.999999999999998
 30
0.0
 11
61.4
 21
-3.999999999999998
 31
0.0
 12
61.9
 22
-0.9999999999999982
 32
0.0
 13
61.9
 23
-0.9999999999999982
 33
0.0
  0
SOLID
  5
413
330
40B
100
AcDbEntity
  8
2
 62
     0
100
AcDbTrace
 10
61.4
 20
4.000000000000002
 30
0.0
 11
62.4
 21
4.000000000000002
 31
0.0
 12
61.9
 22
1.000000000000002
 32
0.0
 13
61.9
 23
1.000000000000002
 33
0.0
  0
MTEXT
  5
414
330
40B
100
AcDbEntity
  8
2
  6
ByBlock
 62
     0
100
AcDbMText
 10
59.238
 20
10.593
 30
0.0
 40
3.5
 41
0.0
 71
     5
 72
     1
  1
\A1;%%c2
 11
0.0
 21
1.0
 31
0.0
 73
     1
 44
1.0
  0
POINT
  5
106ABE7
330
40B
100
AcDbEntity
  8
Defpoints
 62
     0
100
AcDbPoint
 10
39.0
 20
-1.0
 30
0.0
  0
POINT
  5
106ABE8
330
40B
100
AcDbEntity
  8
Defpoints
 62
     0
100
AcDbPoint
 10
39.0
 20
1.0
 30
0.0
  0
POINT
  5
106ABEC
330
40B
100
AcDbEntity
  8
Defpoints
 62
     0
100
AcDbPoint
 10
61.9
 20
1.000000000000001
 30
0.0
  0
ENDBLK
  5
415
330
40B
100
AcDbEntity
  8
2
100
AcDbBlockEnd
  0
BLOCK
  5
417
330
419
100
AcDbEntity
  8
2
100
AcDbBlockBegin
  2
*D4
 70
     1
 10
0.0
 20
0.0
 30
0.0
  3
*D4
  1

  0
LINE
  5
41A
330
419
100
AcDbEntity
  8
2
 62
     0
370
    -2
100
AcDbLine
 10
54.00564195469592
 20
11.493078
 30
0.0
 11
48.68014195469593
 21
11.493078
 31
0.0
  0
LINE
  5
41B
330
419
100
AcDbEntity
  8
2
 62
     0
370
    -2
100
AcDbLine
 10
48.68014195469593
 20
11.493078
 30
0.0
 11
41.57681736443795
 21
3.059414118082538
 31
0.0
  0
MTEXT
  5
41C
330
419
100
AcDbEntity
  8
2
  6
ByBlock
 62
     0
100
AcDbMText
 10
51.74289195469592
 20
14.053578
 30
0.0
 40
3.5
 41
0.0
 71
     5
 72
     1
  1
\A1;R1
 73
     1
 44
1.0
  0
LINE
  5
41D
330
419
100
AcDbEntity
  8
2
 62
     0
370
    -2
100
AcDbLine
 10
39.0
 20
0.0
 30
0.0
 11
39.64420449062074
 21
0.7648537070329623
 31
0.0
  0
SOLID
  5
41E
330
419
100
AcDbEntity
  8
2
 62
     0
100
AcDbTrace
 10
41.19439062926302
 20
3.381516263718739
 30
0.0
 11
41.95924409961288
 21
2.737311972446337
 31
0.0
 12
39.64420449062074
 22
0.7648537070329623
 32
0.0
 13
39.64420449062074
 23
0.7648537070329623
 33
0.0
  0
POINT
  5
106ABEA
330
419
100
AcDbEntity
  8
Defpoints
 62
     0
100
AcDbPoint
 10
39.64420449062074
 20
0.7648537070329623
 30
0.0
  0
POINT
  5
106ABEB
330
419
100
AcDbEntity
  8
Defpoints
 62
     0
100
AcDbPoint
 10
39.0
 20
0.0
 30
0.0
  0
ENDBLK
  5
41F
330
419
100
AcDbEntity
  8
2
100
AcDbBlockEnd
  0
BLOCK
  5
421
330
423
100
AcDbEntity
  8
2
100
AcDbBlockBegin
  2
*D5
 70
     1
 10
0.0
 20
0.0
 30
0.0
  3
*D5
  1

  0
LINE
  5
424
330
423
100
AcDbEntity
  8
2
 62
     0
370
    -2
100
AcDbLine
 10
26.6
 20
0.9749999999999996
 30
0.0
 11
26.6
 21
23.2715
 31
0.0
  0
LINE
  5
425
330
423
100
AcDbEntity
  8
2
 62
     0
370
    -2
100
AcDbLine
 10
26.6
 20
-0.9750000000000014
 30
0.0
 11
26.6
 21
0.9749999999999996
 31
0.0
  0
LINE
  5
426
330
423
100
AcDbEntity
  8
2
 62
     0
370
    -2
100
AcDbLine
 10
26.6
 20
-3.975000000000001
 30
0.0
 11
26.6
 21
-6.975000000000001
 31
0.0
  0
LINE
  5
427
330
423
100
AcDbEntity
  8
2
 62
     0
370
    -2
100
AcDbLine
 10
26.6
 20
3.975
 30
0.0
 11
26.6
 21
6.975
 31
0.0
  0
SOLID
  5
428
330
423
100
AcDbEntity
  8
2
 62
     0
100
AcDbTrace
 10
27.1
 20
-3.975000000000001
 30
0.0
 11
26.1
 21
-3.975000000000001
 31
0.0
 12
26.6
 22
-0.9750000000000014
 32
0.0
 13
26.6
 23
-0.9750000000000014
 33
0.0
  0
SOLID
  5
429
330
423
100
AcDbEntity
  8
2
 62
     0
100
AcDbTrace
 10
26.1
 20
3.975
 30
0.0
 11
27.1
 21
3.975
 31
0.0
 12
26.6
 22
0.9749999999999996
 32
0.0
 13
26.6
 23
0.9749999999999996
 33
0.0
  0
MTEXT
  5
42A
330
423
100
AcDbEntity
  8
2
  6
ByBlock
 62
     0
100
AcDbMText
 10
23.938
 20
15.12325
 30
0.0
 40
3.5
 41
0.0
 71
     5
 72
     1
  1
\A1;%%c1.95
 11
0.0
 21
1.0
 31
0.0
 73
     1
 44
1.0
  0
POINT
  5
42B
330
423
100
AcDbEntity
  8
Defpoints
 62
     0
100
AcDbPoint
 10
24.315238
 20
-0.9750000000000001
 30
0.0
  0
POINT
  5
42C
330
423
100
AcDbEntity
  8
Defpoints
 62
     0
100
AcDbPoint
 10
24.315238
 20
0.975
 30
0.0
  0
POINT
  5
106ABE3
330
423
100
AcDbEntity
  8
Defpoints
 62
     0
100
AcDbPoint
 10
26.6
 20
0.9750000000000001
 30
0.0
  0
ENDBLK
  5
42D
330
423
100
AcDbEntity
  8
2
100
AcDbBlockEnd
  0
BLOCK
  5
42F
330
431
100
AcDbEntity
  8
2
100
AcDbBlockBegin
  2
*D6
 70
     1
 10
0.0
 20
0.0
 30
0.0
  3
*D6
  1

  0
LINE
  5
432
330
431
100
AcDbEntity
  8
2
 62
     0
370
    -2
100
AcDbLine
 10
31.0
 20
-1.475
 30
0.0
 11
31.0
 21
-11.95742180758018
 31
0.0
  0
LINE
  5
433
330
431
100
AcDbEntity
  8
2
 62
     0
370
    -2
100
AcDbLine
 10
40.0
 20
-0.5
 30
0.0
 11
40.0
 21
-11.95742180758018
 31
0.0
  0
LINE
  5
434
330
431
100
AcDbEntity
  8
2
 62
     0
370
    -2
100
AcDbLine
 10
34.0
 20
-10.95742180758018
 30
0.0
 11
37.0
 21
-10.95742180758018
 31
0.0
  0
SOLID
  5
435
330
431
100
AcDbEntity
  8
2
 62
     0
100
AcDbTrace
 10
34.0
 20
-10.45742180758018
 30
0.0
 11
34.0
 21
-11.45742180758018
 31
0.0
 12
31.0
 22
-10.95742180758018
 32
0.0
 13
31.0
 23
-10.95742180758018
 33
0.0
  0
SOLID
  5
436
330
431
100
AcDbEntity
  8
2
 62
     0
100
AcDbTrace
 10
37.0
 20
-11.45742180758018
 30
0.0
 11
37.0
 21
-10.45742180758018
 31
0.0
 12
40.0
 22
-10.95742180758018
 32
0.0
 13
40.0
 23
-10.95742180758018
 33
0.0
  0
MTEXT
  5
437
330
431
100
AcDbEntity
  8
2
  6
ByBlock
 62
     0
100
AcDbMText
 10
35.582931
 20
-8.346171807580177
 30
0.0
 40
3.5
 41
0.0
 71
     5
 72
     1
  1
\A1;9
 73
     1
 44
1.0
  0
POINT
  5
438
330
431
100
AcDbEntity
  8
Defpoints
 62
     0
100
AcDbPoint
 10
31.0
 20
-0.975
 30
0.0
  0
POINT
  5
439
330
431
100
AcDbEntity
  8
Defpoints
 62
     0
100
AcDbPoint
 10
40.0
 20
0.0
 30
0.0
  0
POINT
  5
43A
330
431
100
AcDbEntity
  8
Defpoints
 62
     0
100
AcDbPoint
 10
40.0
 20
-10.95742180758018
 30
0.0
  0
ENDBLK
  5
43B
330
431
100
AcDbEntity
  8
2
100
AcDbBlockEnd
  0
BLOCK
  5
43D
330
43F
100
AcDbEntity
  8
2
100
AcDbBlockBegin
  2
*D7
 70
     1
 10
0.0
 20
0.0
 30
0.0
  3
*D7
  1

  0
LINE
  5
440
330
43F
100
AcDbEntity
  8
2
 62
     0
370
    -2
100
AcDbLine
 10
13.0
 20
4.0
 30
0.0
 11
13.0
 21
29.0
 31
0.0
  0
LINE
  5
441
330
43F
100
AcDbEntity
  8
2
 62
     0
370
    -2
100
AcDbLine
 10
40.0
 20
0.5
 30
0.0
 11
40.0
 21
29.0
 31
0.0
  0
LINE
  5
442
330
43F
100
AcDbEntity
  8
2
 62
     0
370
    -2
100
AcDbLine
 10
16.0
 20
28.0
 30
0.0
 11
37.0
 21
28.0
 31
0.0
  0
SOLID
  5
443
330
43F
100
AcDbEntity
  8
2
 62
     0
100
AcDbTrace
 10
16.0
 20
28.5
 30
0.0
 11
16.0
 21
27.5
 31
0.0
 12
13.0
 22
28.0
 32
0.0
 13
13.0
 23
28.0
 33
0.0
  0
SOLID
  5
444
330
43F
100
AcDbEntity
  8
2
 62
     0
100
AcDbTrace
 10
37.0
 20
27.5
 30
0.0
 11
37.0
 21
28.5
 31
0.0
 12
40.0
 22
28.0
 32
0.0
 13
40.0
 23
28.0
 33
0.0
  0
MTEXT
  5
445
330
43F
100
AcDbEntity
  8
2
  6
ByBlock
 62
     0
100
AcDbMText
 10
27.139706
 20
30.5605
 30
0.0
 40
3.5
 41
0.0
 71
     5
 72
     1
  1
\A1;27
 73
     1
 44
1.0
  0
POINT
  5
446
330
43F
100
AcDbEntity
  8
Defpoints
 62
     0
100
AcDbPoint
 10
13.0
 20
3.5
 30
0.0
  0
POINT
  5
447
330
43F
100
AcDbEntity
  8
Defpoints
 62
     0
100
AcDbPoint
 10
40.0
 20
0.0
 30
0.0
  0
POINT
  5
448
330
43F
100
AcDbEntity
  8
Defpoints
 62
     0
100
AcDbPoint
 10
40.0
 20
28.1119696793003
 30
0.0
  0
ENDBLK
  5
449
330
43F
100
AcDbEntity
  8
2
100
AcDbBlockEnd
  0
BLOCK
  5
44B
330
44D
100
AcDbEntity
  8
2
100
AcDbBlockBegin
  2
*D8
 70
     1
 10
0.0
 20
0.0
 30
0.0
  3
*D8
  1

  0
LINE
  5
44E
330
44D
100
AcDbEntity
  8
2
 62
     0
370
    -2
100
AcDbLine
 10
40.0
 20
-0.5
 30
0.0
 11
40.0
 21
-20.89935999999999
 31
0.0
  0
LINE
  5
44F
330
44D
100
AcDbEntity
  8
2
 62
     0
370
    -2
100
AcDbLine
 10
24.0
 20
-1.5
 30
0.0
 11
24.0
 21
-20.89935999999999
 31
0.0
  0
LINE
  5
450
330
44D
100
AcDbEntity
  8
2
 62
     0
370
    -2
100
AcDbLine
 10
37.0
 20
-19.89935999999999
 30
0.0
 11
27.0
 21
-19.89935999999999
 31
0.0
  0
SOLID
  5
451
330
44D
100
AcDbEntity
  8
2
 62
     0
100
AcDbTrace
 10
37.0
 20
-20.39935999999999
 30
0.0
 11
37.0
 21
-19.39935999999999
 31
0.0
 12
40.0
 22
-19.89935999999999
 32
0.0
 13
40.0
 23
-19.89935999999999
 33
0.0
  0
SOLID
  5
452
330
44D
100
AcDbEntity
  8
2
 62
     0
100
AcDbTrace
 10
27.0
 20
-19.39935999999999
 30
0.0
 11
27.0
 21
-20.39935999999999
 31
0.0
 12
24.0
 22
-19.89935999999999
 32
0.0
 13
24.0
 23
-19.89935999999999
 33
0.0
  0
MTEXT
  5
453
330
44D
100
AcDbEntity
  8
2
  6
ByBlock
 62
     0
100
AcDbMText
 10
32.0
 20
-17.28810999999999
 30
0.0
 40
3.5
 41
0.0
 71
     5
 72
     1
  1
\A1;16
 73
     1
 44
1.0
  0
POINT
  5
454
330
44D
100
AcDbEntity
  8
Defpoints
 62
     0
100
AcDbPoint
 10
40.0
 20
0.0
 30
0.0
  0
POINT
  5
455
330
44D
100
AcDbEntity
  8
Defpoints
 62
     0
100
AcDbPoint
 10
24.0
 20
-1.0
 30
0.0
  0
POINT
  5
456
330
44D
100
AcDbEntity
  8
Defpoints
 62
     0
100
AcDbPoint
 10
24.0
 20
-19.89935999999999
 30
0.0
  0
ENDBLK
  5
457
330
44D
100
AcDbEntity
  8
2
100
AcDbBlockEnd
  0
ENDSEC
  0
SECTION
  2
ENTITIES
  0
DIMENSION
  5
3EC
330
30
100
AcDbEntity
  8
SK2
100
AcDbDimension
  2
*D0
 10
40.0
 20
35.5
 30
0.0
 11
20.582931
 21
35.5
 31
0.0
 70
   160
  1
<>
 71
     5
 42
40.0
  3
STANDARD
100
AcDbAlignedDimension
 13
0.0
 23
0.990475
 33
0.0
 14
40.0
 24
0.0
 34
0.0
100
AcDbRotatedDimension
1001
ACAD
1000
DSTYLE
1002
{
1070
    78
1070
     9
1070
   279
1070
     0
1070
    74
1070
     0
1002
}
  0
DIMENSION
  5
3FA
330
30
100
AcDbEntity
  8
SK2
100
AcDbDimension
  2
*D1
 10
0.0
 20
28.0
 30
0.0
 11
6.329894880248503
 21
28.0
 31
0.0
 70
   160
  1
<>
 71
     5
 42
13.0
  3
STANDARD
100
AcDbAlignedDimension
 13
13.0
 23
3.5
 33
0.0
 14
0.0
 24
0.990475
 34
0.0
100
AcDbRotatedDimension
1001
ACAD
1000
DSTYLE
1002
{
1070
    78
1070
     9
1070
   279
1070
     0
1070
    74
1070
     0
1002
}
  0
DIMENSION
  5
408
330
30
100
AcDbEntity
  8
SK2
100
AcDbDimension
  2
*D2
 10
-6.9
 20
1.5
 30
0.0
 11
-6.9
 21
11.093
 31
0.0
 70
   160
  1
%%c<>
 71
     5
 42
3.0
  3
STANDARD
100
AcDbAlignedDimension
 13
1.0
 23
-1.5
 33
0.0
 14
1.0
 24
1.5
 34
0.0
 50
-90.0
100
AcDbRotatedDimension
1001
ACAD
1000
DSTYLE
1002
{
1070
    78
1070
     9
1070
   279
1070
     0
1070
    74
1070
     0
1002
}
  0
DIMENSION
  5
416
330
30
100
AcDbEntity
  8
2
100
AcDbDimension
  2
*D3
 10
61.9
 20
1.000000000000002
 30
0.0
 11
61.9
 21
10.593
 31
0.0
 70
   160
  1
%%c<>
 71
     5
 42
2.0
  3
STANDARD
100
AcDbAlignedDimension
 13
39.0
 23
-1.0
 33
0.0
 14
39.0
 24
1.0
 34
0.0
 50
-90.0
100
AcDbRotatedDimension
1001
ACAD
1000
DSTYLE
1002
{
1070
    78
1070
     9
1070
   279
1070
     0
1070
    74
1070
     0
1002
}
  0
DIMENSION
  5
420
330
30
100
AcDbEntity
  8
2
100
AcDbDimension
  2
*D4
 10
39.0
 20
0.0
 30
0.0
 11
48.68014195469593
 21
11.493078
 31
0.0
 70
   164
  1
R1
 71
     5
 42
1.000000309448951
  3
STANDARD
100
AcDbRadialDimension
 15
39.64420449062074
 25
0.7648537070329623
 35
0.0
 40
0.0
  0
DIMENSION
  5
42E
330
30
100
AcDbEntity
  8
2
100
AcDbDimension
  2
*D5
 10
26.6
 20
0.9749999999999996
 30
0.0
 11
26.6
 21
15.12325
 31
0.0
 70
   160
  1
%%c<>
 71
     5
 42
1.95
  3
STANDARD
100
AcDbAlignedDimension
 13
24.315238
 23
-0.9750000000000001
 33
0.0
 14
24.315238
 24
0.975
 34
0.0
 50
-90.0
100
AcDbRotatedDimension
1001
ACAD
1000
DSTYLE
1002
{
1070
    76
1070
     1
1070
    75
1070
     1
1070
    78
1070
     9
1070
   279
1070
     0
1070
    74
1070
     0
1002
}
  0
DIMENSION
  5
43C
330
30
100
AcDbEntity
  8
2
100
AcDbDimension
  2
*D6
 10
40.0
 20
-10.95742180758018
 30
0.0
 11
35.582931
 21
-10.95742180758018
 31
0.0
 70
   160
  1
<>
 71
     5
 42
9.0
  3
STANDARD
100
AcDbAlignedDimension
 13
31.0
 23
-0.975
 33
0.0
 14
40.0
 24
0.0
 34
0.0
100
AcDbRotatedDimension
1001
ACAD
1000
DSTYLE
1002
{
1070
    78
1070
     9
1070
   279
1070
     0
1070
    74
1070
     0
1002
}
  0
DIMENSION
  5
44A
330
30
100
AcDbEntity
  8
2
100
AcDbDimension
  2
*D7
 10
40.0
 20
28.0
 30
0.0
 11
27.139706
 21
28.0
 31
0.0
 70
   160
  1
<>
 71
     5
 42
27.0
  3
STANDARD
100
AcDbAlignedDimension
 13
13.0
 23
3.5
 33
0.0
 14
40.0
 24
0.0
 34
0.0
100
AcDbRotatedDimension
1001
ACAD
1000
DSTYLE
1002
{
1070
    78
1070
     9
1070
   279
1070
     0
1070
    74
1070
     0
1002
}
  0
DIMENSION
  5
458
330
30
100
AcDbEntity
  8
2
100
AcDbDimension
  2
*D8
 10
24.0
 20
-19.89935999999999
 30
0.0
 11
32.0
 21
-19.89935999999999
 31
0.0
 70
   160
  1
<>
 71
     5
 42
16.0
  3
STANDARD
100
AcDbAlignedDimension
 13
40.0
 23
0.0
 33
0.0
 14
24.0
 24
-1.0
 34
0.0
100
AcDbRotatedDimension
1001
ACAD
1000
DSTYLE
1002
{
1070
    78
1070
     9
1070
   279
1070
     0
1070
    74
1070
     0
1002
}
  0
ARC
  5
36
330
30
100
AcDbEntity
  8
1
100
AcDbCircle
 10
24.315238
 20
-2.975
 30
0.0
 40
2.0
100
AcDbArc
 50
90.0
 51
110.0
  0
LINE
  5
37
330
30
100
AcDbEntity
  8
1
100
AcDbLine
 10
24.315238
 20
-0.975
 30
0.0
 11
31.0
 21
-0.975
 31
0.0
  0
LINE
  5
38
330
30
100
AcDbEntity
  8
1
100
AcDbLine
 10
31.0
 20
-0.975
 30
0.0
 11
31.0
 21
-1.0
 31
0.0
  0
LINE
  5
39
330
30
100
AcDbEntity
  8
1
100
AcDbLine
 10
31.0
 20
-1.0
 30
0.0
 11
39.0
 21
-1.0
 31
0.0
  0
ARC
  5
3A
330
30
100
AcDbEntity
  8
1
100
AcDbCircle
 10
39.0
 20
0.0
 30
0.0
 40
1.0
100
AcDbArc
 50
270.0
 51
0.0
  0
ARC
  5
3B
330
30
100
AcDbEntity
  8
1
100
AcDbCircle
 10
39.0
 20
0.0
 30
0.0
 40
1.0
100
AcDbArc
 50
0.0
 51
90.0
  0
LINE
  5
3C
330
30
100
AcDbEntity
  8
1
100
AcDbLine
 10
39.0
 20
1.0
 30
0.0
 11
31.0
 21
1.0
 31
0.0
  0
LINE
  5
3D
330
30
100
AcDbEntity
  8
1
100
AcDbLine
 10
31.0
 20
1.0
 30
0.0
 11
31.0
 21
0.975
 31
0.0
  0
LINE
  5
3E
330
30
100
AcDbEntity
  8
1
100
AcDbLine
 10
31.0
 20
0.975
 30
0.0
 11
24.315238
 21
0.975
 31
0.0
  0
ARC
  5
3F
330
30
100
AcDbEntity
  8
1
100
AcDbCircle
 10
24.315238
 20
2.975
 30
0.0
 40
2.0
100
AcDbArc
 50
250.0
 51
270.0
  0
LINE
  5
40
330
30
100
AcDbEntity
  8
1
100
AcDbLine
 10
23.631198
 20
1.095615
 30
0.0
 11
22.520158
 21
1.5
 31
0.0
  0
LINE
  5
41
330
30
100
AcDbEntity
  8
1
100
AcDbLine
 10
22.520158
 20
1.5
 30
0.0
 11
13.35
 21
1.5
 31
0.0
  0
LINE
  5
42
330
30
100
AcDbEntity
  8
1
100
AcDbLine
 10
13.35
 20
1.5
 30
0.0
 11
13.35
 21
3.5
 31
0.0
  0
LINE
  5
43
330
30
100
AcDbEntity
  8
1
100
AcDbLine
 10
13.35
 20
3.5
 30
0.0
 11
13.0
 21
3.5
 31
0.0
  0
LINE
  5
44
330
30
100
AcDbEntity
  8
1
100
AcDbLine
 10
13.0
 20
3.5
 30
0.0
 11
13.0
 21
1.5
 31
0.0
  0
LINE
  5
45
330
30
100
AcDbEntity
  8
1
100
AcDbLine
 10
13.0
 20
1.5
 30
0.0
 11
13.0
 21
-1.5
 31
0.0
  0
LINE
  5
46
330
30
100
AcDbEntity
  8
1
100
AcDbLine
 10
13.0
 20
-1.5
 30
0.0
 11
13.0
 21
-3.5
 31
0.0
  0
LINE
  5
47
330
30
100
AcDbEntity
  8
1
100
AcDbLine
 10
13.0
 20
-3.5
 30
0.0
 11
13.35
 21
-3.5
 31
0.0
  0
LINE
  5
48
330
30
100
AcDbEntity
  8
1
100
AcDbLine
 10
13.35
 20
-3.5
 30
0.0
 11
13.35
 21
-1.5
 31
0.0
  0
LINE
  5
49
330
30
100
AcDbEntity
  8
1
100
AcDbLine
 10
13.35
 20
-1.5
 30
0.0
 11
22.520158
 21
-1.5
 31
0.0
  0
LINE
  5
4A
330
30
100
AcDbEntity
  8
1
100
AcDbLine
 10
22.520158
 20
-1.5
 30
0.0
 11
23.631198
 21
-1.095615
 31
0.0
  0
LINE
  5
4B
330
30
100
AcDbEntity
  8
1
100
AcDbLine
 10
39.0
 20
-1.0
 30
0.0
 11
39.0
 21
1.0
 31
0.0
  0
LINE
  5
4C
330
30
100
AcDbEntity
  8
1
100
AcDbLine
 10
39.853333
 20
-0.191995
 30
0.0
 11
39.853333
 21
0.521366
 31
0.0
  0
LINE
  5
4D
330
30
100
AcDbEntity
  8
1
100
AcDbLine
 10
39.853333
 20
0.521366
 30
0.0
 11
39.853333
 21
-0.191995
 31
0.0
  0
LINE
  5
4E
330
30
100
AcDbEntity
  8
1
100
AcDbLine
 10
39.853333
 20
-0.191995
 30
0.0
 11
39.816667
 21
-0.32183
 31
0.0
  0
LINE
  5
4F
330
30
100
AcDbEntity
  8
1
100
AcDbLine
 10
39.816667
 20
-0.32183
 30
0.0
 11
39.78
 21
-0.399622
 31
0.0
  0
LINE
  5
50
330
30
100
AcDbEntity
  8
1
100
AcDbLine
 10
39.78
 20
-0.399622
 30
0.0
 11
39.743333
 21
-0.457377
 31
0.0
  0
LINE
  5
51
330
30
100
AcDbEntity
  8
1
100
AcDbLine
 10
39.743333
 20
-0.457377
 30
0.0
 11
39.706667
 21
-0.503204
 31
0.0
  0
LINE
  5
52
330
30
100
AcDbEntity
  8
1
100
AcDbLine
 10
39.706667
 20
-0.503204
 30
0.0
 11
39.67
 21
-0.54066
 31
0.0
  0
LINE
  5
53
330
30
100
AcDbEntity
  8
1
100
AcDbLine
 10
39.67
 20
-0.54066
 30
0.0
 11
39.633333
 21
-0.571684
 31
0.0
  0
LINE
  5
54
330
30
100
AcDbEntity
  8
1
100
AcDbLine
 10
39.633333
 20
-0.571684
 30
0.0
 11
39.596667
 21
-0.597468
 31
0.0
  0
LINE
  5
55
330
30
100
AcDbEntity
  8
1
100
AcDbLine
 10
39.596667
 20
-0.597468
 30
0.0
 11
39.56
 21
-0.61881
 31
0.0
  0
LINE
  5
56
330
30
100
AcDbEntity
  8
1
100
AcDbLine
 10
39.56
 20
-0.61881
 30
0.0
 11
39.523333
 21
-0.636272
 31
0.0
  0
LINE
  5
57
330
30
100
AcDbEntity
  8
1
100
AcDbLine
 10
39.523333
 20
-0.636272
 30
0.0
 11
39.486667
 21
-0.650269
 31
0.0
  0
LINE
  5
58
330
30
100
AcDbEntity
  8
1
100
AcDbLine
 10
39.486667
 20
-0.650269
 30
0.0
 11
39.45
 21
-0.661117
 31
0.0
  0
LINE
  5
59
330
30
100
AcDbEntity
  8
1
100
AcDbLine
 10
39.45
 20
-0.661117
 30
0.0
 11
39.413333
 21
-0.669068
 31
0.0
  0
LINE
  5
5A
330
30
100
AcDbEntity
  8
1
100
AcDbLine
 10
39.413333
 20
-0.669068
 30
0.0
 11
39.376667
 21
-0.674321
 31
0.0
  0
LINE
  5
5B
330
30
100
AcDbEntity
  8
1
100
AcDbLine
 10
39.376667
 20
-0.674321
 30
0.0
 11
39.34
 21
-0.677041
 31
0.0
  0
LINE
  5
5C
330
30
100
AcDbEntity
  8
1
100
AcDbLine
 10
39.34
 20
-0.677041
 30
0.0
 11
39.303333
 21
-0.677367
 31
0.0
  0
LINE
  5
5D
330
30
100
AcDbEntity
  8
1
100
AcDbLine
 10
39.303333
 20
-0.677367
 30
0.0
 11
39.266667
 21
-0.675417
 31
0.0
  0
LINE
  5
5E
330
30
100
AcDbEntity
  8
1
100
AcDbLine
 10
39.266667
 20
-0.675417
 30
0.0
 11
39.23
 21
-0.671292
 31
0.0
  0
LINE
  5
5F
330
30
100
AcDbEntity
  8
1
100
AcDbLine
 10
39.23
 20
-0.671292
 30
0.0
 11
39.193333
 21
-0.665082
 31
0.0
  0
LINE
  5
60
330
30
100
AcDbEntity
  8
1
100
AcDbLine
 10
39.193333
 20
-0.665082
 30
0.0
 11
39.156667
 21
-0.656865
 31
0.0
  0
LINE
  5
61
330
30
100
AcDbEntity
  8
1
100
AcDbLine
 10
39.156667
 20
-0.656865
 30
0.0
 11
39.12
 21
-0.646713
 31
0.0
  0
LINE
  5
62
330
30
100
AcDbEntity
  8
1
100
AcDbLine
 10
39.12
 20
-0.646713
 30
0.0
 11
39.083333
 21
-0.634689
 31
0.0
  0
LINE
  5
63
330
30
100
AcDbEntity
  8
1
100
AcDbLine
 10
39.083333
 20
-0.634689
 30
0.0
 11
39.046667
 21
-0.620852
 31
0.0
  0
LINE
  5
64
330
30
100
AcDbEntity
  8
1
100
AcDbLine
 10
39.046667
 20
-0.620852
 30
0.0
 11
39.01
 21
-0.605256
 31
0.0
  0
LINE
  5
65
330
30
100
AcDbEntity
  8
1
100
AcDbLine
 10
39.01
 20
-0.605256
 30
0.0
 11
38.973333
 21
-0.588324
 31
0.0
  0
LINE
  5
66
330
30
100
AcDbEntity
  8
1
100
AcDbLine
 10
38.973333
 20
-0.588324
 30
0.0
 11
38.936667
 21
-0.571075
 31
0.0
  0
LINE
  5
67
330
30
100
AcDbEntity
  8
1
100
AcDbLine
 10
38.936667
 20
-0.571075
 30
0.0
 11
38.9
 21
-0.55357
 31
0.0
  0
LINE
  5
68
330
30
100
AcDbEntity
  8
1
100
AcDbLine
 10
38.9
 20
-0.55357
 30
0.0
 11
38.863333
 21
-0.535818
 31
0.0
  0
LINE
  5
69
330
30
100
AcDbEntity
  8
1
100
AcDbLine
 10
38.863333
 20
-0.535818
 30
0.0
 11
38.826667
 21
-0.517825
 31
0.0
  0
LINE
  5
6A
330
30
100
AcDbEntity
  8
1
100
AcDbLine
 10
38.826667
 20
-0.517825
 30
0.0
 11
38.79
 21
-0.4996
 31
0.0
  0
LINE
  5
6B
330
30
100
AcDbEntity
  8
1
100
AcDbLine
 10
38.79
 20
-0.4996
 30
0.0
 11
38.753333
 21
-0.481151
 31
0.0
  0
LINE
  5
6C
330
30
100
AcDbEntity
  8
1
100
AcDbLine
 10
38.753333
 20
-0.481151
 30
0.0
 11
38.716667
 21
-0.462487
 31
0.0
  0
LINE
  5
6D
330
30
100
AcDbEntity
  8
1
100
AcDbLine
 10
38.716667
 20
-0.462487
 30
0.0
 11
38.68
 21
-0.443615
 31
0.0
  0
LINE
  5
6E
330
30
100
AcDbEntity
  8
1
100
AcDbLine
 10
38.68
 20
-0.443615
 30
0.0
 11
38.643333
 21
-0.424544
 31
0.0
  0
LINE
  5
6F
330
30
100
AcDbEntity
  8
1
100
AcDbLine
 10
38.643333
 20
-0.424544
 30
0.0
 11
38.606667
 21
-0.405284
 31
0.0
  0
LINE
  5
70
330
30
100
AcDbEntity
  8
1
100
AcDbLine
 10
38.606667
 20
-0.405284
 30
0.0
 11
38.57
 21
-0.385841
 31
0.0
  0
LINE
  5
71
330
30
100
AcDbEntity
  8
1
100
AcDbLine
 10
38.57
 20
-0.385841
 30
0.0
 11
38.533333
 21
-0.366226
 31
0.0
  0
LINE
  5
72
330
30
100
AcDbEntity
  8
1
100
AcDbLine
 10
38.533333
 20
-0.366226
 30
0.0
 11
38.496667
 21
-0.346447
 31
0.0
  0
LINE
  5
73
330
30
100
AcDbEntity
  8
1
100
AcDbLine
 10
38.496667
 20
-0.346447
 30
0.0
 11
38.46
 21
-0.326512
 31
0.0
  0
LINE
  5
74
330
30
100
AcDbEntity
  8
1
100
AcDbLine
 10
38.46
 20
-0.326512
 30
0.0
 11
38.423333
 21
-0.306431
 31
0.0
  0
LINE
  5
75
330
30
100
AcDbEntity
  8
1
100
AcDbLine
 10
38.423333
 20
-0.306431
 30
0.0
 11
38.386667
 21
-0.286213
 31
0.0
  0
LINE
  5
76
330
30
100
AcDbEntity
  8
1
100
AcDbLine
 10
38.386667
 20
-0.286213
 30
0.0
 11
38.35
 21
-0.265866
 31
0.0
  0
LINE
  5
77
330
30
100
AcDbEntity
  8
1
100
AcDbLine
 10
38.35
 20
-0.265866
 30
0.0
 11
38.313333
 21
-0.245401
 31
0.0
  0
LINE
  5
78
330
30
100
AcDbEntity
  8
1
100
AcDbLine
 10
38.313333
 20
-0.245401
 30
0.0
 11
38.276667
 21
-0.224825
 31
0.0
  0
LINE
  5
79
330
30
100
AcDbEntity
  8
1
100
AcDbLine
 10
38.276667
 20
-0.224825
 30
0.0
 11
38.24
 21
-0.204149
 31
0.0
  0
LINE
  5
7A
330
30
100
AcDbEntity
  8
1
100
AcDbLine
 10
38.24
 20
-0.204149
 30
0.0
 11
38.203333
 21
-0.183381
 31
0.0
  0
LINE
  5
7B
330
30
100
AcDbEntity
  8
1
100
AcDbLine
 10
38.203333
 20
-0.183381
 30
0.0
 11
38.166667
 21
-0.162531
 31
0.0
  0
LINE
  5
7C
330
30
100
AcDbEntity
  8
1
100
AcDbLine
 10
38.166667
 20
-0.162531
 30
0.0
 11
38.13
 21
-0.141608
 31
0.0
  0
LINE
  5
7D
330
30
100
AcDbEntity
  8
1
100
AcDbLine
 10
38.13
 20
-0.141608
 30
0.0
 11
38.093333
 21
-0.120622
 31
0.0
  0
LINE
  5
7E
330
30
100
AcDbEntity
  8
1
100
AcDbLine
 10
38.093333
 20
-0.120622
 30
0.0
 11
38.056667
 21
-0.099581
 31
0.0
  0
LINE
  5
7F
330
30
100
AcDbEntity
  8
1
100
AcDbLine
 10
38.056667
 20
-0.099581
 30
0.0
 11
38.02
 21
-0.078496
 31
0.0
  0
LINE
  5
80
330
30
100
AcDbEntity
  8
1
100
AcDbLine
 10
38.02
 20
-0.078496
 30
0.0
 11
37.983333
 21
-0.057376
 31
0.0
  0
LINE
  5
81
330
30
100
AcDbEntity
  8
1
100
AcDbLine
 10
37.983333
 20
-0.057376
 30
0.0
 11
37.946667
 21
-0.03623
 31
0.0
  0
LINE
  5
82
330
30
100
AcDbEntity
  8
1
100
AcDbLine
 10
37.946667
 20
-0.03623
 30
0.0
 11
37.91
 21
-0.015068
 31
0.0
  0
LINE
  5
83
330
30
100
AcDbEntity
  8
1
100
AcDbLine
 10
37.91
 20
-0.015068
 30
0.0
 11
37.873333
 21
0.006101
 31
0.0
  0
LINE
  5
84
330
30
100
AcDbEntity
  8
1
100
AcDbLine
 10
37.873333
 20
0.006101
 30
0.0
 11
37.836667
 21
0.027267
 31
0.0
  0
LINE
  5
85
330
30
100
AcDbEntity
  8
1
100
AcDbLine
 10
37.836667
 20
0.027267
 30
0.0
 11
37.8
 21
0.048421
 31
0.0
  0
LINE
  5
86
330
30
100
AcDbEntity
  8
1
100
AcDbLine
 10
37.8
 20
0.048421
 30
0.0
 11
37.763333
 21
0.069553
 31
0.0
  0
LINE
  5
87
330
30
100
AcDbEntity
  8
1
100
AcDbLine
 10
37.763333
 20
0.069553
 30
0.0
 11
37.726667
 21
0.090655
 31
0.0
  0
LINE
  5
88
330
30
100
AcDbEntity
  8
1
100
AcDbLine
 10
37.726667
 20
0.090655
 30
0.0
 11
37.69
 21
0.111715
 31
0.0
  0
LINE
  5
89
330
30
100
AcDbEntity
  8
1
100
AcDbLine
 10
37.69
 20
0.111715
 30
0.0
 11
37.653333
 21
0.132725
 31
0.0
  0
LINE
  5
8A
330
30
100
AcDbEntity
  8
1
100
AcDbLine
 10
37.653333
 20
0.132725
 30
0.0
 11
37.616667
 21
0.153676
 31
0.0
  0
LINE
  5
8B
330
30
100
AcDbEntity
  8
1
100
AcDbLine
 10
37.616667
 20
0.153676
 30
0.0
 11
37.58
 21
0.174558
 31
0.0
  0
LINE
  5
8C
330
30
100
AcDbEntity
  8
1
100
AcDbLine
 10
37.58
 20
0.174558
 30
0.0
 11
37.543333
 21
0.195362
 31
0.0
  0
LINE
  5
8D
330
30
100
AcDbEntity
  8
1
100
AcDbLine
 10
37.543333
 20
0.195362
 30
0.0
 11
37.506667
 21
0.216078
 31
0.0
  0
LINE
  5
8E
330
30
100
AcDbEntity
  8
1
100
AcDbLine
 10
37.506667
 20
0.216078
 30
0.0
 11
37.47
 21
0.236698
 31
0.0
  0
LINE
  5
8F
330
30
100
AcDbEntity
  8
1
100
AcDbLine
 10
37.47
 20
0.236698
 30
0.0
 11
37.433333
 21
0.257211
 31
0.0
  0
LINE
  5
90
330
30
100
AcDbEntity
  8
1
100
AcDbLine
 10
37.433333
 20
0.257211
 30
0.0
 11
37.396667
 21
0.277609
 31
0.0
  0
LINE
  5
91
330
30
100
AcDbEntity
  8
1
100
AcDbLine
 10
37.396667
 20
0.277609
 30
0.0
 11
37.36
 21
0.297883
 31
0.0
  0
LINE
  5
92
330
30
100
AcDbEntity
  8
1
100
AcDbLine
 10
37.36
 20
0.297883
 30
0.0
 11
37.323333
 21
0.318023
 31
0.0
  0
LINE
  5
93
330
30
100
AcDbEntity
  8
1
100
AcDbLine
 10
37.323333
 20
0.318023
 30
0.0
 11
37.286667
 21
0.338021
 31
0.0
  0
LINE
  5
94
330
30
100
AcDbEntity
  8
1
100
AcDbLine
 10
37.286667
 20
0.338021
 30
0.0
 11
37.25
 21
0.357867
 31
0.0
  0
LINE
  5
95
330
30
100
AcDbEntity
  8
1
100
AcDbLine
 10
37.25
 20
0.357867
 30
0.0
 11
37.213333
 21
0.377553
 31
0.0
  0
LINE
  5
96
330
30
100
AcDbEntity
  8
1
100
AcDbLine
 10
37.213333
 20
0.377553
 30
0.0
 11
37.176667
 21
0.39707
 31
0.0
  0
LINE
  5
97
330
30
100
AcDbEntity
  8
1
100
AcDbLine
 10
37.176667
 20
0.39707
 30
0.0
 11
37.14
 21
0.416408
 31
0.0
  0
LINE
  5
98
330
30
100
AcDbEntity
  8
1
100
AcDbLine
 10
37.14
 20
0.416408
 30
0.0
 11
37.103333
 21
0.43556
 31
0.0
  0
LINE
  5
99
330
30
100
AcDbEntity
  8
1
100
AcDbLine
 10
37.103333
 20
0.43556
 30
0.0
 11
37.066667
 21
0.454517
 31
0.0
  0
LINE
  5
9A
330
30
100
AcDbEntity
  8
1
100
AcDbLine
 10
37.066667
 20
0.454517
 30
0.0
 11
37.03
 21
0.473271
 31
0.0
  0
LINE
  5
9B
330
30
100
AcDbEntity
  8
1
100
AcDbLine
 10
37.03
 20
0.473271
 30
0.0
 11
36.993333
 21
0.491812
 31
0.0
  0
LINE
  5
9C
330
30
100
AcDbEntity
  8
1
100
AcDbLine
 10
36.993333
 20
0.491812
 30
0.0
 11
36.956667
 21
0.510133
 31
0.0
  0
LINE
  5
9D
330
30
100
AcDbEntity
  8
1
100
AcDbLine
 10
36.956667
 20
0.510133
 30
0.0
 11
36.92
 21
0.528225
 31
0.0
  0
LINE
  5
9E
330
30
100
AcDbEntity
  8
1
100
AcDbLine
 10
36.92
 20
0.528225
 30
0.0
 11
36.883333
 21
0.54608
 31
0.0
  0
LINE
  5
9F
330
30
100
AcDbEntity
  8
1
100
AcDbLine
 10
36.883333
 20
0.54608
 30
0.0
 11
36.846667
 21
0.563691
 31
0.0
  0
LINE
  5
A0
330
30
100
AcDbEntity
  8
1
100
AcDbLine
 10
36.846667
 20
0.563691
 30
0.0
 11
36.81
 21
0.581049
 31
0.0
  0
LINE
  5
A1
330
30
100
AcDbEntity
  8
1
100
AcDbLine
 10
36.81
 20
0.581049
 30
0.0
 11
36.773333
 21
0.598147
 31
0.0
  0
LINE
  5
A2
330
30
100
AcDbEntity
  8
1
100
AcDbLine
 10
36.773333
 20
0.598147
 30
0.0
 11
36.736667
 21
0.614976
 31
0.0
  0
LINE
  5
A3
330
30
100
AcDbEntity
  8
1
100
AcDbLine
 10
36.736667
 20
0.614976
 30
0.0
 11
36.7
 21
0.63153
 31
0.0
  0
LINE
  5
A4
330
30
100
AcDbEntity
  8
1
100
AcDbLine
 10
36.7
 20
0.63153
 30
0.0
 11
36.663333
 21
0.647801
 31
0.0
  0
LINE
  5
A5
330
30
100
AcDbEntity
  8
1
100
AcDbLine
 10
36.663333
 20
0.647801
 30
0.0
 11
36.626667
 21
0.663782
 31
0.0
  0
LINE
  5
A6
330
30
100
AcDbEntity
  8
1
100
AcDbLine
 10
36.626667
 20
0.663782
 30
0.0
 11
36.59
 21
0.679466
 31
0.0
  0
LINE
  5
A7
330
30
100
AcDbEntity
  8
1
100
AcDbLine
 10
36.59
 20
0.679466
 30
0.0
 11
36.553333
 21
0.694844
 31
0.0
  0
LINE
  5
A8
330
30
100
AcDbEntity
  8
1
100
AcDbLine
 10
36.553333
 20
0.694844
 30
0.0
 11
36.516667
 21
0.709912
 31
0.0
  0
LINE
  5
A9
330
30
100
AcDbEntity
  8
1
100
AcDbLine
 10
36.516667
 20
0.709912
 30
0.0
 11
36.48
 21
0.724661
 31
0.0
  0
LINE
  5
AA
330
30
100
AcDbEntity
  8
1
100
AcDbLine
 10
36.48
 20
0.724661
 30
0.0
 11
36.443333
 21
0.739086
 31
0.0
  0
LINE
  5
AB
330
30
100
AcDbEntity
  8
1
100
AcDbLine
 10
36.443333
 20
0.739086
 30
0.0
 11
36.406667
 21
0.753179
 31
0.0
  0
LINE
  5
AC
330
30
100
AcDbEntity
  8
1
100
AcDbLine
 10
36.406667
 20
0.753179
 30
0.0
 11
36.37
 21
0.766935
 31
0.0
  0
LINE
  5
AD
330
30
100
AcDbEntity
  8
1
100
AcDbLine
 10
36.37
 20
0.766935
 30
0.0
 11
36.333333
 21
0.780347
 31
0.0
  0
LINE
  5
AE
330
30
100
AcDbEntity
  8
1
100
AcDbLine
 10
36.333333
 20
0.780347
 30
0.0
 11
36.296667
 21
0.793409
 31
0.0
  0
LINE
  5
AF
330
30
100
AcDbEntity
  8
1
100
AcDbLine
 10
36.296667
 20
0.793409
 30
0.0
 11
36.26
 21
0.806116
 31
0.0
  0
LINE
  5
B0
330
30
100
AcDbEntity
  8
1
100
AcDbLine
 10
36.26
 20
0.806116
 30
0.0
 11
36.223333
 21
0.818462
 31
0.0
  0
LINE
  5
B1
330
30
100
AcDbEntity
  8
1
100
AcDbLine
 10
36.223333
 20
0.818462
 30
0.0
 11
36.186667
 21
0.830441
 31
0.0
  0
LINE
  5
B2
330
30
100
AcDbEntity
  8
1
100
AcDbLine
 10
36.186667
 20
0.830441
 30
0.0
 11
36.15
 21
0.842048
 31
0.0
  0
LINE
  5
B3
330
30
100
AcDbEntity
  8
1
100
AcDbLine
 10
36.15
 20
0.842048
 30
0.0
 11
36.113333
 21
0.853277
 31
0.0
  0
LINE
  5
B4
330
30
100
AcDbEntity
  8
1
100
AcDbLine
 10
36.113333
 20
0.853277
 30
0.0
 11
36.076667
 21
0.864124
 31
0.0
  0
LINE
  5
B5
330
30
100
AcDbEntity
  8
1
100
AcDbLine
 10
36.076667
 20
0.864124
 30
0.0
 11
36.04
 21
0.874584
 31
0.0
  0
LINE
  5
B6
330
30
100
AcDbEntity
  8
1
100
AcDbLine
 10
36.04
 20
0.874584
 30
0.0
 11
36.003333
 21
0.884652
 31
0.0
  0
LINE
  5
B7
330
30
100
AcDbEntity
  8
1
100
AcDbLine
 10
36.003333
 20
0.884652
 30
0.0
 11
35.966667
 21
0.894323
 31
0.0
  0
LINE
  5
B8
330
30
100
AcDbEntity
  8
1
100
AcDbLine
 10
35.966667
 20
0.894323
 30
0.0
 11
35.93
 21
0.903594
 31
0.0
  0
LINE
  5
B9
330
30
100
AcDbEntity
  8
1
100
AcDbLine
 10
35.93
 20
0.903594
 30
0.0
 11
35.893333
 21
0.912459
 31
0.0
  0
LINE
  5
BA
330
30
100
AcDbEntity
  8
1
100
AcDbLine
 10
35.893333
 20
0.912459
 30
0.0
 11
35.856667
 21
0.920916
 31
0.0
  0
LINE
  5
BB
330
30
100
AcDbEntity
  8
1
100
AcDbLine
 10
35.856667
 20
0.920916
 30
0.0
 11
35.82
 21
0.92896
 31
0.0
  0
LINE
  5
BC
330
30
100
AcDbEntity
  8
1
100
AcDbLine
 10
35.82
 20
0.92896
 30
0.0
 11
35.783333
 21
0.936588
 31
0.0
  0
LINE
  5
BD
330
30
100
AcDbEntity
  8
1
100
AcDbLine
 10
35.783333
 20
0.936588
 30
0.0
 11
35.746667
 21
0.943796
 31
0.0
  0
LINE
  5
BE
330
30
100
AcDbEntity
  8
1
100
AcDbLine
 10
35.746667
 20
0.943796
 30
0.0
 11
35.71
 21
0.950581
 31
0.0
  0
LINE
  5
BF
330
30
100
AcDbEntity
  8
1
100
AcDbLine
 10
35.71
 20
0.950581
 30
0.0
 11
35.673333
 21
0.95694
 31
0.0
  0
LINE
  5
C0
330
30
100
AcDbEntity
  8
1
100
AcDbLine
 10
35.673333
 20
0.95694
 30
0.0
 11
35.636667
 21
0.962871
 31
0.0
  0
LINE
  5
C1
330
30
100
AcDbEntity
  8
1
100
AcDbLine
 10
35.636667
 20
0.962871
 30
0.0
 11
35.6
 21
0.968369
 31
0.0
  0
LINE
  5
C2
330
30
100
AcDbEntity
  8
1
100
AcDbLine
 10
35.6
 20
0.968369
 30
0.0
 11
35.563333
 21
0.973434
 31
0.0
  0
LINE
  5
C3
330
30
100
AcDbEntity
  8
1
100
AcDbLine
 10
35.563333
 20
0.973434
 30
0.0
 11
35.526667
 21
0.978063
 31
0.0
  0
LINE
  5
C4
330
30
100
AcDbEntity
  8
1
100
AcDbLine
 10
35.526667
 20
0.978063
 30
0.0
 11
35.49
 21
0.982253
 31
0.0
  0
LINE
  5
C5
330
30
100
AcDbEntity
  8
1
100
AcDbLine
 10
35.49
 20
0.982253
 30
0.0
 11
35.453333
 21
0.986003
 31
0.0
  0
LINE
  5
C6
330
30
100
AcDbEntity
  8
1
100
AcDbLine
 10
35.453333
 20
0.986003
 30
0.0
 11
35.416667
 21
0.989312
 31
0.0
  0
LINE
  5
C7
330
30
100
AcDbEntity
  8
1
100
AcDbLine
 10
35.416667
 20
0.989312
 30
0.0
 11
35.38
 21
0.992177
 31
0.0
  0
LINE
  5
C8
330
30
100
AcDbEntity
  8
1
100
AcDbLine
 10
35.38
 20
0.992177
 30
0.0
 11
35.343333
 21
0.994597
 31
0.0
  0
LINE
  5
C9
330
30
100
AcDbEntity
  8
1
100
AcDbLine
 10
35.343333
 20
0.994597
 30
0.0
 11
35.306667
 21
0.996572
 31
0.0
  0
LINE
  5
CA
330
30
100
AcDbEntity
  8
1
100
AcDbLine
 10
35.306667
 20
0.996572
 30
0.0
 11
35.27
 21
0.9981
 31
0.0
  0
LINE
  5
CB
330
30
100
AcDbEntity
  8
1
100
AcDbLine
 10
35.27
 20
0.9981
 30
0.0
 11
35.233333
 21
0.99918
 31
0.0
  0
LINE
  5
CC
330
30
100
AcDbEntity
  8
1
100
AcDbLine
 10
35.233333
 20
0.99918
 30
0.0
 11
35.196667
 21
0.999813
 31
0.0
  0
LINE
  5
CD
330
30
100
AcDbEntity
  8
1
100
AcDbLine
 10
35.196667
 20
0.999813
 30
0.0
 11
35.163202
 21
1.0
 31
0.0
  0
LINE
  5
CE
330
30
100
AcDbEntity
  8
1
100
AcDbLine
 10
34.731612
 20
1.0
 30
0.0
 11
34.756667
 21
0.987454
 31
0.0
  0
LINE
  5
CF
330
30
100
AcDbEntity
  8
1
100
AcDbLine
 10
34.756667
 20
0.987454
 30
0.0
 11
34.793333
 21
0.986931
 31
0.0
  0
LINE
  5
D0
330
30
100
AcDbEntity
  8
1
100
AcDbLine
 10
34.793333
 20
0.986931
 30
0.0
 11
34.83
 21
0.985965
 31
0.0
  0
LINE
  5
D1
330
30
100
AcDbEntity
  8
1
100
AcDbLine
 10
34.83
 20
0.985965
 30
0.0
 11
34.866667
 21
0.984557
 31
0.0
  0
LINE
  5
D2
330
30
100
AcDbEntity
  8
1
100
AcDbLine
 10
34.866667
 20
0.984557
 30
0.0
 11
34.903333
 21
0.982708
 31
0.0
  0
LINE
  5
D3
330
30
100
AcDbEntity
  8
1
100
AcDbLine
 10
34.903333
 20
0.982708
 30
0.0
 11
34.94
 21
0.980419
 31
0.0
  0
LINE
  5
D4
330
30
100
AcDbEntity
  8
1
100
AcDbLine
 10
34.94
 20
0.980419
 30
0.0
 11
34.976667
 21
0.97769
 31
0.0
  0
LINE
  5
D5
330
30
100
AcDbEntity
  8
1
100
AcDbLine
 10
34.976667
 20
0.97769
 30
0.0
 11
35.013333
 21
0.974523
 31
0.0
  0
LINE
  5
D6
330
30
100
AcDbEntity
  8
1
100
AcDbLine
 10
35.013333
 20
0.974523
 30
0.0
 11
35.05
 21
0.97092
 31
0.0
  0
LINE
  5
D7
330
30
100
AcDbEntity
  8
1
100
AcDbLine
 10
35.05
 20
0.97092
 30
0.0
 11
35.086667
 21
0.966881
 31
0.0
  0
LINE
  5
D8
330
30
100
AcDbEntity
  8
1
100
AcDbLine
 10
35.086667
 20
0.966881
 30
0.0
 11
35.123333
 21
0.962409
 31
0.0
  0
LINE
  5
D9
330
30
100
AcDbEntity
  8
1
100
AcDbLine
 10
35.123333
 20
0.962409
 30
0.0
 11
35.16
 21
0.957506
 31
0.0
  0
LINE
  5
DA
330
30
100
AcDbEntity
  8
1
100
AcDbLine
 10
35.16
 20
0.957506
 30
0.0
 11
35.196667
 21
0.952174
 31
0.0
  0
LINE
  5
DB
330
30
100
AcDbEntity
  8
1
100
AcDbLine
 10
35.196667
 20
0.952174
 30
0.0
 11
35.233333
 21
0.946415
 31
0.0
  0
LINE
  5
DC
330
30
100
AcDbEntity
  8
1
100
AcDbLine
 10
35.233333
 20
0.946415
 30
0.0
 11
35.27
 21
0.940232
 31
0.0
  0
LINE
  5
DD
330
30
100
AcDbEntity
  8
1
100
AcDbLine
 10
35.27
 20
0.940232
 30
0.0
 11
35.306667
 21
0.933627
 31
0.0
  0
LINE
  5
DE
330
30
100
AcDbEntity
  8
1
100
AcDbLine
 10
35.306667
 20
0.933627
 30
0.0
 11
35.343333
 21
0.926604
 31
0.0
  0
LINE
  5
DF
330
30
100
AcDbEntity
  8
1
100
AcDbLine
 10
35.343333
 20
0.926604
 30
0.0
 11
35.38
 21
0.919166
 31
0.0
  0
LINE
  5
E0
330
30
100
AcDbEntity
  8
1
100
AcDbLine
 10
35.38
 20
0.919166
 30
0.0
 11
35.416667
 21
0.911316
 31
0.0
  0
LINE
  5
E1
330
30
100
AcDbEntity
  8
1
100
AcDbLine
 10
35.416667
 20
0.911316
 30
0.0
 11
35.453333
 21
0.903058
 31
0.0
  0
LINE
  5
E2
330
30
100
AcDbEntity
  8
1
100
AcDbLine
 10
35.453333
 20
0.903058
 30
0.0
 11
35.49
 21
0.894395
 31
0.0
  0
LINE
  5
E3
330
30
100
AcDbEntity
  8
1
100
AcDbLine
 10
35.49
 20
0.894395
 30
0.0
 11
35.526667
 21
0.885331
 31
0.0
  0
LINE
  5
E4
330
30
100
AcDbEntity
  8
1
100
AcDbLine
 10
35.526667
 20
0.885331
 30
0.0
 11
35.563333
 21
0.87587
 31
0.0
  0
LINE
  5
E5
330
30
100
AcDbEntity
  8
1
100
AcDbLine
 10
35.563333
 20
0.87587
 30
0.0
 11
35.6
 21
0.866017
 31
0.0
  0
LINE
  5
E6
330
30
100
AcDbEntity
  8
1
100
AcDbLine
 10
35.6
 20
0.866017
 30
0.0
 11
35.636667
 21
0.855776
 31
0.0
  0
LINE
  5
E7
330
30
100
AcDbEntity
  8
1
100
AcDbLine
 10
35.636667
 20
0.855776
 30
0.0
 11
35.673333
 21
0.845151
 31
0.0
  0
LINE
  5
E8
330
30
100
AcDbEntity
  8
1
100
AcDbLine
 10
35.673333
 20
0.845151
 30
0.0
 11
35.71
 21
0.834147
 31
0.0
  0
LINE
  5
E9
330
30
100
AcDbEntity
  8
1
100
AcDbLine
 10
35.71
 20
0.834147
 30
0.0
 11
35.746667
 21
0.82277
 31
0.0
  0
LINE
  5
EA
330
30
100
AcDbEntity
  8
1
100
AcDbLine
 10
35.746667
 20
0.82277
 30
0.0
 11
35.783333
 21
0.811024
 31
0.0
  0
LINE
  5
EB
330
30
100
AcDbEntity
  8
1
100
AcDbLine
 10
35.783333
 20
0.811024
 30
0.0
 11
35.82
 21
0.798915
 31
0.0
  0
LINE
  5
EC
330
30
100
AcDbEntity
  8
1
100
AcDbLine
 10
35.82
 20
0.798915
 30
0.0
 11
35.856667
 21
0.786447
 31
0.0
  0
LINE
  5
ED
330
30
100
AcDbEntity
  8
1
100
AcDbLine
 10
35.856667
 20
0.786447
 30
0.0
 11
35.893333
 21
0.773627
 31
0.0
  0
LINE
  5
EE
330
30
100
AcDbEntity
  8
1
100
AcDbLine
 10
35.893333
 20
0.773627
 30
0.0
 11
35.93
 21
0.760461
 31
0.0
  0
LINE
  5
EF
330
30
100
AcDbEntity
  8
1
100
AcDbLine
 10
35.93
 20
0.760461
 30
0.0
 11
35.966667
 21
0.746954
 31
0.0
  0
LINE
  5
F0
330
30
100
AcDbEntity
  8
1
100
AcDbLine
 10
35.966667
 20
0.746954
 30
0.0
 11
36.003333
 21
0.733111
 31
0.0
  0
LINE
  5
F1
330
30
100
AcDbEntity
  8
1
100
AcDbLine
 10
36.003333
 20
0.733111
 30
0.0
 11
36.04
 21
0.718941
 31
0.0
  0
LINE
  5
F2
330
30
100
AcDbEntity
  8
1
100
AcDbLine
 10
36.04
 20
0.718941
 30
0.0
 11
36.076667
 21
0.704448
 31
0.0
  0
LINE
  5
F3
330
30
100
AcDbEntity
  8
1
100
AcDbLine
 10
36.076667
 20
0.704448
 30
0.0
 11
36.113333
 21
0.68964
 31
0.0
  0
LINE
  5
F4
330
30
100
AcDbEntity
  8
1
100
AcDbLine
 10
36.113333
 20
0.68964
 30
0.0
 11
36.15
 21
0.674522
 31
0.0
  0
LINE
  5
F5
330
30
100
AcDbEntity
  8
1
100
AcDbLine
 10
36.15
 20
0.674522
 30
0.0
 11
36.186667
 21
0.659102
 31
0.0
  0
LINE
  5
F6
330
30
100
AcDbEntity
  8
1
100
AcDbLine
 10
36.186667
 20
0.659102
 30
0.0
 11
36.223333
 21
0.643387
 31
0.0
  0
LINE
  5
F7
330
30
100
AcDbEntity
  8
1
100
AcDbLine
 10
36.223333
 20
0.643387
 30
0.0
 11
36.26
 21
0.627383
 31
0.0
  0
LINE
  5
F8
330
30
100
AcDbEntity
  8
1
100
AcDbLine
 10
36.26
 20
0.627383
 30
0.0
 11
36.296667
 21
0.611099
 31
0.0
  0
LINE
  5
F9
330
30
100
AcDbEntity
  8
1
100
AcDbLine
 10
36.296667
 20
0.611099
 30
0.0
 11
36.333333
 21
0.59454
 31
0.0
  0
LINE
  5
FA
330
30
100
AcDbEntity
  8
1
100
AcDbLine
 10
36.333333
 20
0.59454
 30
0.0
 11
36.37
 21
0.577715
 31
0.0
  0
LINE
  5
FB
330
30
100
AcDbEntity
  8
1
100
AcDbLine
 10
36.37
 20
0.577715
 30
0.0
 11
36.406667
 21
0.560632
 31
0.0
  0
LINE
  5
FC
330
30
100
AcDbEntity
  8
1
100
AcDbLine
 10
36.406667
 20
0.560632
 30
0.0
 11
36.443333
 21
0.543297
 31
0.0
  0
LINE
  5
FD
330
30
100
AcDbEntity
  8
1
100
AcDbLine
 10
36.443333
 20
0.543297
 30
0.0
 11
36.48
 21
0.525718
 31
0.0
  0
LINE
  5
FE
330
30
100
AcDbEntity
  8
1
100
AcDbLine
 10
36.48
 20
0.525718
 30
0.0
 11
36.516667
 21
0.507904
 31
0.0
  0
LINE
  5
FF
330
30
100
AcDbEntity
  8
1
100
AcDbLine
 10
36.516667
 20
0.507904
 30
0.0
 11
36.553333
 21
0.489862
 31
0.0
  0
LINE
  5
100
330
30
100
AcDbEntity
  8
1
100
AcDbLine
 10
36.553333
 20
0.489862
 30
0.0
 11
36.59
 21
0.471601
 31
0.0
  0
LINE
  5
101
330
30
100
AcDbEntity
  8
1
100
AcDbLine
 10
36.59
 20
0.471601
 30
0.0
 11
36.626667
 21
0.453128
 31
0.0
  0
LINE
  5
102
330
30
100
AcDbEntity
  8
1
100
AcDbLine
 10
36.626667
 20
0.453128
 30
0.0
 11
36.663333
 21
0.434453
 31
0.0
  0
LINE
  5
103
330
30
100
AcDbEntity
  8
1
100
AcDbLine
 10
36.663333
 20
0.434453
 30
0.0
 11
36.7
 21
0.415582
 31
0.0
  0
LINE
  5
104
330
30
100
AcDbEntity
  8
1
100
AcDbLine
 10
36.7
 20
0.415582
 30
0.0
 11
36.736667
 21
0.396526
 31
0.0
  0
LINE
  5
105
330
30
100
AcDbEntity
  8
1
100
AcDbLine
 10
36.736667
 20
0.396526
 30
0.0
 11
36.773333
 21
0.377291
 31
0.0
  0
LINE
  5
106
330
30
100
AcDbEntity
  8
1
100
AcDbLine
 10
36.773333
 20
0.377291
 30
0.0
 11
36.81
 21
0.357888
 31
0.0
  0
LINE
  5
107
330
30
100
AcDbEntity
  8
1
100
AcDbLine
 10
36.81
 20
0.357888
 30
0.0
 11
36.846667
 21
0.338324
 31
0.0
  0
LINE
  5
108
330
30
100
AcDbEntity
  8
1
100
AcDbLine
 10
36.846667
 20
0.338324
 30
0.0
 11
36.883333
 21
0.318609
 31
0.0
  0
LINE
  5
109
330
30
100
AcDbEntity
  8
1
100
AcDbLine
 10
36.883333
 20
0.318609
 30
0.0
 11
36.92
 21
0.298751
 31
0.0
  0
LINE
  5
10A
330
30
100
AcDbEntity
  8
1
100
AcDbLine
 10
36.92
 20
0.298751
 30
0.0
 11
36.956667
 21
0.278759
 31
0.0
  0
LINE
  5
10B
330
30
100
AcDbEntity
  8
1
100
AcDbLine
 10
36.956667
 20
0.278759
 30
0.0
 11
36.993333
 21
0.258642
 31
0.0
  0
LINE
  5
10C
330
30
100
AcDbEntity
  8
1
100
AcDbLine
 10
36.993333
 20
0.258642
 30
0.0
 11
37.03
 21
0.238409
 31
0.0
  0
LINE
  5
10D
330
30
100
AcDbEntity
  8
1
100
AcDbLine
 10
37.03
 20
0.238409
 30
0.0
 11
37.066667
 21
0.218069
 31
0.0
  0
LINE
  5
10E
330
30
100
AcDbEntity
  8
1
100
AcDbLine
 10
37.066667
 20
0.218069
 30
0.0
 11
37.103333
 21
0.197632
 31
0.0
  0
LINE
  5
10F
330
30
100
AcDbEntity
  8
1
100
AcDbLine
 10
37.103333
 20
0.197632
 30
0.0
 11
37.14
 21
0.177106
 31
0.0
  0
LINE
  5
110
330
30
100
AcDbEntity
  8
1
100
AcDbLine
 10
37.14
 20
0.177106
 30
0.0
 11
37.176667
 21
0.156501
 31
0.0
  0
LINE
  5
111
330
30
100
AcDbEntity
  8
1
100
AcDbLine
 10
37.176667
 20
0.156501
 30
0.0
 11
37.213333
 21
0.135825
 31
0.0
  0
LINE
  5
112
330
30
100
AcDbEntity
  8
1
100
AcDbLine
 10
37.213333
 20
0.135825
 30
0.0
 11
37.25
 21
0.115089
 31
0.0
  0
LINE
  5
113
330
30
100
AcDbEntity
  8
1
100
AcDbLine
 10
37.25
 20
0.115089
 30
0.0
 11
37.286667
 21
0.094301
 31
0.0
  0
LINE
  5
114
330
30
100
AcDbEntity
  8
1
100
AcDbLine
 10
37.286667
 20
0.094301
 30
0.0
 11
37.323333
 21
0.073471
 31
0.0
  0
LINE
  5
115
330
30
100
AcDbEntity
  8
1
100
AcDbLine
 10
37.323333
 20
0.073471
 30
0.0
 11
37.36
 21
0.052608
 31
0.0
  0
LINE
  5
116
330
30
100
AcDbEntity
  8
1
100
AcDbLine
 10
37.36
 20
0.052608
 30
0.0
 11
37.396667
 21
0.031721
 31
0.0
  0
LINE
  5
117
330
30
100
AcDbEntity
  8
1
100
AcDbLine
 10
37.396667
 20
0.031721
 30
0.0
 11
37.433333
 21
0.01082
 31
0.0
  0
LINE
  5
118
330
30
100
AcDbEntity
  8
1
100
AcDbLine
 10
37.433333
 20
0.01082
 30
0.0
 11
37.47
 21
-0.010085
 31
0.0
  0
LINE
  5
119
330
30
100
AcDbEntity
  8
1
100
AcDbLine
 10
37.47
 20
-0.010085
 30
0.0
 11
37.506667
 21
-0.030987
 31
0.0
  0
LINE
  5
11A
330
30
100
AcDbEntity
  8
1
100
AcDbLine
 10
37.506667
 20
-0.030987
 30
0.0
 11
37.543333
 21
-0.051874
 31
0.0
  0
LINE
  5
11B
330
30
100
AcDbEntity
  8
1
100
AcDbLine
 10
37.543333
 20
-0.051874
 30
0.0
 11
37.58
 21
-0.072738
 31
0.0
  0
LINE
  5
11C
330
30
100
AcDbEntity
  8
1
100
AcDbLine
 10
37.58
 20
-0.072738
 30
0.0
 11
37.616667
 21
-0.093569
 31
0.0
  0
LINE
  5
11D
330
30
100
AcDbEntity
  8
1
100
AcDbLine
 10
37.616667
 20
-0.093569
 30
0.0
 11
37.653333
 21
-0.114359
 31
0.0
  0
LINE
  5
11E
330
30
100
AcDbEntity
  8
1
100
AcDbLine
 10
37.653333
 20
-0.114359
 30
0.0
 11
37.69
 21
-0.135097
 31
0.0
  0
LINE
  5
11F
330
30
100
AcDbEntity
  8
1
100
AcDbLine
 10
37.69
 20
-0.135097
 30
0.0
 11
37.726667
 21
-0.155775
 31
0.0
  0
LINE
  5
120
330
30
100
AcDbEntity
  8
1
100
AcDbLine
 10
37.726667
 20
-0.155775
 30
0.0
 11
37.763333
 21
-0.176383
 31
0.0
  0
LINE
  5
121
330
30
100
AcDbEntity
  8
1
100
AcDbLine
 10
37.763333
 20
-0.176383
 30
0.0
 11
37.8
 21
-0.196912
 31
0.0
  0
LINE
  5
122
330
30
100
AcDbEntity
  8
1
100
AcDbLine
 10
37.8
 20
-0.196912
 30
0.0
 11
37.836667
 21
-0.217353
 31
0.0
  0
LINE
  5
123
330
30
100
AcDbEntity
  8
1
100
AcDbLine
 10
37.836667
 20
-0.217353
 30
0.0
 11
37.873333
 21
-0.237696
 31
0.0
  0
LINE
  5
124
330
30
100
AcDbEntity
  8
1
100
AcDbLine
 10
37.873333
 20
-0.237696
 30
0.0
 11
37.91
 21
-0.257933
 31
0.0
  0
LINE
  5
125
330
30
100
AcDbEntity
  8
1
100
AcDbLine
 10
37.91
 20
-0.257933
 30
0.0
 11
37.946667
 21
-0.278054
 31
0.0
  0
LINE
  5
126
330
30
100
AcDbEntity
  8
1
100
AcDbLine
 10
37.946667
 20
-0.278054
 30
0.0
 11
37.983333
 21
-0.29805
 31
0.0
  0
LINE
  5
127
330
30
100
AcDbEntity
  8
1
100
AcDbLine
 10
37.983333
 20
-0.29805
 30
0.0
 11
38.02
 21
-0.317913
 31
0.0
  0
LINE
  5
128
330
30
100
AcDbEntity
  8
1
100
AcDbLine
 10
38.02
 20
-0.317913
 30
0.0
 11
38.056667
 21
-0.337634
 31
0.0
  0
LINE
  5
129
330
30
100
AcDbEntity
  8
1
100
AcDbLine
 10
38.056667
 20
-0.337634
 30
0.0
 11
38.093333
 21
-0.357203
 31
0.0
  0
LINE
  5
12A
330
30
100
AcDbEntity
  8
1
100
AcDbLine
 10
38.093333
 20
-0.357203
 30
0.0
 11
38.13
 21
-0.376612
 31
0.0
  0
LINE
  5
12B
330
30
100
AcDbEntity
  8
1
100
AcDbLine
 10
38.13
 20
-0.376612
 30
0.0
 11
38.166667
 21
-0.395852
 31
0.0
  0
LINE
  5
12C
330
30
100
AcDbEntity
  8
1
100
AcDbLine
 10
38.166667
 20
-0.395852
 30
0.0
 11
38.203333
 21
-0.414915
 31
0.0
  0
LINE
  5
12D
330
30
100
AcDbEntity
  8
1
100
AcDbLine
 10
38.203333
 20
-0.414915
 30
0.0
 11
38.24
 21
-0.433792
 31
0.0
  0
LINE
  5
12E
330
30
100
AcDbEntity
  8
1
100
AcDbLine
 10
38.24
 20
-0.433792
 30
0.0
 11
38.276667
 21
-0.452475
 31
0.0
  0
LINE
  5
12F
330
30
100
AcDbEntity
  8
1
100
AcDbLine
 10
38.276667
 20
-0.452475
 30
0.0
 11
38.313333
 21
-0.470955
 31
0.0
  0
LINE
  5
130
330
30
100
AcDbEntity
  8
1
100
AcDbLine
 10
38.313333
 20
-0.470955
 30
0.0
 11
38.35
 21
-0.489224
 31
0.0
  0
LINE
  5
131
330
30
100
AcDbEntity
  8
1
100
AcDbLine
 10
38.35
 20
-0.489224
 30
0.0
 11
38.386667
 21
-0.507273
 31
0.0
  0
LINE
  5
132
330
30
100
AcDbEntity
  8
1
100
AcDbLine
 10
38.386667
 20
-0.507273
 30
0.0
 11
38.423333
 21
-0.525096
 31
0.0
  0
LINE
  5
133
330
30
100
AcDbEntity
  8
1
100
AcDbLine
 10
38.423333
 20
-0.525096
 30
0.0
 11
38.46
 21
-0.542683
 31
0.0
  0
LINE
  5
134
330
30
100
AcDbEntity
  8
1
100
AcDbLine
 10
38.46
 20
-0.542683
 30
0.0
 11
38.496667
 21
-0.560026
 31
0.0
  0
LINE
  5
135
330
30
100
AcDbEntity
  8
1
100
AcDbLine
 10
38.496667
 20
-0.560026
 30
0.0
 11
38.533333
 21
-0.577119
 31
0.0
  0
LINE
  5
136
330
30
100
AcDbEntity
  8
1
100
AcDbLine
 10
38.533333
 20
-0.577119
 30
0.0
 11
38.57
 21
-0.593953
 31
0.0
  0
LINE
  5
137
330
30
100
AcDbEntity
  8
1
100
AcDbLine
 10
38.57
 20
-0.593953
 30
0.0
 11
38.606667
 21
-0.610521
 31
0.0
  0
LINE
  5
138
330
30
100
AcDbEntity
  8
1
100
AcDbLine
 10
38.606667
 20
-0.610521
 30
0.0
 11
38.643333
 21
-0.626816
 31
0.0
  0
LINE
  5
139
330
30
100
AcDbEntity
  8
1
100
AcDbLine
 10
38.643333
 20
-0.626816
 30
0.0
 11
38.68
 21
-0.642829
 31
0.0
  0
LINE
  5
13A
330
30
100
AcDbEntity
  8
1
100
AcDbLine
 10
38.68
 20
-0.642829
 30
0.0
 11
38.716667
 21
-0.658555
 31
0.0
  0
LINE
  5
13B
330
30
100
AcDbEntity
  8
1
100
AcDbLine
 10
38.716667
 20
-0.658555
 30
0.0
 11
38.753333
 21
-0.673985
 31
0.0
  0
LINE
  5
13C
330
30
100
AcDbEntity
  8
1
100
AcDbLine
 10
38.753333
 20
-0.673985
 30
0.0
 11
38.79
 21
-0.689113
 31
0.0
  0
LINE
  5
13D
330
30
100
AcDbEntity
  8
1
100
AcDbLine
 10
38.79
 20
-0.689113
 30
0.0
 11
38.826667
 21
-0.703933
 31
0.0
  0
LINE
  5
13E
330
30
100
AcDbEntity
  8
1
100
AcDbLine
 10
38.826667
 20
-0.703933
 30
0.0
 11
38.863333
 21
-0.718437
 31
0.0
  0
LINE
  5
13F
330
30
100
AcDbEntity
  8
1
100
AcDbLine
 10
38.863333
 20
-0.718437
 30
0.0
 11
38.9
 21
-0.732619
 31
0.0
  0
LINE
  5
140
330
30
100
AcDbEntity
  8
1
100
AcDbLine
 10
38.9
 20
-0.732619
 30
0.0
 11
38.936667
 21
-0.746472
 31
0.0
  0
LINE
  5
141
330
30
100
AcDbEntity
  8
1
100
AcDbLine
 10
38.936667
 20
-0.746472
 30
0.0
 11
38.973333
 21
-0.759992
 31
0.0
  0
LINE
  5
142
330
30
100
AcDbEntity
  8
1
100
AcDbLine
 10
38.973333
 20
-0.759992
 30
0.0
 11
39.01
 21
-0.773124
 31
0.0
  0
LINE
  5
143
330
30
100
AcDbEntity
  8
1
100
AcDbLine
 10
39.01
 20
-0.773124
 30
0.0
 11
39.046667
 21
-0.784982
 31
0.0
  0
LINE
  5
144
330
30
100
AcDbEntity
  8
1
100
AcDbLine
 10
39.046667
 20
-0.784982
 30
0.0
 11
39.083333
 21
-0.795196
 31
0.0
  0
LINE
  5
145
330
30
100
AcDbEntity
  8
1
100
AcDbLine
 10
39.083333
 20
-0.795196
 30
0.0
 11
39.12
 21
-0.803717
 31
0.0
  0
LINE
  5
146
330
30
100
AcDbEntity
  8
1
100
AcDbLine
 10
39.12
 20
-0.803717
 30
0.0
 11
39.156667
 21
-0.810498
 31
0.0
  0
LINE
  5
147
330
30
100
AcDbEntity
  8
1
100
AcDbLine
 10
39.156667
 20
-0.810498
 30
0.0
 11
39.193333
 21
-0.815486
 31
0.0
  0
LINE
  5
148
330
30
100
AcDbEntity
  8
1
100
AcDbLine
 10
39.193333
 20
-0.815486
 30
0.0
 11
39.23
 21
-0.818625
 31
0.0
  0
LINE
  5
149
330
30
100
AcDbEntity
  8
1
100
AcDbLine
 10
39.23
 20
-0.818625
 30
0.0
 11
39.266667
 21
-0.819855
 31
0.0
  0
LINE
  5
14A
330
30
100
AcDbEntity
  8
1
100
AcDbLine
 10
39.266667
 20
-0.819855
 30
0.0
 11
39.303333
 21
-0.819112
 31
0.0
  0
LINE
  5
14B
330
30
100
AcDbEntity
  8
1
100
AcDbLine
 10
39.303333
 20
-0.819112
 30
0.0
 11
39.34
 21
-0.816324
 31
0.0
  0
LINE
  5
14C
330
30
100
AcDbEntity
  8
1
100
AcDbLine
 10
39.34
 20
-0.816324
 30
0.0
 11
39.376667
 21
-0.81141
 31
0.0
  0
LINE
  5
14D
330
30
100
AcDbEntity
  8
1
100
AcDbLine
 10
39.376667
 20
-0.81141
 30
0.0
 11
39.413333
 21
-0.804282
 31
0.0
  0
LINE
  5
14E
330
30
100
AcDbEntity
  8
1
100
AcDbLine
 10
39.413333
 20
-0.804282
 30
0.0
 11
39.45
 21
-0.794838
 31
0.0
  0
LINE
  5
14F
330
30
100
AcDbEntity
  8
1
100
AcDbLine
 10
39.45
 20
-0.794838
 30
0.0
 11
39.486667
 21
-0.782957
 31
0.0
  0
LINE
  5
150
330
30
100
AcDbEntity
  8
1
100
AcDbLine
 10
39.486667
 20
-0.782957
 30
0.0
 11
39.523333
 21
-0.768501
 31
0.0
  0
LINE
  5
151
330
30
100
AcDbEntity
  8
1
100
AcDbLine
 10
39.523333
 20
-0.768501
 30
0.0
 11
39.56
 21
-0.751302
 31
0.0
  0
LINE
  5
152
330
30
100
AcDbEntity
  8
1
100
AcDbLine
 10
39.56
 20
-0.751302
 30
0.0
 11
39.596667
 21
-0.731157
 31
0.0
  0
LINE
  5
153
330
30
100
AcDbEntity
  8
1
100
AcDbLine
 10
39.596667
 20
-0.731157
 30
0.0
 11
39.633333
 21
-0.707812
 31
0.0
  0
LINE
  5
154
330
30
100
AcDbEntity
  8
1
100
AcDbLine
 10
39.633333
 20
-0.707812
 30
0.0
 11
39.67
 21
-0.680944
 31
0.0
  0
LINE
  5
155
330
30
100
AcDbEntity
  8
1
100
AcDbLine
 10
39.67
 20
-0.680944
 30
0.0
 11
39.706667
 21
-0.650154
 31
0.0
  0
LINE
  5
156
330
30
100
AcDbEntity
  8
1
100
AcDbLine
 10
39.706667
 20
-0.650154
 30
0.0
 11
39.743333
 21
-0.616418
 31
0.0
  0
LINE
  5
157
330
30
100
AcDbEntity
  8
1
100
AcDbLine
 10
39.743333
 20
-0.616418
 30
0.0
 11
39.78
 21
-0.580568
 31
0.0
  0
LINE
  5
158
330
30
100
AcDbEntity
  8
1
100
AcDbLine
 10
39.78
 20
-0.580568
 30
0.0
 11
39.816667
 21
-0.542578
 31
0.0
  0
LINE
  5
159
330
30
100
AcDbEntity
  8
1
100
AcDbLine
 10
39.816667
 20
-0.542578
 30
0.0
 11
39.853333
 21
-0.503303
 31
0.0
  0
LINE
  5
15A
330
30
100
AcDbEntity
  8
1
100
AcDbLine
 10
39.853333
 20
-0.521353
 30
0.0
 11
39.853333
 21
-0.521366
 31
0.0
  0
LINE
  5
15B
330
30
100
AcDbEntity
  8
1
100
AcDbLine
 10
39.853333
 20
-0.521366
 30
0.0
 11
39.853333
 21
-0.521353
 31
0.0
  0
LINE
  5
15C
330
30
100
AcDbEntity
  8
1
100
AcDbLine
 10
39.853333
 20
-0.521353
 30
0.0
 11
39.816667
 21
-0.572381
 31
0.0
  0
LINE
  5
15D
330
30
100
AcDbEntity
  8
1
100
AcDbLine
 10
39.816667
 20
-0.572381
 30
0.0
 11
39.78
 21
-0.615459
 31
0.0
  0
LINE
  5
15E
330
30
100
AcDbEntity
  8
1
100
AcDbLine
 10
39.78
 20
-0.615459
 30
0.0
 11
39.743333
 21
-0.654048
 31
0.0
  0
LINE
  5
15F
330
30
100
AcDbEntity
  8
1
100
AcDbLine
 10
39.743333
 20
-0.654048
 30
0.0
 11
39.706667
 21
-0.689295
 31
0.0
  0
LINE
  5
160
330
30
100
AcDbEntity
  8
1
100
AcDbLine
 10
39.706667
 20
-0.689295
 30
0.0
 11
39.67
 21
-0.721174
 31
0.0
  0
LINE
  5
161
330
30
100
AcDbEntity
  8
1
100
AcDbLine
 10
39.67
 20
-0.721174
 30
0.0
 11
39.633333
 21
-0.749264
 31
0.0
  0
LINE
  5
162
330
30
100
AcDbEntity
  8
1
100
AcDbLine
 10
39.633333
 20
-0.749264
 30
0.0
 11
39.596667
 21
-0.773939
 31
0.0
  0
LINE
  5
163
330
30
100
AcDbEntity
  8
1
100
AcDbLine
 10
39.596667
 20
-0.773939
 30
0.0
 11
39.56
 21
-0.795493
 31
0.0
  0
LINE
  5
164
330
30
100
AcDbEntity
  8
1
100
AcDbLine
 10
39.56
 20
-0.795493
 30
0.0
 11
39.523333
 21
-0.814161
 31
0.0
  0
LINE
  5
165
330
30
100
AcDbEntity
  8
1
100
AcDbLine
 10
39.523333
 20
-0.814161
 30
0.0
 11
39.486667
 21
-0.830132
 31
0.0
  0
LINE
  5
166
330
30
100
AcDbEntity
  8
1
100
AcDbLine
 10
39.486667
 20
-0.830132
 30
0.0
 11
39.45
 21
-0.843562
 31
0.0
  0
LINE
  5
167
330
30
100
AcDbEntity
  8
1
100
AcDbLine
 10
39.45
 20
-0.843562
 30
0.0
 11
39.413333
 21
-0.854582
 31
0.0
  0
LINE
  5
168
330
30
100
AcDbEntity
  8
1
100
AcDbLine
 10
39.413333
 20
-0.854582
 30
0.0
 11
39.376667
 21
-0.863303
 31
0.0
  0
LINE
  5
169
330
30
100
AcDbEntity
  8
1
100
AcDbLine
 10
39.376667
 20
-0.863303
 30
0.0
 11
39.34
 21
-0.869822
 31
0.0
  0
LINE
  5
16A
330
30
100
AcDbEntity
  8
1
100
AcDbLine
 10
39.34
 20
-0.869822
 30
0.0
 11
39.303333
 21
-0.874224
 31
0.0
  0
LINE
  5
16B
330
30
100
AcDbEntity
  8
1
100
AcDbLine
 10
39.303333
 20
-0.874224
 30
0.0
 11
39.266667
 21
-0.876584
 31
0.0
  0
LINE
  5
16C
330
30
100
AcDbEntity
  8
1
100
AcDbLine
 10
39.266667
 20
-0.876584
 30
0.0
 11
39.23
 21
-0.876969
 31
0.0
  0
LINE
  5
16D
330
30
100
AcDbEntity
  8
1
100
AcDbLine
 10
39.23
 20
-0.876969
 30
0.0
 11
39.193333
 21
-0.875443
 31
0.0
  0
LINE
  5
16E
330
30
100
AcDbEntity
  8
1
100
AcDbLine
 10
39.193333
 20
-0.875443
 30
0.0
 11
39.156667
 21
-0.872061
 31
0.0
  0
LINE
  5
16F
330
30
100
AcDbEntity
  8
1
100
AcDbLine
 10
39.156667
 20
-0.872061
 30
0.0
 11
39.12
 21
-0.866878
 31
0.0
  0
LINE
  5
170
330
30
100
AcDbEntity
  8
1
100
AcDbLine
 10
39.12
 20
-0.866878
 30
0.0
 11
39.083333
 21
-0.859943
 31
0.0
  0
LINE
  5
171
330
30
100
AcDbEntity
  8
1
100
AcDbLine
 10
39.083333
 20
-0.859943
 30
0.0
 11
39.046667
 21
-0.851303
 31
0.0
  0
LINE
  5
172
330
30
100
AcDbEntity
  8
1
100
AcDbLine
 10
39.046667
 20
-0.851303
 30
0.0
 11
39.01
 21
-0.841003
 31
0.0
  0
LINE
  5
173
330
30
100
AcDbEntity
  8
1
100
AcDbLine
 10
39.01
 20
-0.841003
 30
0.0
 11
38.973333
 21
-0.82941
 31
0.0
  0
LINE
  5
174
330
30
100
AcDbEntity
  8
1
100
AcDbLine
 10
38.973333
 20
-0.82941
 30
0.0
 11
38.936667
 21
-0.817399
 31
0.0
  0
LINE
  5
175
330
30
100
AcDbEntity
  8
1
100
AcDbLine
 10
38.936667
 20
-0.817399
 30
0.0
 11
38.9
 21
-0.805021
 31
0.0
  0
LINE
  5
176
330
30
100
AcDbEntity
  8
1
100
AcDbLine
 10
38.9
 20
-0.805021
 30
0.0
 11
38.863333
 21
-0.792283
 31
0.0
  0
LINE
  5
177
330
30
100
AcDbEntity
  8
1
100
AcDbLine
 10
38.863333
 20
-0.792283
 30
0.0
 11
38.826667
 21
-0.77919
 31
0.0
  0
LINE
  5
178
330
30
100
AcDbEntity
  8
1
100
AcDbLine
 10
38.826667
 20
-0.77919
 30
0.0
 11
38.79
 21
-0.765747
 31
0.0
  0
LINE
  5
179
330
30
100
AcDbEntity
  8
1
100
AcDbLine
 10
38.79
 20
-0.765747
 30
0.0
 11
38.753333
 21
-0.751962
 31
0.0
  0
LINE
  5
17A
330
30
100
AcDbEntity
  8
1
100
AcDbLine
 10
38.753333
 20
-0.751962
 30
0.0
 11
38.716667
 21
-0.737839
 31
0.0
  0
LINE
  5
17B
330
30
100
AcDbEntity
  8
1
100
AcDbLine
 10
38.716667
 20
-0.737839
 30
0.0
 11
38.68
 21
-0.723386
 31
0.0
  0
LINE
  5
17C
330
30
100
AcDbEntity
  8
1
100
AcDbLine
 10
38.68
 20
-0.723386
 30
0.0
 11
38.643333
 21
-0.708609
 31
0.0
  0
LINE
  5
17D
330
30
100
AcDbEntity
  8
1
100
AcDbLine
 10
38.643333
 20
-0.708609
 30
0.0
 11
38.606667
 21
-0.693514
 31
0.0
  0
LINE
  5
17E
330
30
100
AcDbEntity
  8
1
100
AcDbLine
 10
38.606667
 20
-0.693514
 30
0.0
 11
38.57
 21
-0.678108
 31
0.0
  0
LINE
  5
17F
330
30
100
AcDbEntity
  8
1
100
AcDbLine
 10
38.57
 20
-0.678108
 30
0.0
 11
38.533333
 21
-0.662399
 31
0.0
  0
LINE
  5
180
330
30
100
AcDbEntity
  8
1
100
AcDbLine
 10
38.533333
 20
-0.662399
 30
0.0
 11
38.496667
 21
-0.646392
 31
0.0
  0
LINE
  5
181
330
30
100
AcDbEntity
  8
1
100
AcDbLine
 10
38.496667
 20
-0.646392
 30
0.0
 11
38.46
 21
-0.630096
 31
0.0
  0
LINE
  5
182
330
30
100
AcDbEntity
  8
1
100
AcDbLine
 10
38.46
 20
-0.630096
 30
0.0
 11
38.423333
 21
-0.613518
 31
0.0
  0
LINE
  5
183
330
30
100
AcDbEntity
  8
1
100
AcDbLine
 10
38.423333
 20
-0.613518
 30
0.0
 11
38.386667
 21
-0.596664
 31
0.0
  0
LINE
  5
184
330
30
100
AcDbEntity
  8
1
100
AcDbLine
 10
38.386667
 20
-0.596664
 30
0.0
 11
38.35
 21
-0.579543
 31
0.0
  0
LINE
  5
185
330
30
100
AcDbEntity
  8
1
100
AcDbLine
 10
38.35
 20
-0.579543
 30
0.0
 11
38.313333
 21
-0.562163
 31
0.0
  0
LINE
  5
186
330
30
100
AcDbEntity
  8
1
100
AcDbLine
 10
38.313333
 20
-0.562163
 30
0.0
 11
38.276667
 21
-0.544531
 31
0.0
  0
LINE
  5
187
330
30
100
AcDbEntity
  8
1
100
AcDbLine
 10
38.276667
 20
-0.544531
 30
0.0
 11
38.24
 21
-0.526654
 31
0.0
  0
LINE
  5
188
330
30
100
AcDbEntity
  8
1
100
AcDbLine
 10
38.24
 20
-0.526654
 30
0.0
 11
38.203333
 21
-0.508542
 31
0.0
  0
LINE
  5
189
330
30
100
AcDbEntity
  8
1
100
AcDbLine
 10
38.203333
 20
-0.508542
 30
0.0
 11
38.166667
 21
-0.490201
 31
0.0
  0
LINE
  5
18A
330
30
100
AcDbEntity
  8
1
100
AcDbLine
 10
38.166667
 20
-0.490201
 30
0.0
 11
38.13
 21
-0.471641
 31
0.0
  0
LINE
  5
18B
330
30
100
AcDbEntity
  8
1
100
AcDbLine
 10
38.13
 20
-0.471641
 30
0.0
 11
38.093333
 21
-0.45287
 31
0.0
  0
LINE
  5
18C
330
30
100
AcDbEntity
  8
1
100
AcDbLine
 10
38.093333
 20
-0.45287
 30
0.0
 11
38.056667
 21
-0.433896
 31
0.0
  0
LINE
  5
18D
330
30
100
AcDbEntity
  8
1
100
AcDbLine
 10
38.056667
 20
-0.433896
 30
0.0
 11
38.02
 21
-0.414727
 31
0.0
  0
LINE
  5
18E
330
30
100
AcDbEntity
  8
1
100
AcDbLine
 10
38.02
 20
-0.414727
 30
0.0
 11
37.983333
 21
-0.395372
 31
0.0
  0
LINE
  5
18F
330
30
100
AcDbEntity
  8
1
100
AcDbLine
 10
37.983333
 20
-0.395372
 30
0.0
 11
37.946667
 21
-0.375841
 31
0.0
  0
LINE
  5
190
330
30
100
AcDbEntity
  8
1
100
AcDbLine
 10
37.946667
 20
-0.375841
 30
0.0
 11
37.91
 21
-0.35614
 31
0.0
  0
LINE
  5
191
330
30
100
AcDbEntity
  8
1
100
AcDbLine
 10
37.91
 20
-0.35614
 30
0.0
 11
37.873333
 21
-0.336281
 31
0.0
  0
LINE
  5
192
330
30
100
AcDbEntity
  8
1
100
AcDbLine
 10
37.873333
 20
-0.336281
 30
0.0
 11
37.836667
 21
-0.31627
 31
0.0
  0
LINE
  5
193
330
30
100
AcDbEntity
  8
1
100
AcDbLine
 10
37.836667
 20
-0.31627
 30
0.0
 11
37.8
 21
-0.296118
 31
0.0
  0
LINE
  5
194
330
30
100
AcDbEntity
  8
1
100
AcDbLine
 10
37.8
 20
-0.296118
 30
0.0
 11
37.763333
 21
-0.275833
 31
0.0
  0
LINE
  5
195
330
30
100
AcDbEntity
  8
1
100
AcDbLine
 10
37.763333
 20
-0.275833
 30
0.0
 11
37.726667
 21
-0.255424
 31
0.0
  0
LINE
  5
196
330
30
100
AcDbEntity
  8
1
100
AcDbLine
 10
37.726667
 20
-0.255424
 30
0.0
 11
37.69
 21
-0.234901
 31
0.0
  0
LINE
  5
197
330
30
100
AcDbEntity
  8
1
100
AcDbLine
 10
37.69
 20
-0.234901
 30
0.0
 11
37.653333
 21
-0.214273
 31
0.0
  0
LINE
  5
198
330
30
100
AcDbEntity
  8
1
100
AcDbLine
 10
37.653333
 20
-0.214273
 30
0.0
 11
37.616667
 21
-0.193549
 31
0.0
  0
LINE
  5
199
330
30
100
AcDbEntity
  8
1
100
AcDbLine
 10
37.616667
 20
-0.193549
 30
0.0
 11
37.58
 21
-0.172738
 31
0.0
  0
LINE
  5
19A
330
30
100
AcDbEntity
  8
1
100
AcDbLine
 10
37.58
 20
-0.172738
 30
0.0
 11
37.543333
 21
-0.151849
 31
0.0
  0
LINE
  5
19B
330
30
100
AcDbEntity
  8
1
100
AcDbLine
 10
37.543333
 20
-0.151849
 30
0.0
 11
37.506667
 21
-0.130893
 31
0.0
  0
LINE
  5
19C
330
30
100
AcDbEntity
  8
1
100
AcDbLine
 10
37.506667
 20
-0.130893
 30
0.0
 11
37.47
 21
-0.109878
 31
0.0
  0
LINE
  5
19D
330
30
100
AcDbEntity
  8
1
100
AcDbLine
 10
37.47
 20
-0.109878
 30
0.0
 11
37.433333
 21
-0.088813
 31
0.0
  0
LINE
  5
19E
330
30
100
AcDbEntity
  8
1
100
AcDbLine
 10
37.433333
 20
-0.088813
 30
0.0
 11
37.396667
 21
-0.067709
 31
0.0
  0
LINE
  5
19F
330
30
100
AcDbEntity
  8
1
100
AcDbLine
 10
37.396667
 20
-0.067709
 30
0.0
 11
37.36
 21
-0.046575
 31
0.0
  0
LINE
  5
1A0
330
30
100
AcDbEntity
  8
1
100
AcDbLine
 10
37.36
 20
-0.046575
 30
0.0
 11
37.323333
 21
-0.025419
 31
0.0
  0
LINE
  5
1A1
330
30
100
AcDbEntity
  8
1
100
AcDbLine
 10
37.323333
 20
-0.025419
 30
0.0
 11
37.286667
 21
-0.004253
 31
0.0
  0
LINE
  5
1A2
330
30
100
AcDbEntity
  8
1
100
AcDbLine
 10
37.286667
 20
-0.004253
 30
0.0
 11
37.25
 21
0.016916
 31
0.0
  0
LINE
  5
1A3
330
30
100
AcDbEntity
  8
1
100
AcDbLine
 10
37.25
 20
0.016916
 30
0.0
 11
37.213333
 21
0.038077
 31
0.0
  0
LINE
  5
1A4
330
30
100
AcDbEntity
  8
1
100
AcDbLine
 10
37.213333
 20
0.038077
 30
0.0
 11
37.176667
 21
0.059221
 31
0.0
  0
LINE
  5
1A5
330
30
100
AcDbEntity
  8
1
100
AcDbLine
 10
37.176667
 20
0.059221
 30
0.0
 11
37.14
 21
0.080339
 31
0.0
  0
LINE
  5
1A6
330
30
100
AcDbEntity
  8
1
100
AcDbLine
 10
37.14
 20
0.080339
 30
0.0
 11
37.103333
 21
0.10142
 31
0.0
  0
LINE
  5
1A7
330
30
100
AcDbEntity
  8
1
100
AcDbLine
 10
37.103333
 20
0.10142
 30
0.0
 11
37.066667
 21
0.122456
 31
0.0
  0
LINE
  5
1A8
330
30
100
AcDbEntity
  8
1
100
AcDbLine
 10
37.066667
 20
0.122456
 30
0.0
 11
37.03
 21
0.143438
 31
0.0
  0
LINE
  5
1A9
330
30
100
AcDbEntity
  8
1
100
AcDbLine
 10
37.03
 20
0.143438
 30
0.0
 11
36.993333
 21
0.164354
 31
0.0
  0
LINE
  5
1AA
330
30
100
AcDbEntity
  8
1
100
AcDbLine
 10
36.993333
 20
0.164354
 30
0.0
 11
36.956667
 21
0.185198
 31
0.0
  0
LINE
  5
1AB
330
30
100
AcDbEntity
  8
1
100
AcDbLine
 10
36.956667
 20
0.185198
 30
0.0
 11
36.92
 21
0.205958
 31
0.0
  0
LINE
  5
1AC
330
30
100
AcDbEntity
  8
1
100
AcDbLine
 10
36.92
 20
0.205958
 30
0.0
 11
36.883333
 21
0.226626
 31
0.0
  0
LINE
  5
1AD
330
30
100
AcDbEntity
  8
1
100
AcDbLine
 10
36.883333
 20
0.226626
 30
0.0
 11
36.846667
 21
0.247192
 31
0.0
  0
LINE
  5
1AE
330
30
100
AcDbEntity
  8
1
100
AcDbLine
 10
36.846667
 20
0.247192
 30
0.0
 11
36.81
 21
0.267648
 31
0.0
  0
LINE
  5
1AF
330
30
100
AcDbEntity
  8
1
100
AcDbLine
 10
36.81
 20
0.267648
 30
0.0
 11
36.773333
 21
0.287984
 31
0.0
  0
LINE
  5
1B0
330
30
100
AcDbEntity
  8
1
100
AcDbLine
 10
36.773333
 20
0.287984
 30
0.0
 11
36.736667
 21
0.30819
 31
0.0
  0
LINE
  5
1B1
330
30
100
AcDbEntity
  8
1
100
AcDbLine
 10
36.736667
 20
0.30819
 30
0.0
 11
36.7
 21
0.328259
 31
0.0
  0
LINE
  5
1B2
330
30
100
AcDbEntity
  8
1
100
AcDbLine
 10
36.7
 20
0.328259
 30
0.0
 11
36.663333
 21
0.34818
 31
0.0
  0
LINE
  5
1B3
330
30
100
AcDbEntity
  8
1
100
AcDbLine
 10
36.663333
 20
0.34818
 30
0.0
 11
36.626667
 21
0.367946
 31
0.0
  0
LINE
  5
1B4
330
30
100
AcDbEntity
  8
1
100
AcDbLine
 10
36.626667
 20
0.367946
 30
0.0
 11
36.59
 21
0.387546
 31
0.0
  0
LINE
  5
1B5
330
30
100
AcDbEntity
  8
1
100
AcDbLine
 10
36.59
 20
0.387546
 30
0.0
 11
36.553333
 21
0.406973
 31
0.0
  0
LINE
  5
1B6
330
30
100
AcDbEntity
  8
1
100
AcDbLine
 10
36.553333
 20
0.406973
 30
0.0
 11
36.516667
 21
0.426217
 31
0.0
  0
LINE
  5
1B7
330
30
100
AcDbEntity
  8
1
100
AcDbLine
 10
36.516667
 20
0.426217
 30
0.0
 11
36.48
 21
0.445271
 31
0.0
  0
LINE
  5
1B8
330
30
100
AcDbEntity
  8
1
100
AcDbLine
 10
36.48
 20
0.445271
 30
0.0
 11
36.443333
 21
0.464125
 31
0.0
  0
LINE
  5
1B9
330
30
100
AcDbEntity
  8
1
100
AcDbLine
 10
36.443333
 20
0.464125
 30
0.0
 11
36.406667
 21
0.482771
 31
0.0
  0
LINE
  5
1BA
330
30
100
AcDbEntity
  8
1
100
AcDbLine
 10
36.406667
 20
0.482771
 30
0.0
 11
36.37
 21
0.5012
 31
0.0
  0
LINE
  5
1BB
330
30
100
AcDbEntity
  8
1
100
AcDbLine
 10
36.37
 20
0.5012
 30
0.0
 11
36.333333
 21
0.519405
 31
0.0
  0
LINE
  5
1BC
330
30
100
AcDbEntity
  8
1
100
AcDbLine
 10
36.333333
 20
0.519405
 30
0.0
 11
36.296667
 21
0.537377
 31
0.0
  0
LINE
  5
1BD
330
30
100
AcDbEntity
  8
1
100
AcDbLine
 10
36.296667
 20
0.537377
 30
0.0
 11
36.26
 21
0.555109
 31
0.0
  0
LINE
  5
1BE
330
30
100
AcDbEntity
  8
1
100
AcDbLine
 10
36.26
 20
0.555109
 30
0.0
 11
36.223333
 21
0.572591
 31
0.0
  0
LINE
  5
1BF
330
30
100
AcDbEntity
  8
1
100
AcDbLine
 10
36.223333
 20
0.572591
 30
0.0
 11
36.186667
 21
0.589817
 31
0.0
  0
LINE
  5
1C0
330
30
100
AcDbEntity
  8
1
100
AcDbLine
 10
36.186667
 20
0.589817
 30
0.0
 11
36.15
 21
0.606779
 31
0.0
  0
LINE
  5
1C1
330
30
100
AcDbEntity
  8
1
100
AcDbLine
 10
36.15
 20
0.606779
 30
0.0
 11
36.113333
 21
0.623469
 31
0.0
  0
LINE
  5
1C2
330
30
100
AcDbEntity
  8
1
100
AcDbLine
 10
36.113333
 20
0.623469
 30
0.0
 11
36.076667
 21
0.639879
 31
0.0
  0
LINE
  5
1C3
330
30
100
AcDbEntity
  8
1
100
AcDbLine
 10
36.076667
 20
0.639879
 30
0.0
 11
36.04
 21
0.656003
 31
0.0
  0
LINE
  5
1C4
330
30
100
AcDbEntity
  8
1
100
AcDbLine
 10
36.04
 20
0.656003
 30
0.0
 11
36.003333
 21
0.671833
 31
0.0
  0
LINE
  5
1C5
330
30
100
AcDbEntity
  8
1
100
AcDbLine
 10
36.003333
 20
0.671833
 30
0.0
 11
35.966667
 21
0.687361
 31
0.0
  0
LINE
  5
1C6
330
30
100
AcDbEntity
  8
1
100
AcDbLine
 10
35.966667
 20
0.687361
 30
0.0
 11
35.93
 21
0.702582
 31
0.0
  0
LINE
  5
1C7
330
30
100
AcDbEntity
  8
1
100
AcDbLine
 10
35.93
 20
0.702582
 30
0.0
 11
35.893333
 21
0.717488
 31
0.0
  0
LINE
  5
1C8
330
30
100
AcDbEntity
  8
1
100
AcDbLine
 10
35.893333
 20
0.717488
 30
0.0
 11
35.856667
 21
0.732072
 31
0.0
  0
LINE
  5
1C9
330
30
100
AcDbEntity
  8
1
100
AcDbLine
 10
35.856667
 20
0.732072
 30
0.0
 11
35.82
 21
0.746328
 31
0.0
  0
LINE
  5
1CA
330
30
100
AcDbEntity
  8
1
100
AcDbLine
 10
35.82
 20
0.746328
 30
0.0
 11
35.783333
 21
0.76025
 31
0.0
  0
LINE
  5
1CB
330
30
100
AcDbEntity
  8
1
100
AcDbLine
 10
35.783333
 20
0.76025
 30
0.0
 11
35.746667
 21
0.773831
 31
0.0
  0
LINE
  5
1CC
330
30
100
AcDbEntity
  8
1
100
AcDbLine
 10
35.746667
 20
0.773831
 30
0.0
 11
35.71
 21
0.787065
 31
0.0
  0
LINE
  5
1CD
330
30
100
AcDbEntity
  8
1
100
AcDbLine
 10
35.71
 20
0.787065
 30
0.0
 11
35.673333
 21
0.799946
 31
0.0
  0
LINE
  5
1CE
330
30
100
AcDbEntity
  8
1
100
AcDbLine
 10
35.673333
 20
0.799946
 30
0.0
 11
35.636667
 21
0.812469
 31
0.0
  0
LINE
  5
1CF
330
30
100
AcDbEntity
  8
1
100
AcDbLine
 10
35.636667
 20
0.812469
 30
0.0
 11
35.6
 21
0.824628
 31
0.0
  0
LINE
  5
1D0
330
30
100
AcDbEntity
  8
1
100
AcDbLine
 10
35.6
 20
0.824628
 30
0.0
 11
35.563333
 21
0.836418
 31
0.0
  0
LINE
  5
1D1
330
30
100
AcDbEntity
  8
1
100
AcDbLine
 10
35.563333
 20
0.836418
 30
0.0
 11
35.526667
 21
0.847832
 31
0.0
  0
LINE
  5
1D2
330
30
100
AcDbEntity
  8
1
100
AcDbLine
 10
35.526667
 20
0.847832
 30
0.0
 11
35.49
 21
0.858867
 31
0.0
  0
LINE
  5
1D3
330
30
100
AcDbEntity
  8
1
100
AcDbLine
 10
35.49
 20
0.858867
 30
0.0
 11
35.453333
 21
0.869517
 31
0.0
  0
LINE
  5
1D4
330
30
100
AcDbEntity
  8
1
100
AcDbLine
 10
35.453333
 20
0.869517
 30
0.0
 11
35.416667
 21
0.879777
 31
0.0
  0
LINE
  5
1D5
330
30
100
AcDbEntity
  8
1
100
AcDbLine
 10
35.416667
 20
0.879777
 30
0.0
 11
35.38
 21
0.889643
 31
0.0
  0
LINE
  5
1D6
330
30
100
AcDbEntity
  8
1
100
AcDbLine
 10
35.38
 20
0.889643
 30
0.0
 11
35.343333
 21
0.89911
 31
0.0
  0
LINE
  5
1D7
330
30
100
AcDbEntity
  8
1
100
AcDbLine
 10
35.343333
 20
0.89911
 30
0.0
 11
35.306667
 21
0.908174
 31
0.0
  0
LINE
  5
1D8
330
30
100
AcDbEntity
  8
1
100
AcDbLine
 10
35.306667
 20
0.908174
 30
0.0
 11
35.27
 21
0.916831
 31
0.0
  0
LINE
  5
1D9
330
30
100
AcDbEntity
  8
1
100
AcDbLine
 10
35.27
 20
0.916831
 30
0.0
 11
35.233333
 21
0.925078
 31
0.0
  0
LINE
  5
1DA
330
30
100
AcDbEntity
  8
1
100
AcDbLine
 10
35.233333
 20
0.925078
 30
0.0
 11
35.196667
 21
0.932909
 31
0.0
  0
LINE
  5
1DB
330
30
100
AcDbEntity
  8
1
100
AcDbLine
 10
35.196667
 20
0.932909
 30
0.0
 11
35.16
 21
0.940323
 31
0.0
  0
LINE
  5
1DC
330
30
100
AcDbEntity
  8
1
100
AcDbLine
 10
35.16
 20
0.940323
 30
0.0
 11
35.123333
 21
0.947316
 31
0.0
  0
LINE
  5
1DD
330
30
100
AcDbEntity
  8
1
100
AcDbLine
 10
35.123333
 20
0.947316
 30
0.0
 11
35.086667
 21
0.953883
 31
0.0
  0
LINE
  5
1DE
330
30
100
AcDbEntity
  8
1
100
AcDbLine
 10
35.086667
 20
0.953883
 30
0.0
 11
35.05
 21
0.960024
 31
0.0
  0
LINE
  5
1DF
330
30
100
AcDbEntity
  8
1
100
AcDbLine
 10
35.05
 20
0.960024
 30
0.0
 11
35.013333
 21
0.965734
 31
0.0
  0
LINE
  5
1E0
330
30
100
AcDbEntity
  8
1
100
AcDbLine
 10
35.013333
 20
0.965734
 30
0.0
 11
34.976667
 21
0.971011
 31
0.0
  0
LINE
  5
1E1
330
30
100
AcDbEntity
  8
1
100
AcDbLine
 10
34.976667
 20
0.971011
 30
0.0
 11
34.94
 21
0.975854
 31
0.0
  0
LINE
  5
1E2
330
30
100
AcDbEntity
  8
1
100
AcDbLine
 10
34.94
 20
0.975854
 30
0.0
 11
34.903333
 21
0.980259
 31
0.0
  0
LINE
  5
1E3
330
30
100
AcDbEntity
  8
1
100
AcDbLine
 10
34.903333
 20
0.980259
 30
0.0
 11
34.866667
 21
0.984224
 31
0.0
  0
LINE
  5
1E4
330
30
100
AcDbEntity
  8
1
100
AcDbLine
 10
34.866667
 20
0.984224
 30
0.0
 11
34.83
 21
0.987749
 31
0.0
  0
LINE
  5
1E5
330
30
100
AcDbEntity
  8
1
100
AcDbLine
 10
34.83
 20
0.987749
 30
0.0
 11
34.793333
 21
0.990831
 31
0.0
  0
LINE
  5
1E6
330
30
100
AcDbEntity
  8
1
100
AcDbLine
 10
34.793333
 20
0.990831
 30
0.0
 11
34.756667
 21
0.993469
 31
0.0
  0
LINE
  5
1E7
330
30
100
AcDbEntity
  8
1
100
AcDbLine
 10
34.756667
 20
0.993469
 30
0.0
 11
34.72
 21
0.995662
 31
0.0
  0
LINE
  5
1E8
330
30
100
AcDbEntity
  8
1
100
AcDbLine
 10
34.72
 20
0.995662
 30
0.0
 11
34.683333
 21
0.997408
 31
0.0
  0
LINE
  5
1E9
330
30
100
AcDbEntity
  8
1
100
AcDbLine
 10
34.683333
 20
0.997408
 30
0.0
 11
34.646667
 21
0.998708
 31
0.0
  0
LINE
  5
1EA
330
30
100
AcDbEntity
  8
1
100
AcDbLine
 10
34.646667
 20
0.998708
 30
0.0
 11
34.61
 21
0.99956
 31
0.0
  0
LINE
  5
1EB
330
30
100
AcDbEntity
  8
1
100
AcDbLine
 10
34.61
 20
0.99956
 30
0.0
 11
34.573333
 21
0.999964
 31
0.0
  0
LINE
  5
1EC
330
30
100
AcDbEntity
  8
1
100
AcDbLine
 10
34.573333
 20
0.999964
 30
0.0
 11
34.558602
 21
1.0
 31
0.0
  0
LINE
  5
1ED
330
30
100
AcDbEntity
  8
1
100
AcDbLine
 10
34.558602
 20
-1.0
 30
0.0
 11
34.536667
 21
-0.99992
 31
0.0
  0
LINE
  5
1EE
330
30
100
AcDbEntity
  8
1
100
AcDbLine
 10
34.536667
 20
-0.99992
 30
0.0
 11
34.5
 21
-0.999428
 31
0.0
  0
LINE
  5
1EF
330
30
100
AcDbEntity
  8
1
100
AcDbLine
 10
34.5
 20
-0.999428
 30
0.0
 11
34.463333
 21
-0.998488
 31
0.0
  0
LINE
  5
1F0
330
30
100
AcDbEntity
  8
1
100
AcDbLine
 10
34.463333
 20
-0.998488
 30
0.0
 11
34.426667
 21
-0.9971
 31
0.0
  0
LINE
  5
1F1
330
30
100
AcDbEntity
  8
1
100
AcDbLine
 10
34.426667
 20
-0.9971
 30
0.0
 11
34.39
 21
-0.995266
 31
0.0
  0
LINE
  5
1F2
330
30
100
AcDbEntity
  8
1
100
AcDbLine
 10
34.39
 20
-0.995266
 30
0.0
 11
34.353333
 21
-0.992986
 31
0.0
  0
LINE
  5
1F3
330
30
100
AcDbEntity
  8
1
100
AcDbLine
 10
34.353333
 20
-0.992986
 30
0.0
 11
34.316667
 21
-0.99026
 31
0.0
  0
LINE
  5
1F4
330
30
100
AcDbEntity
  8
1
100
AcDbLine
 10
34.316667
 20
-0.99026
 30
0.0
 11
34.28
 21
-0.987091
 31
0.0
  0
LINE
  5
1F5
330
30
100
AcDbEntity
  8
1
100
AcDbLine
 10
34.28
 20
-0.987091
 30
0.0
 11
34.243333
 21
-0.98348
 31
0.0
  0
LINE
  5
1F6
330
30
100
AcDbEntity
  8
1
100
AcDbLine
 10
34.243333
 20
-0.98348
 30
0.0
 11
34.206667
 21
-0.979428
 31
0.0
  0
LINE
  5
1F7
330
30
100
AcDbEntity
  8
1
100
AcDbLine
 10
34.206667
 20
-0.979428
 30
0.0
 11
34.17
 21
-0.974937
 31
0.0
  0
LINE
  5
1F8
330
30
100
AcDbEntity
  8
1
100
AcDbLine
 10
34.17
 20
-0.974937
 30
0.0
 11
34.133333
 21
-0.970009
 31
0.0
  0
LINE
  5
1F9
330
30
100
AcDbEntity
  8
1
100
AcDbLine
 10
34.133333
 20
-0.970009
 30
0.0
 11
34.096667
 21
-0.964646
 31
0.0
  0
LINE
  5
1FA
330
30
100
AcDbEntity
  8
1
100
AcDbLine
 10
34.096667
 20
-0.964646
 30
0.0
 11
34.06
 21
-0.958851
 31
0.0
  0
LINE
  5
1FB
330
30
100
AcDbEntity
  8
1
100
AcDbLine
 10
34.06
 20
-0.958851
 30
0.0
 11
34.023333
 21
-0.952627
 31
0.0
  0
LINE
  5
1FC
330
30
100
AcDbEntity
  8
1
100
AcDbLine
 10
34.023333
 20
-0.952627
 30
0.0
 11
33.986667
 21
-0.945975
 31
0.0
  0
LINE
  5
1FD
330
30
100
AcDbEntity
  8
1
100
AcDbLine
 10
33.986667
 20
-0.945975
 30
0.0
 11
33.95
 21
-0.9389
 31
0.0
  0
LINE
  5
1FE
330
30
100
AcDbEntity
  8
1
100
AcDbLine
 10
33.95
 20
-0.9389
 30
0.0
 11
33.913333
 21
-0.931404
 31
0.0
  0
LINE
  5
1FF
330
30
100
AcDbEntity
  8
1
100
AcDbLine
 10
33.913333
 20
-0.931404
 30
0.0
 11
33.876667
 21
-0.92349
 31
0.0
  0
LINE
  5
200
330
30
100
AcDbEntity
  8
1
100
AcDbLine
 10
33.876667
 20
-0.92349
 30
0.0
 11
33.84
 21
-0.915163
 31
0.0
  0
LINE
  5
201
330
30
100
AcDbEntity
  8
1
100
AcDbLine
 10
33.84
 20
-0.915163
 30
0.0
 11
33.803333
 21
-0.906425
 31
0.0
  0
LINE
  5
202
330
30
100
AcDbEntity
  8
1
100
AcDbLine
 10
33.803333
 20
-0.906425
 30
0.0
 11
33.766667
 21
-0.897281
 31
0.0
  0
LINE
  5
203
330
30
100
AcDbEntity
  8
1
100
AcDbLine
 10
33.766667
 20
-0.897281
 30
0.0
 11
33.73
 21
-0.887736
 31
0.0
  0
LINE
  5
204
330
30
100
AcDbEntity
  8
1
100
AcDbLine
 10
33.73
 20
-0.887736
 30
0.0
 11
33.693333
 21
-0.877792
 31
0.0
  0
LINE
  5
205
330
30
100
AcDbEntity
  8
1
100
AcDbLine
 10
33.693333
 20
-0.877792
 30
0.0
 11
33.656667
 21
-0.867455
 31
0.0
  0
LINE
  5
206
330
30
100
AcDbEntity
  8
1
100
AcDbLine
 10
33.656667
 20
-0.867455
 30
0.0
 11
33.62
 21
-0.856729
 31
0.0
  0
LINE
  5
207
330
30
100
AcDbEntity
  8
1
100
AcDbLine
 10
33.62
 20
-0.856729
 30
0.0
 11
33.583333
 21
-0.84562
 31
0.0
  0
LINE
  5
208
330
30
100
AcDbEntity
  8
1
100
AcDbLine
 10
33.583333
 20
-0.84562
 30
0.0
 11
33.546667
 21
-0.834131
 31
0.0
  0
LINE
  5
209
330
30
100
AcDbEntity
  8
1
100
AcDbLine
 10
33.546667
 20
-0.834131
 30
0.0
 11
33.51
 21
-0.822268
 31
0.0
  0
LINE
  5
20A
330
30
100
AcDbEntity
  8
1
100
AcDbLine
 10
33.51
 20
-0.822268
 30
0.0
 11
33.473333
 21
-0.810038
 31
0.0
  0
LINE
  5
20B
330
30
100
AcDbEntity
  8
1
100
AcDbLine
 10
33.473333
 20
-0.810038
 30
0.0
 11
33.436667
 21
-0.797444
 31
0.0
  0
LINE
  5
20C
330
30
100
AcDbEntity
  8
1
100
AcDbLine
 10
33.436667
 20
-0.797444
 30
0.0
 11
33.4
 21
-0.784492
 31
0.0
  0
LINE
  5
20D
330
30
100
AcDbEntity
  8
1
100
AcDbLine
 10
33.4
 20
-0.784492
 30
0.0
 11
33.363333
 21
-0.77119
 31
0.0
  0
LINE
  5
20E
330
30
100
AcDbEntity
  8
1
100
AcDbLine
 10
33.363333
 20
-0.77119
 30
0.0
 11
33.326667
 21
-0.757541
 31
0.0
  0
LINE
  5
20F
330
30
100
AcDbEntity
  8
1
100
AcDbLine
 10
33.326667
 20
-0.757541
 30
0.0
 11
33.29
 21
-0.743553
 31
0.0
  0
LINE
  5
210
330
30
100
AcDbEntity
  8
1
100
AcDbLine
 10
33.29
 20
-0.743553
 30
0.0
 11
33.253333
 21
-0.729232
 31
0.0
  0
LINE
  5
211
330
30
100
AcDbEntity
  8
1
100
AcDbLine
 10
33.253333
 20
-0.729232
 30
0.0
 11
33.216667
 21
-0.714584
 31
0.0
  0
LINE
  5
212
330
30
100
AcDbEntity
  8
1
100
AcDbLine
 10
33.216667
 20
-0.714584
 30
0.0
 11
33.18
 21
-0.699616
 31
0.0
  0
LINE
  5
213
330
30
100
AcDbEntity
  8
1
100
AcDbLine
 10
33.18
 20
-0.699616
 30
0.0
 11
33.143333
 21
-0.684335
 31
0.0
  0
LINE
  5
214
330
30
100
AcDbEntity
  8
1
100
AcDbLine
 10
33.143333
 20
-0.684335
 30
0.0
 11
33.106667
 21
-0.668746
 31
0.0
  0
LINE
  5
215
330
30
100
AcDbEntity
  8
1
100
AcDbLine
 10
33.106667
 20
-0.668746
 30
0.0
 11
33.07
 21
-0.652858
 31
0.0
  0
LINE
  5
216
330
30
100
AcDbEntity
  8
1
100
AcDbLine
 10
33.07
 20
-0.652858
 30
0.0
 11
33.033333
 21
-0.636678
 31
0.0
  0
LINE
  5
217
330
30
100
AcDbEntity
  8
1
100
AcDbLine
 10
33.033333
 20
-0.636678
 30
0.0
 11
32.996667
 21
-0.620212
 31
0.0
  0
LINE
  5
218
330
30
100
AcDbEntity
  8
1
100
AcDbLine
 10
32.996667
 20
-0.620212
 30
0.0
 11
32.96
 21
-0.603468
 31
0.0
  0
LINE
  5
219
330
30
100
AcDbEntity
  8
1
100
AcDbLine
 10
32.96
 20
-0.603468
 30
0.0
 11
32.923333
 21
-0.586454
 31
0.0
  0
LINE
  5
21A
330
30
100
AcDbEntity
  8
1
100
AcDbLine
 10
32.923333
 20
-0.586454
 30
0.0
 11
32.886667
 21
-0.569177
 31
0.0
  0
LINE
  5
21B
330
30
100
AcDbEntity
  8
1
100
AcDbLine
 10
32.886667
 20
-0.569177
 30
0.0
 11
32.85
 21
-0.551644
 31
0.0
  0
LINE
  5
21C
330
30
100
AcDbEntity
  8
1
100
AcDbLine
 10
32.85
 20
-0.551644
 30
0.0
 11
32.813333
 21
-0.533865
 31
0.0
  0
LINE
  5
21D
330
30
100
AcDbEntity
  8
1
100
AcDbLine
 10
32.813333
 20
-0.533865
 30
0.0
 11
32.776667
 21
-0.515847
 31
0.0
  0
LINE
  5
21E
330
30
100
AcDbEntity
  8
1
100
AcDbLine
 10
32.776667
 20
-0.515847
 30
0.0
 11
32.74
 21
-0.497597
 31
0.0
  0
LINE
  5
21F
330
30
100
AcDbEntity
  8
1
100
AcDbLine
 10
32.74
 20
-0.497597
 30
0.0
 11
32.703333
 21
-0.479124
 31
0.0
  0
LINE
  5
220
330
30
100
AcDbEntity
  8
1
100
AcDbLine
 10
32.703333
 20
-0.479124
 30
0.0
 11
32.666667
 21
-0.460437
 31
0.0
  0
LINE
  5
221
330
30
100
AcDbEntity
  8
1
100
AcDbLine
 10
32.666667
 20
-0.460437
 30
0.0
 11
32.63
 21
-0.441543
 31
0.0
  0
LINE
  5
222
330
30
100
AcDbEntity
  8
1
100
AcDbLine
 10
32.63
 20
-0.441543
 30
0.0
 11
32.593333
 21
-0.422451
 31
0.0
  0
LINE
  5
223
330
30
100
AcDbEntity
  8
1
100
AcDbLine
 10
32.593333
 20
-0.422451
 30
0.0
 11
32.556667
 21
-0.40317
 31
0.0
  0
LINE
  5
224
330
30
100
AcDbEntity
  8
1
100
AcDbLine
 10
32.556667
 20
-0.40317
 30
0.0
 11
32.52
 21
-0.383709
 31
0.0
  0
LINE
  5
225
330
30
100
AcDbEntity
  8
1
100
AcDbLine
 10
32.52
 20
-0.383709
 30
0.0
 11
32.483333
 21
-0.364075
 31
0.0
  0
LINE
  5
226
330
30
100
AcDbEntity
  8
1
100
AcDbLine
 10
32.483333
 20
-0.364075
 30
0.0
 11
32.446667
 21
-0.344278
 31
0.0
  0
LINE
  5
227
330
30
100
AcDbEntity
  8
1
100
AcDbLine
 10
32.446667
 20
-0.344278
 30
0.0
 11
32.41
 21
-0.324327
 31
0.0
  0
LINE
  5
228
330
30
100
AcDbEntity
  8
1
100
AcDbLine
 10
32.41
 20
-0.324327
 30
0.0
 11
32.373333
 21
-0.304231
 31
0.0
  0
LINE
  5
229
330
30
100
AcDbEntity
  8
1
100
AcDbLine
 10
32.373333
 20
-0.304231
 30
0.0
 11
32.336667
 21
-0.283998
 31
0.0
  0
LINE
  5
22A
330
30
100
AcDbEntity
  8
1
100
AcDbLine
 10
32.336667
 20
-0.283998
 30
0.0
 11
32.3
 21
-0.263638
 31
0.0
  0
LINE
  5
22B
330
30
100
AcDbEntity
  8
1
100
AcDbLine
 10
32.3
 20
-0.263638
 30
0.0
 11
32.263333
 21
-0.24316
 31
0.0
  0
LINE
  5
22C
330
30
100
AcDbEntity
  8
1
100
AcDbLine
 10
32.263333
 20
-0.24316
 30
0.0
 11
32.226667
 21
-0.222573
 31
0.0
  0
LINE
  5
22D
330
30
100
AcDbEntity
  8
1
100
AcDbLine
 10
32.226667
 20
-0.222573
 30
0.0
 11
32.19
 21
-0.201886
 31
0.0
  0
LINE
  5
22E
330
30
100
AcDbEntity
  8
1
100
AcDbLine
 10
32.19
 20
-0.201886
 30
0.0
 11
32.153333
 21
-0.181109
 31
0.0
  0
LINE
  5
22F
330
30
100
AcDbEntity
  8
1
100
AcDbLine
 10
32.153333
 20
-0.181109
 30
0.0
 11
32.116667
 21
-0.16025
 31
0.0
  0
LINE
  5
230
330
30
100
AcDbEntity
  8
1
100
AcDbLine
 10
32.116667
 20
-0.16025
 30
0.0
 11
32.08
 21
-0.13932
 31
0.0
  0
LINE
  5
231
330
30
100
AcDbEntity
  8
1
100
AcDbLine
 10
32.08
 20
-0.13932
 30
0.0
 11
32.043333
 21
-0.118327
 31
0.0
  0
LINE
  5
232
330
30
100
AcDbEntity
  8
1
100
AcDbLine
 10
32.043333
 20
-0.118327
 30
0.0
 11
32.006667
 21
-0.097282
 31
0.0
  0
LINE
  5
233
330
30
100
AcDbEntity
  8
1
100
AcDbLine
 10
32.006667
 20
-0.097282
 30
0.0
 11
31.97
 21
-0.076192
 31
0.0
  0
LINE
  5
234
330
30
100
AcDbEntity
  8
1
100
AcDbLine
 10
31.97
 20
-0.076192
 30
0.0
 11
31.933333
 21
-0.055069
 31
0.0
  0
LINE
  5
235
330
30
100
AcDbEntity
  8
1
100
AcDbLine
 10
31.933333
 20
-0.055069
 30
0.0
 11
31.896667
 21
-0.033921
 31
0.0
  0
LINE
  5
236
330
30
100
AcDbEntity
  8
1
100
AcDbLine
 10
31.896667
 20
-0.033921
 30
0.0
 11
31.86
 21
-0.012757
 31
0.0
  0
LINE
  5
237
330
30
100
AcDbEntity
  8
1
100
AcDbLine
 10
31.86
 20
-0.012757
 30
0.0
 11
31.823333
 21
0.008412
 31
0.0
  0
LINE
  5
238
330
30
100
AcDbEntity
  8
1
100
AcDbLine
 10
31.823333
 20
0.008412
 30
0.0
 11
31.786667
 21
0.029577
 31
0.0
  0
LINE
  5
239
330
30
100
AcDbEntity
  8
1
100
AcDbLine
 10
31.786667
 20
0.029577
 30
0.0
 11
31.75
 21
0.050729
 31
0.0
  0
LINE
  5
23A
330
30
100
AcDbEntity
  8
1
100
AcDbLine
 10
31.75
 20
0.050729
 30
0.0
 11
31.713333
 21
0.071858
 31
0.0
  0
LINE
  5
23B
330
30
100
AcDbEntity
  8
1
100
AcDbLine
 10
31.713333
 20
0.071858
 30
0.0
 11
31.676667
 21
0.092955
 31
0.0
  0
LINE
  5
23C
330
30
100
AcDbEntity
  8
1
100
AcDbLine
 10
31.676667
 20
0.092955
 30
0.0
 11
31.64
 21
0.114011
 31
0.0
  0
LINE
  5
23D
330
30
100
AcDbEntity
  8
1
100
AcDbLine
 10
31.64
 20
0.114011
 30
0.0
 11
31.603333
 21
0.135015
 31
0.0
  0
LINE
  5
23E
330
30
100
AcDbEntity
  8
1
100
AcDbLine
 10
31.603333
 20
0.135015
 30
0.0
 11
31.566667
 21
0.155959
 31
0.0
  0
LINE
  5
23F
330
30
100
AcDbEntity
  8
1
100
AcDbLine
 10
31.566667
 20
0.155959
 30
0.0
 11
31.53
 21
0.176833
 31
0.0
  0
LINE
  5
240
330
30
100
AcDbEntity
  8
1
100
AcDbLine
 10
31.53
 20
0.176833
 30
0.0
 11
31.493333
 21
0.197628
 31
0.0
  0
LINE
  5
241
330
30
100
AcDbEntity
  8
1
100
AcDbLine
 10
31.493333
 20
0.197628
 30
0.0
 11
31.456667
 21
0.218334
 31
0.0
  0
LINE
  5
242
330
30
100
AcDbEntity
  8
1
100
AcDbLine
 10
31.456667
 20
0.218334
 30
0.0
 11
31.42
 21
0.238942
 31
0.0
  0
LINE
  5
243
330
30
100
AcDbEntity
  8
1
100
AcDbLine
 10
31.42
 20
0.238942
 30
0.0
 11
31.383333
 21
0.259443
 31
0.0
  0
LINE
  5
244
330
30
100
AcDbEntity
  8
1
100
AcDbLine
 10
31.383333
 20
0.259443
 30
0.0
 11
31.346667
 21
0.279828
 31
0.0
  0
LINE
  5
245
330
30
100
AcDbEntity
  8
1
100
AcDbLine
 10
31.346667
 20
0.279828
 30
0.0
 11
31.31
 21
0.300088
 31
0.0
  0
LINE
  5
246
330
30
100
AcDbEntity
  8
1
100
AcDbLine
 10
31.31
 20
0.300088
 30
0.0
 11
31.273333
 21
0.320213
 31
0.0
  0
LINE
  5
247
330
30
100
AcDbEntity
  8
1
100
AcDbLine
 10
31.273333
 20
0.320213
 30
0.0
 11
31.236667
 21
0.340195
 31
0.0
  0
LINE
  5
248
330
30
100
AcDbEntity
  8
1
100
AcDbLine
 10
31.236667
 20
0.340195
 30
0.0
 11
31.2
 21
0.360024
 31
0.0
  0
LINE
  5
249
330
30
100
AcDbEntity
  8
1
100
AcDbLine
 10
31.2
 20
0.360024
 30
0.0
 11
31.163333
 21
0.379692
 31
0.0
  0
LINE
  5
24A
330
30
100
AcDbEntity
  8
1
100
AcDbLine
 10
31.163333
 20
0.379692
 30
0.0
 11
31.126667
 21
0.399189
 31
0.0
  0
LINE
  5
24B
330
30
100
AcDbEntity
  8
1
100
AcDbLine
 10
31.126667
 20
0.399189
 30
0.0
 11
31.09
 21
0.418508
 31
0.0
  0
LINE
  5
24C
330
30
100
AcDbEntity
  8
1
100
AcDbLine
 10
31.09
 20
0.418508
 30
0.0
 11
31.053333
 21
0.437639
 31
0.0
  0
LINE
  5
24D
330
30
100
AcDbEntity
  8
1
100
AcDbLine
 10
31.053333
 20
0.437639
 30
0.0
 11
31.016667
 21
0.456574
 31
0.0
  0
LINE
  5
24E
330
30
100
AcDbEntity
  8
1
100
AcDbLine
 10
31.016667
 20
0.456574
 30
0.0
 11
30.98
 21
0.466511
 31
0.0
  0
LINE
  5
24F
330
30
100
AcDbEntity
  8
1
100
AcDbLine
 10
30.98
 20
0.466511
 30
0.0
 11
30.943333
 21
0.48453
 31
0.0
  0
LINE
  5
250
330
30
100
AcDbEntity
  8
1
100
AcDbLine
 10
30.943333
 20
0.48453
 30
0.0
 11
30.906667
 21
0.502331
 31
0.0
  0
LINE
  5
251
330
30
100
AcDbEntity
  8
1
100
AcDbLine
 10
30.906667
 20
0.502331
 30
0.0
 11
30.87
 21
0.519907
 31
0.0
  0
LINE
  5
252
330
30
100
AcDbEntity
  8
1
100
AcDbLine
 10
30.87
 20
0.519907
 30
0.0
 11
30.833333
 21
0.53725
 31
0.0
  0
LINE
  5
253
330
30
100
AcDbEntity
  8
1
100
AcDbLine
 10
30.833333
 20
0.53725
 30
0.0
 11
30.796667
 21
0.554353
 31
0.0
  0
LINE
  5
254
330
30
100
AcDbEntity
  8
1
100
AcDbLine
 10
30.796667
 20
0.554353
 30
0.0
 11
30.76
 21
0.571207
 31
0.0
  0
LINE
  5
255
330
30
100
AcDbEntity
  8
1
100
AcDbLine
 10
30.76
 20
0.571207
 30
0.0
 11
30.723333
 21
0.587805
 31
0.0
  0
LINE
  5
256
330
30
100
AcDbEntity
  8
1
100
AcDbLine
 10
30.723333
 20
0.587805
 30
0.0
 11
30.686667
 21
0.604139
 31
0.0
  0
LINE
  5
257
330
30
100
AcDbEntity
  8
1
100
AcDbLine
 10
30.686667
 20
0.604139
 30
0.0
 11
30.65
 21
0.620203
 31
0.0
  0
LINE
  5
258
330
30
100
AcDbEntity
  8
1
100
AcDbLine
 10
30.65
 20
0.620203
 30
0.0
 11
30.613333
 21
0.635989
 31
0.0
  0
LINE
  5
259
330
30
100
AcDbEntity
  8
1
100
AcDbLine
 10
30.613333
 20
0.635989
 30
0.0
 11
30.576667
 21
0.65149
 31
0.0
  0
LINE
  5
25A
330
30
100
AcDbEntity
  8
1
100
AcDbLine
 10
30.576667
 20
0.65149
 30
0.0
 11
30.54
 21
0.666699
 31
0.0
  0
LINE
  5
25B
330
30
100
AcDbEntity
  8
1
100
AcDbLine
 10
30.54
 20
0.666699
 30
0.0
 11
30.503333
 21
0.681609
 31
0.0
  0
LINE
  5
25C
330
30
100
AcDbEntity
  8
1
100
AcDbLine
 10
30.503333
 20
0.681609
 30
0.0
 11
30.466667
 21
0.696214
 31
0.0
  0
LINE
  5
25D
330
30
100
AcDbEntity
  8
1
100
AcDbLine
 10
30.466667
 20
0.696214
 30
0.0
 11
30.43
 21
0.710506
 31
0.0
  0
LINE
  5
25E
330
30
100
AcDbEntity
  8
1
100
AcDbLine
 10
30.43
 20
0.710506
 30
0.0
 11
30.393333
 21
0.72448
 31
0.0
  0
LINE
  5
25F
330
30
100
AcDbEntity
  8
1
100
AcDbLine
 10
30.393333
 20
0.72448
 30
0.0
 11
30.356667
 21
0.73813
 31
0.0
  0
LINE
  5
260
330
30
100
AcDbEntity
  8
1
100
AcDbLine
 10
30.356667
 20
0.73813
 30
0.0
 11
30.32
 21
0.751448
 31
0.0
  0
LINE
  5
261
330
30
100
AcDbEntity
  8
1
100
AcDbLine
 10
30.32
 20
0.751448
 30
0.0
 11
30.283333
 21
0.764429
 31
0.0
  0
LINE
  5
262
330
30
100
AcDbEntity
  8
1
100
AcDbLine
 10
30.283333
 20
0.764429
 30
0.0
 11
30.246667
 21
0.777066
 31
0.0
  0
LINE
  5
263
330
30
100
AcDbEntity
  8
1
100
AcDbLine
 10
30.246667
 20
0.777066
 30
0.0
 11
30.21
 21
0.789353
 31
0.0
  0
LINE
  5
264
330
30
100
AcDbEntity
  8
1
100
AcDbLine
 10
30.21
 20
0.789353
 30
0.0
 11
30.173333
 21
0.801285
 31
0.0
  0
LINE
  5
265
330
30
100
AcDbEntity
  8
1
100
AcDbLine
 10
30.173333
 20
0.801285
 30
0.0
 11
30.136667
 21
0.812854
 31
0.0
  0
LINE
  5
266
330
30
100
AcDbEntity
  8
1
100
AcDbLine
 10
30.136667
 20
0.812854
 30
0.0
 11
30.1
 21
0.824054
 31
0.0
  0
LINE
  5
267
330
30
100
AcDbEntity
  8
1
100
AcDbLine
 10
30.1
 20
0.824054
 30
0.0
 11
30.063333
 21
0.834877
 31
0.0
  0
LINE
  5
268
330
30
100
AcDbEntity
  8
1
100
AcDbLine
 10
30.063333
 20
0.834877
 30
0.0
 11
30.026667
 21
0.845315
 31
0.0
  0
LINE
  5
269
330
30
100
AcDbEntity
  8
1
100
AcDbLine
 10
30.026667
 20
0.845315
 30
0.0
 11
29.99
 21
0.85536
 31
0.0
  0
LINE
  5
26A
330
30
100
AcDbEntity
  8
1
100
AcDbLine
 10
29.99
 20
0.85536
 30
0.0
 11
29.953333
 21
0.865002
 31
0.0
  0
LINE
  5
26B
330
30
100
AcDbEntity
  8
1
100
AcDbLine
 10
29.953333
 20
0.865002
 30
0.0
 11
29.916667
 21
0.87423
 31
0.0
  0
LINE
  5
26C
330
30
100
AcDbEntity
  8
1
100
AcDbLine
 10
29.916667
 20
0.87423
 30
0.0
 11
29.88
 21
0.883031
 31
0.0
  0
LINE
  5
26D
330
30
100
AcDbEntity
  8
1
100
AcDbLine
 10
29.88
 20
0.883031
 30
0.0
 11
29.843333
 21
0.891391
 31
0.0
  0
LINE
  5
26E
330
30
100
AcDbEntity
  8
1
100
AcDbLine
 10
29.843333
 20
0.891391
 30
0.0
 11
29.806667
 21
0.899292
 31
0.0
  0
LINE
  5
26F
330
30
100
AcDbEntity
  8
1
100
AcDbLine
 10
29.806667
 20
0.899292
 30
0.0
 11
29.77
 21
0.906717
 31
0.0
  0
LINE
  5
270
330
30
100
AcDbEntity
  8
1
100
AcDbLine
 10
29.77
 20
0.906717
 30
0.0
 11
29.733333
 21
0.913644
 31
0.0
  0
LINE
  5
271
330
30
100
AcDbEntity
  8
1
100
AcDbLine
 10
29.733333
 20
0.913644
 30
0.0
 11
29.696667
 21
0.920049
 31
0.0
  0
LINE
  5
272
330
30
100
AcDbEntity
  8
1
100
AcDbLine
 10
29.696667
 20
0.920049
 30
0.0
 11
29.66
 21
0.925905
 31
0.0
  0
LINE
  5
273
330
30
100
AcDbEntity
  8
1
100
AcDbLine
 10
29.66
 20
0.925905
 30
0.0
 11
29.623333
 21
0.931185
 31
0.0
  0
LINE
  5
274
330
30
100
AcDbEntity
  8
1
100
AcDbLine
 10
29.623333
 20
0.931185
 30
0.0
 11
29.586667
 21
0.935853
 31
0.0
  0
LINE
  5
275
330
30
100
AcDbEntity
  8
1
100
AcDbLine
 10
29.586667
 20
0.935853
 30
0.0
 11
29.55
 21
0.939874
 31
0.0
  0
LINE
  5
276
330
30
100
AcDbEntity
  8
1
100
AcDbLine
 10
29.55
 20
0.939874
 30
0.0
 11
29.513333
 21
0.943202
 31
0.0
  0
LINE
  5
277
330
30
100
AcDbEntity
  8
1
100
AcDbLine
 10
29.513333
 20
0.943202
 30
0.0
 11
29.476667
 21
0.945777
 31
0.0
  0
LINE
  5
278
330
30
100
AcDbEntity
  8
1
100
AcDbLine
 10
29.476667
 20
0.945777
 30
0.0
 11
29.44
 21
0.947517
 31
0.0
  0
LINE
  5
279
330
30
100
AcDbEntity
  8
1
100
AcDbLine
 10
29.44
 20
0.947517
 30
0.0
 11
29.403333
 21
0.948296
 31
0.0
  0
LINE
  5
27A
330
30
100
AcDbEntity
  8
1
100
AcDbLine
 10
29.403333
 20
0.948296
 30
0.0
 11
29.366667
 21
0.947911
 31
0.0
  0
LINE
  5
27B
330
30
100
AcDbEntity
  8
1
100
AcDbLine
 10
29.366667
 20
0.947911
 30
0.0
 11
29.33
 21
0.946034
 31
0.0
  0
LINE
  5
27C
330
30
100
AcDbEntity
  8
1
100
AcDbLine
 10
29.33
 20
0.946034
 30
0.0
 11
29.293333
 21
0.942118
 31
0.0
  0
LINE
  5
27D
330
30
100
AcDbEntity
  8
1
100
AcDbLine
 10
29.293333
 20
0.942118
 30
0.0
 11
29.256667
 21
0.93527
 31
0.0
  0
LINE
  5
27E
330
30
100
AcDbEntity
  8
1
100
AcDbLine
 10
29.256667
 20
0.93527
 30
0.0
 11
29.22
 21
0.924041
 31
0.0
  0
LINE
  5
27F
330
30
100
AcDbEntity
  8
1
100
AcDbLine
 10
29.22
 20
0.924041
 30
0.0
 11
29.183333
 21
0.90612
 31
0.0
  0
LINE
  5
280
330
30
100
AcDbEntity
  8
1
100
AcDbLine
 10
29.183333
 20
0.90612
 30
0.0
 11
29.146667
 21
0.877908
 31
0.0
  0
LINE
  5
281
330
30
100
AcDbEntity
  8
1
100
AcDbLine
 10
29.146667
 20
0.877908
 30
0.0
 11
29.11
 21
0.833939
 31
0.0
  0
LINE
  5
282
330
30
100
AcDbEntity
  8
1
100
AcDbLine
 10
29.11
 20
0.833939
 30
0.0
 11
29.073333
 21
0.766219
 31
0.0
  0
LINE
  5
283
330
30
100
AcDbEntity
  8
1
100
AcDbLine
 10
29.073333
 20
0.766219
 30
0.0
 11
29.036667
 21
0.663648
 31
0.0
  0
LINE
  5
284
330
30
100
AcDbEntity
  8
1
100
AcDbLine
 10
29.036667
 20
0.663648
 30
0.0
 11
29.0
 21
0.512097
 31
0.0
  0
LINE
  5
285
330
30
100
AcDbEntity
  8
1
100
AcDbLine
 10
29.0
 20
0.512097
 30
0.0
 11
29.0
 21
0.474607
 31
0.0
  0
LINE
  5
286
330
30
100
AcDbEntity
  8
1
100
AcDbLine
 10
29.0
 20
0.474607
 30
0.0
 11
29.036667
 21
0.301235
 31
0.0
  0
LINE
  5
287
330
30
100
AcDbEntity
  8
1
100
AcDbLine
 10
29.036667
 20
0.301235
 30
0.0
 11
29.073333
 21
0.131451
 31
0.0
  0
LINE
  5
288
330
30
100
AcDbEntity
  8
1
100
AcDbLine
 10
29.073333
 20
0.131451
 30
0.0
 11
29.11
 21
-0.028582
 31
0.0
  0
LINE
  5
289
330
30
100
AcDbEntity
  8
1
100
AcDbLine
 10
29.11
 20
-0.028582
 30
0.0
 11
29.146667
 21
-0.175146
 31
0.0
  0
LINE
  5
28A
330
30
100
AcDbEntity
  8
1
100
AcDbLine
 10
29.146667
 20
-0.175146
 30
0.0
 11
29.183333
 21
-0.306388
 31
0.0
  0
LINE
  5
28B
330
30
100
AcDbEntity
  8
1
100
AcDbLine
 10
29.183333
 20
-0.306388
 30
0.0
 11
29.22
 21
-0.421798
 31
0.0
  0
LINE
  5
28C
330
30
100
AcDbEntity
  8
1
100
AcDbLine
 10
29.22
 20
-0.421798
 30
0.0
 11
29.256667
 21
-0.521776
 31
0.0
  0
LINE
  5
28D
330
30
100
AcDbEntity
  8
1
100
AcDbLine
 10
29.256667
 20
-0.521776
 30
0.0
 11
29.293333
 21
-0.607292
 31
0.0
  0
LINE
  5
28E
330
30
100
AcDbEntity
  8
1
100
AcDbLine
 10
29.293333
 20
-0.607292
 30
0.0
 11
29.33
 21
-0.679635
 31
0.0
  0
LINE
  5
28F
330
30
100
AcDbEntity
  8
1
100
AcDbLine
 10
29.33
 20
-0.679635
 30
0.0
 11
29.366667
 21
-0.740233
 31
0.0
  0
LINE
  5
290
330
30
100
AcDbEntity
  8
1
100
AcDbLine
 10
29.366667
 20
-0.740233
 30
0.0
 11
29.403333
 21
-0.790534
 31
0.0
  0
LINE
  5
291
330
30
100
AcDbEntity
  8
1
100
AcDbLine
 10
29.403333
 20
-0.790534
 30
0.0
 11
29.44
 21
-0.831922
 31
0.0
  0
LINE
  5
292
330
30
100
AcDbEntity
  8
1
100
AcDbLine
 10
29.44
 20
-0.831922
 30
0.0
 11
29.476667
 21
-0.865679
 31
0.0
  0
LINE
  5
293
330
30
100
AcDbEntity
  8
1
100
AcDbLine
 10
29.476667
 20
-0.865679
 30
0.0
 11
29.513333
 21
-0.892957
 31
0.0
  0
LINE
  5
294
330
30
100
AcDbEntity
  8
1
100
AcDbLine
 10
29.513333
 20
-0.892957
 30
0.0
 11
29.55
 21
-0.914772
 31
0.0
  0
LINE
  5
295
330
30
100
AcDbEntity
  8
1
100
AcDbLine
 10
29.55
 20
-0.914772
 30
0.0
 11
29.586667
 21
-0.932007
 31
0.0
  0
LINE
  5
296
330
30
100
AcDbEntity
  8
1
100
AcDbLine
 10
29.586667
 20
-0.932007
 30
0.0
 11
29.623333
 21
-0.945418
 31
0.0
  0
LINE
  5
297
330
30
100
AcDbEntity
  8
1
100
AcDbLine
 10
29.623333
 20
-0.945418
 30
0.0
 11
29.66
 21
-0.955644
 31
0.0
  0
LINE
  5
298
330
30
100
AcDbEntity
  8
1
100
AcDbLine
 10
29.66
 20
-0.955644
 30
0.0
 11
29.696667
 21
-0.963226
 31
0.0
  0
LINE
  5
299
330
30
100
AcDbEntity
  8
1
100
AcDbLine
 10
29.696667
 20
-0.963226
 30
0.0
 11
29.733333
 21
-0.968611
 31
0.0
  0
LINE
  5
29A
330
30
100
AcDbEntity
  8
1
100
AcDbLine
 10
29.733333
 20
-0.968611
 30
0.0
 11
29.77
 21
-0.972172
 31
0.0
  0
LINE
  5
29B
330
30
100
AcDbEntity
  8
1
100
AcDbLine
 10
29.77
 20
-0.972172
 30
0.0
 11
29.806667
 21
-0.974212
 31
0.0
  0
LINE
  5
29C
330
30
100
AcDbEntity
  8
1
100
AcDbLine
 10
29.806667
 20
-0.974212
 30
0.0
 11
29.843333
 21
-0.97498
 31
0.0
  0
LINE
  5
29D
330
30
100
AcDbEntity
  8
1
100
AcDbLine
 10
29.843333
 20
-0.97498
 30
0.0
 11
29.85061
 21
-0.975
 31
0.0
  0
LINE
  5
29E
330
30
100
AcDbEntity
  8
1
100
AcDbLine
 10
31.0
 20
-0.975
 30
0.0
 11
31.0
 21
0.975
 31
0.0
  0
LINE
  5
29F
330
30
100
AcDbEntity
  8
1
100
AcDbLine
 10
31.0
 20
1.0
 30
0.0
 11
31.0
 21
-1.0
 31
0.0
  0
LINE
  5
2A0
330
30
100
AcDbEntity
  8
1
100
AcDbLine
 10
31.016667
 20
0.536263
 30
0.0
 11
31.053333
 21
0.518589
 31
0.0
  0
LINE
  5
2A1
330
30
100
AcDbEntity
  8
1
100
AcDbLine
 10
31.053333
 20
0.518589
 30
0.0
 11
31.09
 21
0.500682
 31
0.0
  0
LINE
  5
2A2
330
30
100
AcDbEntity
  8
1
100
AcDbLine
 10
31.09
 20
0.500682
 30
0.0
 11
31.126667
 21
0.482551
 31
0.0
  0
LINE
  5
2A3
330
30
100
AcDbEntity
  8
1
100
AcDbLine
 10
31.126667
 20
0.482551
 30
0.0
 11
31.163333
 21
0.464204
 31
0.0
  0
LINE
  5
2A4
330
30
100
AcDbEntity
  8
1
100
AcDbLine
 10
31.163333
 20
0.464204
 30
0.0
 11
31.2
 21
0.445649
 31
0.0
  0
LINE
  5
2A5
330
30
100
AcDbEntity
  8
1
100
AcDbLine
 10
31.2
 20
0.445649
 30
0.0
 11
31.236667
 21
0.426894
 31
0.0
  0
LINE
  5
2A6
330
30
100
AcDbEntity
  8
1
100
AcDbLine
 10
31.236667
 20
0.426894
 30
0.0
 11
31.273333
 21
0.407948
 31
0.0
  0
LINE
  5
2A7
330
30
100
AcDbEntity
  8
1
100
AcDbLine
 10
31.273333
 20
0.407948
 30
0.0
 11
31.31
 21
0.388819
 31
0.0
  0
LINE
  5
2A8
330
30
100
AcDbEntity
  8
1
100
AcDbLine
 10
31.31
 20
0.388819
 30
0.0
 11
31.346667
 21
0.369516
 31
0.0
  0
LINE
  5
2A9
330
30
100
AcDbEntity
  8
1
100
AcDbLine
 10
31.346667
 20
0.369516
 30
0.0
 11
31.383333
 21
0.350047
 31
0.0
  0
LINE
  5
2AA
330
30
100
AcDbEntity
  8
1
100
AcDbLine
 10
31.383333
 20
0.350047
 30
0.0
 11
31.42
 21
0.330421
 31
0.0
  0
LINE
  5
2AB
330
30
100
AcDbEntity
  8
1
100
AcDbLine
 10
31.42
 20
0.330421
 30
0.0
 11
31.456667
 21
0.310647
 31
0.0
  0
LINE
  5
2AC
330
30
100
AcDbEntity
  8
1
100
AcDbLine
 10
31.456667
 20
0.310647
 30
0.0
 11
31.493333
 21
0.290734
 31
0.0
  0
LINE
  5
2AD
330
30
100
AcDbEntity
  8
1
100
AcDbLine
 10
31.493333
 20
0.290734
 30
0.0
 11
31.53
 21
0.270691
 31
0.0
  0
LINE
  5
2AE
330
30
100
AcDbEntity
  8
1
100
AcDbLine
 10
31.53
 20
0.270691
 30
0.0
 11
31.566667
 21
0.250527
 31
0.0
  0
LINE
  5
2AF
330
30
100
AcDbEntity
  8
1
100
AcDbLine
 10
31.566667
 20
0.250527
 30
0.0
 11
31.603333
 21
0.23025
 31
0.0
  0
LINE
  5
2B0
330
30
100
AcDbEntity
  8
1
100
AcDbLine
 10
31.603333
 20
0.23025
 30
0.0
 11
31.64
 21
0.20987
 31
0.0
  0
LINE
  5
2B1
330
30
100
AcDbEntity
  8
1
100
AcDbLine
 10
31.64
 20
0.20987
 30
0.0
 11
31.676667
 21
0.189396
 31
0.0
  0
LINE
  5
2B2
330
30
100
AcDbEntity
  8
1
100
AcDbLine
 10
31.676667
 20
0.189396
 30
0.0
 11
31.713333
 21
0.168837
 31
0.0
  0
LINE
  5
2B3
330
30
100
AcDbEntity
  8
1
100
AcDbLine
 10
31.713333
 20
0.168837
 30
0.0
 11
31.75
 21
0.148202
 31
0.0
  0
LINE
  5
2B4
330
30
100
AcDbEntity
  8
1
100
AcDbLine
 10
31.75
 20
0.148202
 30
0.0
 11
31.786667
 21
0.127501
 31
0.0
  0
LINE
  5
2B5
330
30
100
AcDbEntity
  8
1
100
AcDbLine
 10
31.786667
 20
0.127501
 30
0.0
 11
31.823333
 21
0.106743
 31
0.0
  0
LINE
  5
2B6
330
30
100
AcDbEntity
  8
1
100
AcDbLine
 10
31.823333
 20
0.106743
 30
0.0
 11
31.86
 21
0.085937
 31
0.0
  0
LINE
  5
2B7
330
30
100
AcDbEntity
  8
1
100
AcDbLine
 10
31.86
 20
0.085937
 30
0.0
 11
31.896667
 21
0.065092
 31
0.0
  0
LINE
  5
2B8
330
30
100
AcDbEntity
  8
1
100
AcDbLine
 10
31.896667
 20
0.065092
 30
0.0
 11
31.933333
 21
0.044219
 31
0.0
  0
LINE
  5
2B9
330
30
100
AcDbEntity
  8
1
100
AcDbLine
 10
31.933333
 20
0.044219
 30
0.0
 11
31.97
 21
0.023325
 31
0.0
  0
LINE
  5
2BA
330
30
100
AcDbEntity
  8
1
100
AcDbLine
 10
31.97
 20
0.023325
 30
0.0
 11
32.006667
 21
0.002421
 31
0.0
  0
LINE
  5
2BB
330
30
100
AcDbEntity
  8
1
100
AcDbLine
 10
32.006667
 20
0.002421
 30
0.0
 11
32.043333
 21
-0.018484
 31
0.0
  0
LINE
  5
2BC
330
30
100
AcDbEntity
  8
1
100
AcDbLine
 10
32.043333
 20
-0.018484
 30
0.0
 11
32.08
 21
-0.039381
 31
0.0
  0
LINE
  5
2BD
330
30
100
AcDbEntity
  8
1
100
AcDbLine
 10
32.08
 20
-0.039381
 30
0.0
 11
32.116667
 21
-0.06026
 31
0.0
  0
LINE
  5
2BE
330
30
100
AcDbEntity
  8
1
100
AcDbLine
 10
32.116667
 20
-0.06026
 30
0.0
 11
32.153333
 21
-0.081112
 31
0.0
  0
LINE
  5
2BF
330
30
100
AcDbEntity
  8
1
100
AcDbLine
 10
32.153333
 20
-0.081112
 30
0.0
 11
32.19
 21
-0.101928
 31
0.0
  0
LINE
  5
2C0
330
30
100
AcDbEntity
  8
1
100
AcDbLine
 10
32.19
 20
-0.101928
 30
0.0
 11
32.226667
 21
-0.122698
 31
0.0
  0
LINE
  5
2C1
330
30
100
AcDbEntity
  8
1
100
AcDbLine
 10
32.226667
 20
-0.122698
 30
0.0
 11
32.263333
 21
-0.143413
 31
0.0
  0
LINE
  5
2C2
330
30
100
AcDbEntity
  8
1
100
AcDbLine
 10
32.263333
 20
-0.143413
 30
0.0
 11
32.3
 21
-0.164063
 31
0.0
  0
LINE
  5
2C3
330
30
100
AcDbEntity
  8
1
100
AcDbLine
 10
32.3
 20
-0.164063
 30
0.0
 11
32.336667
 21
-0.184641
 31
0.0
  0
LINE
  5
2C4
330
30
100
AcDbEntity
  8
1
100
AcDbLine
 10
32.336667
 20
-0.184641
 30
0.0
 11
32.373333
 21
-0.205135
 31
0.0
  0
LINE
  5
2C5
330
30
100
AcDbEntity
  8
1
100
AcDbLine
 10
32.373333
 20
-0.205135
 30
0.0
 11
32.41
 21
-0.225538
 31
0.0
  0
LINE
  5
2C6
330
30
100
AcDbEntity
  8
1
100
AcDbLine
 10
32.41
 20
-0.225538
 30
0.0
 11
32.446667
 21
-0.24584
 31
0.0
  0
LINE
  5
2C7
330
30
100
AcDbEntity
  8
1
100
AcDbLine
 10
32.446667
 20
-0.24584
 30
0.0
 11
32.483333
 21
-0.266031
 31
0.0
  0
LINE
  5
2C8
330
30
100
AcDbEntity
  8
1
100
AcDbLine
 10
32.483333
 20
-0.266031
 30
0.0
 11
32.52
 21
-0.286103
 31
0.0
  0
LINE
  5
2C9
330
30
100
AcDbEntity
  8
1
100
AcDbLine
 10
32.52
 20
-0.286103
 30
0.0
 11
32.556667
 21
-0.306047
 31
0.0
  0
LINE
  5
2CA
330
30
100
AcDbEntity
  8
1
100
AcDbLine
 10
32.556667
 20
-0.306047
 30
0.0
 11
32.593333
 21
-0.325854
 31
0.0
  0
LINE
  5
2CB
330
30
100
AcDbEntity
  8
1
100
AcDbLine
 10
32.593333
 20
-0.325854
 30
0.0
 11
32.63
 21
-0.345515
 31
0.0
  0
LINE
  5
2CC
330
30
100
AcDbEntity
  8
1
100
AcDbLine
 10
32.63
 20
-0.345515
 30
0.0
 11
32.666667
 21
-0.365021
 31
0.0
  0
LINE
  5
2CD
330
30
100
AcDbEntity
  8
1
100
AcDbLine
 10
32.666667
 20
-0.365021
 30
0.0
 11
32.703333
 21
-0.384363
 31
0.0
  0
LINE
  5
2CE
330
30
100
AcDbEntity
  8
1
100
AcDbLine
 10
32.703333
 20
-0.384363
 30
0.0
 11
32.74
 21
-0.403533
 31
0.0
  0
LINE
  5
2CF
330
30
100
AcDbEntity
  8
1
100
AcDbLine
 10
32.74
 20
-0.403533
 30
0.0
 11
32.776667
 21
-0.422522
 31
0.0
  0
LINE
  5
2D0
330
30
100
AcDbEntity
  8
1
100
AcDbLine
 10
32.776667
 20
-0.422522
 30
0.0
 11
32.813333
 21
-0.441322
 31
0.0
  0
LINE
  5
2D1
330
30
100
AcDbEntity
  8
1
100
AcDbLine
 10
32.813333
 20
-0.441322
 30
0.0
 11
32.85
 21
-0.459924
 31
0.0
  0
LINE
  5
2D2
330
30
100
AcDbEntity
  8
1
100
AcDbLine
 10
32.85
 20
-0.459924
 30
0.0
 11
32.886667
 21
-0.478321
 31
0.0
  0
LINE
  5
2D3
330
30
100
AcDbEntity
  8
1
100
AcDbLine
 10
32.886667
 20
-0.478321
 30
0.0
 11
32.923333
 21
-0.496502
 31
0.0
  0
LINE
  5
2D4
330
30
100
AcDbEntity
  8
1
100
AcDbLine
 10
32.923333
 20
-0.496502
 30
0.0
 11
32.96
 21
-0.514461
 31
0.0
  0
LINE
  5
2D5
330
30
100
AcDbEntity
  8
1
100
AcDbLine
 10
32.96
 20
-0.514461
 30
0.0
 11
32.996667
 21
-0.53219
 31
0.0
  0
LINE
  5
2D6
330
30
100
AcDbEntity
  8
1
100
AcDbLine
 10
32.996667
 20
-0.53219
 30
0.0
 11
33.033333
 21
-0.54968
 31
0.0
  0
LINE
  5
2D7
330
30
100
AcDbEntity
  8
1
100
AcDbLine
 10
33.033333
 20
-0.54968
 30
0.0
 11
33.07
 21
-0.566924
 31
0.0
  0
LINE
  5
2D8
330
30
100
AcDbEntity
  8
1
100
AcDbLine
 10
33.07
 20
-0.566924
 30
0.0
 11
33.106667
 21
-0.583914
 31
0.0
  0
LINE
  5
2D9
330
30
100
AcDbEntity
  8
1
100
AcDbLine
 10
33.106667
 20
-0.583914
 30
0.0
 11
33.143333
 21
-0.600642
 31
0.0
  0
LINE
  5
2DA
330
30
100
AcDbEntity
  8
1
100
AcDbLine
 10
33.143333
 20
-0.600642
 30
0.0
 11
33.18
 21
-0.617101
 31
0.0
  0
LINE
  5
2DB
330
30
100
AcDbEntity
  8
1
100
AcDbLine
 10
33.18
 20
-0.617101
 30
0.0
 11
33.216667
 21
-0.633283
 31
0.0
  0
LINE
  5
2DC
330
30
100
AcDbEntity
  8
1
100
AcDbLine
 10
33.216667
 20
-0.633283
 30
0.0
 11
33.253333
 21
-0.649182
 31
0.0
  0
LINE
  5
2DD
330
30
100
AcDbEntity
  8
1
100
AcDbLine
 10
33.253333
 20
-0.649182
 30
0.0
 11
33.29
 21
-0.66479
 31
0.0
  0
LINE
  5
2DE
330
30
100
AcDbEntity
  8
1
100
AcDbLine
 10
33.29
 20
-0.66479
 30
0.0
 11
33.326667
 21
-0.6801
 31
0.0
  0
LINE
  5
2DF
330
30
100
AcDbEntity
  8
1
100
AcDbLine
 10
33.326667
 20
-0.6801
 30
0.0
 11
33.363333
 21
-0.695105
 31
0.0
  0
LINE
  5
2E0
330
30
100
AcDbEntity
  8
1
100
AcDbLine
 10
33.363333
 20
-0.695105
 30
0.0
 11
33.4
 21
-0.709798
 31
0.0
  0
LINE
  5
2E1
330
30
100
AcDbEntity
  8
1
100
AcDbLine
 10
33.4
 20
-0.709798
 30
0.0
 11
33.436667
 21
-0.724174
 31
0.0
  0
LINE
  5
2E2
330
30
100
AcDbEntity
  8
1
100
AcDbLine
 10
33.436667
 20
-0.724174
 30
0.0
 11
33.473333
 21
-0.738224
 31
0.0
  0
LINE
  5
2E3
330
30
100
AcDbEntity
  8
1
100
AcDbLine
 10
33.473333
 20
-0.738224
 30
0.0
 11
33.51
 21
-0.751945
 31
0.0
  0
LINE
  5
2E4
330
30
100
AcDbEntity
  8
1
100
AcDbLine
 10
33.51
 20
-0.751945
 30
0.0
 11
33.546667
 21
-0.765328
 31
0.0
  0
LINE
  5
2E5
330
30
100
AcDbEntity
  8
1
100
AcDbLine
 10
33.546667
 20
-0.765328
 30
0.0
 11
33.583333
 21
-0.778368
 31
0.0
  0
LINE
  5
2E6
330
30
100
AcDbEntity
  8
1
100
AcDbLine
 10
33.583333
 20
-0.778368
 30
0.0
 11
33.62
 21
-0.791059
 31
0.0
  0
LINE
  5
2E7
330
30
100
AcDbEntity
  8
1
100
AcDbLine
 10
33.62
 20
-0.791059
 30
0.0
 11
33.656667
 21
-0.803396
 31
0.0
  0
LINE
  5
2E8
330
30
100
AcDbEntity
  8
1
100
AcDbLine
 10
33.656667
 20
-0.803396
 30
0.0
 11
33.693333
 21
-0.815373
 31
0.0
  0
LINE
  5
2E9
330
30
100
AcDbEntity
  8
1
100
AcDbLine
 10
33.693333
 20
-0.815373
 30
0.0
 11
33.73
 21
-0.826984
 31
0.0
  0
LINE
  5
2EA
330
30
100
AcDbEntity
  8
1
100
AcDbLine
 10
33.73
 20
-0.826984
 30
0.0
 11
33.766667
 21
-0.838225
 31
0.0
  0
LINE
  5
2EB
330
30
100
AcDbEntity
  8
1
100
AcDbLine
 10
33.766667
 20
-0.838225
 30
0.0
 11
33.803333
 21
-0.84909
 31
0.0
  0
LINE
  5
2EC
330
30
100
AcDbEntity
  8
1
100
AcDbLine
 10
33.803333
 20
-0.84909
 30
0.0
 11
33.84
 21
-0.859575
 31
0.0
  0
LINE
  5
2ED
330
30
100
AcDbEntity
  8
1
100
AcDbLine
 10
33.84
 20
-0.859575
 30
0.0
 11
33.876667
 21
-0.869674
 31
0.0
  0
LINE
  5
2EE
330
30
100
AcDbEntity
  8
1
100
AcDbLine
 10
33.876667
 20
-0.869674
 30
0.0
 11
33.913333
 21
-0.879384
 31
0.0
  0
LINE
  5
2EF
330
30
100
AcDbEntity
  8
1
100
AcDbLine
 10
33.913333
 20
-0.879384
 30
0.0
 11
33.95
 21
-0.8887
 31
0.0
  0
LINE
  5
2F0
330
30
100
AcDbEntity
  8
1
100
AcDbLine
 10
33.95
 20
-0.8887
 30
0.0
 11
33.986667
 21
-0.897617
 31
0.0
  0
LINE
  5
2F1
330
30
100
AcDbEntity
  8
1
100
AcDbLine
 10
33.986667
 20
-0.897617
 30
0.0
 11
34.023333
 21
-0.906132
 31
0.0
  0
LINE
  5
2F2
330
30
100
AcDbEntity
  8
1
100
AcDbLine
 10
34.023333
 20
-0.906132
 30
0.0
 11
34.06
 21
-0.914242
 31
0.0
  0
LINE
  5
2F3
330
30
100
AcDbEntity
  8
1
100
AcDbLine
 10
34.06
 20
-0.914242
 30
0.0
 11
34.096667
 21
-0.921941
 31
0.0
  0
LINE
  5
2F4
330
30
100
AcDbEntity
  8
1
100
AcDbLine
 10
34.096667
 20
-0.921941
 30
0.0
 11
34.133333
 21
-0.929227
 31
0.0
  0
LINE
  5
2F5
330
30
100
AcDbEntity
  8
1
100
AcDbLine
 10
34.133333
 20
-0.929227
 30
0.0
 11
34.17
 21
-0.936097
 31
0.0
  0
LINE
  5
2F6
330
30
100
AcDbEntity
  8
1
100
AcDbLine
 10
34.17
 20
-0.936097
 30
0.0
 11
34.206667
 21
-0.942547
 31
0.0
  0
LINE
  5
2F7
330
30
100
AcDbEntity
  8
1
100
AcDbLine
 10
34.206667
 20
-0.942547
 30
0.0
 11
34.243333
 21
-0.948575
 31
0.0
  0
LINE
  5
2F8
330
30
100
AcDbEntity
  8
1
100
AcDbLine
 10
34.243333
 20
-0.948575
 30
0.0
 11
34.28
 21
-0.954178
 31
0.0
  0
LINE
  5
2F9
330
30
100
AcDbEntity
  8
1
100
AcDbLine
 10
34.28
 20
-0.954178
 30
0.0
 11
34.316667
 21
-0.959353
 31
0.0
  0
LINE
  5
2FA
330
30
100
AcDbEntity
  8
1
100
AcDbLine
 10
34.316667
 20
-0.959353
 30
0.0
 11
34.353333
 21
-0.964099
 31
0.0
  0
LINE
  5
2FB
330
30
100
AcDbEntity
  8
1
100
AcDbLine
 10
34.353333
 20
-0.964099
 30
0.0
 11
34.39
 21
-0.968412
 31
0.0
  0
LINE
  5
2FC
330
30
100
AcDbEntity
  8
1
100
AcDbLine
 10
34.39
 20
-0.968412
 30
0.0
 11
34.426667
 21
-0.972291
 31
0.0
  0
LINE
  5
2FD
330
30
100
AcDbEntity
  8
1
100
AcDbLine
 10
34.426667
 20
-0.972291
 30
0.0
 11
34.463333
 21
-0.975735
 31
0.0
  0
LINE
  5
2FE
330
30
100
AcDbEntity
  8
1
100
AcDbLine
 10
34.463333
 20
-0.975735
 30
0.0
 11
34.5
 21
-0.978741
 31
0.0
  0
LINE
  5
2FF
330
30
100
AcDbEntity
  8
1
100
AcDbLine
 10
34.5
 20
-0.978741
 30
0.0
 11
34.536667
 21
-0.981309
 31
0.0
  0
LINE
  5
300
330
30
100
AcDbEntity
  8
1
100
AcDbLine
 10
34.536667
 20
-0.981309
 30
0.0
 11
34.573333
 21
-0.983437
 31
0.0
  0
LINE
  5
301
330
30
100
AcDbEntity
  8
1
100
AcDbLine
 10
34.573333
 20
-0.983437
 30
0.0
 11
34.61
 21
-0.985125
 31
0.0
  0
LINE
  5
302
330
30
100
AcDbEntity
  8
1
100
AcDbLine
 10
34.61
 20
-0.985125
 30
0.0
 11
34.646667
 21
-0.98637
 31
0.0
  0
LINE
  5
303
330
30
100
AcDbEntity
  8
1
100
AcDbLine
 10
34.646667
 20
-0.98637
 30
0.0
 11
34.683333
 21
-0.987174
 31
0.0
  0
LINE
  5
304
330
30
100
AcDbEntity
  8
1
100
AcDbLine
 10
34.683333
 20
-0.987174
 30
0.0
 11
34.72
 21
-0.987536
 31
0.0
  0
LINE
  5
305
330
30
100
AcDbEntity
  8
1
100
AcDbLine
 10
34.72
 20
-0.987536
 30
0.0
 11
34.731612
 21
-1.0
 31
0.0
  0
LINE
  5
306
330
30
100
AcDbEntity
  8
1
100
AcDbLine
 10
35.163202
 20
-1.0
 30
0.0
 11
35.16
 21
-0.999998
 31
0.0
  0
LINE
  5
307
330
30
100
AcDbEntity
  8
1
100
AcDbLine
 10
35.16
 20
-0.999998
 30
0.0
 11
35.123333
 21
-0.999735
 31
0.0
  0
LINE
  5
308
330
30
100
AcDbEntity
  8
1
100
AcDbLine
 10
35.123333
 20
-0.999735
 30
0.0
 11
35.086667
 21
-0.999024
 31
0.0
  0
LINE
  5
309
330
30
100
AcDbEntity
  8
1
100
AcDbLine
 10
35.086667
 20
-0.999024
 30
0.0
 11
35.05
 21
-0.997865
 31
0.0
  0
LINE
  5
30A
330
30
100
AcDbEntity
  8
1
100
AcDbLine
 10
35.05
 20
-0.997865
 30
0.0
 11
35.013333
 21
-0.996259
 31
0.0
  0
LINE
  5
30B
330
30
100
AcDbEntity
  8
1
100
AcDbLine
 10
35.013333
 20
-0.996259
 30
0.0
 11
34.976667
 21
-0.994206
 31
0.0
  0
LINE
  5
30C
330
30
100
AcDbEntity
  8
1
100
AcDbLine
 10
34.976667
 20
-0.994206
 30
0.0
 11
34.94
 21
-0.991708
 31
0.0
  0
LINE
  5
30D
330
30
100
AcDbEntity
  8
1
100
AcDbLine
 10
34.94
 20
-0.991708
 30
0.0
 11
34.903333
 21
-0.988766
 31
0.0
  0
LINE
  5
30E
330
30
100
AcDbEntity
  8
1
100
AcDbLine
 10
34.903333
 20
-0.988766
 30
0.0
 11
34.866667
 21
-0.98538
 31
0.0
  0
LINE
  5
30F
330
30
100
AcDbEntity
  8
1
100
AcDbLine
 10
34.866667
 20
-0.98538
 30
0.0
 11
34.83
 21
-0.981553
 31
0.0
  0
LINE
  5
310
330
30
100
AcDbEntity
  8
1
100
AcDbLine
 10
34.83
 20
-0.981553
 30
0.0
 11
34.793333
 21
-0.977286
 31
0.0
  0
LINE
  5
311
330
30
100
AcDbEntity
  8
1
100
AcDbLine
 10
34.793333
 20
-0.977286
 30
0.0
 11
34.756667
 21
-0.972581
 31
0.0
  0
LINE
  5
312
330
30
100
AcDbEntity
  8
1
100
AcDbLine
 10
34.756667
 20
-0.972581
 30
0.0
 11
34.72
 21
-0.96744
 31
0.0
  0
LINE
  5
313
330
30
100
AcDbEntity
  8
1
100
AcDbLine
 10
34.72
 20
-0.96744
 30
0.0
 11
34.683333
 21
-0.961866
 31
0.0
  0
LINE
  5
314
330
30
100
AcDbEntity
  8
1
100
AcDbLine
 10
34.683333
 20
-0.961866
 30
0.0
 11
34.646667
 21
-0.955861
 31
0.0
  0
LINE
  5
315
330
30
100
AcDbEntity
  8
1
100
AcDbLine
 10
34.646667
 20
-0.955861
 30
0.0
 11
34.61
 21
-0.949427
 31
0.0
  0
LINE
  5
316
330
30
100
AcDbEntity
  8
1
100
AcDbLine
 10
34.61
 20
-0.949427
 30
0.0
 11
34.573333
 21
-0.942568
 31
0.0
  0
LINE
  5
317
330
30
100
AcDbEntity
  8
1
100
AcDbLine
 10
34.573333
 20
-0.942568
 30
0.0
 11
34.536667
 21
-0.935286
 31
0.0
  0
LINE
  5
318
330
30
100
AcDbEntity
  8
1
100
AcDbLine
 10
34.536667
 20
-0.935286
 30
0.0
 11
34.5
 21
-0.927585
 31
0.0
  0
LINE
  5
319
330
30
100
AcDbEntity
  8
1
100
AcDbLine
 10
34.5
 20
-0.927585
 30
0.0
 11
34.463333
 21
-0.919469
 31
0.0
  0
LINE
  5
31A
330
30
100
AcDbEntity
  8
1
100
AcDbLine
 10
34.463333
 20
-0.919469
 30
0.0
 11
34.426667
 21
-0.91094
 31
0.0
  0
LINE
  5
31B
330
30
100
AcDbEntity
  8
1
100
AcDbLine
 10
34.426667
 20
-0.91094
 30
0.0
 11
34.39
 21
-0.902004
 31
0.0
  0
LINE
  5
31C
330
30
100
AcDbEntity
  8
1
100
AcDbLine
 10
34.39
 20
-0.902004
 30
0.0
 11
34.353333
 21
-0.892663
 31
0.0
  0
LINE
  5
31D
330
30
100
AcDbEntity
  8
1
100
AcDbLine
 10
34.353333
 20
-0.892663
 30
0.0
 11
34.316667
 21
-0.882922
 31
0.0
  0
LINE
  5
31E
330
30
100
AcDbEntity
  8
1
100
AcDbLine
 10
34.316667
 20
-0.882922
 30
0.0
 11
34.28
 21
-0.872785
 31
0.0
  0
LINE
  5
31F
330
30
100
AcDbEntity
  8
1
100
AcDbLine
 10
34.28
 20
-0.872785
 30
0.0
 11
34.243333
 21
-0.862257
 31
0.0
  0
LINE
  5
320
330
30
100
AcDbEntity
  8
1
100
AcDbLine
 10
34.243333
 20
-0.862257
 30
0.0
 11
34.206667
 21
-0.851343
 31
0.0
  0
LINE
  5
321
330
30
100
AcDbEntity
  8
1
100
AcDbLine
 10
34.206667
 20
-0.851343
 30
0.0
 11
34.17
 21
-0.840048
 31
0.0
  0
LINE
  5
322
330
30
100
AcDbEntity
  8
1
100
AcDbLine
 10
34.17
 20
-0.840048
 30
0.0
 11
34.133333
 21
-0.828376
 31
0.0
  0
LINE
  5
323
330
30
100
AcDbEntity
  8
1
100
AcDbLine
 10
34.133333
 20
-0.828376
 30
0.0
 11
34.096667
 21
-0.816332
 31
0.0
  0
LINE
  5
324
330
30
100
AcDbEntity
  8
1
100
AcDbLine
 10
34.096667
 20
-0.816332
 30
0.0
 11
34.06
 21
-0.803923
 31
0.0
  0
LINE
  5
325
330
30
100
AcDbEntity
  8
1
100
AcDbLine
 10
34.06
 20
-0.803923
 30
0.0
 11
34.023333
 21
-0.791154
 31
0.0
  0
LINE
  5
326
330
30
100
AcDbEntity
  8
1
100
AcDbLine
 10
34.023333
 20
-0.791154
 30
0.0
 11
33.986667
 21
-0.77803
 31
0.0
  0
LINE
  5
327
330
30
100
AcDbEntity
  8
1
100
AcDbLine
 10
33.986667
 20
-0.77803
 30
0.0
 11
33.95
 21
-0.764557
 31
0.0
  0
LINE
  5
328
330
30
100
AcDbEntity
  8
1
100
AcDbLine
 10
33.95
 20
-0.764557
 30
0.0
 11
33.913333
 21
-0.750742
 31
0.0
  0
LINE
  5
329
330
30
100
AcDbEntity
  8
1
100
AcDbLine
 10
33.913333
 20
-0.750742
 30
0.0
 11
33.876667
 21
-0.73659
 31
0.0
  0
LINE
  5
32A
330
30
100
AcDbEntity
  8
1
100
AcDbLine
 10
33.876667
 20
-0.73659
 30
0.0
 11
33.84
 21
-0.722109
 31
0.0
  0
LINE
  5
32B
330
30
100
AcDbEntity
  8
1
100
AcDbLine
 10
33.84
 20
-0.722109
 30
0.0
 11
33.803333
 21
-0.707303
 31
0.0
  0
LINE
  5
32C
330
30
100
AcDbEntity
  8
1
100
AcDbLine
 10
33.803333
 20
-0.707303
 30
0.0
 11
33.766667
 21
-0.692181
 31
0.0
  0
LINE
  5
32D
330
30
100
AcDbEntity
  8
1
100
AcDbLine
 10
33.766667
 20
-0.692181
 30
0.0
 11
33.73
 21
-0.676748
 31
0.0
  0
LINE
  5
32E
330
30
100
AcDbEntity
  8
1
100
AcDbLine
 10
33.73
 20
-0.676748
 30
0.0
 11
33.693333
 21
-0.661013
 31
0.0
  0
LINE
  5
32F
330
30
100
AcDbEntity
  8
1
100
AcDbLine
 10
33.693333
 20
-0.661013
 30
0.0
 11
33.656667
 21
-0.644981
 31
0.0
  0
LINE
  5
330
330
30
100
AcDbEntity
  8
1
100
AcDbLine
 10
33.656667
 20
-0.644981
 30
0.0
 11
33.62
 21
-0.62866
 31
0.0
  0
LINE
  5
331
330
30
100
AcDbEntity
  8
1
100
AcDbLine
 10
33.62
 20
-0.62866
 30
0.0
 11
33.583333
 21
-0.612057
 31
0.0
  0
LINE
  5
332
330
30
100
AcDbEntity
  8
1
100
AcDbLine
 10
33.583333
 20
-0.612057
 30
0.0
 11
33.546667
 21
-0.59518
 31
0.0
  0
LINE
  5
333
330
30
100
AcDbEntity
  8
1
100
AcDbLine
 10
33.546667
 20
-0.59518
 30
0.0
 11
33.51
 21
-0.578036
 31
0.0
  0
LINE
  5
334
330
30
100
AcDbEntity
  8
1
100
AcDbLine
 10
33.51
 20
-0.578036
 30
0.0
 11
33.473333
 21
-0.560633
 31
0.0
  0
LINE
  5
335
330
30
100
AcDbEntity
  8
1
100
AcDbLine
 10
33.473333
 20
-0.560633
 30
0.0
 11
33.436667
 21
-0.542979
 31
0.0
  0
LINE
  5
336
330
30
100
AcDbEntity
  8
1
100
AcDbLine
 10
33.436667
 20
-0.542979
 30
0.0
 11
33.4
 21
-0.525082
 31
0.0
  0
LINE
  5
337
330
30
100
AcDbEntity
  8
1
100
AcDbLine
 10
33.4
 20
-0.525082
 30
0.0
 11
33.363333
 21
-0.506949
 31
0.0
  0
LINE
  5
338
330
30
100
AcDbEntity
  8
1
100
AcDbLine
 10
33.363333
 20
-0.506949
 30
0.0
 11
33.326667
 21
-0.488589
 31
0.0
  0
LINE
  5
339
330
30
100
AcDbEntity
  8
1
100
AcDbLine
 10
33.326667
 20
-0.488589
 30
0.0
 11
33.29
 21
-0.470011
 31
0.0
  0
LINE
  5
33A
330
30
100
AcDbEntity
  8
1
100
AcDbLine
 10
33.29
 20
-0.470011
 30
0.0
 11
33.253333
 21
-0.451221
 31
0.0
  0
LINE
  5
33B
330
30
100
AcDbEntity
  8
1
100
AcDbLine
 10
33.253333
 20
-0.451221
 30
0.0
 11
33.216667
 21
-0.43223
 31
0.0
  0
LINE
  5
33C
330
30
100
AcDbEntity
  8
1
100
AcDbLine
 10
33.216667
 20
-0.43223
 30
0.0
 11
33.18
 21
-0.413044
 31
0.0
  0
LINE
  5
33D
330
30
100
AcDbEntity
  8
1
100
AcDbLine
 10
33.18
 20
-0.413044
 30
0.0
 11
33.143333
 21
-0.393674
 31
0.0
  0
LINE
  5
33E
330
30
100
AcDbEntity
  8
1
100
AcDbLine
 10
33.143333
 20
-0.393674
 30
0.0
 11
33.106667
 21
-0.374127
 31
0.0
  0
LINE
  5
33F
330
30
100
AcDbEntity
  8
1
100
AcDbLine
 10
33.106667
 20
-0.374127
 30
0.0
 11
33.07
 21
-0.354413
 31
0.0
  0
LINE
  5
340
330
30
100
AcDbEntity
  8
1
100
AcDbLine
 10
33.07
 20
-0.354413
 30
0.0
 11
33.033333
 21
-0.334539
 31
0.0
  0
LINE
  5
341
330
30
100
AcDbEntity
  8
1
100
AcDbLine
 10
33.033333
 20
-0.334539
 30
0.0
 11
32.996667
 21
-0.314516
 31
0.0
  0
LINE
  5
342
330
30
100
AcDbEntity
  8
1
100
AcDbLine
 10
32.996667
 20
-0.314516
 30
0.0
 11
32.96
 21
-0.294352
 31
0.0
  0
LINE
  5
343
330
30
100
AcDbEntity
  8
1
100
AcDbLine
 10
32.96
 20
-0.294352
 30
0.0
 11
32.923333
 21
-0.274056
 31
0.0
  0
LINE
  5
344
330
30
100
AcDbEntity
  8
1
100
AcDbLine
 10
32.923333
 20
-0.274056
 30
0.0
 11
32.886667
 21
-0.253637
 31
0.0
  0
LINE
  5
345
330
30
100
AcDbEntity
  8
1
100
AcDbLine
 10
32.886667
 20
-0.253637
 30
0.0
 11
32.85
 21
-0.233104
 31
0.0
  0
LINE
  5
346
330
30
100
AcDbEntity
  8
1
100
AcDbLine
 10
32.85
 20
-0.233104
 30
0.0
 11
32.813333
 21
-0.212467
 31
0.0
  0
LINE
  5
347
330
30
100
AcDbEntity
  8
1
100
AcDbLine
 10
32.813333
 20
-0.212467
 30
0.0
 11
32.776667
 21
-0.191735
 31
0.0
  0
LINE
  5
348
330
30
100
AcDbEntity
  8
1
100
AcDbLine
 10
32.776667
 20
-0.191735
 30
0.0
 11
32.74
 21
-0.170917
 31
0.0
  0
LINE
  5
349
330
30
100
AcDbEntity
  8
1
100
AcDbLine
 10
32.74
 20
-0.170917
 30
0.0
 11
32.703333
 21
-0.150022
 31
0.0
  0
LINE
  5
34A
330
30
100
AcDbEntity
  8
1
100
AcDbLine
 10
32.703333
 20
-0.150022
 30
0.0
 11
32.666667
 21
-0.12906
 31
0.0
  0
LINE
  5
34B
330
30
100
AcDbEntity
  8
1
100
AcDbLine
 10
32.666667
 20
-0.12906
 30
0.0
 11
32.63
 21
-0.10804
 31
0.0
  0
LINE
  5
34C
330
30
100
AcDbEntity
  8
1
100
AcDbLine
 10
32.63
 20
-0.10804
 30
0.0
 11
32.593333
 21
-0.086972
 31
0.0
  0
LINE
  5
34D
330
30
100
AcDbEntity
  8
1
100
AcDbLine
 10
32.593333
 20
-0.086972
 30
0.0
 11
32.556667
 21
-0.065865
 31
0.0
  0
LINE
  5
34E
330
30
100
AcDbEntity
  8
1
100
AcDbLine
 10
32.556667
 20
-0.065865
 30
0.0
 11
32.52
 21
-0.044728
 31
0.0
  0
LINE
  5
34F
330
30
100
AcDbEntity
  8
1
100
AcDbLine
 10
32.52
 20
-0.044728
 30
0.0
 11
32.483333
 21
-0.023571
 31
0.0
  0
LINE
  5
350
330
30
100
AcDbEntity
  8
1
100
AcDbLine
 10
32.483333
 20
-0.023571
 30
0.0
 11
32.446667
 21
-0.002404
 31
0.0
  0
LINE
  5
351
330
30
100
AcDbEntity
  8
1
100
AcDbLine
 10
32.446667
 20
-0.002404
 30
0.0
 11
32.41
 21
0.018764
 31
0.0
  0
LINE
  5
352
330
30
100
AcDbEntity
  8
1
100
AcDbLine
 10
32.41
 20
0.018764
 30
0.0
 11
32.373333
 21
0.039924
 31
0.0
  0
LINE
  5
353
330
30
100
AcDbEntity
  8
1
100
AcDbLine
 10
32.373333
 20
0.039924
 30
0.0
 11
32.336667
 21
0.061066
 31
0.0
  0
LINE
  5
354
330
30
100
AcDbEntity
  8
1
100
AcDbLine
 10
32.336667
 20
0.061066
 30
0.0
 11
32.3
 21
0.082181
 31
0.0
  0
LINE
  5
355
330
30
100
AcDbEntity
  8
1
100
AcDbLine
 10
32.3
 20
0.082181
 30
0.0
 11
32.263333
 21
0.103259
 31
0.0
  0
LINE
  5
356
330
30
100
AcDbEntity
  8
1
100
AcDbLine
 10
32.263333
 20
0.103259
 30
0.0
 11
32.226667
 21
0.124291
 31
0.0
  0
LINE
  5
357
330
30
100
AcDbEntity
  8
1
100
AcDbLine
 10
32.226667
 20
0.124291
 30
0.0
 11
32.19
 21
0.145267
 31
0.0
  0
LINE
  5
358
330
30
100
AcDbEntity
  8
1
100
AcDbLine
 10
32.19
 20
0.145267
 30
0.0
 11
32.153333
 21
0.166177
 31
0.0
  0
LINE
  5
359
330
30
100
AcDbEntity
  8
1
100
AcDbLine
 10
32.153333
 20
0.166177
 30
0.0
 11
32.116667
 21
0.187014
 31
0.0
  0
LINE
  5
35A
330
30
100
AcDbEntity
  8
1
100
AcDbLine
 10
32.116667
 20
0.187014
 30
0.0
 11
32.08
 21
0.207766
 31
0.0
  0
LINE
  5
35B
330
30
100
AcDbEntity
  8
1
100
AcDbLine
 10
32.08
 20
0.207766
 30
0.0
 11
32.043333
 21
0.228426
 31
0.0
  0
LINE
  5
35C
330
30
100
AcDbEntity
  8
1
100
AcDbLine
 10
32.043333
 20
0.228426
 30
0.0
 11
32.006667
 21
0.248983
 31
0.0
  0
LINE
  5
35D
330
30
100
AcDbEntity
  8
1
100
AcDbLine
 10
32.006667
 20
0.248983
 30
0.0
 11
31.97
 21
0.269428
 31
0.0
  0
LINE
  5
35E
330
30
100
AcDbEntity
  8
1
100
AcDbLine
 10
31.97
 20
0.269428
 30
0.0
 11
31.933333
 21
0.289753
 31
0.0
  0
LINE
  5
35F
330
30
100
AcDbEntity
  8
1
100
AcDbLine
 10
31.933333
 20
0.289753
 30
0.0
 11
31.896667
 21
0.309948
 31
0.0
  0
LINE
  5
360
330
30
100
AcDbEntity
  8
1
100
AcDbLine
 10
31.896667
 20
0.309948
 30
0.0
 11
31.86
 21
0.330004
 31
0.0
  0
LINE
  5
361
330
30
100
AcDbEntity
  8
1
100
AcDbLine
 10
31.86
 20
0.330004
 30
0.0
 11
31.823333
 21
0.349912
 31
0.0
  0
LINE
  5
362
330
30
100
AcDbEntity
  8
1
100
AcDbLine
 10
31.823333
 20
0.349912
 30
0.0
 11
31.786667
 21
0.369664
 31
0.0
  0
LINE
  5
363
330
30
100
AcDbEntity
  8
1
100
AcDbLine
 10
31.786667
 20
0.369664
 30
0.0
 11
31.75
 21
0.389249
 31
0.0
  0
LINE
  5
364
330
30
100
AcDbEntity
  8
1
100
AcDbLine
 10
31.75
 20
0.389249
 30
0.0
 11
31.713333
 21
0.408661
 31
0.0
  0
LINE
  5
365
330
30
100
AcDbEntity
  8
1
100
AcDbLine
 10
31.713333
 20
0.408661
 30
0.0
 11
31.676667
 21
0.427889
 31
0.0
  0
LINE
  5
366
330
30
100
AcDbEntity
  8
1
100
AcDbLine
 10
31.676667
 20
0.427889
 30
0.0
 11
31.64
 21
0.446925
 31
0.0
  0
LINE
  5
367
330
30
100
AcDbEntity
  8
1
100
AcDbLine
 10
31.64
 20
0.446925
 30
0.0
 11
31.603333
 21
0.465761
 31
0.0
  0
LINE
  5
368
330
30
100
AcDbEntity
  8
1
100
AcDbLine
 10
31.603333
 20
0.465761
 30
0.0
 11
31.566667
 21
0.484389
 31
0.0
  0
LINE
  5
369
330
30
100
AcDbEntity
  8
1
100
AcDbLine
 10
31.566667
 20
0.484389
 30
0.0
 11
31.53
 21
0.502799
 31
0.0
  0
LINE
  5
36A
330
30
100
AcDbEntity
  8
1
100
AcDbLine
 10
31.53
 20
0.502799
 30
0.0
 11
31.493333
 21
0.520984
 31
0.0
  0
LINE
  5
36B
330
30
100
AcDbEntity
  8
1
100
AcDbLine
 10
31.493333
 20
0.520984
 30
0.0
 11
31.456667
 21
0.538935
 31
0.0
  0
LINE
  5
36C
330
30
100
AcDbEntity
  8
1
100
AcDbLine
 10
31.456667
 20
0.538935
 30
0.0
 11
31.42
 21
0.556645
 31
0.0
  0
LINE
  5
36D
330
30
100
AcDbEntity
  8
1
100
AcDbLine
 10
31.42
 20
0.556645
 30
0.0
 11
31.383333
 21
0.574106
 31
0.0
  0
LINE
  5
36E
330
30
100
AcDbEntity
  8
1
100
AcDbLine
 10
31.383333
 20
0.574106
 30
0.0
 11
31.346667
 21
0.591309
 31
0.0
  0
LINE
  5
36F
330
30
100
AcDbEntity
  8
1
100
AcDbLine
 10
31.346667
 20
0.591309
 30
0.0
 11
31.31
 21
0.608247
 31
0.0
  0
LINE
  5
370
330
30
100
AcDbEntity
  8
1
100
AcDbLine
 10
31.31
 20
0.608247
 30
0.0
 11
31.273333
 21
0.624913
 31
0.0
  0
LINE
  5
371
330
30
100
AcDbEntity
  8
1
100
AcDbLine
 10
31.273333
 20
0.624913
 30
0.0
 11
31.236667
 21
0.641299
 31
0.0
  0
LINE
  5
372
330
30
100
AcDbEntity
  8
1
100
AcDbLine
 10
31.236667
 20
0.641299
 30
0.0
 11
31.2
 21
0.657397
 31
0.0
  0
LINE
  5
373
330
30
100
AcDbEntity
  8
1
100
AcDbLine
 10
31.2
 20
0.657397
 30
0.0
 11
31.163333
 21
0.673201
 31
0.0
  0
LINE
  5
374
330
30
100
AcDbEntity
  8
1
100
AcDbLine
 10
31.163333
 20
0.673201
 30
0.0
 11
31.126667
 21
0.688703
 31
0.0
  0
LINE
  5
375
330
30
100
AcDbEntity
  8
1
100
AcDbLine
 10
31.126667
 20
0.688703
 30
0.0
 11
31.09
 21
0.703896
 31
0.0
  0
LINE
  5
376
330
30
100
AcDbEntity
  8
1
100
AcDbLine
 10
31.09
 20
0.703896
 30
0.0
 11
31.053333
 21
0.718774
 31
0.0
  0
LINE
  5
377
330
30
100
AcDbEntity
  8
1
100
AcDbLine
 10
31.053333
 20
0.718774
 30
0.0
 11
31.016667
 21
0.73333
 31
0.0
  0
LINE
  5
378
330
30
100
AcDbEntity
  8
1
100
AcDbLine
 10
31.016667
 20
0.73333
 30
0.0
 11
30.98
 21
0.738416
 31
0.0
  0
LINE
  5
379
330
30
100
AcDbEntity
  8
1
100
AcDbLine
 10
30.98
 20
0.738416
 30
0.0
 11
30.943333
 21
0.751728
 31
0.0
  0
LINE
  5
37A
330
30
100
AcDbEntity
  8
1
100
AcDbLine
 10
30.943333
 20
0.751728
 30
0.0
 11
30.906667
 21
0.764703
 31
0.0
  0
LINE
  5
37B
330
30
100
AcDbEntity
  8
1
100
AcDbLine
 10
30.906667
 20
0.764703
 30
0.0
 11
30.87
 21
0.777335
 31
0.0
  0
LINE
  5
37C
330
30
100
AcDbEntity
  8
1
100
AcDbLine
 10
30.87
 20
0.777335
 30
0.0
 11
30.833333
 21
0.789619
 31
0.0
  0
LINE
  5
37D
330
30
100
AcDbEntity
  8
1
100
AcDbLine
 10
30.833333
 20
0.789619
 30
0.0
 11
30.796667
 21
0.80155
 31
0.0
  0
LINE
  5
37E
330
30
100
AcDbEntity
  8
1
100
AcDbLine
 10
30.796667
 20
0.80155
 30
0.0
 11
30.76
 21
0.813122
 31
0.0
  0
LINE
  5
37F
330
30
100
AcDbEntity
  8
1
100
AcDbLine
 10
30.76
 20
0.813122
 30
0.0
 11
30.723333
 21
0.824332
 31
0.0
  0
LINE
  5
380
330
30
100
AcDbEntity
  8
1
100
AcDbLine
 10
30.723333
 20
0.824332
 30
0.0
 11
30.686667
 21
0.835176
 31
0.0
  0
LINE
  5
381
330
30
100
AcDbEntity
  8
1
100
AcDbLine
 10
30.686667
 20
0.835176
 30
0.0
 11
30.65
 21
0.845649
 31
0.0
  0
LINE
  5
382
330
30
100
AcDbEntity
  8
1
100
AcDbLine
 10
30.65
 20
0.845649
 30
0.0
 11
30.613333
 21
0.85575
 31
0.0
  0
LINE
  5
383
330
30
100
AcDbEntity
  8
1
100
AcDbLine
 10
30.613333
 20
0.85575
 30
0.0
 11
30.576667
 21
0.865477
 31
0.0
  0
LINE
  5
384
330
30
100
AcDbEntity
  8
1
100
AcDbLine
 10
30.576667
 20
0.865477
 30
0.0
 11
30.54
 21
0.874828
 31
0.0
  0
LINE
  5
385
330
30
100
AcDbEntity
  8
1
100
AcDbLine
 10
30.54
 20
0.874828
 30
0.0
 11
30.503333
 21
0.883803
 31
0.0
  0
LINE
  5
386
330
30
100
AcDbEntity
  8
1
100
AcDbLine
 10
30.503333
 20
0.883803
 30
0.0
 11
30.466667
 21
0.892401
 31
0.0
  0
LINE
  5
387
330
30
100
AcDbEntity
  8
1
100
AcDbLine
 10
30.466667
 20
0.892401
 30
0.0
 11
30.43
 21
0.900623
 31
0.0
  0
LINE
  5
388
330
30
100
AcDbEntity
  8
1
100
AcDbLine
 10
30.43
 20
0.900623
 30
0.0
 11
30.393333
 21
0.908469
 31
0.0
  0
LINE
  5
389
330
30
100
AcDbEntity
  8
1
100
AcDbLine
 10
30.393333
 20
0.908469
 30
0.0
 11
30.356667
 21
0.91594
 31
0.0
  0
LINE
  5
38A
330
30
100
AcDbEntity
  8
1
100
AcDbLine
 10
30.356667
 20
0.91594
 30
0.0
 11
30.32
 21
0.923035
 31
0.0
  0
LINE
  5
38B
330
30
100
AcDbEntity
  8
1
100
AcDbLine
 10
30.32
 20
0.923035
 30
0.0
 11
30.283333
 21
0.929754
 31
0.0
  0
LINE
  5
38C
330
30
100
AcDbEntity
  8
1
100
AcDbLine
 10
30.283333
 20
0.929754
 30
0.0
 11
30.246667
 21
0.936092
 31
0.0
  0
LINE
  5
38D
330
30
100
AcDbEntity
  8
1
100
AcDbLine
 10
30.246667
 20
0.936092
 30
0.0
 11
30.21
 21
0.942046
 31
0.0
  0
LINE
  5
38E
330
30
100
AcDbEntity
  8
1
100
AcDbLine
 10
30.21
 20
0.942046
 30
0.0
 11
30.173333
 21
0.947606
 31
0.0
  0
LINE
  5
38F
330
30
100
AcDbEntity
  8
1
100
AcDbLine
 10
30.173333
 20
0.947606
 30
0.0
 11
30.136667
 21
0.952761
 31
0.0
  0
LINE
  5
390
330
30
100
AcDbEntity
  8
1
100
AcDbLine
 10
30.136667
 20
0.952761
 30
0.0
 11
30.1
 21
0.957491
 31
0.0
  0
LINE
  5
391
330
30
100
AcDbEntity
  8
1
100
AcDbLine
 10
30.1
 20
0.957491
 30
0.0
 11
30.063333
 21
0.961769
 31
0.0
  0
LINE
  5
392
330
30
100
AcDbEntity
  8
1
100
AcDbLine
 10
30.063333
 20
0.961769
 30
0.0
 11
30.026667
 21
0.965562
 31
0.0
  0
LINE
  5
393
330
30
100
AcDbEntity
  8
1
100
AcDbLine
 10
30.026667
 20
0.965562
 30
0.0
 11
29.99
 21
0.96882
 31
0.0
  0
LINE
  5
394
330
30
100
AcDbEntity
  8
1
100
AcDbLine
 10
29.99
 20
0.96882
 30
0.0
 11
29.953333
 21
0.971483
 31
0.0
  0
LINE
  5
395
330
30
100
AcDbEntity
  8
1
100
AcDbLine
 10
29.953333
 20
0.971483
 30
0.0
 11
29.916667
 21
0.97347
 31
0.0
  0
LINE
  5
396
330
30
100
AcDbEntity
  8
1
100
AcDbLine
 10
29.916667
 20
0.97347
 30
0.0
 11
29.88
 21
0.974679
 31
0.0
  0
LINE
  5
397
330
30
100
AcDbEntity
  8
1
100
AcDbLine
 10
29.88
 20
0.974679
 30
0.0
 11
29.85061
 21
0.975
 31
0.0
  0
LINE
  5
398
330
30
100
AcDbEntity
  8
1
100
AcDbLine
 10
24.315238
 20
0.975
 30
0.0
 11
24.315238
 21
-0.975
 31
0.0
  0
LINE
  5
399
330
30
100
AcDbEntity
  8
1
100
AcDbLine
 10
23.631198
 20
-1.095615
 30
0.0
 11
23.631198
 21
1.095615
 31
0.0
  0
LINE
  5
39A
330
30
100
AcDbEntity
  8
1
100
AcDbLine
 10
22.520158
 20
-1.5
 30
0.0
 11
22.520158
 21
1.5
 31
0.0
  0
LINE
  5
39B
330
30
100
AcDbEntity
  8
1
100
AcDbLine
 10
13.35
 20
-1.5
 30
0.0
 11
13.35
 21
1.5
 31
0.0
  0
LINE
  5
39C
330
30
100
AcDbEntity
  8
1
100
AcDbLine
 10
13.0
 20
1.5
 30
0.0
 11
13.0
 21
-1.5
 31
0.0
  0
LINE
  5
39D
330
30
100
AcDbEntity
  8
1
100
AcDbLine
 10
13.0
 20
-1.5
 30
0.0
 11
13.0
 21
-3.5
 31
0.0
  0
LINE
  5
39E
330
30
100
AcDbEntity
  8
1
100
AcDbLine
 10
13.0
 20
-3.5
 30
0.0
 11
13.0
 21
3.5
 31
0.0
  0
LINE
  5
39F
330
30
100
AcDbEntity
  8
1
100
AcDbLine
 10
13.0
 20
3.5
 30
0.0
 11
13.0
 21
1.5
 31
0.0
  0
LINE
  5
3A0
330
30
100
AcDbEntity
  8
SK1
100
AcDbLine
 10
13.0
 20
3.5
 30
0.0
 11
13.0
 21
1.5
 31
0.0
  0
LINE
  5
3A1
330
30
100
AcDbEntity
  8
SK1
100
AcDbLine
 10
13.0
 20
1.5
 30
0.0
 11
1.0
 21
1.5
 31
0.0
  0
LINE
  5
3A2
330
30
100
AcDbEntity
  8
SK1
100
AcDbLine
 10
1.0
 20
1.5
 30
0.0
 11
0.0
 21
0.990475
 31
0.0
  0
LINE
  5
3A3
330
30
100
AcDbEntity
  8
SK1
100
AcDbLine
 10
13.0
 20
-1.5
 30
0.0
 11
1.0
 21
-1.5
 31
0.0
  0
LINE
  5
3A4
330
30
100
AcDbEntity
  8
SK1
100
AcDbLine
 10
1.0
 20
-1.5
 30
0.0
 11
0.0
 21
-0.990475
 31
0.0
  0
LINE
  5
3A5
330
30
100
AcDbEntity
  8
SK1
100
AcDbLine
 10
1.0
 20
1.5
 30
0.0
 11
1.0
 21
-1.5
 31
0.0
  0
LINE
  5
3A6
330
30
100
AcDbEntity
  8
SK1
100
AcDbLine
 10
0.0
 20
0.990475
 30
0.0
 11
0.0
 21
-0.990475
 31
0.0
  0
LINE
  5
3A7
330
30
100
AcDbEntity
  8
SK1
100
AcDbLine
 10
14.0401
 20
1.40688
 30
0.0
 11
14.4069
 21
1.0401
 31
0.0
  0
LINE
  5
3A8
330
30
100
AcDbEntity
  8
SK1
100
AcDbLine
 10
13.5328
 20
1.66666
 30
0.0
 11
14.6667
 21
0.532833
 31
0.0
  0
LINE
  5
3A9
330
30
100
AcDbEntity
  8
SK1
100
AcDbLine
 10
13.2154
 20
1.73657
 30
0.0
 11
14.7366
 21
0.215434
 31
0.0
  0
LINE
  5
3AA
330
30
100
AcDbEntity
  8
SK1
100
AcDbLine
 10
13.0
 20
1.70452
 30
0.0
 11
14.7045
 21
0.0
 31
0.0
  0
LINE
  5
3AB
330
30
100
AcDbEntity
  8
SK1
100
AcDbLine
 10
13.0
 20
1.45703
 30
0.0
 11
14.457
 21
0.0
 31
0.0
  0
LINE
  5
3AC
330
30
100
AcDbEntity
  8
SK1
100
AcDbLine
 10
13.0
 20
1.20954
 30
0.0
 11
14.2095
 21
0.0
 31
0.0
  0
LINE
  5
3AD
330
30
100
AcDbEntity
  8
SK1
100
AcDbLine
 10
13.0
 20
0.962054
 30
0.0
 11
13.9621
 21
0.0
 31
0.0
  0
LINE
  5
3AE
330
30
100
AcDbEntity
  8
SK1
100
AcDbLine
 10
13.0
 20
0.714566
 30
0.0
 11
13.7146
 21
0.0
 31
0.0
  0
LINE
  5
3AF
330
30
100
AcDbEntity
  8
SK1
100
AcDbLine
 10
13.0
 20
0.467079
 30
0.0
 11
13.4671
 21
0.0
 31
0.0
  0
LINE
  5
3B0
330
30
100
AcDbEntity
  8
SK1
100
AcDbLine
 10
13.0
 20
0.219592
 30
0.0
 11
13.2196
 21
0.0
 31
0.0
  0
LINE
  5
3B1
330
30
100
AcDbEntity
  8
SK1
100
AcDbLine
 10
13.0
 20
1.70452
 30
0.0
 11
13.0441
 21
1.74861
 31
0.0
  0
LINE
  5
3B2
330
30
100
AcDbEntity
  8
SK1
100
AcDbLine
 10
13.0
 20
1.45703
 30
0.0
 11
13.271
 21
1.72802
 31
0.0
  0
LINE
  5
3B3
330
30
100
AcDbEntity
  8
SK1
100
AcDbLine
 10
13.0
 20
1.20954
 30
0.0
 11
13.4742
 21
1.6837
 31
0.0
  0
LINE
  5
3B4
330
30
100
AcDbEntity
  8
SK1
100
AcDbLine
 10
13.0
 20
0.962054
 30
0.0
 11
13.6588
 21
1.62082
 31
0.0
  0
LINE
  5
3B5
330
30
100
AcDbEntity
  8
SK1
100
AcDbLine
 10
13.0
 20
0.714566
 30
0.0
 11
13.8271
 21
1.54167
 31
0.0
  0
LINE
  5
3B6
330
30
100
AcDbEntity
  8
SK1
100
AcDbLine
 10
13.0
 20
0.467079
 30
0.0
 11
13.981
 21
1.44812
 31
0.0
  0
LINE
  5
3B7
330
30
100
AcDbEntity
  8
SK1
100
AcDbLine
 10
13.0
 20
0.219592
 30
0.0
 11
14.1226
 21
1.34216
 31
0.0
  0
LINE
  5
3B8
330
30
100
AcDbEntity
  8
SK1
100
AcDbLine
 10
13.0279
 20
0.0
 30
0.0
 11
14.2508
 21
1.22288
 31
0.0
  0
LINE
  5
3B9
330
30
100
AcDbEntity
  8
SK1
100
AcDbLine
 10
13.2754
 20
0.0
 30
0.0
 11
14.367
 21
1.09157
 31
0.0
  0
LINE
  5
3BA
330
30
100
AcDbEntity
  8
SK1
100
AcDbLine
 10
13.5229
 20
0.0
 30
0.0
 11
14.4707
 21
0.947822
 31
0.0
  0
LINE
  5
3BB
330
30
100
AcDbEntity
  8
SK1
100
AcDbLine
 10
13.7704
 20
0.0
 30
0.0
 11
14.5605
 21
0.790145
 31
0.0
  0
LINE
  5
3BC
330
30
100
AcDbEntity
  8
SK1
100
AcDbLine
 10
14.0178
 20
0.0
 30
0.0
 11
14.6364
 21
0.618517
 31
0.0
  0
LINE
  5
3BD
330
30
100
AcDbEntity
  8
SK1
100
AcDbLine
 10
14.2653
 20
0.0
 30
0.0
 11
14.696
 21
0.430696
 31
0.0
  0
LINE
  5
3BE
330
30
100
AcDbEntity
  8
SK1
100
AcDbLine
 10
14.5128
 20
0.0
 30
0.0
 11
14.7356
 21
0.222827
 31
0.0
  0
LINE
  5
3BF
330
30
100
AcDbEntity
  8
SK1
100
AcDbLine
 10
13.0
 20
0.0
 30
0.0
 11
13.0
 21
1.75
 31
0.0
  0
LINE
  5
3C0
330
30
100
AcDbEntity
  8
SK1
100
AcDbLine
 10
13.0
 20
0.0
 30
0.0
 11
14.75
 21
0.0
 31
0.0
  0
ARC
  5
3C1
330
30
100
AcDbEntity
  8
SK1
100
AcDbCircle
 10
13.0
 20
0.0
 30
0.0
 40
1.75
100
AcDbArc
 50
0.0
 51
90.0
  0
ARC
  5
3C2
330
30
100
AcDbEntity
  8
SK1
100
AcDbCircle
 10
13.0
 20
0.0
 30
0.0
 40
1.75
100
AcDbArc
 50
90.0
 51
180.0
  0
LINE
  5
3C3
330
30
100
AcDbEntity
  8
SK1
100
AcDbLine
 10
12.9721
 20
0.0
 30
0.0
 11
13.0
 21
-0.027896
 31
0.0
  0
LINE
  5
3C4
330
30
100
AcDbEntity
  8
SK1
100
AcDbLine
 10
12.7246
 20
0.0
 30
0.0
 11
13.0
 21
-0.275383
 31
0.0
  0
LINE
  5
3C5
330
30
100
AcDbEntity
  8
SK1
100
AcDbLine
 10
12.4771
 20
0.0
 30
0.0
 11
13.0
 21
-0.522871
 31
0.0
  0
LINE
  5
3C6
330
30
100
AcDbEntity
  8
SK1
100
AcDbLine
 10
12.2296
 20
0.0
 30
0.0
 11
13.0
 21
-0.770358
 31
0.0
  0
LINE
  5
3C7
330
30
100
AcDbEntity
  8
SK1
100
AcDbLine
 10
11.9822
 20
0.0
 30
0.0
 11
13.0
 21
-1.01785
 31
0.0
  0
LINE
  5
3C8
330
30
100
AcDbEntity
  8
SK1
100
AcDbLine
 10
11.7347
 20
0.0
 30
0.0
 11
13.0
 21
-1.26533
 31
0.0
  0
LINE
  5
3C9
330
30
100
AcDbEntity
  8
SK1
100
AcDbLine
 10
11.4872
 20
0.0
 30
0.0
 11
13.0
 21
-1.51282
 31
0.0
  0
LINE
  5
3CA
330
30
100
AcDbEntity
  8
SK1
100
AcDbLine
 10
11.2503
 20
-0.010642
 30
0.0
 11
12.9894
 21
-1.74967
 31
0.0
  0
LINE
  5
3CB
330
30
100
AcDbEntity
  8
SK1
100
AcDbLine
 10
11.2736
 20
-0.281429
 30
0.0
 11
12.7186
 21
-1.72637
 31
0.0
  0
LINE
  5
3CC
330
30
100
AcDbEntity
  8
SK1
100
AcDbLine
 10
11.3639
 20
-0.619147
 30
0.0
 11
12.3809
 21
-1.63613
 31
0.0
  0
LINE
  5
3CD
330
30
100
AcDbEntity
  8
SK1
100
AcDbLine
 10
11.2514
 20
-0.044098
 30
0.0
 11
11.2955
 21
0.0
 31
0.0
  0
LINE
  5
3CE
330
30
100
AcDbEntity
  8
SK1
100
AcDbLine
 10
11.272
 20
-0.270991
 30
0.0
 11
11.543
 21
0.0
 31
0.0
  0
LINE
  5
3CF
330
30
100
AcDbEntity
  8
SK1
100
AcDbLine
 10
11.3163
 20
-0.474162
 30
0.0
 11
11.7905
 21
0.0
 31
0.0
  0
LINE
  5
3D0
330
30
100
AcDbEntity
  8
SK1
100
AcDbLine
 10
11.3792
 20
-0.658762
 30
0.0
 11
12.0379
 21
0.0
 31
0.0
  0
LINE
  5
3D1
330
30
100
AcDbEntity
  8
SK1
100
AcDbLine
 10
11.4583
 20
-0.827105
 30
0.0
 11
12.2854
 21
0.0
 31
0.0
  0
LINE
  5
3D2
330
30
100
AcDbEntity
  8
SK1
100
AcDbLine
 10
11.5519
 20
-0.981039
 30
0.0
 11
12.5329
 21
0.0
 31
0.0
  0
LINE
  5
3D3
330
30
100
AcDbEntity
  8
SK1
100
AcDbLine
 10
11.6578
 20
-1.12257
 30
0.0
 11
12.7804
 21
0.0
 31
0.0
  0
LINE
  5
3D4
330
30
100
AcDbEntity
  8
SK1
100
AcDbLine
 10
11.7771
 20
-1.25077
 30
0.0
 11
13.0
 21
-0.027896
 31
0.0
  0
LINE
  5
3D5
330
30
100
AcDbEntity
  8
SK1
100
AcDbLine
 10
11.9084
 20
-1.36695
 30
0.0
 11
13.0
 21
-0.275383
 31
0.0
  0
LINE
  5
3D6
330
30
100
AcDbEntity
  8
SK1
100
AcDbLine
 10
12.0522
 20
-1.47069
 30
0.0
 11
13.0
 21
-0.522871
 31
0.0
  0
LINE
  5
3D7
330
30
100
AcDbEntity
  8
SK1
100
AcDbLine
 10
12.2099
 20
-1.5605
 30
0.0
 11
13.0
 21
-0.770358
 31
0.0
  0
LINE
  5
3D8
330
30
100
AcDbEntity
  8
SK1
100
AcDbLine
 10
12.3815
 20
-1.63636
 30
0.0
 11
13.0
 21
-1.01785
 31
0.0
  0
LINE
  5
3D9
330
30
100
AcDbEntity
  8
SK1
100
AcDbLine
 10
12.5693
 20
-1.69603
 30
0.0
 11
13.0
 21
-1.26533
 31
0.0
  0
LINE
  5
3DA
330
30
100
AcDbEntity
  8
SK1
100
AcDbLine
 10
12.7772
 20
-1.73565
 30
0.0
 11
13.0
 21
-1.51282
 31
0.0
  0
LINE
  5
3DB
330
30
100
AcDbEntity
  8
SK1
100
AcDbLine
 10
13.0
 20
0.0
 30
0.0
 11
11.25
 21
0.0
 31
0.0
  0
LINE
  5
3DC
330
30
100
AcDbEntity
  8
SK1
100
AcDbLine
 10
13.0
 20
-1.75
 30
0.0
 11
13.0
 21
0.0
 31
0.0
  0
ARC
  5
3DD
330
30
100
AcDbEntity
  8
SK1
100
AcDbCircle
 10
13.0
 20
0.0
 30
0.0
 40
1.75
100
AcDbArc
 50
180.0
 51
270.0
  0
ARC
  5
3DE
330
30
100
AcDbEntity
  8
SK1
100
AcDbCircle
 10
13.0
 20
0.0
 30
0.0
 40
1.75
100
AcDbArc
 50
270.0
 51
0.0
  0
LINE
  5
459
330
30
100
AcDbEntity
  8
NOCUT
100
AcDbLine
 10
31.0
 20
0.0
 30
0.0
 11
31.0
 21
0.975
 31
0.0
  0
LINE
  5
45A
330
30
100
AcDbEntity
  8
NOCUT
100
AcDbLine
 10
31.0
 20
0.975
 30
0.0
 11
24.315238
 21
0.975
 31
0.0
  0
ARC
  5
45B
330
30
100
AcDbEntity
  8
NOCUT
100
AcDbCircle
 10
24.315238
 20
2.975
 30
0.0
 40
2.0
100
AcDbArc
 50
250.0
 51
270.0
  0
LINE
  5
45C
330
30
100
AcDbEntity
  8
NOCUT
100
AcDbLine
 10
23.631198
 20
1.095615
 30
0.0
 11
22.520158
 21
1.5
 31
0.0
  0
LINE
  5
45D
330
30
100
AcDbEntity
  8
NOCUT
100
AcDbLine
 10
22.520158
 20
1.5
 30
0.0
 11
13.35
 21
1.5
 31
0.0
  0
LINE
  5
45E
330
30
100
AcDbEntity
  8
NOCUT
100
AcDbLine
 10
13.35
 20
1.5
 30
0.0
 11
13.35
 21
3.5
 31
0.0
  0
LINE
  5
45F
330
30
100
AcDbEntity
  8
NOCUT
100
AcDbLine
 10
13.35
 20
3.5
 30
0.0
 11
13.0
 21
3.5
 31
0.0
  0
LINE
  5
460
330
30
100
AcDbEntity
  8
NOCUT
100
AcDbLine
 10
13.0
 20
3.5
 30
0.0
 11
13.0
 21
0.0
 31
0.0
  0
LINE
  5
461
330
30
100
AcDbEntity
  8
NOCUT
100
AcDbLine
 10
13.0
 20
0.0
 30
0.0
 11
31.0
 21
0.0
 31
0.0
  0
ARC
  5
462
330
30
100
AcDbEntity
  8
CUT
100
AcDbCircle
 10
39.0
 20
0.0
 30
0.0
 40
1.0
100
AcDbArc
 50
0.0
 51
90.0
  0
LINE
  5
463
330
30
100
AcDbEntity
  8
CUT
100
AcDbLine
 10
39.0
 20
1.0
 30
0.0
 11
31.0
 21
1.0
 31
0.0
  0
LINE
  5
464
330
30
100
AcDbEntity
  8
CUT
100
AcDbLine
 10
31.0
 20
1.0
 30
0.0
 11
31.0
 21
0.0
 31
0.0
  0
LINE
  5
465
330
30
100
AcDbEntity
  8
CUT
100
AcDbLine
 10
31.0
 20
0.0
 30
0.0
 11
40.0
 21
0.0
 31
0.0
  0
LINE
  5
466
330
30
100
AcDbEntity
  8
4
100
AcDbLine
 10
13.0
 20
0.0
 30
0.0
 11
40.0
 21
0.0
 31
0.0
  0
LINE
  5
467
330
30
100
AcDbEntity
  8
SK4
100
AcDbLine
 10
-1.0
 20
0.0
 30
0.0
 11
41.0
 21
0.0
 31
0.0
  0
LINE
  5
468
330
30
100
AcDbEntity
  8
INFTOTAL
100
AcDbLine
 10
-15.45
 20
45.95
 30
0.0
 11
70.45
 21
45.95
 31
0.0
  0
LINE
  5
469
330
30
100
AcDbEntity
  8
INFTOTAL
100
AcDbLine
 10
70.45
 20
45.95
 30
0.0
 11
70.43681406392197
 21
-24.07357029635972
 31
0.0
  0
LINE
  5
46A
330
30
100
AcDbEntity
  8
INFTOTAL
100
AcDbLine
 10
70.43681406392197
 20
-24.07357029635972
 30
0.0
 11
-15.45
 21
-24.07357029635972
 31
0.0
  0
LINE
  5
46B
330
30
100
AcDbEntity
  8
INFTOTAL
100
AcDbLine
 10
-15.45
 20
-24.07357029635972
 30
0.0
 11
-15.45
 21
45.95
 31
0.0
  0
ENDSEC
  0
SECTION
  2
OBJECTS
  0
DICTIONARY
  5
46C
330
0
100
AcDbDictionary
281
     1
  3
ACAD_GROUP
350
46D
  3
ACAD_IMAGE_VARS
350
106ABDE
  3
ACAD_LAYOUT
350
106AB97
  3
ACAD_MATERIAL
350
106ABBC
  3
ACAD_MLEADERSTYLE
350
106ABDB
  3
ACAD_MLINESTYLE
350
106AB92
  3
ACAD_PLOTSETTINGS
350
106AB94
  3
ACAD_PLOTSTYLENAME
350
106AB95
  3
ACAD_SCALELIST
350
106AB9A
  3
ACAD_TABLESTYLE
350
106ABD9
  3
ACAD_VISUALSTYLE
350
106ABC0
  3
AcDbVariableDictionary
350
106ABF0
  3
APPDATA
350
106ABDD
  3
DWGPROPS
350
106AC38
  3
FX_DICT_DIMENSION_PALETTE
350
106ABE1
  3
PRINTCONFIG
350
106AC35
  0
DICTIONARY
  5
106AC39
330
2
100
AcDbDictionary
280
     1
281
     1
  3
ACAD_XREC_ROUNDTRIP
360
106AC3A
  0
DICTIONARY
  5
106ABEE
330
30
100
AcDbDictionary
280
     1
281
     1
  3
DIM_BOUNDING_BOXES_V1
360
106ABEF
  0
DICTIONARY
  5
46D
102
{ACAD_REACTORS
330
46C
102
}
330
46C
100
AcDbDictionary
281
     1
  0
RASTERVARIABLES
  5
106ABDE
102
{ACAD_REACTORS
330
46C
102
}
330
46C
100
AcDbRasterVariables
 90
        0
 70
     1
 71
     1
 72
     1
  0
DICTIONARY
  5
106AB97
102
{ACAD_REACTORS
330
46C
102
}
330
46C
100
AcDbDictionary
281
     1
  3
Model
350
106AB98
  3
シート 1
350
106AB99
  0
DICTIONARY
  5
106ABBC
102
{ACAD_REACTORS
330
46C
102
}
330
46C
100
AcDbDictionary
281
     1
  3
ByBlock
350
106ABBE
  3
ByLayer
350
106ABBD
  3
Global
350
106ABBF
  0
DICTIONARY
  5
106ABDB
102
{ACAD_REACTORS
330
46C
102
}
330
46C
100
AcDbDictionary
281
     1
  3
Standard
350
106ABDC
  0
DICTIONARY
  5
106AB92
102
{ACAD_REACTORS
330
46C
102
}
330
46C
100
AcDbDictionary
281
     1
  3
Standard
350
106AB93
  0
DICTIONARY
  5
106AB94
102
{ACAD_REACTORS
330
46C
102
}
330
46C
100
AcDbDictionary
281
     1
  0
ACDBDICTIONARYWDFLT
  5
106AB95
102
{ACAD_REACTORS
330
46C
102
}
330
46C
100
AcDbDictionary
281
     1
  3
Normal
350
106AB96
100
AcDbDictionaryWithDefault
340
106AB96
  0
DICTIONARY
  5
106AB9A
102
{ACAD_REACTORS
330
46C
102
}
330
46C
100
AcDbDictionary
281
     1
  3
A0
350
106AB9B
  3
A1
350
106AB9C
  3
A2
350
106AB9D
  3
A3
350
106AB9E
  3
A4
350
106AB9F
  3
A5
350
106ABA0
  3
A6
350
106ABA1
  3
A7
350
106ABA2
  3
A8
350
106ABA3
  3
A9
350
106ABA4
  3
B0
350
106ABA5
  3
B1
350
106ABA6
  3
B2
350
106ABA7
  3
B3
350
106ABA8
  3
B4
350
106ABA9
  3
B5
350
106ABAA
  3
B6
350
106ABAB
  3
B7
350
106ABAC
  3
B8
350
106ABAD
  3
B9
350
106ABAE
  3
C0
350
106ABAF
  3
C1
350
106ABB0
  3
C2
350
106ABB1
  3
C3
350
106ABB2
  3
C4
350
106ABB3
  3
C5
350
106ABB4
  3
C6
350
106ABB5
  3
C7
350
106ABB6
  3
C8
350
106ABB7
  3
C9
350
106ABB8
  3
D0
350
106ABB9
  3
D1
350
106ABBA
  3
D2
350
106ABBB
  0
DICTIONARY
  5
106ABD9
102
{ACAD_REACTORS
330
46C
102
}
330
46C
100
AcDbDictionary
281
     1
  3
Standard
350
106ABDA
  0
DICTIONARY
  5
106ABC0
102
{ACAD_REACTORS
330
46C
102
}
330
46C
100
AcDbDictionary
281
     1
  3
2dWireframe
350
106ABC5
  3
Basic
350
106ABC8
  3
Brighten
350
106ABCC
  3
ColorChange
350
106ABD0
  3
Conceptual
350
106ABCA
  3
Dim
350
106ABCB
  3
EdgeColorOff
350
106ABD3
  3
Facepattern
350
106ABCF
  3
Flat
350
106ABC1
  3
FlatWithEdges
350
106ABC2
  3
Gouraud
350
106ABC3
  3
GouraudWithEdges
350
106ABC4
  3
Hidden
350
106ABC7
  3
JitterOff
350
106ABD1
  3
Linepattern
350
106ABCE
  3
OverhangOff
350
106ABD2
  3
Realistic
350
106ABC9
  3
Shaded
350
106ABD8
  3
Shaded with edges
350
106ABD7
  3
Shades of Gray
350
106ABD4
  3
Sketchy
350
106ABD5
  3
Thicken
350
106ABCD
  3
Wireframe
350
106ABC6
  3
X-Ray
350
106ABD6
  0
DICTIONARY
  5
106ABF0
102
{ACAD_REACTORS
330
46C
102
}
330
46C
100
AcDbDictionary
281
     1
  3
CANNOSCALE
350
106AC3B
  3
CMLEADERSTYLE
350
106ABF2
  3
CTABLESTYLE
350
106ABF1
  3
DIMASSOC
350
106ABF6
  3
HIDETEXT
350
106ABF7
  3
MSLTSCALE
350
106ABF3
  0
DICTIONARY
  5
106ABDD
102
{ACAD_REACTORS
330
46C
102
}
330
46C
100
AcDbDictionary
281
     1
  0
XRECORD
  5
106AC38
102
{ACAD_REACTORS
330
46C
102
}
330
46C
100
AcDbXrecord
280
     1
  1
DWGPROPS COOKIE
  2

  3

  4

  6

  7

  8
usr2460
  9

300
=
301
=
302
=
303
=
304
=
305
=
306
=
307
=
308
=
309
=
 40
0.0
 41
0.0
 42
2460796.025019491
  1

 90
        0
  0
DICTIONARY
  5
106ABE1
102
{ACAD_REACTORS
330
46C
102
}
330
46C
100
AcDbDictionary
281
     1
1001
FX_DIMP_FAV_VERSION
1071
        1
  0
DICTIONARYVAR
  5
106AC35
102
{ACAD_REACTORS
330
46C
102
}
330
46C
100
DictionaryVariables
280
     0
  1
0
  0
XRECORD
  5
106AC3A
102
{ACAD_REACTORS
330
106AC39
102
}
330
106AC39
100
AcDbXrecord
280
     1
102
VTR_0.000_0.000_1.000_1.000_VISUALSTYLE
340
106ABC5
102
VTR_0.000_0.000_1.000_1.000_GRIDDISPLAY
 70
     3
102
VTR_0.000_0.000_1.000_1.000_GRIDMAJOR
 70
     5
102
VTR_0.000_0.000_1.000_1.000_DEFAULTLIGHTING
280
     1
102
VTR_0.000_0.000_1.000_1.000_DEFAULTLIGHTINGTYPE
 70
     1
102
VTR_0.000_0.000_1.000_1.000_BRIGHTNESS
141
0.0
102
VTR_0.000_0.000_1.000_1.000_CONTRAST
142
0.0
  0
DICTIONARY
  5
106ABEF
102
{ACAD_REACTORS
330
106ABEE
102
}
330
106ABEE
100
AcDbDictionary
281
     1
  0
LAYOUT
  5
106AB98
102
{ACAD_REACTORS
330
106AB97
102
}
330
106AB97
100
AcDbPlotSettings
  1

  2
none_device
  4
Letter_(8.50_x_11.00_Inches)
  6

 40
6.35
 41
6.35
 42
6.35
 43
6.35
 44
215.9
 45
279.4
 46
0.0
 47
0.0
 48
0.0
 49
0.0
140
0.0
141
0.0
142
1.0
143
2.21959459445662
 70
  1712
 72
     0
 73
     0
 74
     0
  7

 75
     0
147
0.4505327245333333
148
-39.40881537143161
149
0.0
100
AcDbLayout
  1
Model
 70
     1
 71
     0
 10
0.0
 20
0.0
 11
12.0
 21
9.0
 12
0.0
 22
0.0
 32
0.0
 14
-15.45
 24
-24.07357029635972
 34
0.0
 15
70.45
 25
45.95
 35
0.0
146
0.0
 13
0.0
 23
0.0
 33
0.0
 16
1.0
 26
0.0
 36
0.0
 17
0.0
 27
1.0
 37
0.0
 76
     0
330
30
331
106AB91
  0
LAYOUT
  5
106AB99
102
{ACAD_REACTORS
330
106AB97
102
}
330
106AB97
100
AcDbPlotSettings
  1

  2
none_device
  4

  6

 40
0.0
 41
0.0
 42
0.0
 43
0.0
 44
0.0
 45
0.0
 46
0.0
 47
0.0
 48
0.0
 49
0.0
140
0.0
141
0.0
142
1.0
143
1.0
 70
   688
 72
     0
 73
     0
 74
     5
  7

 75
    16
147
1.0
148
0.0
149
0.0
100
AcDbLayout
  1
シート 1
 70
     1
 71
     1
 10
0.0
 20
0.0
 11
0.0
 21
0.0
 12
0.0
 22
0.0
 32
0.0
 14
1.000000000000000E+20
 24
1.000000000000000E+20
 34
1.000000000000000E+20
 15
-1.000000000000000E+20
 25
-1.000000000000000E+20
 35
-1.000000000000000E+20
146
0.0
 13
0.0
 23
0.0
 33
0.0
 16
1.0
 26
0.0
 36
0.0
 17
0.0
 27
1.0
 37
0.0
 76
     0
330
31
  0
MATERIAL
  5
106ABBE
102
{ACAD_REACTORS
330
106ABBC
102
}
102
{ACAD_XDICTIONARY
360
106AC3C
102
}
330
106ABBC
100
AcDbMaterial
  1
ByBlock
  0
MATERIAL
  5
106ABBD
102
{ACAD_REACTORS
330
106ABBC
102
}
102
{ACAD_XDICTIONARY
360
106AC3E
102
}
330
106ABBC
100
AcDbMaterial
  1
ByLayer
  0
MATERIAL
  5
106ABBF
102
{ACAD_REACTORS
330
106ABBC
102
}
102
{ACAD_XDICTIONARY
360
106AC40
102
}
330
106ABBC
100
AcDbMaterial
  1
Global
  0
MLEADERSTYLE
  5
106ABDC
102
{ACAD_REACTORS
330
106ABDB
102
}
102
{ACAD_XDICTIONARY
360
106AC42
102
}
330
106ABDB
100
AcDbMLeaderStyle
170
     2
171
     1
172
     0
 90
        2
 40
0.0
 41
0.0
173
     1
 91
-1056964608
340
4
 92
       -2
290
     1
 42
0.09
291
     1
 43
0.36
  3
Standard
341
0
 44
0.18
300

342
28
174
     1
178
     1
175
     1
176
     0
 93
-1056964608
 45
0.18
292
     0
297
     0
 46
0.18
343
0
 94
-1056964608
 47
1.0
 49
1.0
140
1.0
293
     1
141
0.0
294
     1
177
     0
142
1.0
295
     0
296
     0
143
0.125
1001
ACAD_MLEADERVER
1070
     2
  0
MLINESTYLE
  5
106AB93
102
{ACAD_REACTORS
330
106AB92
102
}
330
106AB92
100
AcDbMlineStyle
  2
Standard
 70
     0
  3

 62
   256
 51
90.0
 52
90.0
 71
     2
 49
0.5
 62
   256
  6
BYLAYER
 49
-0.5
 62
   256
  6
BYLAYER
  0
ACDBPLACEHOLDER
  5
106AB96
102
{ACAD_REACTORS
330
106AB95
102
}
330
106AB95
  0
SCALE
  5
106AB9B
102
{ACAD_REACTORS
330
106AB9A
102
}
330
106AB9A
100
AcDbScale
 70
     0
300
1:1
140
1.0
141
1.0
290
     1
  0
SCALE
  5
106AB9C
102
{ACAD_REACTORS
330
106AB9A
102
}
330
106AB9A
100
AcDbScale
 70
     0
300
1:2
140
1.0
141
2.0
290
     0
  0
SCALE
  5
106AB9D
102
{ACAD_REACTORS
330
106AB9A
102
}
330
106AB9A
100
AcDbScale
 70
     0
300
1:4
140
1.0
141
4.0
290
     0
  0
SCALE
  5
106AB9E
102
{ACAD_REACTORS
330
106AB9A
102
}
330
106AB9A
100
AcDbScale
 70
     0
300
1:5
140
1.0
141
5.0
290
     0
  0
SCALE
  5
106AB9F
102
{ACAD_REACTORS
330
106AB9A
102
}
330
106AB9A
100
AcDbScale
 70
     0
300
1:8
140
1.0
141
8.0
290
     0
  0
SCALE
  5
106ABA0
102
{ACAD_REACTORS
330
106AB9A
102
}
330
106AB9A
100
AcDbScale
 70
     0
300
1:10
140
1.0
141
10.0
290
     0
  0
SCALE
  5
106ABA1
102
{ACAD_REACTORS
330
106AB9A
102
}
330
106AB9A
100
AcDbScale
 70
     0
300
1:16
140
1.0
141
16.0
290
     0
  0
SCALE
  5
106ABA2
102
{ACAD_REACTORS
330
106AB9A
102
}
330
106AB9A
100
AcDbScale
 70
     0
300
1:20
140
1.0
141
20.0
290
     0
  0
SCALE
  5
106ABA3
102
{ACAD_REACTORS
330
106AB9A
102
}
330
106AB9A
100
AcDbScale
 70
     0
300
1:30
140
1.0
141
30.0
290
     0
  0
SCALE
  5
106ABA4
102
{ACAD_REACTORS
330
106AB9A
102
}
330
106AB9A
100
AcDbScale
 70
     0
300
1:40
140
1.0
141
40.0
290
     0
  0
SCALE
  5
106ABA5
102
{ACAD_REACTORS
330
106AB9A
102
}
330
106AB9A
100
AcDbScale
 70
     0
300
1:50
140
1.0
141
50.0
290
     0
  0
SCALE
  5
106ABA6
102
{ACAD_REACTORS
330
106AB9A
102
}
330
106AB9A
100
AcDbScale
 70
     0
300
1:100
140
1.0
141
100.0
290
     0
  0
SCALE
  5
106ABA7
102
{ACAD_REACTORS
330
106AB9A
102
}
330
106AB9A
100
AcDbScale
 70
     0
300
2:1
140
2.0
141
1.0
290
     0
  0
SCALE
  5
106ABA8
102
{ACAD_REACTORS
330
106AB9A
102
}
330
106AB9A
100
AcDbScale
 70
     0
300
4:1
140
4.0
141
1.0
290
     0
  0
SCALE
  5
106ABA9
102
{ACAD_REACTORS
330
106AB9A
102
}
330
106AB9A
100
AcDbScale
 70
     0
300
8:1
140
8.0
141
1.0
290
     0
  0
SCALE
  5
106ABAA
102
{ACAD_REACTORS
330
106AB9A
102
}
330
106AB9A
100
AcDbScale
 70
     0
300
10:1
140
10.0
141
1.0
290
     0
  0
SCALE
  5
106ABAB
102
{ACAD_REACTORS
330
106AB9A
102
}
330
106AB9A
100
AcDbScale
 70
     0
300
100:1
140
100.0
141
1.0
290
     0
  0
SCALE
  5
106ABAC
102
{ACAD_REACTORS
330
106AB9A
102
}
330
106AB9A
100
AcDbScale
 70
     0
300
1/128" = 1'-0"
140
0.0078125
141
12.0
290
     0
  0
SCALE
  5
106ABAD
102
{ACAD_REACTORS
330
106AB9A
102
}
330
106AB9A
100
AcDbScale
 70
     0
300
1/64" = 1'-0"
140
0.015625
141
12.0
290
     0
  0
SCALE
  5
106ABAE
102
{ACAD_REACTORS
330
106AB9A
102
}
330
106AB9A
100
AcDbScale
 70
     0
300
1/32" = 1'-0"
140
0.03125
141
12.0
290
     0
  0
SCALE
  5
106ABAF
102
{ACAD_REACTORS
330
106AB9A
102
}
330
106AB9A
100
AcDbScale
 70
     0
300
1/16" = 1'-0"
140
0.0625
141
12.0
290
     0
  0
SCALE
  5
106ABB0
102
{ACAD_REACTORS
330
106AB9A
102
}
330
106AB9A
100
AcDbScale
 70
     0
300
3/32" = 1'-0"
140
0.09375
141
12.0
290
     0
  0
SCALE
  5
106ABB1
102
{ACAD_REACTORS
330
106AB9A
102
}
330
106AB9A
100
AcDbScale
 70
     0
300
1/8" = 1'-0"
140
0.125
141
12.0
290
     0
  0
SCALE
  5
106ABB2
102
{ACAD_REACTORS
330
106AB9A
102
}
330
106AB9A
100
AcDbScale
 70
     0
300
3/16" = 1'-0"
140
0.1875
141
12.0
290
     0
  0
SCALE
  5
106ABB3
102
{ACAD_REACTORS
330
106AB9A
102
}
330
106AB9A
100
AcDbScale
 70
     0
300
1/4" = 1'-0"
140
0.25
141
12.0
290
     0
  0
SCALE
  5
106ABB4
102
{ACAD_REACTORS
330
106AB9A
102
}
330
106AB9A
100
AcDbScale
 70
     0
300
3/8" = 1'-0"
140
0.375
141
12.0
290
     0
  0
SCALE
  5
106ABB5
102
{ACAD_REACTORS
330
106AB9A
102
}
330
106AB9A
100
AcDbScale
 70
     0
300
1/2" = 1'-0"
140
0.5
141
12.0
290
     0
  0
SCALE
  5
106ABB6
102
{ACAD_REACTORS
330
106AB9A
102
}
330
106AB9A
100
AcDbScale
 70
     0
300
3/4" = 1'-0"
140
0.75
141
12.0
290
     0
  0
SCALE
  5
106ABB7
102
{ACAD_REACTORS
330
106AB9A
102
}
330
106AB9A
100
AcDbScale
 70
     0
300
1" = 1'-0"
140
1.0
141
12.0
290
     0
  0
SCALE
  5
106ABB8
102
{ACAD_REACTORS
330
106AB9A
102
}
330
106AB9A
100
AcDbScale
 70
     0
300
1-1/2" = 1'-0"
140
1.5
141
12.0
290
     0
  0
SCALE
  5
106ABB9
102
{ACAD_REACTORS
330
106AB9A
102
}
330
106AB9A
100
AcDbScale
 70
     0
300
3" = 1'-0"
140
3.0
141
12.0
290
     0
  0
SCALE
  5
106ABBA
102
{ACAD_REACTORS
330
106AB9A
102
}
330
106AB9A
100
AcDbScale
 70
     0
300
6" = 1'-0"
140
6.0
141
12.0
290
     0
  0
SCALE
  5
106ABBB
102
{ACAD_REACTORS
330
106AB9A
102
}
330
106AB9A
100
AcDbScale
 70
     0
300
1'-0" = 1'-0"
140
12.0
141
12.0
290
     0
  0
TABLESTYLE
  5
106ABDA
102
{ACAD_REACTORS
330
106ABD9
102
}
330
106ABD9
100
AcDbTableStyle
  3
Standard
 70
     0
 71
     0
 40
0.06
 41
0.06
280
     0
281
     0
  7
Monospac821 BT
140
0.18
170
     2
 62
     0
 63
   257
283
     0
274
    -2
284
     1
 64
     0
275
    -2
285
     1
 65
     0
276
    -2
286
     1
 66
     0
277
    -2
287
     1
 67
     0
278
    -2
288
     1
 68
     0
279
    -2
289
     1
 69
     0
  7
Monospac821 BT
140
0.25
170
     5
 62
     0
 63
   257
283
     0
274
    -2
284
     1
 64
     0
275
    -2
285
     1
 65
     0
276
    -2
286
     1
 66
     0
277
    -2
287
     1
 67
     0
278
    -2
288
     1
 68
     0
279
    -2
289
     1
 69
     0
  7
Monospac821 BT
140
0.18
170
     5
 62
     0
 63
   257
283
     0
274
    -2
284
     1
 64
     0
275
    -2
285
     1
 65
     0
276
    -2
286
     1
 66
     0
277
    -2
287
     1
 67
     0
278
    -2
288
     1
 68
     0
279
    -2
289
     1
 69
     0
  0
VISUALSTYLE
  5
106ABC5
102
{ACAD_REACTORS
330
106ABC0
102
}
102
{ACAD_XDICTIONARY
360
106AC44
102
}
330
106ABC0
100
AcDbVisualStyle
  2
2dWireframe
 70
     4
 71
     0
 72
     2
 73
     0
 90
        0
 40
0.6
 41
30.0
 62
     5
 63
     7
 74
     1
 91
        4
 64
     7
 65
   257
 75
     1
175
     1
 42
1.0
 92
        0
 66
   257
 43
1.0
 76
     1
 77
     6
 78
     2
 67
     7
 79
     5
170
     0
171
     0
290
     0
174
     0
 93
        1
 44
0.0
173
     0
291
     0
 45
0.0
1001
ACAD
1000
AcDbSavedByObjectVersion
1070
     0
  0
VISUALSTYLE
  5
106ABC8
102
{ACAD_REACTORS
330
106ABC0
102
}
102
{ACAD_XDICTIONARY
360
106AC46
102
}
330
106ABC0
100
AcDbVisualStyle
  2
Basic
 70
     7
 71
     1
 72
     0
 73
     1
 90
        0
 40
0.6
 41
30.0
 62
     5
 63
     7
 74
     0
 91
        4
 64
     7
 65
   257
 75
     1
175
     1
 42
1.0
 92
        8
 66
     7
 43
1.0
 76
     1
 77
     6
 78
     2
 67
     7
 79
     5
170
     0
171
     0
290
     0
174
     0
 93
        1
 44
0.0
173
     0
291
     1
 45
0.0
1001
ACAD
1000
AcDbSavedByObjectVersion
1070
     0
  0
VISUALSTYLE
  5
106ABCC
102
{ACAD_REACTORS
330
106ABC0
102
}
102
{ACAD_XDICTIONARY
360
106AC48
102
}
330
106ABC0
100
AcDbVisualStyle
  2
Brighten
 70
    12
 71
     2
 72
     2
 73
     0
 90
        0
 40
0.6
 41
30.0
 62
     5
 63
     7
 74
     1
 91
        4
 64
     7
 65
   257
 75
     1
175
     1
 42
1.0
 92
        8
 66
     7
 43
1.0
 76
     1
 77
     6
 78
     2
 67
     7
 79
     5
170
     0
171
     0
290
     0
174
     0
 93
        1
 44
50.0
173
     0
291
     1
 45
0.0
1001
ACAD
1000
AcDbSavedByObjectVersion
1070
     0
  0
VISUALSTYLE
  5
106ABD0
102
{ACAD_REACTORS
330
106ABC0
102
}
102
{ACAD_XDICTIONARY
360
106AC4A
102
}
330
106ABC0
100
AcDbVisualStyle
  2
ColorChange
 70
    16
 71
     2
 72
     2
 73
     3
 90
        0
 40
0.6
 41
30.0
 62
     5
 63
     8
 74
     1
 91
        4
 64
     7
 65
   257
 75
     1
175
     1
 42
1.0
 92
        8
 66
     8
 43
1.0
 76
     1
 77
     6
 78
     2
 67
     7
 79
     5
170
     0
171
     0
290
     0
174
     0
 93
        1
 44
0.0
173
     0
291
     1
 45
0.0
1001
ACAD
1000
AcDbSavedByObjectVersion
1070
     0
  0
VISUALSTYLE
  5
106ABCA
102
{ACAD_REACTORS
330
106ABC0
102
}
102
{ACAD_XDICTIONARY
360
106AC4C
102
}
330
106ABC0
100
AcDbVisualStyle
  2
Conceptual
 70
     9
 71
     3
 72
     2
 73
     0
 90
        0
 40
0.6
 41
30.0
 62
     5
 63
     7
 74
     2
 91
        2
 64
     7
 65
   257
 75
     1
175
     1
 42
179.0
 92
        8
 66
     7
 43
1.0
 76
     1
 77
     6
 78
     2
 67
     7
 79
     3
170
     0
171
     0
290
     0
174
     0
 93
        1
 44
0.0
173
     0
291
     0
 45
0.0
1001
ACAD
1000
AcDbSavedByObjectVersion
1070
     0
  0
VISUALSTYLE
  5
106ABCB
102
{ACAD_REACTORS
330
106ABC0
102
}
102
{ACAD_XDICTIONARY
360
106AC4E
102
}
330
106ABC0
100
AcDbVisualStyle
  2
Dim
 70
    11
 71
     2
 72
     2
 73
     0
 90
        0
 40
0.6
 41
30.0
 62
     5
 63
     7
 74
     1
 91
        4
 64
     7
 65
   257
 75
     1
175
     1
 42
1.0
 92
        8
 66
     7
 43
1.0
 76
     1
 77
     6
 78
     2
 67
     7
 79
     5
170
     0
171
     0
290
     0
174
     0
 93
        1
 44
-50.0
173
     0
291
     1
 45
0.0
1001
ACAD
1000
AcDbSavedByObjectVersion
1070
     0
  0
VISUALSTYLE
  5
106ABD3
102
{ACAD_REACTORS
330
106ABC0
102
}
102
{ACAD_XDICTIONARY
360
106AC50
102
}
330
106ABC0
100
AcDbVisualStyle
  2
EdgeColorOff
 70
    22
 71
     2
 72
     2
 73
     0
 90
        0
 40
0.6
 41
30.0
 62
     5
 63
     7
 74
     1
 91
        4
 64
     7
 65
   257
 75
     1
175
     1
 42
1.0
 92
        8
 66
     7
 43
1.0
 76
     1
 77
     6
 78
     2
 67
     7
 79
     5
170
     0
171
     0
290
     0
174
     0
 93
        1
 44
0.0
173
     0
291
     1
 45
0.0
1001
ACAD
1000
AcDbSavedByObjectVersion
1070
     0
  0
VISUALSTYLE
  5
106ABCF
102
{ACAD_REACTORS
330
106ABC0
102
}
102
{ACAD_XDICTIONARY
360
106AC52
102
}
330
106ABC0
100
AcDbVisualStyle
  2
Facepattern
 70
    15
 71
     2
 72
     2
 73
     0
 90
        0
 40
0.6
 41
30.0
 62
     5
 63
     7
 74
     1
 91
        4
 64
     7
 65
   257
 75
     1
175
     1
 42
1.0
 92
        8
 66
     7
 43
1.0
 76
     1
 77
     6
 78
     2
 67
     7
 79
     5
170
     0
171
     0
290
     0
174
     0
 93
        1
 44
0.0
173
     0
291
     1
 45
0.0
1001
ACAD
1000
AcDbSavedByObjectVersion
1070
     0
  0
VISUALSTYLE
  5
106ABC1
102
{ACAD_REACTORS
330
106ABC0
102
}
102
{ACAD_XDICTIONARY
360
106AC54
102
}
330
106ABC0
100
AcDbVisualStyle
  2
Flat
 70
     0
 71
     2
 72
     1
 73
     1
 90
        2
 40
0.6
 41
30.0
 62
     5
 63
     7
 74
     0
 91
        0
 64
     7
 65
   257
 75
     1
175
     1
 42
1.0
 92
        8
 66
     7
 43
1.0
 76
     1
 77
     6
 78
     2
 67
     7
 79
     5
170
     0
171
     0
290
     0
174
     0
 93
       13
 44
0.0
173
     0
291
     1
 45
0.0
1001
ACAD
1000
AcDbSavedByObjectVersion
1070
     0
  0
VISUALSTYLE
  5
106ABC2
102
{ACAD_REACTORS
330
106ABC0
102
}
102
{ACAD_XDICTIONARY
360
106AC56
102
}
330
106ABC0
100
AcDbVisualStyle
  2
FlatWithEdges
 70
     1
 71
     2
 72
     1
 73
     1
 90
        2
 40
0.6
 41
30.0
 62
     5
 63
     7
 74
     1
 91
        0
 64
     7
 65
   257
 75
     1
175
     1
 42
1.0
 92
        0
 66
   257
 43
1.0
 76
     1
 77
     6
 78
     2
 67
     7
 79
     5
170
     0
171
     0
290
     0
174
     0
 93
       13
 44
0.0
173
     0
291
     1
 45
0.0
1001
ACAD
1000
AcDbSavedByObjectVersion
1070
     0
  0
VISUALSTYLE
  5
106ABC3
102
{ACAD_REACTORS
330
106ABC0
102
}
102
{ACAD_XDICTIONARY
360
106AC58
102
}
330
106ABC0
100
AcDbVisualStyle
  2
Gouraud
 70
     2
 71
     2
 72
     2
 73
     1
 90
        2
 40
0.6
 41
30.0
 62
     5
 63
     7
 74
     0
 91
        0
 64
     7
 65
   257
 75
     1
175
     1
 42
1.0
 92
        0
 66
     7
 43
1.0
 76
     1
 77
     6
 78
     2
 67
     7
 79
     5
170
     0
171
     0
290
     0
174
     0
 93
       13
 44
0.0
173
     0
291
     1
 45
0.0
1001
ACAD
1000
AcDbSavedByObjectVersion
1070
     0
  0
VISUALSTYLE
  5
106ABC4
102
{ACAD_REACTORS
330
106ABC0
102
}
102
{ACAD_XDICTIONARY
360
106AC5A
102
}
330
106ABC0
100
AcDbVisualStyle
  2
GouraudWithEdges
 70
     3
 71
     2
 72
     2
 73
     1
 90
        2
 40
0.6
 41
30.0
 62
     5
 63
     7
 74
     1
 91
        0
 64
     7
 65
   257
 75
     1
175
     1
 42
1.0
 92
        0
 66
   257
 43
1.0
 76
     1
 77
     6
 78
     2
 67
     7
 79
     5
170
     0
171
     0
290
     0
174
     0
 93
       13
 44
0.0
173
     0
291
     1
 45
0.0
1001
ACAD
1000
AcDbSavedByObjectVersion
1070
     0
  0
VISUALSTYLE
  5
106ABC7
102
{ACAD_REACTORS
330
106ABC0
102
}
102
{ACAD_XDICTIONARY
360
106AC5C
102
}
330
106ABC0
100
AcDbVisualStyle
  2
Hidden
 70
     6
 71
     1
 72
     2
 73
     2
 90
        0
 40
0.6
 41
30.0
 62
     5
 63
     7
 74
     2
 91
        2
 64
     7
 65
   257
 75
     2
175
     1
 42
40.0
 92
        0
 66
   257
 43
1.0
 76
     1
 77
     6
 78
     2
 67
     7
 79
     3
170
     0
171
     0
290
     0
174
     0
 93
        1
 44
0.0
173
     0
291
     0
 45
0.0
1001
ACAD
1000
AcDbSavedByObjectVersion
1070
     0
  0
VISUALSTYLE
  5
106ABD1
102
{ACAD_REACTORS
330
106ABC0
102
}
102
{ACAD_XDICTIONARY
360
106AC5E
102
}
330
106ABC0
100
AcDbVisualStyle
  2
JitterOff
 70
    20
 71
     2
 72
     2
 73
     0
 90
        0
 40
0.6
 41
30.0
 62
     5
 63
     7
 74
     1
 91
        4
 64
     7
 65
   257
 75
     1
175
     1
 42
1.0
 92
       10
 66
     7
 43
1.0
 76
     1
 77
     6
 78
     2
 67
     7
 79
     5
170
     0
171
     0
290
     0
174
     0
 93
        1
 44
0.0
173
     0
291
     1
 45
0.0
1001
ACAD
1000
AcDbSavedByObjectVersion
1070
     0
  0
VISUALSTYLE
  5
106ABCE
102
{ACAD_REACTORS
330
106ABC0
102
}
102
{ACAD_XDICTIONARY
360
106AC60
102
}
330
106ABC0
100
AcDbVisualStyle
  2
Linepattern
 70
    14
 71
     2
 72
     2
 73
     0
 90
        0
 40
0.6
 41
30.0
 62
     5
 63
     7
 74
     1
 91
        4
 64
     7
 65
   257
 75
     7
175
     7
 42
1.0
 92
        8
 66
     7
 43
1.0
 76
     1
 77
     6
 78
     2
 67
     7
 79
     5
170
     0
171
     0
290
     0
174
     0
 93
        1
 44
0.0
173
     0
291
     1
 45
0.0
1001
ACAD
1000
AcDbSavedByObjectVersion
1070
     0
  0
VISUALSTYLE
  5
106ABD2
102
{ACAD_REACTORS
330
106ABC0
102
}
102
{ACAD_XDICTIONARY
360
106AC62
102
}
330
106ABC0
100
AcDbVisualStyle
  2
OverhangOff
 70
    21
 71
     2
 72
     2
 73
     0
 90
        0
 40
0.6
 41
30.0
 62
     5
 63
     7
 74
     1
 91
        4
 64
     7
 65
   257
 75
     1
175
     1
 42
1.0
 92
        9
 66
     7
 43
1.0
 76
     1
 77
     6
 78
     2
 67
     7
 79
     5
170
     0
171
     0
290
     0
174
     0
 93
        1
 44
0.0
173
     0
291
     1
 45
0.0
1001
ACAD
1000
AcDbSavedByObjectVersion
1070
     0
  0
VISUALSTYLE
  5
106ABC9
102
{ACAD_REACTORS
330
106ABC0
102
}
102
{ACAD_XDICTIONARY
360
106AC64
102
}
330
106ABC0
100
AcDbVisualStyle
  2
Realistic
 70
     8
 71
     2
 72
     3
 73
     0
 90
        2
 40
0.6
 41
30.0
 62
     5
 63
     7
 74
     0
 91
        0
 64
     7
 65
   257
 75
     1
175
     1
 42
1.0
 92
        8
 66
   257
 43
1.0
 76
     1
 77
     6
 78
     2
 67
     7
 79
     3
170
     0
171
     0
290
     0
174
     0
 93
       13
 44
0.0
173
     0
291
     0
 45
0.0
1001
ACAD
1000
AcDbSavedByObjectVersion
1070
     0
  0
VISUALSTYLE
  5
106ABD8
102
{ACAD_REACTORS
330
106ABC0
102
}
102
{ACAD_XDICTIONARY
360
106AC66
102
}
330
106ABC0
100
AcDbVisualStyle
  2
Shaded
 70
    27
 71
     2
 72
     2
 73
     1
 90
        2
 40
0.6
 41
30.0
 62
     5
 63
     7
 74
     0
 91
        4
 64
     7
 65
   257
 75
     1
175
     1
 42
1.0
 92
        8
 66
   257
 43
1.0
 76
     1
 77
     6
 78
     2
 67
     8
 79
     3
170
     0
171
     0
290
     0
174
     0
 93
        5
 44
0.0
173
     0
291
     0
 45
0.0
1001
ACAD
1000
AcDbSavedByObjectVersion
1070
     0
  0
VISUALSTYLE
  5
106ABD7
102
{ACAD_REACTORS
330
106ABC0
102
}
102
{ACAD_XDICTIONARY
360
106AC68
102
}
330
106ABC0
100
AcDbVisualStyle
  2
Shaded with edges
 70
    26
 71
     2
 72
     2
 73
     1
 90
        2
 40
0.6
 41
30.0
 62
     5
 63
     7
 74
     1
 91
       10
 64
     7
 65
   257
 75
     2
175
     1
 42
1.0
 92
        8
 66
   257
 43
1.0
 76
     1
 77
     6
 78
     2
 67
     7
 79
     3
170
     0
171
     0
290
     0
174
     0
 93
        5
 44
0.0
173
     0
291
     0
 45
0.0
1001
ACAD
1000
AcDbSavedByObjectVersion
1070
     0
  0
VISUALSTYLE
  5
106ABD4
102
{ACAD_REACTORS
330
106ABC0
102
}
102
{ACAD_XDICTIONARY
360
106AC6A
102
}
330
106ABC0
100
AcDbVisualStyle
  2
Shades of Gray
 70
    23
 71
     2
 72
     2
 73
     3
 90
        0
 40
0.6
 41
30.0
 62
     5
 63
     7
 74
     2
 91
        2
 64
     7
 65
     7
 75
     1
175
     1
 42
40.0
 92
        8
 66
     7
 43
1.0
 76
     1
 77
     6
 78
     2
 67
     7
 79
     3
170
     0
171
     0
290
     0
174
     0
 93
        1
 44
0.0
173
     0
291
     0
 45
0.0
1001
ACAD
1000
AcDbSavedByObjectVersion
1070
     0
  0
VISUALSTYLE
  5
106ABD5
102
{ACAD_REACTORS
330
106ABC0
102
}
102
{ACAD_XDICTIONARY
360
106AC6C
102
}
330
106ABC0
100
AcDbVisualStyle
  2
Sketchy
 70
    24
 71
     1
 72
     2
 73
     2
 90
        0
 40
0.6
 41
30.0
 62
     5
 63
     7
 74
     2
 91
        2
 64
     7
 65
     7
 75
     1
175
     1
 42
40.0
 92
       11
 66
     7
 43
1.0
 76
     1
 77
     6
 78
     2
 67
     7
 79
     6
170
     0
171
     0
290
     0
174
     0
 93
        1
 44
0.0
173
     0
291
     0
 45
0.0
1001
ACAD
1000
AcDbSavedByObjectVersion
1070
     0
  0
VISUALSTYLE
  5
106ABCD
102
{ACAD_REACTORS
330
106ABC0
102
}
102
{ACAD_XDICTIONARY
360
106AC6E
102
}
330
106ABC0
100
AcDbVisualStyle
  2
Thicken
 70
    13
 71
     2
 72
     2
 73
     0
 90
        0
 40
0.6
 41
30.0
 62
     5
 63
     7
 74
     1
 91
        4
 64
     7
 65
   257
 75
     1
175
     1
 42
1.0
 92
       12
 66
     7
 43
1.0
 76
     1
 77
     6
 78
     2
 67
     7
 79
     5
170
     0
171
     0
290
     0
174
     0
 93
        1
 44
0.0
173
     0
291
     1
 45
0.0
1001
ACAD
1000
AcDbSavedByObjectVersion
1070
     0
  0
VISUALSTYLE
  5
106ABC6
102
{ACAD_REACTORS
330
106ABC0
102
}
102
{ACAD_XDICTIONARY
360
106AC70
102
}
330
106ABC0
100
AcDbVisualStyle
  2
Wireframe
 70
     5
 71
     0
 72
     2
 73
     0
 90
        0
 40
0.6
 41
30.0
 62
     5
 63
     7
 74
     1
 91
        4
 64
     7
 65
   257
 75
     1
175
     1
 42
1.0
 92
        0
 66
   257
 43
1.0
 76
     1
 77
     6
 78
     2
 67
     7
 79
     3
170
     0
171
     0
290
     0
174
     0
 93
        1
 44
0.0
173
     0
291
     0
 45
0.0
1001
ACAD
1000
AcDbSavedByObjectVersion
1070
     0
  0
VISUALSTYLE
  5
106ABD6
102
{ACAD_REACTORS
330
106ABC0
102
}
102
{ACAD_XDICTIONARY
360
106AC72
102
}
330
106ABC0
100
AcDbVisualStyle
  2
X-Ray
 70
    25
 71
     2
 72
     2
 73
     1
 90
        1
 40
0.5
 41
30.0
 62
     5
 63
     7
 74
     1
 91
        0
 64
     7
 65
   257
 75
     1
175
     1
 42
1.0
 92
        8
 66
     7
 43
1.0
 76
     1
 77
     6
 78
     2
 67
     7
 79
     3
170
     0
171
     0
290
     0
174
     0
 93
       13
 44
0.0
173
     0
291
     0
 45
0.0
1001
ACAD
1000
AcDbSavedByObjectVersion
1070
     0
  0
DICTIONARYVAR
  5
106AC3B
102
{ACAD_REACTORS
330
106ABF0
102
}
330
106ABF0
100
DictionaryVariables
280
     0
  1
1:1
  0
DICTIONARYVAR
  5
106ABF2
102
{ACAD_REACTORS
330
106ABF0
102
}
330
106ABF0
100
DictionaryVariables
280
     0
  1
Standard
  0
DICTIONARYVAR
  5
106ABF1
102
{ACAD_REACTORS
330
106ABF0
102
}
330
106ABF0
100
DictionaryVariables
280
     0
  1
Standard
  0
DICTIONARYVAR
  5
106ABF6
102
{ACAD_REACTORS
330
106ABF0
102
}
330
106ABF0
100
DictionaryVariables
280
     0
  1
2
  0
DICTIONARYVAR
  5
106ABF7
102
{ACAD_REACTORS
330
106ABF0
102
}
330
106ABF0
100
DictionaryVariables
280
     0
  1
1
  0
DICTIONARYVAR
  5
106ABF3
102
{ACAD_REACTORS
330
106ABF0
102
}
330
106ABF0
100
DictionaryVariables
280
     0
  1
0
  0
DICTIONARY
  5
106AC3C
330
106ABBE
100
AcDbDictionary
280
     1
281
     1
  3
ACAD_XREC_ROUNDTRIP
360
106AC3D
  0
DICTIONARY
  5
106AC3E
330
106ABBD
100
AcDbDictionary
280
     1
281
     1
  3
ACAD_XREC_ROUNDTRIP
360
106AC3F
  0
DICTIONARY
  5
106AC40
330
106ABBF
100
AcDbDictionary
280
     1
281
     1
  3
ACAD_XREC_ROUNDTRIP
360
106AC41
  0
DICTIONARY
  5
106AC42
330
106ABDC
100
AcDbDictionary
280
     1
281
     1
  3
ACAD_XREC_ROUNDTRIP
360
106AC43
  0
DICTIONARY
  5
106AC44
330
106ABC5
100
AcDbDictionary
280
     1
281
     1
  3
ACAD_XREC_ROUNDTRIP
360
106AC45
  0
DICTIONARY
  5
106AC46
330
106ABC8
100
AcDbDictionary
280
     1
281
     1
  3
ACAD_XREC_ROUNDTRIP
360
106AC47
  0
DICTIONARY
  5
106AC48
330
106ABCC
100
AcDbDictionary
280
     1
281
     1
  3
ACAD_XREC_ROUNDTRIP
360
106AC49
  0
DICTIONARY
  5
106AC4A
330
106ABD0
100
AcDbDictionary
280
     1
281
     1
  3
ACAD_XREC_ROUNDTRIP
360
106AC4B
  0
DICTIONARY
  5
106AC4C
330
106ABCA
100
AcDbDictionary
280
     1
281
     1
  3
ACAD_XREC_ROUNDTRIP
360
106AC4D
  0
DICTIONARY
  5
106AC4E
330
106ABCB
100
AcDbDictionary
280
     1
281
     1
  3
ACAD_XREC_ROUNDTRIP
360
106AC4F
  0
DICTIONARY
  5
106AC50
330
106ABD3
100
AcDbDictionary
280
     1
281
     1
  3
ACAD_XREC_ROUNDTRIP
360
106AC51
  0
DICTIONARY
  5
106AC52
330
106ABCF
100
AcDbDictionary
280
     1
281
     1
  3
ACAD_XREC_ROUNDTRIP
360
106AC53
  0
DICTIONARY
  5
106AC54
330
106ABC1
100
AcDbDictionary
280
     1
281
     1
  3
ACAD_XREC_ROUNDTRIP
360
106AC55
  0
DICTIONARY
  5
106AC56
330
106ABC2
100
AcDbDictionary
280
     1
281
     1
  3
ACAD_XREC_ROUNDTRIP
360
106AC57
  0
DICTIONARY
  5
106AC58
330
106ABC3
100
AcDbDictionary
280
     1
281
     1
  3
ACAD_XREC_ROUNDTRIP
360
106AC59
  0
DICTIONARY
  5
106AC5A
330
106ABC4
100
AcDbDictionary
280
     1
281
     1
  3
ACAD_XREC_ROUNDTRIP
360
106AC5B
  0
DICTIONARY
  5
106AC5C
330
106ABC7
100
AcDbDictionary
280
     1
281
     1
  3
ACAD_XREC_ROUNDTRIP
360
106AC5D
  0
DICTIONARY
  5
106AC5E
330
106ABD1
100
AcDbDictionary
280
     1
281
     1
  3
ACAD_XREC_ROUNDTRIP
360
106AC5F
  0
DICTIONARY
  5
106AC60
330
106ABCE
100
AcDbDictionary
280
     1
281
     1
  3
ACAD_XREC_ROUNDTRIP
360
106AC61
  0
DICTIONARY
  5
106AC62
330
106ABD2
100
AcDbDictionary
280
     1
281
     1
  3
ACAD_XREC_ROUNDTRIP
360
106AC63
  0
DICTIONARY
  5
106AC64
330
106ABC9
100
AcDbDictionary
280
     1
281
     1
  3
ACAD_XREC_ROUNDTRIP
360
106AC65
  0
DICTIONARY
  5
106AC66
330
106ABD8
100
AcDbDictionary
280
     1
281
     1
  3
ACAD_XREC_ROUNDTRIP
360
106AC67
  0
DICTIONARY
  5
106AC68
330
106ABD7
100
AcDbDictionary
280
     1
281
     1
  3
ACAD_XREC_ROUNDTRIP
360
106AC69
  0
DICTIONARY
  5
106AC6A
330
106ABD4
100
AcDbDictionary
280
     1
281
     1
  3
ACAD_XREC_ROUNDTRIP
360
106AC6B
  0
DICTIONARY
  5
106AC6C
330
106ABD5
100
AcDbDictionary
280
     1
281
     1
  3
ACAD_XREC_ROUNDTRIP
360
106AC6D
  0
DICTIONARY
  5
106AC6E
330
106ABCD
100
AcDbDictionary
280
     1
281
     1
  3
ACAD_XREC_ROUNDTRIP
360
106AC6F
  0
DICTIONARY
  5
106AC70
330
106ABC6
100
AcDbDictionary
280
     1
281
     1
  3
ACAD_XREC_ROUNDTRIP
360
106AC71
  0
DICTIONARY
  5
106AC72
330
106ABD6
100
AcDbDictionary
280
     1
281
     1
  3
ACAD_XREC_ROUNDTRIP
360
106AC73
  0
XRECORD
  5
106AC3D
102
{ACAD_REACTORS
330
106AC3C
102
}
330
106AC3C
100
AcDbXrecord
280
     1
102
MATERIAL
148
0.0
149
0.0
149
0.0
 93
        0
 94
      127
282
     0
 72
     1
 77
     1
171
     1
175
     1
179
     1
273
     0
  0
XRECORD
  5
106AC3F
102
{ACAD_REACTORS
330
106AC3E
102
}
330
106AC3E
100
AcDbXrecord
280
     1
102
MATERIAL
148
0.0
149
0.0
149
0.0
 93
        0
 94
      127
282
     0
 72
     1
 77
     1
171
     1
175
     1
179
     1
273
     0
  0
XRECORD
  5
106AC41
102
{ACAD_REACTORS
330
106AC40
102
}
330
106AC40
100
AcDbXrecord
280
     1
102
MATERIAL
148
0.0
149
0.0
149
0.0
 93
        0
 94
      127
282
     0
 72
     1
 77
     1
171
     1
175
     1
179
     1
273
     0
  0
XRECORD
  5
106AC43
102
{ACAD_REACTORS
330
106AC42
102
}
330
106AC42
100
AcDbXrecord
280
     1
102
ACAD_ROUNDTRIP_2010_MLEADER_STYLE
  0
XRECORD
  5
106AC45
102
{ACAD_REACTORS
330
106AC44
102
}
330
106AC44
100
AcDbXrecord
280
     1
102
RTVSPropertyOp0
 70
     1
102
RTVSPropertyOp1
 70
     1
102
RTVSPropertyOp2
 70
     1
102
RTVSPropertyOp3
 70
     1
102
RTVSPropertyOp4
 70
     1
102
RTVSPropertyOp5
 70
     1
102
RTVSPropertyOp6
 70
     1
102
RTVSPropertyOp7
 70
     1
102
RTVSPropertyOp8
 70
     1
102
RTVSPropertyOp9
 70
     1
102
RTVSPropertyOp10
 70
     1
102
RTVSPropertyOp11
 70
     1
102
RTVSPropertyOp12
 70
     1
102
RTVSPropertyOp13
 70
     1
102
RTVSPropertyOp14
 70
     1
102
RTVSPropertyOp15
 70
     1
102
RTVSPropertyOp16
 70
     1
102
RTVSPropertyOp17
 70
     1
102
RTVSPropertyOp18
 70
     1
102
RTVSPropertyOp19
 70
     1
102
RTVSPropertyOp20
 70
     1
102
RTVSPropertyOp21
 70
     1
102
RTVSPropertyOp22
 70
     1
102
RTVSPropertyOp23
 70
     1
102
RTVSPropertyOp24
 70
     1
102
RTVSPropertyOp25
 70
     1
102
RTVSPropertyOp26
 70
     1
102
RTVSPropertyOp27
 70
     1
102
RTVSPropertyOp28
 70
     1
102
RTVSPropertyOp29
 70
     1
102
RTVSPropertyOp30
 70
     1
102
RTVSPropertyOp31
 70
     1
102
RTVSPropertyOp32
 70
     1
102
RTVSPropertyOp33
 70
     1
102
RTVSPropertyOp34
 70
     1
102
RTVSPropertyOp35
 70
     1
102
RTVSPropertyOp36
 70
     1
102
RTVSPropertyOp37
 70
     1
102
RTVSPropertyOp38
 70
     1
102
RTVSPropertyOp39
 70
     1
102
RTVSPropertyOp40
 70
     1
102
RTVSPropertyOp41
 70
     1
102
RTVSPropertyOp42
 70
     1
102
RTVSPropertyOp43
 70
     1
102
RTVSPropertyOp44
 70
     1
102
RTVSPropertyOp45
 70
     1
102
RTVSPropertyOp46
 70
     1
102
RTVSPropertyOp47
 70
     1
102
RTVSPropertyOp48
 70
     1
102
RTVSPropertyOp49
 70
     1
102
RTVSPropertyOp50
 70
     1
102
RTVSPropertyOp51
 70
     0
102
RTVSPropertyOp52
 70
     0
102
RTVSPropertyOp53
 70
     1
102
RTVSPropertyOp54
 70
     1
102
RTVSPropertyOp55
 70
     1
102
RTVSPropertyOp56
 70
     1
102
RTVSPropertyOp57
 70
     1
102
RTVSPost2010Prop28
280
     1
102
RTVSPost2010PropOp28
 70
     1
102
RTVSPost2010Prop29
280
     1
102
RTVSPost2010PropOp29
 70
     1
102
RTVSPost2010Prop30
280
     0
102
RTVSPost2010PropOp30
 70
     1
102
RTVSPost2010Prop31
280
     0
102
RTVSPost2010PropOp31
 70
     1
102
RTVSPost2010Prop32
280
     0
102
RTVSPost2010PropOp32
 70
     1
102
RTVSPost2010Prop33
280
     0
102
RTVSPost2010PropOp33
 70
     1
102
RTVSPost2010Prop34
280
     0
102
RTVSPost2010PropOp34
 70
     1
102
RTVSPost2010Prop35
280
     0
102
RTVSPost2010PropOp35
 70
     1
102
RTVSPost2010Prop36
280
     0
102
RTVSPost2010PropOp36
 70
     1
102
RTVSPost2010Prop37
 90
       50
102
RTVSPost2010PropOp37
 70
     1
102
RTVSPost2010Prop38
140
0.0
102
RTVSPost2010PropOp38
 70
     1
102
RTVSPost2010Prop39
140
1.0
102
RTVSPost2010PropOp39
 70
     1
102
RTVSPost2010Prop40
 90
        0
102
RTVSPost2010PropOp40
 70
     1
102
RTVSPost2010Prop41ColorIndex
 90
       18
102
RTVSPost2010Prop41ColorRGB
 90
        0
102
RTVSPost2010PropOp41
 70
     1
102
RTVSPost2010Prop42
 90
       50
102
RTVSPost2010PropOp42
 70
     1
102
RTVSPost2010Prop43
 90
        3
102
RTVSPost2010PropOp43
 70
     1
102
RTVSPost2010Prop44ColorIndex
 90
        5
102
RTVSPost2010Prop44ColorRGB
 90
      255
102
RTVSPost2010PropOp44
 70
     1
102
RTVSPost2010Prop45
280
     0
102
RTVSPost2010PropOp45
 70
     1
102
RTVSPost2010Prop46
 90
       50
102
RTVSPost2010PropOp46
 70
     1
102
RTVSPost2010Prop47
 90
       50
102
RTVSPost2010PropOp47
 70
     1
102
RTVSPost2010Prop48
 90
       50
102
RTVSPost2010PropOp48
 70
     1
102
RTVSPost2010Prop49
280
     0
102
RTVSPost2010PropOp49
 70
     1
102
RTVSPost2010Prop50
 90
       50
102
RTVSPost2010PropOp50
 70
     1
102
RTVSPost2010Prop51ColorIndex
 90
      256
102
RTVSPost2010Prop51ColorRGB
 90
-16777216
102
RTVSPost2010PropOp51
 70
     0
102
RTVSPost2010Prop52
140
1.0
102
RTVSPost2010PropOp52
 70
     0
102
RTVSPost2010Prop53
 90
        2
102
RTVSPost2010PropOp53
 70
     1
102
RTVSPost2010Prop54
  1
strokes_ogs.tif
102
RTVSPost2010PropOp54
 70
     1
102
RTVSPost2010Prop55
280
     0
102
RTVSPost2010PropOp55
 70
     1
102
RTVSPost2010Prop56
140
1.0
102
RTVSPost2010PropOp56
 70
     1
102
RTVSPost2010Prop57
140
1.0
102
RTVSPost2010PropOp57
 70
     1
  0
XRECORD
  5
106AC47
102
{ACAD_REACTORS
330
106AC46
102
}
330
106AC46
100
AcDbXrecord
280
     1
102
RTVSPropertyOp0
 70
     1
102
RTVSPropertyOp1
 70
     1
102
RTVSPropertyOp2
 70
     1
102
RTVSPropertyOp3
 70
     1
102
RTVSPropertyOp4
 70
     1
102
RTVSPropertyOp5
 70
     1
102
RTVSPropertyOp6
 70
     1
102
RTVSPropertyOp7
 70
     1
102
RTVSPropertyOp8
 70
     1
102
RTVSPropertyOp9
 70
     1
102
RTVSPropertyOp10
 70
     1
102
RTVSPropertyOp11
 70
     1
102
RTVSPropertyOp12
 70
     1
102
RTVSPropertyOp13
 70
     1
102
RTVSPropertyOp14
 70
     1
102
RTVSPropertyOp15
 70
     1
102
RTVSPropertyOp16
 70
     1
102
RTVSPropertyOp17
 70
     1
102
RTVSPropertyOp18
 70
     1
102
RTVSPropertyOp19
 70
     1
102
RTVSPropertyOp20
 70
     1
102
RTVSPropertyOp21
 70
     1
102
RTVSPropertyOp22
 70
     1
102
RTVSPropertyOp23
 70
     1
102
RTVSPropertyOp24
 70
     1
102
RTVSPropertyOp25
 70
     1
102
RTVSPropertyOp26
 70
     1
102
RTVSPropertyOp27
 70
     1
102
RTVSPropertyOp28
 70
     1
102
RTVSPropertyOp29
 70
     1
102
RTVSPropertyOp30
 70
     1
102
RTVSPropertyOp31
 70
     1
102
RTVSPropertyOp32
 70
     1
102
RTVSPropertyOp33
 70
     1
102
RTVSPropertyOp34
 70
     1
102
RTVSPropertyOp35
 70
     1
102
RTVSPropertyOp36
 70
     1
102
RTVSPropertyOp37
 70
     1
102
RTVSPropertyOp38
 70
     1
102
RTVSPropertyOp39
 70
     1
102
RTVSPropertyOp40
 70
     1
102
RTVSPropertyOp41
 70
     1
102
RTVSPropertyOp42
 70
     1
102
RTVSPropertyOp43
 70
     1
102
RTVSPropertyOp44
 70
     1
102
RTVSPropertyOp45
 70
     1
102
RTVSPropertyOp46
 70
     1
102
RTVSPropertyOp47
 70
     1
102
RTVSPropertyOp48
 70
     1
102
RTVSPropertyOp49
 70
     1
102
RTVSPropertyOp50
 70
     1
102
RTVSPropertyOp51
 70
     0
102
RTVSPropertyOp52
 70
     0
102
RTVSPropertyOp53
 70
     1
102
RTVSPropertyOp54
 70
     1
102
RTVSPropertyOp55
 70
     1
102
RTVSPropertyOp56
 70
     1
102
RTVSPropertyOp57
 70
     1
102
RTVSPost2010Prop28
280
     0
102
RTVSPost2010PropOp28
 70
     1
102
RTVSPost2010Prop29
280
     1
102
RTVSPost2010PropOp29
 70
     1
102
RTVSPost2010Prop30
280
     1
102
RTVSPost2010PropOp30
 70
     1
102
RTVSPost2010Prop31
280
     0
102
RTVSPost2010PropOp31
 70
     1
102
RTVSPost2010Prop32
280
     0
102
RTVSPost2010PropOp32
 70
     1
102
RTVSPost2010Prop33
280
     0
102
RTVSPost2010PropOp33
 70
     1
102
RTVSPost2010Prop34
280
     0
102
RTVSPost2010PropOp34
 70
     1
102
RTVSPost2010Prop35
280
     0
102
RTVSPost2010PropOp35
 70
     1
102
RTVSPost2010Prop36
280
     0
102
RTVSPost2010PropOp36
 70
     1
102
RTVSPost2010Prop37
 90
       50
102
RTVSPost2010PropOp37
 70
     1
102
RTVSPost2010Prop38
140
0.0
102
RTVSPost2010PropOp38
 70
     1
102
RTVSPost2010Prop39
140
1.0
102
RTVSPost2010PropOp39
 70
     1
102
RTVSPost2010Prop40
 90
        0
102
RTVSPost2010PropOp40
 70
     1
102
RTVSPost2010Prop41ColorIndex
 90
       18
102
RTVSPost2010Prop41ColorRGB
 90
        0
102
RTVSPost2010PropOp41
 70
     1
102
RTVSPost2010Prop42
 90
       50
102
RTVSPost2010PropOp42
 70
     1
102
RTVSPost2010Prop43
 90
        3
102
RTVSPost2010PropOp43
 70
     1
102
RTVSPost2010Prop44ColorIndex
 90
        5
102
RTVSPost2010Prop44ColorRGB
 90
      255
102
RTVSPost2010PropOp44
 70
     1
102
RTVSPost2010Prop45
280
     0
102
RTVSPost2010PropOp45
 70
     1
102
RTVSPost2010Prop46
 90
       50
102
RTVSPost2010PropOp46
 70
     1
102
RTVSPost2010Prop47
 90
       50
102
RTVSPost2010PropOp47
 70
     1
102
RTVSPost2010Prop48
 90
       50
102
RTVSPost2010PropOp48
 70
     1
102
RTVSPost2010Prop49
280
     0
102
RTVSPost2010PropOp49
 70
     1
102
RTVSPost2010Prop50
 90
       50
102
RTVSPost2010PropOp50
 70
     1
102
RTVSPost2010Prop51ColorIndex
 90
      256
102
RTVSPost2010Prop51ColorRGB
 90
-16777216
102
RTVSPost2010PropOp51
 70
     0
102
RTVSPost2010Prop52
140
1.0
102
RTVSPost2010PropOp52
 70
     0
102
RTVSPost2010Prop53
 90
        2
102
RTVSPost2010PropOp53
 70
     1
102
RTVSPost2010Prop54
  1
strokes_ogs.tif
102
RTVSPost2010PropOp54
 70
     1
102
RTVSPost2010Prop55
280
     0
102
RTVSPost2010PropOp55
 70
     1
102
RTVSPost2010Prop56
140
1.0
102
RTVSPost2010PropOp56
 70
     1
102
RTVSPost2010Prop57
140
1.0
102
RTVSPost2010PropOp57
 70
     1
  0
XRECORD
  5
106AC49
102
{ACAD_REACTORS
330
106AC48
102
}
330
106AC48
100
AcDbXrecord
280
     1
102
RTVSPropertyOp0
 70
     1
102
RTVSPropertyOp1
 70
     1
102
RTVSPropertyOp2
 70
     1
102
RTVSPropertyOp3
 70
     1
102
RTVSPropertyOp4
 70
     1
102
RTVSPropertyOp5
 70
     1
102
RTVSPropertyOp6
 70
     1
102
RTVSPropertyOp7
 70
     1
102
RTVSPropertyOp8
 70
     1
102
RTVSPropertyOp9
 70
     1
102
RTVSPropertyOp10
 70
     1
102
RTVSPropertyOp11
 70
     1
102
RTVSPropertyOp12
 70
     1
102
RTVSPropertyOp13
 70
     1
102
RTVSPropertyOp14
 70
     1
102
RTVSPropertyOp15
 70
     1
102
RTVSPropertyOp16
 70
     1
102
RTVSPropertyOp17
 70
     1
102
RTVSPropertyOp18
 70
     1
102
RTVSPropertyOp19
 70
     1
102
RTVSPropertyOp20
 70
     1
102
RTVSPropertyOp21
 70
     1
102
RTVSPropertyOp22
 70
     1
102
RTVSPropertyOp23
 70
     1
102
RTVSPropertyOp24
 70
     1
102
RTVSPropertyOp25
 70
     1
102
RTVSPropertyOp26
 70
     1
102
RTVSPropertyOp27
 70
     1
102
RTVSPropertyOp28
 70
     1
102
RTVSPropertyOp29
 70
     1
102
RTVSPropertyOp30
 70
     1
102
RTVSPropertyOp31
 70
     1
102
RTVSPropertyOp32
 70
     1
102
RTVSPropertyOp33
 70
     1
102
RTVSPropertyOp34
 70
     1
102
RTVSPropertyOp35
 70
     1
102
RTVSPropertyOp36
 70
     1
102
RTVSPropertyOp37
 70
     1
102
RTVSPropertyOp38
 70
     1
102
RTVSPropertyOp39
 70
     1
102
RTVSPropertyOp40
 70
     1
102
RTVSPropertyOp41
 70
     1
102
RTVSPropertyOp42
 70
     1
102
RTVSPropertyOp43
 70
     1
102
RTVSPropertyOp44
 70
     1
102
RTVSPropertyOp45
 70
     1
102
RTVSPropertyOp46
 70
     1
102
RTVSPropertyOp47
 70
     1
102
RTVSPropertyOp48
 70
     1
102
RTVSPropertyOp49
 70
     1
102
RTVSPropertyOp50
 70
     1
102
RTVSPropertyOp51
 70
     0
102
RTVSPropertyOp52
 70
     0
102
RTVSPropertyOp53
 70
     1
102
RTVSPropertyOp54
 70
     1
102
RTVSPropertyOp55
 70
     1
102
RTVSPropertyOp56
 70
     1
102
RTVSPropertyOp57
 70
     1
102
RTVSPost2010Prop28
280
     0
102
RTVSPost2010PropOp28
 70
     1
102
RTVSPost2010Prop29
280
     1
102
RTVSPost2010PropOp29
 70
     1
102
RTVSPost2010Prop30
280
     1
102
RTVSPost2010PropOp30
 70
     1
102
RTVSPost2010Prop31
280
     0
102
RTVSPost2010PropOp31
 70
     1
102
RTVSPost2010Prop32
280
     0
102
RTVSPost2010PropOp32
 70
     1
102
RTVSPost2010Prop33
280
     0
102
RTVSPost2010PropOp33
 70
     1
102
RTVSPost2010Prop34
280
     0
102
RTVSPost2010PropOp34
 70
     1
102
RTVSPost2010Prop35
280
     0
102
RTVSPost2010PropOp35
 70
     1
102
RTVSPost2010Prop36
280
     0
102
RTVSPost2010PropOp36
 70
     1
102
RTVSPost2010Prop37
 90
       50
102
RTVSPost2010PropOp37
 70
     1
102
RTVSPost2010Prop38
140
0.0
102
RTVSPost2010PropOp38
 70
     1
102
RTVSPost2010Prop39
140
1.0
102
RTVSPost2010PropOp39
 70
     1
102
RTVSPost2010Prop40
 90
        0
102
RTVSPost2010PropOp40
 70
     1
102
RTVSPost2010Prop41ColorIndex
 90
       18
102
RTVSPost2010Prop41ColorRGB
 90
        0
102
RTVSPost2010PropOp41
 70
     1
102
RTVSPost2010Prop42
 90
       50
102
RTVSPost2010PropOp42
 70
     1
102
RTVSPost2010Prop43
 90
        3
102
RTVSPost2010PropOp43
 70
     1
102
RTVSPost2010Prop44ColorIndex
 90
        5
102
RTVSPost2010Prop44ColorRGB
 90
      255
102
RTVSPost2010PropOp44
 70
     1
102
RTVSPost2010Prop45
280
     0
102
RTVSPost2010PropOp45
 70
     1
102
RTVSPost2010Prop46
 90
       50
102
RTVSPost2010PropOp46
 70
     1
102
RTVSPost2010Prop47
 90
       50
102
RTVSPost2010PropOp47
 70
     1
102
RTVSPost2010Prop48
 90
       50
102
RTVSPost2010PropOp48
 70
     1
102
RTVSPost2010Prop49
280
     0
102
RTVSPost2010PropOp49
 70
     1
102
RTVSPost2010Prop50
 90
       50
102
RTVSPost2010PropOp50
 70
     1
102
RTVSPost2010Prop51ColorIndex
 90
      256
102
RTVSPost2010Prop51ColorRGB
 90
-16777216
102
RTVSPost2010PropOp51
 70
     0
102
RTVSPost2010Prop52
140
1.0
102
RTVSPost2010PropOp52
 70
     0
102
RTVSPost2010Prop53
 90
        2
102
RTVSPost2010PropOp53
 70
     1
102
RTVSPost2010Prop54
  1
strokes_ogs.tif
102
RTVSPost2010PropOp54
 70
     1
102
RTVSPost2010Prop55
280
     0
102
RTVSPost2010PropOp55
 70
     1
102
RTVSPost2010Prop56
140
1.0
102
RTVSPost2010PropOp56
 70
     1
102
RTVSPost2010Prop57
140
1.0
102
RTVSPost2010PropOp57
 70
     1
  0
XRECORD
  5
106AC4B
102
{ACAD_REACTORS
330
106AC4A
102
}
330
106AC4A
100
AcDbXrecord
280
     1
102
RTVSPropertyOp0
 70
     1
102
RTVSPropertyOp1
 70
     1
102
RTVSPropertyOp2
 70
     1
102
RTVSPropertyOp3
 70
     1
102
RTVSPropertyOp4
 70
     1
102
RTVSPropertyOp5
 70
     1
102
RTVSPropertyOp6
 70
     1
102
RTVSPropertyOp7
 70
     1
102
RTVSPropertyOp8
 70
     1
102
RTVSPropertyOp9
 70
     1
102
RTVSPropertyOp10
 70
     1
102
RTVSPropertyOp11
 70
     1
102
RTVSPropertyOp12
 70
     1
102
RTVSPropertyOp13
 70
     1
102
RTVSPropertyOp14
 70
     1
102
RTVSPropertyOp15
 70
     1
102
RTVSPropertyOp16
 70
     1
102
RTVSPropertyOp17
 70
     1
102
RTVSPropertyOp18
 70
     1
102
RTVSPropertyOp19
 70
     1
102
RTVSPropertyOp20
 70
     1
102
RTVSPropertyOp21
 70
     1
102
RTVSPropertyOp22
 70
     1
102
RTVSPropertyOp23
 70
     1
102
RTVSPropertyOp24
 70
     1
102
RTVSPropertyOp25
 70
     1
102
RTVSPropertyOp26
 70
     1
102
RTVSPropertyOp27
 70
     1
102
RTVSPropertyOp28
 70
     1
102
RTVSPropertyOp29
 70
     1
102
RTVSPropertyOp30
 70
     1
102
RTVSPropertyOp31
 70
     1
102
RTVSPropertyOp32
 70
     1
102
RTVSPropertyOp33
 70
     1
102
RTVSPropertyOp34
 70
     1
102
RTVSPropertyOp35
 70
     1
102
RTVSPropertyOp36
 70
     1
102
RTVSPropertyOp37
 70
     1
102
RTVSPropertyOp38
 70
     1
102
RTVSPropertyOp39
 70
     1
102
RTVSPropertyOp40
 70
     1
102
RTVSPropertyOp41
 70
     1
102
RTVSPropertyOp42
 70
     1
102
RTVSPropertyOp43
 70
     1
102
RTVSPropertyOp44
 70
     1
102
RTVSPropertyOp45
 70
     1
102
RTVSPropertyOp46
 70
     1
102
RTVSPropertyOp47
 70
     1
102
RTVSPropertyOp48
 70
     1
102
RTVSPropertyOp49
 70
     1
102
RTVSPropertyOp50
 70
     1
102
RTVSPropertyOp51
 70
     0
102
RTVSPropertyOp52
 70
     0
102
RTVSPropertyOp53
 70
     1
102
RTVSPropertyOp54
 70
     1
102
RTVSPropertyOp55
 70
     1
102
RTVSPropertyOp56
 70
     1
102
RTVSPropertyOp57
 70
     1
102
RTVSPost2010Prop28
280
     0
102
RTVSPost2010PropOp28
 70
     1
102
RTVSPost2010Prop29
280
     1
102
RTVSPost2010PropOp29
 70
     1
102
RTVSPost2010Prop30
280
     1
102
RTVSPost2010PropOp30
 70
     1
102
RTVSPost2010Prop31
280
     0
102
RTVSPost2010PropOp31
 70
     1
102
RTVSPost2010Prop32
280
     0
102
RTVSPost2010PropOp32
 70
     1
102
RTVSPost2010Prop33
280
     0
102
RTVSPost2010PropOp33
 70
     1
102
RTVSPost2010Prop34
280
     0
102
RTVSPost2010PropOp34
 70
     1
102
RTVSPost2010Prop35
280
     0
102
RTVSPost2010PropOp35
 70
     1
102
RTVSPost2010Prop36
280
     0
102
RTVSPost2010PropOp36
 70
     1
102
RTVSPost2010Prop37
 90
       50
102
RTVSPost2010PropOp37
 70
     1
102
RTVSPost2010Prop38
140
0.0
102
RTVSPost2010PropOp38
 70
     1
102
RTVSPost2010Prop39
140
1.0
102
RTVSPost2010PropOp39
 70
     1
102
RTVSPost2010Prop40
 90
        0
102
RTVSPost2010PropOp40
 70
     1
102
RTVSPost2010Prop41ColorIndex
 90
       18
102
RTVSPost2010Prop41ColorRGB
 90
        0
102
RTVSPost2010PropOp41
 70
     1
102
RTVSPost2010Prop42
 90
       50
102
RTVSPost2010PropOp42
 70
     1
102
RTVSPost2010Prop43
 90
        3
102
RTVSPost2010PropOp43
 70
     1
102
RTVSPost2010Prop44ColorIndex
 90
        5
102
RTVSPost2010Prop44ColorRGB
 90
      255
102
RTVSPost2010PropOp44
 70
     1
102
RTVSPost2010Prop45
280
     0
102
RTVSPost2010PropOp45
 70
     1
102
RTVSPost2010Prop46
 90
       50
102
RTVSPost2010PropOp46
 70
     1
102
RTVSPost2010Prop47
 90
       50
102
RTVSPost2010PropOp47
 70
     1
102
RTVSPost2010Prop48
 90
       50
102
RTVSPost2010PropOp48
 70
     1
102
RTVSPost2010Prop49
280
     0
102
RTVSPost2010PropOp49
 70
     1
102
RTVSPost2010Prop50
 90
       50
102
RTVSPost2010PropOp50
 70
     1
102
RTVSPost2010Prop51ColorIndex
 90
      256
102
RTVSPost2010Prop51ColorRGB
 90
-16777216
102
RTVSPost2010PropOp51
 70
     0
102
RTVSPost2010Prop52
140
1.0
102
RTVSPost2010PropOp52
 70
     0
102
RTVSPost2010Prop53
 90
        2
102
RTVSPost2010PropOp53
 70
     1
102
RTVSPost2010Prop54
  1
strokes_ogs.tif
102
RTVSPost2010PropOp54
 70
     1
102
RTVSPost2010Prop55
280
     0
102
RTVSPost2010PropOp55
 70
     1
102
RTVSPost2010Prop56
140
1.0
102
RTVSPost2010PropOp56
 70
     1
102
RTVSPost2010Prop57
140
1.0
102
RTVSPost2010PropOp57
 70
     1
  0
XRECORD
  5
106AC4D
102
{ACAD_REACTORS
330
106AC4C
102
}
330
106AC4C
100
AcDbXrecord
280
     1
102
RTVSPropertyOp0
 70
     1
102
RTVSPropertyOp1
 70
     1
102
RTVSPropertyOp2
 70
     1
102
RTVSPropertyOp3
 70
     1
102
RTVSPropertyOp4
 70
     1
102
RTVSPropertyOp5
 70
     1
102
RTVSPropertyOp6
 70
     1
102
RTVSPropertyOp7
 70
     1
102
RTVSPropertyOp8
 70
     1
102
RTVSPropertyOp9
 70
     1
102
RTVSPropertyOp10
 70
     1
102
RTVSPropertyOp11
 70
     1
102
RTVSPropertyOp12
 70
     1
102
RTVSPropertyOp13
 70
     1
102
RTVSPropertyOp14
 70
     1
102
RTVSPropertyOp15
 70
     1
102
RTVSPropertyOp16
 70
     1
102
RTVSPropertyOp17
 70
     1
102
RTVSPropertyOp18
 70
     1
102
RTVSPropertyOp19
 70
     1
102
RTVSPropertyOp20
 70
     1
102
RTVSPropertyOp21
 70
     1
102
RTVSPropertyOp22
 70
     1
102
RTVSPropertyOp23
 70
     1
102
RTVSPropertyOp24
 70
     1
102
RTVSPropertyOp25
 70
     1
102
RTVSPropertyOp26
 70
     1
102
RTVSPropertyOp27
 70
     1
102
RTVSPropertyOp28
 70
     1
102
RTVSPropertyOp29
 70
     1
102
RTVSPropertyOp30
 70
     1
102
RTVSPropertyOp31
 70
     1
102
RTVSPropertyOp32
 70
     1
102
RTVSPropertyOp33
 70
     1
102
RTVSPropertyOp34
 70
     1
102
RTVSPropertyOp35
 70
     1
102
RTVSPropertyOp36
 70
     1
102
RTVSPropertyOp37
 70
     1
102
RTVSPropertyOp38
 70
     1
102
RTVSPropertyOp39
 70
     1
102
RTVSPropertyOp40
 70
     1
102
RTVSPropertyOp41
 70
     1
102
RTVSPropertyOp42
 70
     1
102
RTVSPropertyOp43
 70
     1
102
RTVSPropertyOp44
 70
     1
102
RTVSPropertyOp45
 70
     1
102
RTVSPropertyOp46
 70
     1
102
RTVSPropertyOp47
 70
     1
102
RTVSPropertyOp48
 70
     1
102
RTVSPropertyOp49
 70
     1
102
RTVSPropertyOp50
 70
     1
102
RTVSPropertyOp51
 70
     0
102
RTVSPropertyOp52
 70
     0
102
RTVSPropertyOp53
 70
     1
102
RTVSPropertyOp54
 70
     1
102
RTVSPropertyOp55
 70
     1
102
RTVSPropertyOp56
 70
     1
102
RTVSPropertyOp57
 70
     1
102
RTVSPost2010Prop28
280
     0
102
RTVSPost2010PropOp28
 70
     1
102
RTVSPost2010Prop29
280
     1
102
RTVSPost2010PropOp29
 70
     1
102
RTVSPost2010Prop30
280
     1
102
RTVSPost2010PropOp30
 70
     1
102
RTVSPost2010Prop31
280
     0
102
RTVSPost2010PropOp31
 70
     1
102
RTVSPost2010Prop32
280
     0
102
RTVSPost2010PropOp32
 70
     1
102
RTVSPost2010Prop33
280
     0
102
RTVSPost2010PropOp33
 70
     1
102
RTVSPost2010Prop34
280
     0
102
RTVSPost2010PropOp34
 70
     1
102
RTVSPost2010Prop35
280
     0
102
RTVSPost2010PropOp35
 70
     1
102
RTVSPost2010Prop36
280
     0
102
RTVSPost2010PropOp36
 70
     1
102
RTVSPost2010Prop37
 90
       50
102
RTVSPost2010PropOp37
 70
     1
102
RTVSPost2010Prop38
140
0.0
102
RTVSPost2010PropOp38
 70
     1
102
RTVSPost2010Prop39
140
1.0
102
RTVSPost2010PropOp39
 70
     1
102
RTVSPost2010Prop40
 90
        0
102
RTVSPost2010PropOp40
 70
     1
102
RTVSPost2010Prop41ColorIndex
 90
       18
102
RTVSPost2010Prop41ColorRGB
 90
        0
102
RTVSPost2010PropOp41
 70
     1
102
RTVSPost2010Prop42
 90
       50
102
RTVSPost2010PropOp42
 70
     1
102
RTVSPost2010Prop43
 90
        3
102
RTVSPost2010PropOp43
 70
     1
102
RTVSPost2010Prop44ColorIndex
 90
        5
102
RTVSPost2010Prop44ColorRGB
 90
      255
102
RTVSPost2010PropOp44
 70
     1
102
RTVSPost2010Prop45
280
     0
102
RTVSPost2010PropOp45
 70
     1
102
RTVSPost2010Prop46
 90
       50
102
RTVSPost2010PropOp46
 70
     1
102
RTVSPost2010Prop47
 90
       50
102
RTVSPost2010PropOp47
 70
     1
102
RTVSPost2010Prop48
 90
       50
102
RTVSPost2010PropOp48
 70
     1
102
RTVSPost2010Prop49
280
     0
102
RTVSPost2010PropOp49
 70
     1
102
RTVSPost2010Prop50
 90
       50
102
RTVSPost2010PropOp50
 70
     1
102
RTVSPost2010Prop51ColorIndex
 90
      256
102
RTVSPost2010Prop51ColorRGB
 90
-16777216
102
RTVSPost2010PropOp51
 70
     0
102
RTVSPost2010Prop52
140
1.0
102
RTVSPost2010PropOp52
 70
     0
102
RTVSPost2010Prop53
 90
        2
102
RTVSPost2010PropOp53
 70
     1
102
RTVSPost2010Prop54
  1
strokes_ogs.tif
102
RTVSPost2010PropOp54
 70
     1
102
RTVSPost2010Prop55
280
     0
102
RTVSPost2010PropOp55
 70
     1
102
RTVSPost2010Prop56
140
1.0
102
RTVSPost2010PropOp56
 70
     1
102
RTVSPost2010Prop57
140
1.0
102
RTVSPost2010PropOp57
 70
     1
  0
XRECORD
  5
106AC4F
102
{ACAD_REACTORS
330
106AC4E
102
}
330
106AC4E
100
AcDbXrecord
280
     1
102
RTVSPropertyOp0
 70
     1
102
RTVSPropertyOp1
 70
     1
102
RTVSPropertyOp2
 70
     1
102
RTVSPropertyOp3
 70
     1
102
RTVSPropertyOp4
 70
     1
102
RTVSPropertyOp5
 70
     1
102
RTVSPropertyOp6
 70
     1
102
RTVSPropertyOp7
 70
     1
102
RTVSPropertyOp8
 70
     1
102
RTVSPropertyOp9
 70
     1
102
RTVSPropertyOp10
 70
     1
102
RTVSPropertyOp11
 70
     1
102
RTVSPropertyOp12
 70
     1
102
RTVSPropertyOp13
 70
     1
102
RTVSPropertyOp14
 70
     1
102
RTVSPropertyOp15
 70
     1
102
RTVSPropertyOp16
 70
     1
102
RTVSPropertyOp17
 70
     1
102
RTVSPropertyOp18
 70
     1
102
RTVSPropertyOp19
 70
     1
102
RTVSPropertyOp20
 70
     1
102
RTVSPropertyOp21
 70
     1
102
RTVSPropertyOp22
 70
     1
102
RTVSPropertyOp23
 70
     1
102
RTVSPropertyOp24
 70
     1
102
RTVSPropertyOp25
 70
     1
102
RTVSPropertyOp26
 70
     1
102
RTVSPropertyOp27
 70
     1
102
RTVSPropertyOp28
 70
     1
102
RTVSPropertyOp29
 70
     1
102
RTVSPropertyOp30
 70
     1
102
RTVSPropertyOp31
 70
     1
102
RTVSPropertyOp32
 70
     1
102
RTVSPropertyOp33
 70
     1
102
RTVSPropertyOp34
 70
     1
102
RTVSPropertyOp35
 70
     1
102
RTVSPropertyOp36
 70
     1
102
RTVSPropertyOp37
 70
     1
102
RTVSPropertyOp38
 70
     1
102
RTVSPropertyOp39
 70
     1
102
RTVSPropertyOp40
 70
     1
102
RTVSPropertyOp41
 70
     1
102
RTVSPropertyOp42
 70
     1
102
RTVSPropertyOp43
 70
     1
102
RTVSPropertyOp44
 70
     1
102
RTVSPropertyOp45
 70
     1
102
RTVSPropertyOp46
 70
     1
102
RTVSPropertyOp47
 70
     1
102
RTVSPropertyOp48
 70
     1
102
RTVSPropertyOp49
 70
     1
102
RTVSPropertyOp50
 70
     1
102
RTVSPropertyOp51
 70
     0
102
RTVSPropertyOp52
 70
     0
102
RTVSPropertyOp53
 70
     1
102
RTVSPropertyOp54
 70
     1
102
RTVSPropertyOp55
 70
     1
102
RTVSPropertyOp56
 70
     1
102
RTVSPropertyOp57
 70
     1
102
RTVSPost2010Prop28
280
     0
102
RTVSPost2010PropOp28
 70
     1
102
RTVSPost2010Prop29
280
     1
102
RTVSPost2010PropOp29
 70
     1
102
RTVSPost2010Prop30
280
     1
102
RTVSPost2010PropOp30
 70
     1
102
RTVSPost2010Prop31
280
     0
102
RTVSPost2010PropOp31
 70
     1
102
RTVSPost2010Prop32
280
     0
102
RTVSPost2010PropOp32
 70
     1
102
RTVSPost2010Prop33
280
     0
102
RTVSPost2010PropOp33
 70
     1
102
RTVSPost2010Prop34
280
     0
102
RTVSPost2010PropOp34
 70
     1
102
RTVSPost2010Prop35
280
     0
102
RTVSPost2010PropOp35
 70
     1
102
RTVSPost2010Prop36
280
     0
102
RTVSPost2010PropOp36
 70
     1
102
RTVSPost2010Prop37
 90
       50
102
RTVSPost2010PropOp37
 70
     1
102
RTVSPost2010Prop38
140
0.0
102
RTVSPost2010PropOp38
 70
     1
102
RTVSPost2010Prop39
140
1.0
102
RTVSPost2010PropOp39
 70
     1
102
RTVSPost2010Prop40
 90
        0
102
RTVSPost2010PropOp40
 70
     1
102
RTVSPost2010Prop41ColorIndex
 90
       18
102
RTVSPost2010Prop41ColorRGB
 90
        0
102
RTVSPost2010PropOp41
 70
     1
102
RTVSPost2010Prop42
 90
       50
102
RTVSPost2010PropOp42
 70
     1
102
RTVSPost2010Prop43
 90
        3
102
RTVSPost2010PropOp43
 70
     1
102
RTVSPost2010Prop44ColorIndex
 90
        5
102
RTVSPost2010Prop44ColorRGB
 90
      255
102
RTVSPost2010PropOp44
 70
     1
102
RTVSPost2010Prop45
280
     0
102
RTVSPost2010PropOp45
 70
     1
102
RTVSPost2010Prop46
 90
       50
102
RTVSPost2010PropOp46
 70
     1
102
RTVSPost2010Prop47
 90
       50
102
RTVSPost2010PropOp47
 70
     1
102
RTVSPost2010Prop48
 90
       50
102
RTVSPost2010PropOp48
 70
     1
102
RTVSPost2010Prop49
280
     0
102
RTVSPost2010PropOp49
 70
     1
102
RTVSPost2010Prop50
 90
       50
102
RTVSPost2010PropOp50
 70
     1
102
RTVSPost2010Prop51ColorIndex
 90
      256
102
RTVSPost2010Prop51ColorRGB
 90
-16777216
102
RTVSPost2010PropOp51
 70
     0
102
RTVSPost2010Prop52
140
1.0
102
RTVSPost2010PropOp52
 70
     0
102
RTVSPost2010Prop53
 90
        2
102
RTVSPost2010PropOp53
 70
     1
102
RTVSPost2010Prop54
  1
strokes_ogs.tif
102
RTVSPost2010PropOp54
 70
     1
102
RTVSPost2010Prop55
280
     0
102
RTVSPost2010PropOp55
 70
     1
102
RTVSPost2010Prop56
140
1.0
102
RTVSPost2010PropOp56
 70
     1
102
RTVSPost2010Prop57
140
1.0
102
RTVSPost2010PropOp57
 70
     1
  0
XRECORD
  5
106AC51
102
{ACAD_REACTORS
330
106AC50
102
}
330
106AC50
100
AcDbXrecord
280
     1
102
RTVSPropertyOp0
 70
     0
102
RTVSPropertyOp1
 70
     0
102
RTVSPropertyOp2
 70
     0
102
RTVSPropertyOp3
 70
     0
102
RTVSPropertyOp4
 70
     0
102
RTVSPropertyOp5
 70
     0
102
RTVSPropertyOp6
 70
     0
102
RTVSPropertyOp7
 70
     0
102
RTVSPropertyOp8
 70
     0
102
RTVSPropertyOp9
 70
     0
102
RTVSPropertyOp10
 70
     0
102
RTVSPropertyOp11
 70
     0
102
RTVSPropertyOp12
 70
     0
102
RTVSPropertyOp13
 70
     0
102
RTVSPropertyOp14
 70
     2
102
RTVSPropertyOp15
 70
     0
102
RTVSPropertyOp16
 70
     0
102
RTVSPropertyOp17
 70
     0
102
RTVSPropertyOp18
 70
     0
102
RTVSPropertyOp19
 70
     0
102
RTVSPropertyOp20
 70
     0
102
RTVSPropertyOp21
 70
     0
102
RTVSPropertyOp22
 70
     0
102
RTVSPropertyOp23
 70
     0
102
RTVSPropertyOp24
 70
     0
102
RTVSPropertyOp25
 70
     0
102
RTVSPropertyOp26
 70
     0
102
RTVSPropertyOp27
 70
     0
102
RTVSPropertyOp28
 70
     0
102
RTVSPropertyOp29
 70
     0
102
RTVSPropertyOp30
 70
     0
102
RTVSPropertyOp31
 70
     0
102
RTVSPropertyOp32
 70
     0
102
RTVSPropertyOp33
 70
     0
102
RTVSPropertyOp34
 70
     0
102
RTVSPropertyOp35
 70
     0
102
RTVSPropertyOp36
 70
     0
102
RTVSPropertyOp37
 70
     0
102
RTVSPropertyOp38
 70
     0
102
RTVSPropertyOp39
 70
     0
102
RTVSPropertyOp40
 70
     0
102
RTVSPropertyOp41
 70
     0
102
RTVSPropertyOp42
 70
     0
102
RTVSPropertyOp43
 70
     0
102
RTVSPropertyOp44
 70
     0
102
RTVSPropertyOp45
 70
     0
102
RTVSPropertyOp46
 70
     0
102
RTVSPropertyOp47
 70
     0
102
RTVSPropertyOp48
 70
     0
102
RTVSPropertyOp49
 70
     0
102
RTVSPropertyOp50
 70
     0
102
RTVSPropertyOp51
 70
     0
102
RTVSPropertyOp52
 70
     0
102
RTVSPropertyOp53
 70
     0
102
RTVSPropertyOp54
 70
     0
102
RTVSPropertyOp55
 70
     0
102
RTVSPropertyOp56
 70
     0
102
RTVSPropertyOp57
 70
     0
102
RTVSPost2010Prop28
280
     0
102
RTVSPost2010PropOp28
 70
     0
102
RTVSPost2010Prop29
280
     1
102
RTVSPost2010PropOp29
 70
     0
102
RTVSPost2010Prop30
280
     1
102
RTVSPost2010PropOp30
 70
     0
102
RTVSPost2010Prop31
280
     0
102
RTVSPost2010PropOp31
 70
     0
102
RTVSPost2010Prop32
280
     0
102
RTVSPost2010PropOp32
 70
     0
102
RTVSPost2010Prop33
280
     0
102
RTVSPost2010PropOp33
 70
     0
102
RTVSPost2010Prop34
280
     0
102
RTVSPost2010PropOp34
 70
     0
102
RTVSPost2010Prop35
280
     0
102
RTVSPost2010PropOp35
 70
     0
102
RTVSPost2010Prop36
280
     0
102
RTVSPost2010PropOp36
 70
     0
102
RTVSPost2010Prop37
 90
       50
102
RTVSPost2010PropOp37
 70
     0
102
RTVSPost2010Prop38
140
0.0
102
RTVSPost2010PropOp38
 70
     0
102
RTVSPost2010Prop39
140
1.0
102
RTVSPost2010PropOp39
 70
     0
102
RTVSPost2010Prop40
 90
        0
102
RTVSPost2010PropOp40
 70
     0
102
RTVSPost2010Prop41ColorIndex
 90
       18
102
RTVSPost2010Prop41ColorRGB
 90
        0
102
RTVSPost2010PropOp41
 70
     0
102
RTVSPost2010Prop42
 90
       50
102
RTVSPost2010PropOp42
 70
     0
102
RTVSPost2010Prop43
 90
        3
102
RTVSPost2010PropOp43
 70
     0
102
RTVSPost2010Prop44ColorIndex
 90
        5
102
RTVSPost2010Prop44ColorRGB
 90
      255
102
RTVSPost2010PropOp44
 70
     0
102
RTVSPost2010Prop45
280
     0
102
RTVSPost2010PropOp45
 70
     0
102
RTVSPost2010Prop46
 90
       50
102
RTVSPost2010PropOp46
 70
     0
102
RTVSPost2010Prop47
 90
       50
102
RTVSPost2010PropOp47
 70
     0
102
RTVSPost2010Prop48
 90
       50
102
RTVSPost2010PropOp48
 70
     0
102
RTVSPost2010Prop49
280
     0
102
RTVSPost2010PropOp49
 70
     0
102
RTVSPost2010Prop50
 90
       50
102
RTVSPost2010PropOp50
 70
     0
102
RTVSPost2010Prop51ColorIndex
 90
      256
102
RTVSPost2010Prop51ColorRGB
 90
-16777216
102
RTVSPost2010PropOp51
 70
     0
102
RTVSPost2010Prop52
140
1.0
102
RTVSPost2010PropOp52
 70
     0
102
RTVSPost2010Prop53
 90
        2
102
RTVSPost2010PropOp53
 70
     0
102
RTVSPost2010Prop54
  1
strokes_ogs.tif
102
RTVSPost2010PropOp54
 70
     0
102
RTVSPost2010Prop55
280
     0
102
RTVSPost2010PropOp55
 70
     0
102
RTVSPost2010Prop56
140
1.0
102
RTVSPost2010PropOp56
 70
     0
102
RTVSPost2010Prop57
140
1.0
102
RTVSPost2010PropOp57
 70
     0
  0
XRECORD
  5
106AC53
102
{ACAD_REACTORS
330
106AC52
102
}
330
106AC52
100
AcDbXrecord
280
     1
102
RTVSPropertyOp0
 70
     1
102
RTVSPropertyOp1
 70
     1
102
RTVSPropertyOp2
 70
     1
102
RTVSPropertyOp3
 70
     1
102
RTVSPropertyOp4
 70
     1
102
RTVSPropertyOp5
 70
     1
102
RTVSPropertyOp6
 70
     1
102
RTVSPropertyOp7
 70
     1
102
RTVSPropertyOp8
 70
     1
102
RTVSPropertyOp9
 70
     1
102
RTVSPropertyOp10
 70
     1
102
RTVSPropertyOp11
 70
     1
102
RTVSPropertyOp12
 70
     1
102
RTVSPropertyOp13
 70
     1
102
RTVSPropertyOp14
 70
     1
102
RTVSPropertyOp15
 70
     1
102
RTVSPropertyOp16
 70
     1
102
RTVSPropertyOp17
 70
     1
102
RTVSPropertyOp18
 70
     1
102
RTVSPropertyOp19
 70
     1
102
RTVSPropertyOp20
 70
     1
102
RTVSPropertyOp21
 70
     1
102
RTVSPropertyOp22
 70
     1
102
RTVSPropertyOp23
 70
     1
102
RTVSPropertyOp24
 70
     1
102
RTVSPropertyOp25
 70
     1
102
RTVSPropertyOp26
 70
     1
102
RTVSPropertyOp27
 70
     1
102
RTVSPropertyOp28
 70
     1
102
RTVSPropertyOp29
 70
     1
102
RTVSPropertyOp30
 70
     1
102
RTVSPropertyOp31
 70
     1
102
RTVSPropertyOp32
 70
     1
102
RTVSPropertyOp33
 70
     1
102
RTVSPropertyOp34
 70
     1
102
RTVSPropertyOp35
 70
     1
102
RTVSPropertyOp36
 70
     1
102
RTVSPropertyOp37
 70
     1
102
RTVSPropertyOp38
 70
     1
102
RTVSPropertyOp39
 70
     1
102
RTVSPropertyOp40
 70
     1
102
RTVSPropertyOp41
 70
     1
102
RTVSPropertyOp42
 70
     1
102
RTVSPropertyOp43
 70
     1
102
RTVSPropertyOp44
 70
     1
102
RTVSPropertyOp45
 70
     1
102
RTVSPropertyOp46
 70
     1
102
RTVSPropertyOp47
 70
     1
102
RTVSPropertyOp48
 70
     1
102
RTVSPropertyOp49
 70
     1
102
RTVSPropertyOp50
 70
     1
102
RTVSPropertyOp51
 70
     0
102
RTVSPropertyOp52
 70
     0
102
RTVSPropertyOp53
 70
     1
102
RTVSPropertyOp54
 70
     1
102
RTVSPropertyOp55
 70
     1
102
RTVSPropertyOp56
 70
     1
102
RTVSPropertyOp57
 70
     1
102
RTVSPost2010Prop28
280
     0
102
RTVSPost2010PropOp28
 70
     1
102
RTVSPost2010Prop29
280
     1
102
RTVSPost2010PropOp29
 70
     1
102
RTVSPost2010Prop30
280
     1
102
RTVSPost2010PropOp30
 70
     1
102
RTVSPost2010Prop31
280
     0
102
RTVSPost2010PropOp31
 70
     1
102
RTVSPost2010Prop32
280
     0
102
RTVSPost2010PropOp32
 70
     1
102
RTVSPost2010Prop33
280
     0
102
RTVSPost2010PropOp33
 70
     1
102
RTVSPost2010Prop34
280
     0
102
RTVSPost2010PropOp34
 70
     1
102
RTVSPost2010Prop35
280
     0
102
RTVSPost2010PropOp35
 70
     1
102
RTVSPost2010Prop36
280
     0
102
RTVSPost2010PropOp36
 70
     1
102
RTVSPost2010Prop37
 90
       50
102
RTVSPost2010PropOp37
 70
     1
102
RTVSPost2010Prop38
140
0.0
102
RTVSPost2010PropOp38
 70
     1
102
RTVSPost2010Prop39
140
1.0
102
RTVSPost2010PropOp39
 70
     1
102
RTVSPost2010Prop40
 90
        0
102
RTVSPost2010PropOp40
 70
     1
102
RTVSPost2010Prop41ColorIndex
 90
       18
102
RTVSPost2010Prop41ColorRGB
 90
        0
102
RTVSPost2010PropOp41
 70
     1
102
RTVSPost2010Prop42
 90
       50
102
RTVSPost2010PropOp42
 70
     1
102
RTVSPost2010Prop43
 90
        3
102
RTVSPost2010PropOp43
 70
     1
102
RTVSPost2010Prop44ColorIndex
 90
        5
102
RTVSPost2010Prop44ColorRGB
 90
      255
102
RTVSPost2010PropOp44
 70
     1
102
RTVSPost2010Prop45
280
     0
102
RTVSPost2010PropOp45
 70
     1
102
RTVSPost2010Prop46
 90
       50
102
RTVSPost2010PropOp46
 70
     1
102
RTVSPost2010Prop47
 90
       50
102
RTVSPost2010PropOp47
 70
     1
102
RTVSPost2010Prop48
 90
       50
102
RTVSPost2010PropOp48
 70
     1
102
RTVSPost2010Prop49
280
     0
102
RTVSPost2010PropOp49
 70
     1
102
RTVSPost2010Prop50
 90
       50
102
RTVSPost2010PropOp50
 70
     1
102
RTVSPost2010Prop51ColorIndex
 90
      256
102
RTVSPost2010Prop51ColorRGB
 90
-16777216
102
RTVSPost2010PropOp51
 70
     0
102
RTVSPost2010Prop52
140
1.0
102
RTVSPost2010PropOp52
 70
     0
102
RTVSPost2010Prop53
 90
        2
102
RTVSPost2010PropOp53
 70
     1
102
RTVSPost2010Prop54
  1
strokes_ogs.tif
102
RTVSPost2010PropOp54
 70
     1
102
RTVSPost2010Prop55
280
     0
102
RTVSPost2010PropOp55
 70
     1
102
RTVSPost2010Prop56
140
1.0
102
RTVSPost2010PropOp56
 70
     1
102
RTVSPost2010Prop57
140
1.0
102
RTVSPost2010PropOp57
 70
     1
  0
XRECORD
  5
106AC55
102
{ACAD_REACTORS
330
106AC54
102
}
330
106AC54
100
AcDbXrecord
280
     1
102
RTVSPropertyOp0
 70
     1
102
RTVSPropertyOp1
 70
     1
102
RTVSPropertyOp2
 70
     1
102
RTVSPropertyOp3
 70
     1
102
RTVSPropertyOp4
 70
     1
102
RTVSPropertyOp5
 70
     1
102
RTVSPropertyOp6
 70
     1
102
RTVSPropertyOp7
 70
     1
102
RTVSPropertyOp8
 70
     1
102
RTVSPropertyOp9
 70
     1
102
RTVSPropertyOp10
 70
     1
102
RTVSPropertyOp11
 70
     1
102
RTVSPropertyOp12
 70
     1
102
RTVSPropertyOp13
 70
     1
102
RTVSPropertyOp14
 70
     1
102
RTVSPropertyOp15
 70
     1
102
RTVSPropertyOp16
 70
     1
102
RTVSPropertyOp17
 70
     1
102
RTVSPropertyOp18
 70
     1
102
RTVSPropertyOp19
 70
     1
102
RTVSPropertyOp20
 70
     1
102
RTVSPropertyOp21
 70
     1
102
RTVSPropertyOp22
 70
     1
102
RTVSPropertyOp23
 70
     1
102
RTVSPropertyOp24
 70
     1
102
RTVSPropertyOp25
 70
     1
102
RTVSPropertyOp26
 70
     1
102
RTVSPropertyOp27
 70
     1
102
RTVSPropertyOp28
 70
     1
102
RTVSPropertyOp29
 70
     1
102
RTVSPropertyOp30
 70
     1
102
RTVSPropertyOp31
 70
     1
102
RTVSPropertyOp32
 70
     1
102
RTVSPropertyOp33
 70
     1
102
RTVSPropertyOp34
 70
     1
102
RTVSPropertyOp35
 70
     1
102
RTVSPropertyOp36
 70
     1
102
RTVSPropertyOp37
 70
     1
102
RTVSPropertyOp38
 70
     1
102
RTVSPropertyOp39
 70
     1
102
RTVSPropertyOp40
 70
     1
102
RTVSPropertyOp41
 70
     1
102
RTVSPropertyOp42
 70
     1
102
RTVSPropertyOp43
 70
     1
102
RTVSPropertyOp44
 70
     1
102
RTVSPropertyOp45
 70
     1
102
RTVSPropertyOp46
 70
     1
102
RTVSPropertyOp47
 70
     1
102
RTVSPropertyOp48
 70
     1
102
RTVSPropertyOp49
 70
     1
102
RTVSPropertyOp50
 70
     1
102
RTVSPropertyOp51
 70
     0
102
RTVSPropertyOp52
 70
     0
102
RTVSPropertyOp53
 70
     1
102
RTVSPropertyOp54
 70
     1
102
RTVSPropertyOp55
 70
     1
102
RTVSPropertyOp56
 70
     1
102
RTVSPropertyOp57
 70
     1
102
RTVSPost2010Prop28
280
     0
102
RTVSPost2010PropOp28
 70
     1
102
RTVSPost2010Prop29
280
     1
102
RTVSPost2010PropOp29
 70
     1
102
RTVSPost2010Prop30
280
     1
102
RTVSPost2010PropOp30
 70
     1
102
RTVSPost2010Prop31
280
     0
102
RTVSPost2010PropOp31
 70
     1
102
RTVSPost2010Prop32
280
     0
102
RTVSPost2010PropOp32
 70
     1
102
RTVSPost2010Prop33
280
     0
102
RTVSPost2010PropOp33
 70
     1
102
RTVSPost2010Prop34
280
     0
102
RTVSPost2010PropOp34
 70
     1
102
RTVSPost2010Prop35
280
     0
102
RTVSPost2010PropOp35
 70
     1
102
RTVSPost2010Prop36
280
     0
102
RTVSPost2010PropOp36
 70
     1
102
RTVSPost2010Prop37
 90
       50
102
RTVSPost2010PropOp37
 70
     1
102
RTVSPost2010Prop38
140
0.0
102
RTVSPost2010PropOp38
 70
     1
102
RTVSPost2010Prop39
140
1.0
102
RTVSPost2010PropOp39
 70
     1
102
RTVSPost2010Prop40
 90
        0
102
RTVSPost2010PropOp40
 70
     1
102
RTVSPost2010Prop41ColorIndex
 90
       18
102
RTVSPost2010Prop41ColorRGB
 90
        0
102
RTVSPost2010PropOp41
 70
     1
102
RTVSPost2010Prop42
 90
       50
102
RTVSPost2010PropOp42
 70
     1
102
RTVSPost2010Prop43
 90
        3
102
RTVSPost2010PropOp43
 70
     1
102
RTVSPost2010Prop44ColorIndex
 90
        5
102
RTVSPost2010Prop44ColorRGB
 90
      255
102
RTVSPost2010PropOp44
 70
     1
102
RTVSPost2010Prop45
280
     0
102
RTVSPost2010PropOp45
 70
     1
102
RTVSPost2010Prop46
 90
       50
102
RTVSPost2010PropOp46
 70
     1
102
RTVSPost2010Prop47
 90
       50
102
RTVSPost2010PropOp47
 70
     1
102
RTVSPost2010Prop48
 90
       50
102
RTVSPost2010PropOp48
 70
     1
102
RTVSPost2010Prop49
280
     0
102
RTVSPost2010PropOp49
 70
     1
102
RTVSPost2010Prop50
 90
       50
102
RTVSPost2010PropOp50
 70
     1
102
RTVSPost2010Prop51ColorIndex
 90
      256
102
RTVSPost2010Prop51ColorRGB
 90
-16777216
102
RTVSPost2010PropOp51
 70
     0
102
RTVSPost2010Prop52
140
1.0
102
RTVSPost2010PropOp52
 70
     0
102
RTVSPost2010Prop53
 90
        2
102
RTVSPost2010PropOp53
 70
     1
102
RTVSPost2010Prop54
  1
strokes_ogs.tif
102
RTVSPost2010PropOp54
 70
     1
102
RTVSPost2010Prop55
280
     0
102
RTVSPost2010PropOp55
 70
     1
102
RTVSPost2010Prop56
140
1.0
102
RTVSPost2010PropOp56
 70
     1
102
RTVSPost2010Prop57
140
1.0
102
RTVSPost2010PropOp57
 70
     1
  0
XRECORD
  5
106AC57
102
{ACAD_REACTORS
330
106AC56
102
}
330
106AC56
100
AcDbXrecord
280
     1
102
RTVSPropertyOp0
 70
     1
102
RTVSPropertyOp1
 70
     1
102
RTVSPropertyOp2
 70
     1
102
RTVSPropertyOp3
 70
     1
102
RTVSPropertyOp4
 70
     1
102
RTVSPropertyOp5
 70
     1
102
RTVSPropertyOp6
 70
     1
102
RTVSPropertyOp7
 70
     1
102
RTVSPropertyOp8
 70
     1
102
RTVSPropertyOp9
 70
     1
102
RTVSPropertyOp10
 70
     1
102
RTVSPropertyOp11
 70
     1
102
RTVSPropertyOp12
 70
     1
102
RTVSPropertyOp13
 70
     1
102
RTVSPropertyOp14
 70
     1
102
RTVSPropertyOp15
 70
     1
102
RTVSPropertyOp16
 70
     1
102
RTVSPropertyOp17
 70
     1
102
RTVSPropertyOp18
 70
     1
102
RTVSPropertyOp19
 70
     1
102
RTVSPropertyOp20
 70
     1
102
RTVSPropertyOp21
 70
     1
102
RTVSPropertyOp22
 70
     1
102
RTVSPropertyOp23
 70
     1
102
RTVSPropertyOp24
 70
     1
102
RTVSPropertyOp25
 70
     1
102
RTVSPropertyOp26
 70
     1
102
RTVSPropertyOp27
 70
     1
102
RTVSPropertyOp28
 70
     1
102
RTVSPropertyOp29
 70
     1
102
RTVSPropertyOp30
 70
     1
102
RTVSPropertyOp31
 70
     1
102
RTVSPropertyOp32
 70
     1
102
RTVSPropertyOp33
 70
     1
102
RTVSPropertyOp34
 70
     1
102
RTVSPropertyOp35
 70
     1
102
RTVSPropertyOp36
 70
     1
102
RTVSPropertyOp37
 70
     1
102
RTVSPropertyOp38
 70
     1
102
RTVSPropertyOp39
 70
     1
102
RTVSPropertyOp40
 70
     1
102
RTVSPropertyOp41
 70
     1
102
RTVSPropertyOp42
 70
     1
102
RTVSPropertyOp43
 70
     1
102
RTVSPropertyOp44
 70
     1
102
RTVSPropertyOp45
 70
     1
102
RTVSPropertyOp46
 70
     1
102
RTVSPropertyOp47
 70
     1
102
RTVSPropertyOp48
 70
     1
102
RTVSPropertyOp49
 70
     1
102
RTVSPropertyOp50
 70
     1
102
RTVSPropertyOp51
 70
     0
102
RTVSPropertyOp52
 70
     0
102
RTVSPropertyOp53
 70
     1
102
RTVSPropertyOp54
 70
     1
102
RTVSPropertyOp55
 70
     1
102
RTVSPropertyOp56
 70
     1
102
RTVSPropertyOp57
 70
     1
102
RTVSPost2010Prop28
280
     0
102
RTVSPost2010PropOp28
 70
     1
102
RTVSPost2010Prop29
280
     1
102
RTVSPost2010PropOp29
 70
     1
102
RTVSPost2010Prop30
280
     1
102
RTVSPost2010PropOp30
 70
     1
102
RTVSPost2010Prop31
280
     0
102
RTVSPost2010PropOp31
 70
     1
102
RTVSPost2010Prop32
280
     0
102
RTVSPost2010PropOp32
 70
     1
102
RTVSPost2010Prop33
280
     0
102
RTVSPost2010PropOp33
 70
     1
102
RTVSPost2010Prop34
280
     0
102
RTVSPost2010PropOp34
 70
     1
102
RTVSPost2010Prop35
280
     0
102
RTVSPost2010PropOp35
 70
     1
102
RTVSPost2010Prop36
280
     0
102
RTVSPost2010PropOp36
 70
     1
102
RTVSPost2010Prop37
 90
       50
102
RTVSPost2010PropOp37
 70
     1
102
RTVSPost2010Prop38
140
0.0
102
RTVSPost2010PropOp38
 70
     1
102
RTVSPost2010Prop39
140
1.0
102
RTVSPost2010PropOp39
 70
     1
102
RTVSPost2010Prop40
 90
        0
102
RTVSPost2010PropOp40
 70
     1
102
RTVSPost2010Prop41ColorIndex
 90
       18
102
RTVSPost2010Prop41ColorRGB
 90
        0
102
RTVSPost2010PropOp41
 70
     1
102
RTVSPost2010Prop42
 90
       50
102
RTVSPost2010PropOp42
 70
     1
102
RTVSPost2010Prop43
 90
        3
102
RTVSPost2010PropOp43
 70
     1
102
RTVSPost2010Prop44ColorIndex
 90
        5
102
RTVSPost2010Prop44ColorRGB
 90
      255
102
RTVSPost2010PropOp44
 70
     1
102
RTVSPost2010Prop45
280
     0
102
RTVSPost2010PropOp45
 70
     1
102
RTVSPost2010Prop46
 90
       50
102
RTVSPost2010PropOp46
 70
     1
102
RTVSPost2010Prop47
 90
       50
102
RTVSPost2010PropOp47
 70
     1
102
RTVSPost2010Prop48
 90
       50
102
RTVSPost2010PropOp48
 70
     1
102
RTVSPost2010Prop49
280
     0
102
RTVSPost2010PropOp49
 70
     1
102
RTVSPost2010Prop50
 90
       50
102
RTVSPost2010PropOp50
 70
     1
102
RTVSPost2010Prop51ColorIndex
 90
      256
102
RTVSPost2010Prop51ColorRGB
 90
-16777216
102
RTVSPost2010PropOp51
 70
     0
102
RTVSPost2010Prop52
140
1.0
102
RTVSPost2010PropOp52
 70
     0
102
RTVSPost2010Prop53
 90
        2
102
RTVSPost2010PropOp53
 70
     1
102
RTVSPost2010Prop54
  1
strokes_ogs.tif
102
RTVSPost2010PropOp54
 70
     1
102
RTVSPost2010Prop55
280
     0
102
RTVSPost2010PropOp55
 70
     1
102
RTVSPost2010Prop56
140
1.0
102
RTVSPost2010PropOp56
 70
     1
102
RTVSPost2010Prop57
140
1.0
102
RTVSPost2010PropOp57
 70
     1
  0
XRECORD
  5
106AC59
102
{ACAD_REACTORS
330
106AC58
102
}
330
106AC58
100
AcDbXrecord
280
     1
102
RTVSPropertyOp0
 70
     1
102
RTVSPropertyOp1
 70
     1
102
RTVSPropertyOp2
 70
     1
102
RTVSPropertyOp3
 70
     1
102
RTVSPropertyOp4
 70
     1
102
RTVSPropertyOp5
 70
     1
102
RTVSPropertyOp6
 70
     1
102
RTVSPropertyOp7
 70
     1
102
RTVSPropertyOp8
 70
     1
102
RTVSPropertyOp9
 70
     1
102
RTVSPropertyOp10
 70
     1
102
RTVSPropertyOp11
 70
     1
102
RTVSPropertyOp12
 70
     1
102
RTVSPropertyOp13
 70
     1
102
RTVSPropertyOp14
 70
     1
102
RTVSPropertyOp15
 70
     1
102
RTVSPropertyOp16
 70
     1
102
RTVSPropertyOp17
 70
     1
102
RTVSPropertyOp18
 70
     1
102
RTVSPropertyOp19
 70
     1
102
RTVSPropertyOp20
 70
     1
102
RTVSPropertyOp21
 70
     1
102
RTVSPropertyOp22
 70
     1
102
RTVSPropertyOp23
 70
     1
102
RTVSPropertyOp24
 70
     1
102
RTVSPropertyOp25
 70
     1
102
RTVSPropertyOp26
 70
     1
102
RTVSPropertyOp27
 70
     1
102
RTVSPropertyOp28
 70
     1
102
RTVSPropertyOp29
 70
     1
102
RTVSPropertyOp30
 70
     1
102
RTVSPropertyOp31
 70
     1
102
RTVSPropertyOp32
 70
     1
102
RTVSPropertyOp33
 70
     1
102
RTVSPropertyOp34
 70
     1
102
RTVSPropertyOp35
 70
     1
102
RTVSPropertyOp36
 70
     1
102
RTVSPropertyOp37
 70
     1
102
RTVSPropertyOp38
 70
     1
102
RTVSPropertyOp39
 70
     1
102
RTVSPropertyOp40
 70
     1
102
RTVSPropertyOp41
 70
     1
102
RTVSPropertyOp42
 70
     1
102
RTVSPropertyOp43
 70
     1
102
RTVSPropertyOp44
 70
     1
102
RTVSPropertyOp45
 70
     1
102
RTVSPropertyOp46
 70
     1
102
RTVSPropertyOp47
 70
     1
102
RTVSPropertyOp48
 70
     1
102
RTVSPropertyOp49
 70
     1
102
RTVSPropertyOp50
 70
     1
102
RTVSPropertyOp51
 70
     0
102
RTVSPropertyOp52
 70
     0
102
RTVSPropertyOp53
 70
     1
102
RTVSPropertyOp54
 70
     1
102
RTVSPropertyOp55
 70
     1
102
RTVSPropertyOp56
 70
     1
102
RTVSPropertyOp57
 70
     1
102
RTVSPost2010Prop28
280
     0
102
RTVSPost2010PropOp28
 70
     1
102
RTVSPost2010Prop29
280
     1
102
RTVSPost2010PropOp29
 70
     1
102
RTVSPost2010Prop30
280
     1
102
RTVSPost2010PropOp30
 70
     1
102
RTVSPost2010Prop31
280
     0
102
RTVSPost2010PropOp31
 70
     1
102
RTVSPost2010Prop32
280
     0
102
RTVSPost2010PropOp32
 70
     1
102
RTVSPost2010Prop33
280
     0
102
RTVSPost2010PropOp33
 70
     1
102
RTVSPost2010Prop34
280
     0
102
RTVSPost2010PropOp34
 70
     1
102
RTVSPost2010Prop35
280
     0
102
RTVSPost2010PropOp35
 70
     1
102
RTVSPost2010Prop36
280
     0
102
RTVSPost2010PropOp36
 70
     1
102
RTVSPost2010Prop37
 90
       50
102
RTVSPost2010PropOp37
 70
     1
102
RTVSPost2010Prop38
140
0.0
102
RTVSPost2010PropOp38
 70
     1
102
RTVSPost2010Prop39
140
1.0
102
RTVSPost2010PropOp39
 70
     1
102
RTVSPost2010Prop40
 90
        0
102
RTVSPost2010PropOp40
 70
     1
102
RTVSPost2010Prop41ColorIndex
 90
       18
102
RTVSPost2010Prop41ColorRGB
 90
        0
102
RTVSPost2010PropOp41
 70
     1
102
RTVSPost2010Prop42
 90
       50
102
RTVSPost2010PropOp42
 70
     1
102
RTVSPost2010Prop43
 90
        3
102
RTVSPost2010PropOp43
 70
     1
102
RTVSPost2010Prop44ColorIndex
 90
        5
102
RTVSPost2010Prop44ColorRGB
 90
      255
102
RTVSPost2010PropOp44
 70
     1
102
RTVSPost2010Prop45
280
     0
102
RTVSPost2010PropOp45
 70
     1
102
RTVSPost2010Prop46
 90
       50
102
RTVSPost2010PropOp46
 70
     1
102
RTVSPost2010Prop47
 90
       50
102
RTVSPost2010PropOp47
 70
     1
102
RTVSPost2010Prop48
 90
       50
102
RTVSPost2010PropOp48
 70
     1
102
RTVSPost2010Prop49
280
     0
102
RTVSPost2010PropOp49
 70
     1
102
RTVSPost2010Prop50
 90
       50
102
RTVSPost2010PropOp50
 70
     1
102
RTVSPost2010Prop51ColorIndex
 90
      256
102
RTVSPost2010Prop51ColorRGB
 90
-16777216
102
RTVSPost2010PropOp51
 70
     0
102
RTVSPost2010Prop52
140
1.0
102
RTVSPost2010PropOp52
 70
     0
102
RTVSPost2010Prop53
 90
        2
102
RTVSPost2010PropOp53
 70
     1
102
RTVSPost2010Prop54
  1
strokes_ogs.tif
102
RTVSPost2010PropOp54
 70
     1
102
RTVSPost2010Prop55
280
     0
102
RTVSPost2010PropOp55
 70
     1
102
RTVSPost2010Prop56
140
1.0
102
RTVSPost2010PropOp56
 70
     1
102
RTVSPost2010Prop57
140
1.0
102
RTVSPost2010PropOp57
 70
     1
  0
XRECORD
  5
106AC5B
102
{ACAD_REACTORS
330
106AC5A
102
}
330
106AC5A
100
AcDbXrecord
280
     1
102
RTVSPropertyOp0
 70
     1
102
RTVSPropertyOp1
 70
     1
102
RTVSPropertyOp2
 70
     1
102
RTVSPropertyOp3
 70
     1
102
RTVSPropertyOp4
 70
     1
102
RTVSPropertyOp5
 70
     1
102
RTVSPropertyOp6
 70
     1
102
RTVSPropertyOp7
 70
     1
102
RTVSPropertyOp8
 70
     1
102
RTVSPropertyOp9
 70
     1
102
RTVSPropertyOp10
 70
     1
102
RTVSPropertyOp11
 70
     1
102
RTVSPropertyOp12
 70
     1
102
RTVSPropertyOp13
 70
     1
102
RTVSPropertyOp14
 70
     1
102
RTVSPropertyOp15
 70
     1
102
RTVSPropertyOp16
 70
     1
102
RTVSPropertyOp17
 70
     1
102
RTVSPropertyOp18
 70
     1
102
RTVSPropertyOp19
 70
     1
102
RTVSPropertyOp20
 70
     1
102
RTVSPropertyOp21
 70
     1
102
RTVSPropertyOp22
 70
     1
102
RTVSPropertyOp23
 70
     1
102
RTVSPropertyOp24
 70
     1
102
RTVSPropertyOp25
 70
     1
102
RTVSPropertyOp26
 70
     1
102
RTVSPropertyOp27
 70
     1
102
RTVSPropertyOp28
 70
     1
102
RTVSPropertyOp29
 70
     1
102
RTVSPropertyOp30
 70
     1
102
RTVSPropertyOp31
 70
     1
102
RTVSPropertyOp32
 70
     1
102
RTVSPropertyOp33
 70
     1
102
RTVSPropertyOp34
 70
     1
102
RTVSPropertyOp35
 70
     1
102
RTVSPropertyOp36
 70
     1
102
RTVSPropertyOp37
 70
     1
102
RTVSPropertyOp38
 70
     1
102
RTVSPropertyOp39
 70
     1
102
RTVSPropertyOp40
 70
     1
102
RTVSPropertyOp41
 70
     1
102
RTVSPropertyOp42
 70
     1
102
RTVSPropertyOp43
 70
     1
102
RTVSPropertyOp44
 70
     1
102
RTVSPropertyOp45
 70
     1
102
RTVSPropertyOp46
 70
     1
102
RTVSPropertyOp47
 70
     1
102
RTVSPropertyOp48
 70
     1
102
RTVSPropertyOp49
 70
     1
102
RTVSPropertyOp50
 70
     1
102
RTVSPropertyOp51
 70
     0
102
RTVSPropertyOp52
 70
     0
102
RTVSPropertyOp53
 70
     1
102
RTVSPropertyOp54
 70
     1
102
RTVSPropertyOp55
 70
     1
102
RTVSPropertyOp56
 70
     1
102
RTVSPropertyOp57
 70
     1
102
RTVSPost2010Prop28
280
     0
102
RTVSPost2010PropOp28
 70
     1
102
RTVSPost2010Prop29
280
     1
102
RTVSPost2010PropOp29
 70
     1
102
RTVSPost2010Prop30
280
     1
102
RTVSPost2010PropOp30
 70
     1
102
RTVSPost2010Prop31
280
     0
102
RTVSPost2010PropOp31
 70
     1
102
RTVSPost2010Prop32
280
     0
102
RTVSPost2010PropOp32
 70
     1
102
RTVSPost2010Prop33
280
     0
102
RTVSPost2010PropOp33
 70
     1
102
RTVSPost2010Prop34
280
     0
102
RTVSPost2010PropOp34
 70
     1
102
RTVSPost2010Prop35
280
     0
102
RTVSPost2010PropOp35
 70
     1
102
RTVSPost2010Prop36
280
     0
102
RTVSPost2010PropOp36
 70
     1
102
RTVSPost2010Prop37
 90
       50
102
RTVSPost2010PropOp37
 70
     1
102
RTVSPost2010Prop38
140
0.0
102
RTVSPost2010PropOp38
 70
     1
102
RTVSPost2010Prop39
140
1.0
102
RTVSPost2010PropOp39
 70
     1
102
RTVSPost2010Prop40
 90
        0
102
RTVSPost2010PropOp40
 70
     1
102
RTVSPost2010Prop41ColorIndex
 90
       18
102
RTVSPost2010Prop41ColorRGB
 90
        0
102
RTVSPost2010PropOp41
 70
     1
102
RTVSPost2010Prop42
 90
       50
102
RTVSPost2010PropOp42
 70
     1
102
RTVSPost2010Prop43
 90
        3
102
RTVSPost2010PropOp43
 70
     1
102
RTVSPost2010Prop44ColorIndex
 90
        5
102
RTVSPost2010Prop44ColorRGB
 90
      255
102
RTVSPost2010PropOp44
 70
     1
102
RTVSPost2010Prop45
280
     0
102
RTVSPost2010PropOp45
 70
     1
102
RTVSPost2010Prop46
 90
       50
102
RTVSPost2010PropOp46
 70
     1
102
RTVSPost2010Prop47
 90
       50
102
RTVSPost2010PropOp47
 70
     1
102
RTVSPost2010Prop48
 90
       50
102
RTVSPost2010PropOp48
 70
     1
102
RTVSPost2010Prop49
280
     0
102
RTVSPost2010PropOp49
 70
     1
102
RTVSPost2010Prop50
 90
       50
102
RTVSPost2010PropOp50
 70
     1
102
RTVSPost2010Prop51ColorIndex
 90
      256
102
RTVSPost2010Prop51ColorRGB
 90
-16777216
102
RTVSPost2010PropOp51
 70
     0
102
RTVSPost2010Prop52
140
1.0
102
RTVSPost2010PropOp52
 70
     0
102
RTVSPost2010Prop53
 90
        2
102
RTVSPost2010PropOp53
 70
     1
102
RTVSPost2010Prop54
  1
strokes_ogs.tif
102
RTVSPost2010PropOp54
 70
     1
102
RTVSPost2010Prop55
280
     0
102
RTVSPost2010PropOp55
 70
     1
102
RTVSPost2010Prop56
140
1.0
102
RTVSPost2010PropOp56
 70
     1
102
RTVSPost2010Prop57
140
1.0
102
RTVSPost2010PropOp57
 70
     1
  0
XRECORD
  5
106AC5D
102
{ACAD_REACTORS
330
106AC5C
102
}
330
106AC5C
100
AcDbXrecord
280
     1
102
RTVSPropertyOp0
 70
     1
102
RTVSPropertyOp1
 70
     1
102
RTVSPropertyOp2
 70
     1
102
RTVSPropertyOp3
 70
     1
102
RTVSPropertyOp4
 70
     1
102
RTVSPropertyOp5
 70
     1
102
RTVSPropertyOp6
 70
     1
102
RTVSPropertyOp7
 70
     1
102
RTVSPropertyOp8
 70
     1
102
RTVSPropertyOp9
 70
     1
102
RTVSPropertyOp10
 70
     1
102
RTVSPropertyOp11
 70
     1
102
RTVSPropertyOp12
 70
     1
102
RTVSPropertyOp13
 70
     1
102
RTVSPropertyOp14
 70
     1
102
RTVSPropertyOp15
 70
     1
102
RTVSPropertyOp16
 70
     1
102
RTVSPropertyOp17
 70
     1
102
RTVSPropertyOp18
 70
     1
102
RTVSPropertyOp19
 70
     1
102
RTVSPropertyOp20
 70
     1
102
RTVSPropertyOp21
 70
     1
102
RTVSPropertyOp22
 70
     1
102
RTVSPropertyOp23
 70
     1
102
RTVSPropertyOp24
 70
     1
102
RTVSPropertyOp25
 70
     1
102
RTVSPropertyOp26
 70
     1
102
RTVSPropertyOp27
 70
     1
102
RTVSPropertyOp28
 70
     1
102
RTVSPropertyOp29
 70
     1
102
RTVSPropertyOp30
 70
     1
102
RTVSPropertyOp31
 70
     1
102
RTVSPropertyOp32
 70
     1
102
RTVSPropertyOp33
 70
     1
102
RTVSPropertyOp34
 70
     1
102
RTVSPropertyOp35
 70
     1
102
RTVSPropertyOp36
 70
     1
102
RTVSPropertyOp37
 70
     1
102
RTVSPropertyOp38
 70
     1
102
RTVSPropertyOp39
 70
     1
102
RTVSPropertyOp40
 70
     1
102
RTVSPropertyOp41
 70
     1
102
RTVSPropertyOp42
 70
     1
102
RTVSPropertyOp43
 70
     1
102
RTVSPropertyOp44
 70
     1
102
RTVSPropertyOp45
 70
     1
102
RTVSPropertyOp46
 70
     1
102
RTVSPropertyOp47
 70
     1
102
RTVSPropertyOp48
 70
     1
102
RTVSPropertyOp49
 70
     1
102
RTVSPropertyOp50
 70
     1
102
RTVSPropertyOp51
 70
     0
102
RTVSPropertyOp52
 70
     0
102
RTVSPropertyOp53
 70
     1
102
RTVSPropertyOp54
 70
     1
102
RTVSPropertyOp55
 70
     1
102
RTVSPropertyOp56
 70
     1
102
RTVSPropertyOp57
 70
     1
102
RTVSPost2010Prop28
280
     0
102
RTVSPost2010PropOp28
 70
     1
102
RTVSPost2010Prop29
280
     1
102
RTVSPost2010PropOp29
 70
     1
102
RTVSPost2010Prop30
280
     1
102
RTVSPost2010PropOp30
 70
     1
102
RTVSPost2010Prop31
280
     0
102
RTVSPost2010PropOp31
 70
     1
102
RTVSPost2010Prop32
280
     0
102
RTVSPost2010PropOp32
 70
     1
102
RTVSPost2010Prop33
280
     0
102
RTVSPost2010PropOp33
 70
     1
102
RTVSPost2010Prop34
280
     0
102
RTVSPost2010PropOp34
 70
     1
102
RTVSPost2010Prop35
280
     0
102
RTVSPost2010PropOp35
 70
     1
102
RTVSPost2010Prop36
280
     0
102
RTVSPost2010PropOp36
 70
     1
102
RTVSPost2010Prop37
 90
       50
102
RTVSPost2010PropOp37
 70
     1
102
RTVSPost2010Prop38
140
0.0
102
RTVSPost2010PropOp38
 70
     1
102
RTVSPost2010Prop39
140
1.0
102
RTVSPost2010PropOp39
 70
     1
102
RTVSPost2010Prop40
 90
        0
102
RTVSPost2010PropOp40
 70
     1
102
RTVSPost2010Prop41ColorIndex
 90
       18
102
RTVSPost2010Prop41ColorRGB
 90
        0
102
RTVSPost2010PropOp41
 70
     1
102
RTVSPost2010Prop42
 90
       50
102
RTVSPost2010PropOp42
 70
     1
102
RTVSPost2010Prop43
 90
        3
102
RTVSPost2010PropOp43
 70
     1
102
RTVSPost2010Prop44ColorIndex
 90
        5
102
RTVSPost2010Prop44ColorRGB
 90
      255
102
RTVSPost2010PropOp44
 70
     1
102
RTVSPost2010Prop45
280
     0
102
RTVSPost2010PropOp45
 70
     1
102
RTVSPost2010Prop46
 90
       50
102
RTVSPost2010PropOp46
 70
     1
102
RTVSPost2010Prop47
 90
       50
102
RTVSPost2010PropOp47
 70
     1
102
RTVSPost2010Prop48
 90
       50
102
RTVSPost2010PropOp48
 70
     1
102
RTVSPost2010Prop49
280
     0
102
RTVSPost2010PropOp49
 70
     1
102
RTVSPost2010Prop50
 90
       50
102
RTVSPost2010PropOp50
 70
     1
102
RTVSPost2010Prop51ColorIndex
 90
      256
102
RTVSPost2010Prop51ColorRGB
 90
-16777216
102
RTVSPost2010PropOp51
 70
     0
102
RTVSPost2010Prop52
140
1.0
102
RTVSPost2010PropOp52
 70
     0
102
RTVSPost2010Prop53
 90
        2
102
RTVSPost2010PropOp53
 70
     1
102
RTVSPost2010Prop54
  1
strokes_ogs.tif
102
RTVSPost2010PropOp54
 70
     1
102
RTVSPost2010Prop55
280
     0
102
RTVSPost2010PropOp55
 70
     1
102
RTVSPost2010Prop56
140
1.0
102
RTVSPost2010PropOp56
 70
     1
102
RTVSPost2010Prop57
140
1.0
102
RTVSPost2010PropOp57
 70
     1
  0
XRECORD
  5
106AC5F
102
{ACAD_REACTORS
330
106AC5E
102
}
330
106AC5E
100
AcDbXrecord
280
     1
102
RTVSPropertyOp0
 70
     0
102
RTVSPropertyOp1
 70
     0
102
RTVSPropertyOp2
 70
     0
102
RTVSPropertyOp3
 70
     0
102
RTVSPropertyOp4
 70
     0
102
RTVSPropertyOp5
 70
     0
102
RTVSPropertyOp6
 70
     0
102
RTVSPropertyOp7
 70
     0
102
RTVSPropertyOp8
 70
     0
102
RTVSPropertyOp9
 70
     0
102
RTVSPropertyOp10
 70
     0
102
RTVSPropertyOp11
 70
     0
102
RTVSPropertyOp12
 70
     0
102
RTVSPropertyOp13
 70
     0
102
RTVSPropertyOp14
 70
     2
102
RTVSPropertyOp15
 70
     0
102
RTVSPropertyOp16
 70
     0
102
RTVSPropertyOp17
 70
     0
102
RTVSPropertyOp18
 70
     0
102
RTVSPropertyOp19
 70
     0
102
RTVSPropertyOp20
 70
     0
102
RTVSPropertyOp21
 70
     0
102
RTVSPropertyOp22
 70
     0
102
RTVSPropertyOp23
 70
     0
102
RTVSPropertyOp24
 70
     0
102
RTVSPropertyOp25
 70
     0
102
RTVSPropertyOp26
 70
     0
102
RTVSPropertyOp27
 70
     0
102
RTVSPropertyOp28
 70
     0
102
RTVSPropertyOp29
 70
     0
102
RTVSPropertyOp30
 70
     0
102
RTVSPropertyOp31
 70
     0
102
RTVSPropertyOp32
 70
     0
102
RTVSPropertyOp33
 70
     0
102
RTVSPropertyOp34
 70
     0
102
RTVSPropertyOp35
 70
     0
102
RTVSPropertyOp36
 70
     0
102
RTVSPropertyOp37
 70
     0
102
RTVSPropertyOp38
 70
     0
102
RTVSPropertyOp39
 70
     0
102
RTVSPropertyOp40
 70
     0
102
RTVSPropertyOp41
 70
     0
102
RTVSPropertyOp42
 70
     0
102
RTVSPropertyOp43
 70
     0
102
RTVSPropertyOp44
 70
     0
102
RTVSPropertyOp45
 70
     0
102
RTVSPropertyOp46
 70
     0
102
RTVSPropertyOp47
 70
     0
102
RTVSPropertyOp48
 70
     0
102
RTVSPropertyOp49
 70
     0
102
RTVSPropertyOp50
 70
     0
102
RTVSPropertyOp51
 70
     0
102
RTVSPropertyOp52
 70
     0
102
RTVSPropertyOp53
 70
     0
102
RTVSPropertyOp54
 70
     0
102
RTVSPropertyOp55
 70
     0
102
RTVSPropertyOp56
 70
     0
102
RTVSPropertyOp57
 70
     0
102
RTVSPost2010Prop28
280
     0
102
RTVSPost2010PropOp28
 70
     0
102
RTVSPost2010Prop29
280
     1
102
RTVSPost2010PropOp29
 70
     0
102
RTVSPost2010Prop30
280
     1
102
RTVSPost2010PropOp30
 70
     0
102
RTVSPost2010Prop31
280
     0
102
RTVSPost2010PropOp31
 70
     0
102
RTVSPost2010Prop32
280
     0
102
RTVSPost2010PropOp32
 70
     0
102
RTVSPost2010Prop33
280
     0
102
RTVSPost2010PropOp33
 70
     0
102
RTVSPost2010Prop34
280
     0
102
RTVSPost2010PropOp34
 70
     0
102
RTVSPost2010Prop35
280
     0
102
RTVSPost2010PropOp35
 70
     0
102
RTVSPost2010Prop36
280
     0
102
RTVSPost2010PropOp36
 70
     0
102
RTVSPost2010Prop37
 90
       50
102
RTVSPost2010PropOp37
 70
     0
102
RTVSPost2010Prop38
140
0.0
102
RTVSPost2010PropOp38
 70
     0
102
RTVSPost2010Prop39
140
1.0
102
RTVSPost2010PropOp39
 70
     0
102
RTVSPost2010Prop40
 90
        0
102
RTVSPost2010PropOp40
 70
     0
102
RTVSPost2010Prop41ColorIndex
 90
       18
102
RTVSPost2010Prop41ColorRGB
 90
        0
102
RTVSPost2010PropOp41
 70
     0
102
RTVSPost2010Prop42
 90
       50
102
RTVSPost2010PropOp42
 70
     0
102
RTVSPost2010Prop43
 90
        3
102
RTVSPost2010PropOp43
 70
     0
102
RTVSPost2010Prop44ColorIndex
 90
        5
102
RTVSPost2010Prop44ColorRGB
 90
      255
102
RTVSPost2010PropOp44
 70
     0
102
RTVSPost2010Prop45
280
     0
102
RTVSPost2010PropOp45
 70
     0
102
RTVSPost2010Prop46
 90
       50
102
RTVSPost2010PropOp46
 70
     0
102
RTVSPost2010Prop47
 90
       50
102
RTVSPost2010PropOp47
 70
     0
102
RTVSPost2010Prop48
 90
       50
102
RTVSPost2010PropOp48
 70
     0
102
RTVSPost2010Prop49
280
     0
102
RTVSPost2010PropOp49
 70
     0
102
RTVSPost2010Prop50
 90
       50
102
RTVSPost2010PropOp50
 70
     0
102
RTVSPost2010Prop51ColorIndex
 90
      256
102
RTVSPost2010Prop51ColorRGB
 90
-16777216
102
RTVSPost2010PropOp51
 70
     0
102
RTVSPost2010Prop52
140
1.0
102
RTVSPost2010PropOp52
 70
     0
102
RTVSPost2010Prop53
 90
        2
102
RTVSPost2010PropOp53
 70
     0
102
RTVSPost2010Prop54
  1
strokes_ogs.tif
102
RTVSPost2010PropOp54
 70
     0
102
RTVSPost2010Prop55
280
     0
102
RTVSPost2010PropOp55
 70
     0
102
RTVSPost2010Prop56
140
1.0
102
RTVSPost2010PropOp56
 70
     0
102
RTVSPost2010Prop57
140
1.0
102
RTVSPost2010PropOp57
 70
     0
  0
XRECORD
  5
106AC61
102
{ACAD_REACTORS
330
106AC60
102
}
330
106AC60
100
AcDbXrecord
280
     1
102
RTVSPropertyOp0
 70
     1
102
RTVSPropertyOp1
 70
     1
102
RTVSPropertyOp2
 70
     1
102
RTVSPropertyOp3
 70
     1
102
RTVSPropertyOp4
 70
     1
102
RTVSPropertyOp5
 70
     1
102
RTVSPropertyOp6
 70
     1
102
RTVSPropertyOp7
 70
     1
102
RTVSPropertyOp8
 70
     1
102
RTVSPropertyOp9
 70
     1
102
RTVSPropertyOp10
 70
     1
102
RTVSPropertyOp11
 70
     1
102
RTVSPropertyOp12
 70
     1
102
RTVSPropertyOp13
 70
     1
102
RTVSPropertyOp14
 70
     1
102
RTVSPropertyOp15
 70
     1
102
RTVSPropertyOp16
 70
     1
102
RTVSPropertyOp17
 70
     1
102
RTVSPropertyOp18
 70
     1
102
RTVSPropertyOp19
 70
     1
102
RTVSPropertyOp20
 70
     1
102
RTVSPropertyOp21
 70
     1
102
RTVSPropertyOp22
 70
     1
102
RTVSPropertyOp23
 70
     1
102
RTVSPropertyOp24
 70
     1
102
RTVSPropertyOp25
 70
     1
102
RTVSPropertyOp26
 70
     1
102
RTVSPropertyOp27
 70
     1
102
RTVSPropertyOp28
 70
     1
102
RTVSPropertyOp29
 70
     1
102
RTVSPropertyOp30
 70
     1
102
RTVSPropertyOp31
 70
     1
102
RTVSPropertyOp32
 70
     1
102
RTVSPropertyOp33
 70
     1
102
RTVSPropertyOp34
 70
     1
102
RTVSPropertyOp35
 70
     1
102
RTVSPropertyOp36
 70
     1
102
RTVSPropertyOp37
 70
     1
102
RTVSPropertyOp38
 70
     1
102
RTVSPropertyOp39
 70
     1
102
RTVSPropertyOp40
 70
     1
102
RTVSPropertyOp41
 70
     1
102
RTVSPropertyOp42
 70
     1
102
RTVSPropertyOp43
 70
     1
102
RTVSPropertyOp44
 70
     1
102
RTVSPropertyOp45
 70
     1
102
RTVSPropertyOp46
 70
     1
102
RTVSPropertyOp47
 70
     1
102
RTVSPropertyOp48
 70
     1
102
RTVSPropertyOp49
 70
     1
102
RTVSPropertyOp50
 70
     1
102
RTVSPropertyOp51
 70
     0
102
RTVSPropertyOp52
 70
     0
102
RTVSPropertyOp53
 70
     1
102
RTVSPropertyOp54
 70
     1
102
RTVSPropertyOp55
 70
     1
102
RTVSPropertyOp56
 70
     1
102
RTVSPropertyOp57
 70
     1
102
RTVSPost2010Prop28
280
     0
102
RTVSPost2010PropOp28
 70
     1
102
RTVSPost2010Prop29
280
     1
102
RTVSPost2010PropOp29
 70
     1
102
RTVSPost2010Prop30
280
     1
102
RTVSPost2010PropOp30
 70
     1
102
RTVSPost2010Prop31
280
     0
102
RTVSPost2010PropOp31
 70
     1
102
RTVSPost2010Prop32
280
     0
102
RTVSPost2010PropOp32
 70
     1
102
RTVSPost2010Prop33
280
     0
102
RTVSPost2010PropOp33
 70
     1
102
RTVSPost2010Prop34
280
     0
102
RTVSPost2010PropOp34
 70
     1
102
RTVSPost2010Prop35
280
     0
102
RTVSPost2010PropOp35
 70
     1
102
RTVSPost2010Prop36
280
     0
102
RTVSPost2010PropOp36
 70
     1
102
RTVSPost2010Prop37
 90
       50
102
RTVSPost2010PropOp37
 70
     1
102
RTVSPost2010Prop38
140
0.0
102
RTVSPost2010PropOp38
 70
     1
102
RTVSPost2010Prop39
140
1.0
102
RTVSPost2010PropOp39
 70
     1
102
RTVSPost2010Prop40
 90
        0
102
RTVSPost2010PropOp40
 70
     1
102
RTVSPost2010Prop41ColorIndex
 90
       18
102
RTVSPost2010Prop41ColorRGB
 90
        0
102
RTVSPost2010PropOp41
 70
     1
102
RTVSPost2010Prop42
 90
       50
102
RTVSPost2010PropOp42
 70
     1
102
RTVSPost2010Prop43
 90
        3
102
RTVSPost2010PropOp43
 70
     1
102
RTVSPost2010Prop44ColorIndex
 90
        5
102
RTVSPost2010Prop44ColorRGB
 90
      255
102
RTVSPost2010PropOp44
 70
     1
102
RTVSPost2010Prop45
280
     0
102
RTVSPost2010PropOp45
 70
     1
102
RTVSPost2010Prop46
 90
       50
102
RTVSPost2010PropOp46
 70
     1
102
RTVSPost2010Prop47
 90
       50
102
RTVSPost2010PropOp47
 70
     1
102
RTVSPost2010Prop48
 90
       50
102
RTVSPost2010PropOp48
 70
     1
102
RTVSPost2010Prop49
280
     0
102
RTVSPost2010PropOp49
 70
     1
102
RTVSPost2010Prop50
 90
       50
102
RTVSPost2010PropOp50
 70
     1
102
RTVSPost2010Prop51ColorIndex
 90
      256
102
RTVSPost2010Prop51ColorRGB
 90
-16777216
102
RTVSPost2010PropOp51
 70
     0
102
RTVSPost2010Prop52
140
1.0
102
RTVSPost2010PropOp52
 70
     0
102
RTVSPost2010Prop53
 90
        2
102
RTVSPost2010PropOp53
 70
     1
102
RTVSPost2010Prop54
  1
strokes_ogs.tif
102
RTVSPost2010PropOp54
 70
     1
102
RTVSPost2010Prop55
280
     0
102
RTVSPost2010PropOp55
 70
     1
102
RTVSPost2010Prop56
140
1.0
102
RTVSPost2010PropOp56
 70
     1
102
RTVSPost2010Prop57
140
1.0
102
RTVSPost2010PropOp57
 70
     1
  0
XRECORD
  5
106AC63
102
{ACAD_REACTORS
330
106AC62
102
}
330
106AC62
100
AcDbXrecord
280
     1
102
RTVSPropertyOp0
 70
     0
102
RTVSPropertyOp1
 70
     0
102
RTVSPropertyOp2
 70
     0
102
RTVSPropertyOp3
 70
     0
102
RTVSPropertyOp4
 70
     0
102
RTVSPropertyOp5
 70
     0
102
RTVSPropertyOp6
 70
     0
102
RTVSPropertyOp7
 70
     0
102
RTVSPropertyOp8
 70
     0
102
RTVSPropertyOp9
 70
     0
102
RTVSPropertyOp10
 70
     0
102
RTVSPropertyOp11
 70
     0
102
RTVSPropertyOp12
 70
     0
102
RTVSPropertyOp13
 70
     0
102
RTVSPropertyOp14
 70
     2
102
RTVSPropertyOp15
 70
     0
102
RTVSPropertyOp16
 70
     0
102
RTVSPropertyOp17
 70
     0
102
RTVSPropertyOp18
 70
     0
102
RTVSPropertyOp19
 70
     0
102
RTVSPropertyOp20
 70
     0
102
RTVSPropertyOp21
 70
     0
102
RTVSPropertyOp22
 70
     0
102
RTVSPropertyOp23
 70
     0
102
RTVSPropertyOp24
 70
     0
102
RTVSPropertyOp25
 70
     0
102
RTVSPropertyOp26
 70
     0
102
RTVSPropertyOp27
 70
     0
102
RTVSPropertyOp28
 70
     0
102
RTVSPropertyOp29
 70
     0
102
RTVSPropertyOp30
 70
     0
102
RTVSPropertyOp31
 70
     0
102
RTVSPropertyOp32
 70
     0
102
RTVSPropertyOp33
 70
     0
102
RTVSPropertyOp34
 70
     0
102
RTVSPropertyOp35
 70
     0
102
RTVSPropertyOp36
 70
     0
102
RTVSPropertyOp37
 70
     0
102
RTVSPropertyOp38
 70
     0
102
RTVSPropertyOp39
 70
     0
102
RTVSPropertyOp40
 70
     0
102
RTVSPropertyOp41
 70
     0
102
RTVSPropertyOp42
 70
     0
102
RTVSPropertyOp43
 70
     0
102
RTVSPropertyOp44
 70
     0
102
RTVSPropertyOp45
 70
     0
102
RTVSPropertyOp46
 70
     0
102
RTVSPropertyOp47
 70
     0
102
RTVSPropertyOp48
 70
     0
102
RTVSPropertyOp49
 70
     0
102
RTVSPropertyOp50
 70
     0
102
RTVSPropertyOp51
 70
     0
102
RTVSPropertyOp52
 70
     0
102
RTVSPropertyOp53
 70
     0
102
RTVSPropertyOp54
 70
     0
102
RTVSPropertyOp55
 70
     0
102
RTVSPropertyOp56
 70
     0
102
RTVSPropertyOp57
 70
     0
102
RTVSPost2010Prop28
280
     0
102
RTVSPost2010PropOp28
 70
     0
102
RTVSPost2010Prop29
280
     1
102
RTVSPost2010PropOp29
 70
     0
102
RTVSPost2010Prop30
280
     1
102
RTVSPost2010PropOp30
 70
     0
102
RTVSPost2010Prop31
280
     0
102
RTVSPost2010PropOp31
 70
     0
102
RTVSPost2010Prop32
280
     0
102
RTVSPost2010PropOp32
 70
     0
102
RTVSPost2010Prop33
280
     0
102
RTVSPost2010PropOp33
 70
     0
102
RTVSPost2010Prop34
280
     0
102
RTVSPost2010PropOp34
 70
     0
102
RTVSPost2010Prop35
280
     0
102
RTVSPost2010PropOp35
 70
     0
102
RTVSPost2010Prop36
280
     0
102
RTVSPost2010PropOp36
 70
     0
102
RTVSPost2010Prop37
 90
       50
102
RTVSPost2010PropOp37
 70
     0
102
RTVSPost2010Prop38
140
0.0
102
RTVSPost2010PropOp38
 70
     0
102
RTVSPost2010Prop39
140
1.0
102
RTVSPost2010PropOp39
 70
     0
102
RTVSPost2010Prop40
 90
        0
102
RTVSPost2010PropOp40
 70
     0
102
RTVSPost2010Prop41ColorIndex
 90
       18
102
RTVSPost2010Prop41ColorRGB
 90
        0
102
RTVSPost2010PropOp41
 70
     0
102
RTVSPost2010Prop42
 90
       50
102
RTVSPost2010PropOp42
 70
     0
102
RTVSPost2010Prop43
 90
        3
102
RTVSPost2010PropOp43
 70
     0
102
RTVSPost2010Prop44ColorIndex
 90
        5
102
RTVSPost2010Prop44ColorRGB
 90
      255
102
RTVSPost2010PropOp44
 70
     0
102
RTVSPost2010Prop45
280
     0
102
RTVSPost2010PropOp45
 70
     0
102
RTVSPost2010Prop46
 90
       50
102
RTVSPost2010PropOp46
 70
     0
102
RTVSPost2010Prop47
 90
       50
102
RTVSPost2010PropOp47
 70
     0
102
RTVSPost2010Prop48
 90
       50
102
RTVSPost2010PropOp48
 70
     0
102
RTVSPost2010Prop49
280
     0
102
RTVSPost2010PropOp49
 70
     0
102
RTVSPost2010Prop50
 90
       50
102
RTVSPost2010PropOp50
 70
     0
102
RTVSPost2010Prop51ColorIndex
 90
      256
102
RTVSPost2010Prop51ColorRGB
 90
-16777216
102
RTVSPost2010PropOp51
 70
     0
102
RTVSPost2010Prop52
140
1.0
102
RTVSPost2010PropOp52
 70
     0
102
RTVSPost2010Prop53
 90
        2
102
RTVSPost2010PropOp53
 70
     0
102
RTVSPost2010Prop54
  1
strokes_ogs.tif
102
RTVSPost2010PropOp54
 70
     0
102
RTVSPost2010Prop55
280
     0
102
RTVSPost2010PropOp55
 70
     0
102
RTVSPost2010Prop56
140
1.0
102
RTVSPost2010PropOp56
 70
     0
102
RTVSPost2010Prop57
140
1.0
102
RTVSPost2010PropOp57
 70
     0
  0
XRECORD
  5
106AC65
102
{ACAD_REACTORS
330
106AC64
102
}
330
106AC64
100
AcDbXrecord
280
     1
102
RTVSPropertyOp0
 70
     1
102
RTVSPropertyOp1
 70
     1
102
RTVSPropertyOp2
 70
     1
102
RTVSPropertyOp3
 70
     1
102
RTVSPropertyOp4
 70
     1
102
RTVSPropertyOp5
 70
     1
102
RTVSPropertyOp6
 70
     1
102
RTVSPropertyOp7
 70
     1
102
RTVSPropertyOp8
 70
     1
102
RTVSPropertyOp9
 70
     1
102
RTVSPropertyOp10
 70
     1
102
RTVSPropertyOp11
 70
     1
102
RTVSPropertyOp12
 70
     1
102
RTVSPropertyOp13
 70
     1
102
RTVSPropertyOp14
 70
     1
102
RTVSPropertyOp15
 70
     1
102
RTVSPropertyOp16
 70
     1
102
RTVSPropertyOp17
 70
     1
102
RTVSPropertyOp18
 70
     1
102
RTVSPropertyOp19
 70
     1
102
RTVSPropertyOp20
 70
     1
102
RTVSPropertyOp21
 70
     1
102
RTVSPropertyOp22
 70
     1
102
RTVSPropertyOp23
 70
     1
102
RTVSPropertyOp24
 70
     1
102
RTVSPropertyOp25
 70
     1
102
RTVSPropertyOp26
 70
     1
102
RTVSPropertyOp27
 70
     1
102
RTVSPropertyOp28
 70
     1
102
RTVSPropertyOp29
 70
     1
102
RTVSPropertyOp30
 70
     1
102
RTVSPropertyOp31
 70
     1
102
RTVSPropertyOp32
 70
     1
102
RTVSPropertyOp33
 70
     1
102
RTVSPropertyOp34
 70
     1
102
RTVSPropertyOp35
 70
     1
102
RTVSPropertyOp36
 70
     1
102
RTVSPropertyOp37
 70
     1
102
RTVSPropertyOp38
 70
     1
102
RTVSPropertyOp39
 70
     1
102
RTVSPropertyOp40
 70
     1
102
RTVSPropertyOp41
 70
     1
102
RTVSPropertyOp42
 70
     1
102
RTVSPropertyOp43
 70
     1
102
RTVSPropertyOp44
 70
     1
102
RTVSPropertyOp45
 70
     1
102
RTVSPropertyOp46
 70
     1
102
RTVSPropertyOp47
 70
     1
102
RTVSPropertyOp48
 70
     1
102
RTVSPropertyOp49
 70
     1
102
RTVSPropertyOp50
 70
     1
102
RTVSPropertyOp51
 70
     0
102
RTVSPropertyOp52
 70
     0
102
RTVSPropertyOp53
 70
     1
102
RTVSPropertyOp54
 70
     1
102
RTVSPropertyOp55
 70
     1
102
RTVSPropertyOp56
 70
     1
102
RTVSPropertyOp57
 70
     1
102
RTVSPost2010Prop28
280
     0
102
RTVSPost2010PropOp28
 70
     1
102
RTVSPost2010Prop29
280
     1
102
RTVSPost2010PropOp29
 70
     1
102
RTVSPost2010Prop30
280
     1
102
RTVSPost2010PropOp30
 70
     1
102
RTVSPost2010Prop31
280
     0
102
RTVSPost2010PropOp31
 70
     1
102
RTVSPost2010Prop32
280
     0
102
RTVSPost2010PropOp32
 70
     1
102
RTVSPost2010Prop33
280
     0
102
RTVSPost2010PropOp33
 70
     1
102
RTVSPost2010Prop34
280
     0
102
RTVSPost2010PropOp34
 70
     1
102
RTVSPost2010Prop35
280
     0
102
RTVSPost2010PropOp35
 70
     1
102
RTVSPost2010Prop36
280
     0
102
RTVSPost2010PropOp36
 70
     1
102
RTVSPost2010Prop37
 90
       50
102
RTVSPost2010PropOp37
 70
     1
102
RTVSPost2010Prop38
140
0.0
102
RTVSPost2010PropOp38
 70
     1
102
RTVSPost2010Prop39
140
1.0
102
RTVSPost2010PropOp39
 70
     1
102
RTVSPost2010Prop40
 90
        0
102
RTVSPost2010PropOp40
 70
     1
102
RTVSPost2010Prop41ColorIndex
 90
       18
102
RTVSPost2010Prop41ColorRGB
 90
        0
102
RTVSPost2010PropOp41
 70
     1
102
RTVSPost2010Prop42
 90
       50
102
RTVSPost2010PropOp42
 70
     1
102
RTVSPost2010Prop43
 90
        3
102
RTVSPost2010PropOp43
 70
     1
102
RTVSPost2010Prop44ColorIndex
 90
        5
102
RTVSPost2010Prop44ColorRGB
 90
      255
102
RTVSPost2010PropOp44
 70
     1
102
RTVSPost2010Prop45
280
     0
102
RTVSPost2010PropOp45
 70
     1
102
RTVSPost2010Prop46
 90
       50
102
RTVSPost2010PropOp46
 70
     1
102
RTVSPost2010Prop47
 90
       50
102
RTVSPost2010PropOp47
 70
     1
102
RTVSPost2010Prop48
 90
       50
102
RTVSPost2010PropOp48
 70
     1
102
RTVSPost2010Prop49
280
     0
102
RTVSPost2010PropOp49
 70
     1
102
RTVSPost2010Prop50
 90
       50
102
RTVSPost2010PropOp50
 70
     1
102
RTVSPost2010Prop51ColorIndex
 90
      256
102
RTVSPost2010Prop51ColorRGB
 90
-16777216
102
RTVSPost2010PropOp51
 70
     0
102
RTVSPost2010Prop52
140
1.0
102
RTVSPost2010PropOp52
 70
     0
102
RTVSPost2010Prop53
 90
        2
102
RTVSPost2010PropOp53
 70
     1
102
RTVSPost2010Prop54
  1
strokes_ogs.tif
102
RTVSPost2010PropOp54
 70
     1
102
RTVSPost2010Prop55
280
     0
102
RTVSPost2010PropOp55
 70
     1
102
RTVSPost2010Prop56
140
1.0
102
RTVSPost2010PropOp56
 70
     1
102
RTVSPost2010Prop57
140
1.0
102
RTVSPost2010PropOp57
 70
     1
  0
XRECORD
  5
106AC67
102
{ACAD_REACTORS
330
106AC66
102
}
330
106AC66
100
AcDbXrecord
280
     1
102
RTVSPropertyOp0
 70
     1
102
RTVSPropertyOp1
 70
     1
102
RTVSPropertyOp2
 70
     1
102
RTVSPropertyOp3
 70
     1
102
RTVSPropertyOp4
 70
     1
102
RTVSPropertyOp5
 70
     1
102
RTVSPropertyOp6
 70
     1
102
RTVSPropertyOp7
 70
     1
102
RTVSPropertyOp8
 70
     1
102
RTVSPropertyOp9
 70
     1
102
RTVSPropertyOp10
 70
     1
102
RTVSPropertyOp11
 70
     1
102
RTVSPropertyOp12
 70
     1
102
RTVSPropertyOp13
 70
     1
102
RTVSPropertyOp14
 70
     1
102
RTVSPropertyOp15
 70
     1
102
RTVSPropertyOp16
 70
     1
102
RTVSPropertyOp17
 70
     1
102
RTVSPropertyOp18
 70
     1
102
RTVSPropertyOp19
 70
     1
102
RTVSPropertyOp20
 70
     1
102
RTVSPropertyOp21
 70
     1
102
RTVSPropertyOp22
 70
     1
102
RTVSPropertyOp23
 70
     1
102
RTVSPropertyOp24
 70
     1
102
RTVSPropertyOp25
 70
     1
102
RTVSPropertyOp26
 70
     1
102
RTVSPropertyOp27
 70
     1
102
RTVSPropertyOp28
 70
     1
102
RTVSPropertyOp29
 70
     1
102
RTVSPropertyOp30
 70
     1
102
RTVSPropertyOp31
 70
     1
102
RTVSPropertyOp32
 70
     1
102
RTVSPropertyOp33
 70
     1
102
RTVSPropertyOp34
 70
     1
102
RTVSPropertyOp35
 70
     1
102
RTVSPropertyOp36
 70
     1
102
RTVSPropertyOp37
 70
     1
102
RTVSPropertyOp38
 70
     1
102
RTVSPropertyOp39
 70
     1
102
RTVSPropertyOp40
 70
     1
102
RTVSPropertyOp41
 70
     1
102
RTVSPropertyOp42
 70
     1
102
RTVSPropertyOp43
 70
     1
102
RTVSPropertyOp44
 70
     1
102
RTVSPropertyOp45
 70
     1
102
RTVSPropertyOp46
 70
     1
102
RTVSPropertyOp47
 70
     1
102
RTVSPropertyOp48
 70
     1
102
RTVSPropertyOp49
 70
     1
102
RTVSPropertyOp50
 70
     1
102
RTVSPropertyOp51
 70
     0
102
RTVSPropertyOp52
 70
     0
102
RTVSPropertyOp53
 70
     1
102
RTVSPropertyOp54
 70
     1
102
RTVSPropertyOp55
 70
     1
102
RTVSPropertyOp56
 70
     1
102
RTVSPropertyOp57
 70
     1
102
RTVSPost2010Prop28
280
     0
102
RTVSPost2010PropOp28
 70
     1
102
RTVSPost2010Prop29
280
     1
102
RTVSPost2010PropOp29
 70
     1
102
RTVSPost2010Prop30
280
     1
102
RTVSPost2010PropOp30
 70
     1
102
RTVSPost2010Prop31
280
     0
102
RTVSPost2010PropOp31
 70
     1
102
RTVSPost2010Prop32
280
     0
102
RTVSPost2010PropOp32
 70
     1
102
RTVSPost2010Prop33
280
     0
102
RTVSPost2010PropOp33
 70
     1
102
RTVSPost2010Prop34
280
     0
102
RTVSPost2010PropOp34
 70
     1
102
RTVSPost2010Prop35
280
     0
102
RTVSPost2010PropOp35
 70
     1
102
RTVSPost2010Prop36
280
     0
102
RTVSPost2010PropOp36
 70
     1
102
RTVSPost2010Prop37
 90
       50
102
RTVSPost2010PropOp37
 70
     1
102
RTVSPost2010Prop38
140
0.0
102
RTVSPost2010PropOp38
 70
     1
102
RTVSPost2010Prop39
140
1.0
102
RTVSPost2010PropOp39
 70
     1
102
RTVSPost2010Prop40
 90
        0
102
RTVSPost2010PropOp40
 70
     1
102
RTVSPost2010Prop41ColorIndex
 90
       18
102
RTVSPost2010Prop41ColorRGB
 90
        0
102
RTVSPost2010PropOp41
 70
     1
102
RTVSPost2010Prop42
 90
       50
102
RTVSPost2010PropOp42
 70
     1
102
RTVSPost2010Prop43
 90
        3
102
RTVSPost2010PropOp43
 70
     1
102
RTVSPost2010Prop44ColorIndex
 90
        5
102
RTVSPost2010Prop44ColorRGB
 90
      255
102
RTVSPost2010PropOp44
 70
     1
102
RTVSPost2010Prop45
280
     0
102
RTVSPost2010PropOp45
 70
     1
102
RTVSPost2010Prop46
 90
       50
102
RTVSPost2010PropOp46
 70
     1
102
RTVSPost2010Prop47
 90
       50
102
RTVSPost2010PropOp47
 70
     1
102
RTVSPost2010Prop48
 90
       50
102
RTVSPost2010PropOp48
 70
     1
102
RTVSPost2010Prop49
280
     0
102
RTVSPost2010PropOp49
 70
     1
102
RTVSPost2010Prop50
 90
       50
102
RTVSPost2010PropOp50
 70
     1
102
RTVSPost2010Prop51ColorIndex
 90
      256
102
RTVSPost2010Prop51ColorRGB
 90
-16777216
102
RTVSPost2010PropOp51
 70
     0
102
RTVSPost2010Prop52
140
1.0
102
RTVSPost2010PropOp52
 70
     0
102
RTVSPost2010Prop53
 90
        2
102
RTVSPost2010PropOp53
 70
     1
102
RTVSPost2010Prop54
  1
strokes_ogs.tif
102
RTVSPost2010PropOp54
 70
     1
102
RTVSPost2010Prop55
280
     0
102
RTVSPost2010PropOp55
 70
     1
102
RTVSPost2010Prop56
140
1.0
102
RTVSPost2010PropOp56
 70
     1
102
RTVSPost2010Prop57
140
1.0
102
RTVSPost2010PropOp57
 70
     1
  0
XRECORD
  5
106AC69
102
{ACAD_REACTORS
330
106AC68
102
}
330
106AC68
100
AcDbXrecord
280
     1
102
RTVSPropertyOp0
 70
     1
102
RTVSPropertyOp1
 70
     1
102
RTVSPropertyOp2
 70
     1
102
RTVSPropertyOp3
 70
     1
102
RTVSPropertyOp4
 70
     1
102
RTVSPropertyOp5
 70
     1
102
RTVSPropertyOp6
 70
     1
102
RTVSPropertyOp7
 70
     1
102
RTVSPropertyOp8
 70
     1
102
RTVSPropertyOp9
 70
     1
102
RTVSPropertyOp10
 70
     1
102
RTVSPropertyOp11
 70
     1
102
RTVSPropertyOp12
 70
     1
102
RTVSPropertyOp13
 70
     1
102
RTVSPropertyOp14
 70
     1
102
RTVSPropertyOp15
 70
     1
102
RTVSPropertyOp16
 70
     1
102
RTVSPropertyOp17
 70
     1
102
RTVSPropertyOp18
 70
     1
102
RTVSPropertyOp19
 70
     1
102
RTVSPropertyOp20
 70
     1
102
RTVSPropertyOp21
 70
     1
102
RTVSPropertyOp22
 70
     1
102
RTVSPropertyOp23
 70
     1
102
RTVSPropertyOp24
 70
     1
102
RTVSPropertyOp25
 70
     1
102
RTVSPropertyOp26
 70
     1
102
RTVSPropertyOp27
 70
     1
102
RTVSPropertyOp28
 70
     1
102
RTVSPropertyOp29
 70
     1
102
RTVSPropertyOp30
 70
     1
102
RTVSPropertyOp31
 70
     1
102
RTVSPropertyOp32
 70
     1
102
RTVSPropertyOp33
 70
     1
102
RTVSPropertyOp34
 70
     1
102
RTVSPropertyOp35
 70
     1
102
RTVSPropertyOp36
 70
     1
102
RTVSPropertyOp37
 70
     1
102
RTVSPropertyOp38
 70
     1
102
RTVSPropertyOp39
 70
     1
102
RTVSPropertyOp40
 70
     1
102
RTVSPropertyOp41
 70
     1
102
RTVSPropertyOp42
 70
     1
102
RTVSPropertyOp43
 70
     1
102
RTVSPropertyOp44
 70
     1
102
RTVSPropertyOp45
 70
     1
102
RTVSPropertyOp46
 70
     1
102
RTVSPropertyOp47
 70
     1
102
RTVSPropertyOp48
 70
     1
102
RTVSPropertyOp49
 70
     1
102
RTVSPropertyOp50
 70
     1
102
RTVSPropertyOp51
 70
     0
102
RTVSPropertyOp52
 70
     0
102
RTVSPropertyOp53
 70
     1
102
RTVSPropertyOp54
 70
     1
102
RTVSPropertyOp55
 70
     1
102
RTVSPropertyOp56
 70
     1
102
RTVSPropertyOp57
 70
     1
102
RTVSPost2010Prop28
280
     0
102
RTVSPost2010PropOp28
 70
     1
102
RTVSPost2010Prop29
280
     1
102
RTVSPost2010PropOp29
 70
     1
102
RTVSPost2010Prop30
280
     1
102
RTVSPost2010PropOp30
 70
     1
102
RTVSPost2010Prop31
280
     0
102
RTVSPost2010PropOp31
 70
     1
102
RTVSPost2010Prop32
280
     0
102
RTVSPost2010PropOp32
 70
     1
102
RTVSPost2010Prop33
280
     0
102
RTVSPost2010PropOp33
 70
     1
102
RTVSPost2010Prop34
280
     0
102
RTVSPost2010PropOp34
 70
     1
102
RTVSPost2010Prop35
280
     0
102
RTVSPost2010PropOp35
 70
     1
102
RTVSPost2010Prop36
280
     0
102
RTVSPost2010PropOp36
 70
     1
102
RTVSPost2010Prop37
 90
       50
102
RTVSPost2010PropOp37
 70
     1
102
RTVSPost2010Prop38
140
0.0
102
RTVSPost2010PropOp38
 70
     1
102
RTVSPost2010Prop39
140
1.0
102
RTVSPost2010PropOp39
 70
     1
102
RTVSPost2010Prop40
 90
        0
102
RTVSPost2010PropOp40
 70
     1
102
RTVSPost2010Prop41ColorIndex
 90
       18
102
RTVSPost2010Prop41ColorRGB
 90
        0
102
RTVSPost2010PropOp41
 70
     1
102
RTVSPost2010Prop42
 90
       50
102
RTVSPost2010PropOp42
 70
     1
102
RTVSPost2010Prop43
 90
        3
102
RTVSPost2010PropOp43
 70
     1
102
RTVSPost2010Prop44ColorIndex
 90
        5
102
RTVSPost2010Prop44ColorRGB
 90
      255
102
RTVSPost2010PropOp44
 70
     1
102
RTVSPost2010Prop45
280
     0
102
RTVSPost2010PropOp45
 70
     1
102
RTVSPost2010Prop46
 90
       50
102
RTVSPost2010PropOp46
 70
     1
102
RTVSPost2010Prop47
 90
       50
102
RTVSPost2010PropOp47
 70
     1
102
RTVSPost2010Prop48
 90
       50
102
RTVSPost2010PropOp48
 70
     1
102
RTVSPost2010Prop49
280
     0
102
RTVSPost2010PropOp49
 70
     1
102
RTVSPost2010Prop50
 90
       50
102
RTVSPost2010PropOp50
 70
     1
102
RTVSPost2010Prop51ColorIndex
 90
      256
102
RTVSPost2010Prop51ColorRGB
 90
-16777216
102
RTVSPost2010PropOp51
 70
     0
102
RTVSPost2010Prop52
140
1.0
102
RTVSPost2010PropOp52
 70
     0
102
RTVSPost2010Prop53
 90
        2
102
RTVSPost2010PropOp53
 70
     1
102
RTVSPost2010Prop54
  1
strokes_ogs.tif
102
RTVSPost2010PropOp54
 70
     1
102
RTVSPost2010Prop55
280
     0
102
RTVSPost2010PropOp55
 70
     1
102
RTVSPost2010Prop56
140
1.0
102
RTVSPost2010PropOp56
 70
     1
102
RTVSPost2010Prop57
140
1.0
102
RTVSPost2010PropOp57
 70
     1
  0
XRECORD
  5
106AC6B
102
{ACAD_REACTORS
330
106AC6A
102
}
330
106AC6A
100
AcDbXrecord
280
     1
102
RTVSPropertyOp0
 70
     1
102
RTVSPropertyOp1
 70
     1
102
RTVSPropertyOp2
 70
     1
102
RTVSPropertyOp3
 70
     1
102
RTVSPropertyOp4
 70
     1
102
RTVSPropertyOp5
 70
     1
102
RTVSPropertyOp6
 70
     1
102
RTVSPropertyOp7
 70
     1
102
RTVSPropertyOp8
 70
     1
102
RTVSPropertyOp9
 70
     1
102
RTVSPropertyOp10
 70
     1
102
RTVSPropertyOp11
 70
     1
102
RTVSPropertyOp12
 70
     1
102
RTVSPropertyOp13
 70
     1
102
RTVSPropertyOp14
 70
     1
102
RTVSPropertyOp15
 70
     1
102
RTVSPropertyOp16
 70
     1
102
RTVSPropertyOp17
 70
     1
102
RTVSPropertyOp18
 70
     1
102
RTVSPropertyOp19
 70
     1
102
RTVSPropertyOp20
 70
     1
102
RTVSPropertyOp21
 70
     1
102
RTVSPropertyOp22
 70
     1
102
RTVSPropertyOp23
 70
     1
102
RTVSPropertyOp24
 70
     1
102
RTVSPropertyOp25
 70
     1
102
RTVSPropertyOp26
 70
     1
102
RTVSPropertyOp27
 70
     1
102
RTVSPropertyOp28
 70
     1
102
RTVSPropertyOp29
 70
     1
102
RTVSPropertyOp30
 70
     1
102
RTVSPropertyOp31
 70
     1
102
RTVSPropertyOp32
 70
     1
102
RTVSPropertyOp33
 70
     1
102
RTVSPropertyOp34
 70
     1
102
RTVSPropertyOp35
 70
     1
102
RTVSPropertyOp36
 70
     1
102
RTVSPropertyOp37
 70
     1
102
RTVSPropertyOp38
 70
     1
102
RTVSPropertyOp39
 70
     1
102
RTVSPropertyOp40
 70
     1
102
RTVSPropertyOp41
 70
     1
102
RTVSPropertyOp42
 70
     1
102
RTVSPropertyOp43
 70
     1
102
RTVSPropertyOp44
 70
     1
102
RTVSPropertyOp45
 70
     1
102
RTVSPropertyOp46
 70
     1
102
RTVSPropertyOp47
 70
     1
102
RTVSPropertyOp48
 70
     1
102
RTVSPropertyOp49
 70
     1
102
RTVSPropertyOp50
 70
     1
102
RTVSPropertyOp51
 70
     0
102
RTVSPropertyOp52
 70
     0
102
RTVSPropertyOp53
 70
     1
102
RTVSPropertyOp54
 70
     1
102
RTVSPropertyOp55
 70
     1
102
RTVSPropertyOp56
 70
     1
102
RTVSPropertyOp57
 70
     1
102
RTVSPost2010Prop28
280
     0
102
RTVSPost2010PropOp28
 70
     1
102
RTVSPost2010Prop29
280
     1
102
RTVSPost2010PropOp29
 70
     1
102
RTVSPost2010Prop30
280
     1
102
RTVSPost2010PropOp30
 70
     1
102
RTVSPost2010Prop31
280
     0
102
RTVSPost2010PropOp31
 70
     1
102
RTVSPost2010Prop32
280
     0
102
RTVSPost2010PropOp32
 70
     1
102
RTVSPost2010Prop33
280
     0
102
RTVSPost2010PropOp33
 70
     1
102
RTVSPost2010Prop34
280
     0
102
RTVSPost2010PropOp34
 70
     1
102
RTVSPost2010Prop35
280
     0
102
RTVSPost2010PropOp35
 70
     1
102
RTVSPost2010Prop36
280
     0
102
RTVSPost2010PropOp36
 70
     1
102
RTVSPost2010Prop37
 90
       50
102
RTVSPost2010PropOp37
 70
     1
102
RTVSPost2010Prop38
140
0.0
102
RTVSPost2010PropOp38
 70
     1
102
RTVSPost2010Prop39
140
1.0
102
RTVSPost2010PropOp39
 70
     1
102
RTVSPost2010Prop40
 90
        0
102
RTVSPost2010PropOp40
 70
     1
102
RTVSPost2010Prop41ColorIndex
 90
       18
102
RTVSPost2010Prop41ColorRGB
 90
        0
102
RTVSPost2010PropOp41
 70
     1
102
RTVSPost2010Prop42
 90
       50
102
RTVSPost2010PropOp42
 70
     1
102
RTVSPost2010Prop43
 90
        3
102
RTVSPost2010PropOp43
 70
     1
102
RTVSPost2010Prop44ColorIndex
 90
        5
102
RTVSPost2010Prop44ColorRGB
 90
      255
102
RTVSPost2010PropOp44
 70
     1
102
RTVSPost2010Prop45
280
     0
102
RTVSPost2010PropOp45
 70
     1
102
RTVSPost2010Prop46
 90
       50
102
RTVSPost2010PropOp46
 70
     1
102
RTVSPost2010Prop47
 90
       50
102
RTVSPost2010PropOp47
 70
     1
102
RTVSPost2010Prop48
 90
       50
102
RTVSPost2010PropOp48
 70
     1
102
RTVSPost2010Prop49
280
     0
102
RTVSPost2010PropOp49
 70
     1
102
RTVSPost2010Prop50
 90
       50
102
RTVSPost2010PropOp50
 70
     1
102
RTVSPost2010Prop51ColorIndex
 90
      256
102
RTVSPost2010Prop51ColorRGB
 90
-16777216
102
RTVSPost2010PropOp51
 70
     0
102
RTVSPost2010Prop52
140
1.0
102
RTVSPost2010PropOp52
 70
     0
102
RTVSPost2010Prop53
 90
        2
102
RTVSPost2010PropOp53
 70
     1
102
RTVSPost2010Prop54
  1
strokes_ogs.tif
102
RTVSPost2010PropOp54
 70
     1
102
RTVSPost2010Prop55
280
     0
102
RTVSPost2010PropOp55
 70
     1
102
RTVSPost2010Prop56
140
1.0
102
RTVSPost2010PropOp56
 70
     1
102
RTVSPost2010Prop57
140
1.0
102
RTVSPost2010PropOp57
 70
     1
  0
XRECORD
  5
106AC6D
102
{ACAD_REACTORS
330
106AC6C
102
}
330
106AC6C
100
AcDbXrecord
280
     1
102
RTVSPropertyOp0
 70
     1
102
RTVSPropertyOp1
 70
     1
102
RTVSPropertyOp2
 70
     1
102
RTVSPropertyOp3
 70
     1
102
RTVSPropertyOp4
 70
     1
102
RTVSPropertyOp5
 70
     1
102
RTVSPropertyOp6
 70
     1
102
RTVSPropertyOp7
 70
     1
102
RTVSPropertyOp8
 70
     1
102
RTVSPropertyOp9
 70
     1
102
RTVSPropertyOp10
 70
     1
102
RTVSPropertyOp11
 70
     1
102
RTVSPropertyOp12
 70
     1
102
RTVSPropertyOp13
 70
     1
102
RTVSPropertyOp14
 70
     1
102
RTVSPropertyOp15
 70
     1
102
RTVSPropertyOp16
 70
     1
102
RTVSPropertyOp17
 70
     1
102
RTVSPropertyOp18
 70
     1
102
RTVSPropertyOp19
 70
     1
102
RTVSPropertyOp20
 70
     1
102
RTVSPropertyOp21
 70
     1
102
RTVSPropertyOp22
 70
     1
102
RTVSPropertyOp23
 70
     1
102
RTVSPropertyOp24
 70
     1
102
RTVSPropertyOp25
 70
     1
102
RTVSPropertyOp26
 70
     1
102
RTVSPropertyOp27
 70
     1
102
RTVSPropertyOp28
 70
     1
102
RTVSPropertyOp29
 70
     1
102
RTVSPropertyOp30
 70
     1
102
RTVSPropertyOp31
 70
     1
102
RTVSPropertyOp32
 70
     1
102
RTVSPropertyOp33
 70
     1
102
RTVSPropertyOp34
 70
     1
102
RTVSPropertyOp35
 70
     1
102
RTVSPropertyOp36
 70
     1
102
RTVSPropertyOp37
 70
     1
102
RTVSPropertyOp38
 70
     1
102
RTVSPropertyOp39
 70
     1
102
RTVSPropertyOp40
 70
     1
102
RTVSPropertyOp41
 70
     1
102
RTVSPropertyOp42
 70
     1
102
RTVSPropertyOp43
 70
     1
102
RTVSPropertyOp44
 70
     1
102
RTVSPropertyOp45
 70
     1
102
RTVSPropertyOp46
 70
     1
102
RTVSPropertyOp47
 70
     1
102
RTVSPropertyOp48
 70
     1
102
RTVSPropertyOp49
 70
     1
102
RTVSPropertyOp50
 70
     1
102
RTVSPropertyOp51
 70
     0
102
RTVSPropertyOp52
 70
     0
102
RTVSPropertyOp53
 70
     1
102
RTVSPropertyOp54
 70
     1
102
RTVSPropertyOp55
 70
     1
102
RTVSPropertyOp56
 70
     1
102
RTVSPropertyOp57
 70
     1
102
RTVSPost2010Prop28
280
     0
102
RTVSPost2010PropOp28
 70
     1
102
RTVSPost2010Prop29
280
     1
102
RTVSPost2010PropOp29
 70
     1
102
RTVSPost2010Prop30
280
     1
102
RTVSPost2010PropOp30
 70
     1
102
RTVSPost2010Prop31
280
     0
102
RTVSPost2010PropOp31
 70
     1
102
RTVSPost2010Prop32
280
     0
102
RTVSPost2010PropOp32
 70
     1
102
RTVSPost2010Prop33
280
     0
102
RTVSPost2010PropOp33
 70
     1
102
RTVSPost2010Prop34
280
     0
102
RTVSPost2010PropOp34
 70
     1
102
RTVSPost2010Prop35
280
     0
102
RTVSPost2010PropOp35
 70
     1
102
RTVSPost2010Prop36
280
     0
102
RTVSPost2010PropOp36
 70
     1
102
RTVSPost2010Prop37
 90
       50
102
RTVSPost2010PropOp37
 70
     1
102
RTVSPost2010Prop38
140
0.0
102
RTVSPost2010PropOp38
 70
     1
102
RTVSPost2010Prop39
140
1.0
102
RTVSPost2010PropOp39
 70
     1
102
RTVSPost2010Prop40
 90
        0
102
RTVSPost2010PropOp40
 70
     1
102
RTVSPost2010Prop41ColorIndex
 90
       18
102
RTVSPost2010Prop41ColorRGB
 90
        0
102
RTVSPost2010PropOp41
 70
     1
102
RTVSPost2010Prop42
 90
       50
102
RTVSPost2010PropOp42
 70
     1
102
RTVSPost2010Prop43
 90
        3
102
RTVSPost2010PropOp43
 70
     1
102
RTVSPost2010Prop44ColorIndex
 90
        5
102
RTVSPost2010Prop44ColorRGB
 90
      255
102
RTVSPost2010PropOp44
 70
     1
102
RTVSPost2010Prop45
280
     0
102
RTVSPost2010PropOp45
 70
     1
102
RTVSPost2010Prop46
 90
       50
102
RTVSPost2010PropOp46
 70
     1
102
RTVSPost2010Prop47
 90
       50
102
RTVSPost2010PropOp47
 70
     1
102
RTVSPost2010Prop48
 90
       50
102
RTVSPost2010PropOp48
 70
     1
102
RTVSPost2010Prop49
280
     0
102
RTVSPost2010PropOp49
 70
     1
102
RTVSPost2010Prop50
 90
       50
102
RTVSPost2010PropOp50
 70
     1
102
RTVSPost2010Prop51ColorIndex
 90
      256
102
RTVSPost2010Prop51ColorRGB
 90
-16777216
102
RTVSPost2010PropOp51
 70
     0
102
RTVSPost2010Prop52
140
1.0
102
RTVSPost2010PropOp52
 70
     0
102
RTVSPost2010Prop53
 90
        2
102
RTVSPost2010PropOp53
 70
     1
102
RTVSPost2010Prop54
  1
strokes_ogs.tif
102
RTVSPost2010PropOp54
 70
     1
102
RTVSPost2010Prop55
280
     0
102
RTVSPost2010PropOp55
 70
     1
102
RTVSPost2010Prop56
140
1.0
102
RTVSPost2010PropOp56
 70
     1
102
RTVSPost2010Prop57
140
1.0
102
RTVSPost2010PropOp57
 70
     1
  0
XRECORD
  5
106AC6F
102
{ACAD_REACTORS
330
106AC6E
102
}
330
106AC6E
100
AcDbXrecord
280
     1
102
RTVSPropertyOp0
 70
     1
102
RTVSPropertyOp1
 70
     1
102
RTVSPropertyOp2
 70
     1
102
RTVSPropertyOp3
 70
     1
102
RTVSPropertyOp4
 70
     1
102
RTVSPropertyOp5
 70
     1
102
RTVSPropertyOp6
 70
     1
102
RTVSPropertyOp7
 70
     1
102
RTVSPropertyOp8
 70
     1
102
RTVSPropertyOp9
 70
     1
102
RTVSPropertyOp10
 70
     1
102
RTVSPropertyOp11
 70
     1
102
RTVSPropertyOp12
 70
     1
102
RTVSPropertyOp13
 70
     1
102
RTVSPropertyOp14
 70
     1
102
RTVSPropertyOp15
 70
     1
102
RTVSPropertyOp16
 70
     1
102
RTVSPropertyOp17
 70
     1
102
RTVSPropertyOp18
 70
     1
102
RTVSPropertyOp19
 70
     1
102
RTVSPropertyOp20
 70
     1
102
RTVSPropertyOp21
 70
     1
102
RTVSPropertyOp22
 70
     1
102
RTVSPropertyOp23
 70
     1
102
RTVSPropertyOp24
 70
     1
102
RTVSPropertyOp25
 70
     1
102
RTVSPropertyOp26
 70
     1
102
RTVSPropertyOp27
 70
     1
102
RTVSPropertyOp28
 70
     1
102
RTVSPropertyOp29
 70
     1
102
RTVSPropertyOp30
 70
     1
102
RTVSPropertyOp31
 70
     1
102
RTVSPropertyOp32
 70
     1
102
RTVSPropertyOp33
 70
     1
102
RTVSPropertyOp34
 70
     1
102
RTVSPropertyOp35
 70
     1
102
RTVSPropertyOp36
 70
     1
102
RTVSPropertyOp37
 70
     1
102
RTVSPropertyOp38
 70
     1
102
RTVSPropertyOp39
 70
     1
102
RTVSPropertyOp40
 70
     1
102
RTVSPropertyOp41
 70
     1
102
RTVSPropertyOp42
 70
     1
102
RTVSPropertyOp43
 70
     1
102
RTVSPropertyOp44
 70
     1
102
RTVSPropertyOp45
 70
     1
102
RTVSPropertyOp46
 70
     1
102
RTVSPropertyOp47
 70
     1
102
RTVSPropertyOp48
 70
     1
102
RTVSPropertyOp49
 70
     1
102
RTVSPropertyOp50
 70
     1
102
RTVSPropertyOp51
 70
     0
102
RTVSPropertyOp52
 70
     0
102
RTVSPropertyOp53
 70
     1
102
RTVSPropertyOp54
 70
     1
102
RTVSPropertyOp55
 70
     1
102
RTVSPropertyOp56
 70
     1
102
RTVSPropertyOp57
 70
     1
102
RTVSPost2010Prop28
280
     0
102
RTVSPost2010PropOp28
 70
     1
102
RTVSPost2010Prop29
280
     1
102
RTVSPost2010PropOp29
 70
     1
102
RTVSPost2010Prop30
280
     1
102
RTVSPost2010PropOp30
 70
     1
102
RTVSPost2010Prop31
280
     0
102
RTVSPost2010PropOp31
 70
     1
102
RTVSPost2010Prop32
280
     0
102
RTVSPost2010PropOp32
 70
     1
102
RTVSPost2010Prop33
280
     0
102
RTVSPost2010PropOp33
 70
     1
102
RTVSPost2010Prop34
280
     0
102
RTVSPost2010PropOp34
 70
     1
102
RTVSPost2010Prop35
280
     0
102
RTVSPost2010PropOp35
 70
     1
102
RTVSPost2010Prop36
280
     0
102
RTVSPost2010PropOp36
 70
     1
102
RTVSPost2010Prop37
 90
       50
102
RTVSPost2010PropOp37
 70
     1
102
RTVSPost2010Prop38
140
0.0
102
RTVSPost2010PropOp38
 70
     1
102
RTVSPost2010Prop39
140
1.0
102
RTVSPost2010PropOp39
 70
     1
102
RTVSPost2010Prop40
 90
        0
102
RTVSPost2010PropOp40
 70
     1
102
RTVSPost2010Prop41ColorIndex
 90
       18
102
RTVSPost2010Prop41ColorRGB
 90
        0
102
RTVSPost2010PropOp41
 70
     1
102
RTVSPost2010Prop42
 90
       50
102
RTVSPost2010PropOp42
 70
     1
102
RTVSPost2010Prop43
 90
        3
102
RTVSPost2010PropOp43
 70
     1
102
RTVSPost2010Prop44ColorIndex
 90
        5
102
RTVSPost2010Prop44ColorRGB
 90
      255
102
RTVSPost2010PropOp44
 70
     1
102
RTVSPost2010Prop45
280
     0
102
RTVSPost2010PropOp45
 70
     1
102
RTVSPost2010Prop46
 90
       50
102
RTVSPost2010PropOp46
 70
     1
102
RTVSPost2010Prop47
 90
       50
102
RTVSPost2010PropOp47
 70
     1
102
RTVSPost2010Prop48
 90
       50
102
RTVSPost2010PropOp48
 70
     1
102
RTVSPost2010Prop49
280
     0
102
RTVSPost2010PropOp49
 70
     1
102
RTVSPost2010Prop50
 90
       50
102
RTVSPost2010PropOp50
 70
     1
102
RTVSPost2010Prop51ColorIndex
 90
      256
102
RTVSPost2010Prop51ColorRGB
 90
-16777216
102
RTVSPost2010PropOp51
 70
     0
102
RTVSPost2010Prop52
140
1.0
102
RTVSPost2010PropOp52
 70
     0
102
RTVSPost2010Prop53
 90
        2
102
RTVSPost2010PropOp53
 70
     1
102
RTVSPost2010Prop54
  1
strokes_ogs.tif
102
RTVSPost2010PropOp54
 70
     1
102
RTVSPost2010Prop55
280
     0
102
RTVSPost2010PropOp55
 70
     1
102
RTVSPost2010Prop56
140
1.0
102
RTVSPost2010PropOp56
 70
     1
102
RTVSPost2010Prop57
140
1.0
102
RTVSPost2010PropOp57
 70
     1
  0
XRECORD
  5
106AC71
102
{ACAD_REACTORS
330
106AC70
102
}
330
106AC70
100
AcDbXrecord
280
     1
102
RTVSPropertyOp0
 70
     1
102
RTVSPropertyOp1
 70
     1
102
RTVSPropertyOp2
 70
     1
102
RTVSPropertyOp3
 70
     1
102
RTVSPropertyOp4
 70
     1
102
RTVSPropertyOp5
 70
     1
102
RTVSPropertyOp6
 70
     1
102
RTVSPropertyOp7
 70
     1
102
RTVSPropertyOp8
 70
     1
102
RTVSPropertyOp9
 70
     1
102
RTVSPropertyOp10
 70
     1
102
RTVSPropertyOp11
 70
     1
102
RTVSPropertyOp12
 70
     1
102
RTVSPropertyOp13
 70
     1
102
RTVSPropertyOp14
 70
     1
102
RTVSPropertyOp15
 70
     1
102
RTVSPropertyOp16
 70
     1
102
RTVSPropertyOp17
 70
     1
102
RTVSPropertyOp18
 70
     1
102
RTVSPropertyOp19
 70
     1
102
RTVSPropertyOp20
 70
     1
102
RTVSPropertyOp21
 70
     1
102
RTVSPropertyOp22
 70
     1
102
RTVSPropertyOp23
 70
     1
102
RTVSPropertyOp24
 70
     1
102
RTVSPropertyOp25
 70
     1
102
RTVSPropertyOp26
 70
     1
102
RTVSPropertyOp27
 70
     1
102
RTVSPropertyOp28
 70
     1
102
RTVSPropertyOp29
 70
     1
102
RTVSPropertyOp30
 70
     1
102
RTVSPropertyOp31
 70
     1
102
RTVSPropertyOp32
 70
     1
102
RTVSPropertyOp33
 70
     1
102
RTVSPropertyOp34
 70
     1
102
RTVSPropertyOp35
 70
     1
102
RTVSPropertyOp36
 70
     1
102
RTVSPropertyOp37
 70
     1
102
RTVSPropertyOp38
 70
     1
102
RTVSPropertyOp39
 70
     1
102
RTVSPropertyOp40
 70
     1
102
RTVSPropertyOp41
 70
     1
102
RTVSPropertyOp42
 70
     1
102
RTVSPropertyOp43
 70
     1
102
RTVSPropertyOp44
 70
     1
102
RTVSPropertyOp45
 70
     1
102
RTVSPropertyOp46
 70
     1
102
RTVSPropertyOp47
 70
     1
102
RTVSPropertyOp48
 70
     1
102
RTVSPropertyOp49
 70
     1
102
RTVSPropertyOp50
 70
     1
102
RTVSPropertyOp51
 70
     0
102
RTVSPropertyOp52
 70
     0
102
RTVSPropertyOp53
 70
     1
102
RTVSPropertyOp54
 70
     1
102
RTVSPropertyOp55
 70
     1
102
RTVSPropertyOp56
 70
     1
102
RTVSPropertyOp57
 70
     1
102
RTVSPost2010Prop28
280
     0
102
RTVSPost2010PropOp28
 70
     1
102
RTVSPost2010Prop29
280
     1
102
RTVSPost2010PropOp29
 70
     1
102
RTVSPost2010Prop30
280
     1
102
RTVSPost2010PropOp30
 70
     1
102
RTVSPost2010Prop31
280
     0
102
RTVSPost2010PropOp31
 70
     1
102
RTVSPost2010Prop32
280
     0
102
RTVSPost2010PropOp32
 70
     1
102
RTVSPost2010Prop33
280
     0
102
RTVSPost2010PropOp33
 70
     1
102
RTVSPost2010Prop34
280
     0
102
RTVSPost2010PropOp34
 70
     1
102
RTVSPost2010Prop35
280
     0
102
RTVSPost2010PropOp35
 70
     1
102
RTVSPost2010Prop36
280
     0
102
RTVSPost2010PropOp36
 70
     1
102
RTVSPost2010Prop37
 90
       50
102
RTVSPost2010PropOp37
 70
     1
102
RTVSPost2010Prop38
140
0.0
102
RTVSPost2010PropOp38
 70
     1
102
RTVSPost2010Prop39
140
1.0
102
RTVSPost2010PropOp39
 70
     1
102
RTVSPost2010Prop40
 90
        0
102
RTVSPost2010PropOp40
 70
     1
102
RTVSPost2010Prop41ColorIndex
 90
       18
102
RTVSPost2010Prop41ColorRGB
 90
        0
102
RTVSPost2010PropOp41
 70
     1
102
RTVSPost2010Prop42
 90
       50
102
RTVSPost2010PropOp42
 70
     1
102
RTVSPost2010Prop43
 90
        3
102
RTVSPost2010PropOp43
 70
     1
102
RTVSPost2010Prop44ColorIndex
 90
        5
102
RTVSPost2010Prop44ColorRGB
 90
      255
102
RTVSPost2010PropOp44
 70
     1
102
RTVSPost2010Prop45
280
     0
102
RTVSPost2010PropOp45
 70
     1
102
RTVSPost2010Prop46
 90
       50
102
RTVSPost2010PropOp46
 70
     1
102
RTVSPost2010Prop47
 90
       50
102
RTVSPost2010PropOp47
 70
     1
102
RTVSPost2010Prop48
 90
       50
102
RTVSPost2010PropOp48
 70
     1
102
RTVSPost2010Prop49
280
     0
102
RTVSPost2010PropOp49
 70
     1
102
RTVSPost2010Prop50
 90
       50
102
RTVSPost2010PropOp50
 70
     1
102
RTVSPost2010Prop51ColorIndex
 90
      256
102
RTVSPost2010Prop51ColorRGB
 90
-16777216
102
RTVSPost2010PropOp51
 70
     0
102
RTVSPost2010Prop52
140
1.0
102
RTVSPost2010PropOp52
 70
     0
102
RTVSPost2010Prop53
 90
        2
102
RTVSPost2010PropOp53
 70
     1
102
RTVSPost2010Prop54
  1
strokes_ogs.tif
102
RTVSPost2010PropOp54
 70
     1
102
RTVSPost2010Prop55
280
     0
102
RTVSPost2010PropOp55
 70
     1
102
RTVSPost2010Prop56
140
1.0
102
RTVSPost2010PropOp56
 70
     1
102
RTVSPost2010Prop57
140
1.0
102
RTVSPost2010PropOp57
 70
     1
  0
XRECORD
  5
106AC73
102
{ACAD_REACTORS
330
106AC72
102
}
330
106AC72
100
AcDbXrecord
280
     1
102
RTVSPropertyOp0
 70
     1
102
RTVSPropertyOp1
 70
     1
102
RTVSPropertyOp2
 70
     1
102
RTVSPropertyOp3
 70
     1
102
RTVSPropertyOp4
 70
     1
102
RTVSPropertyOp5
 70
     1
102
RTVSPropertyOp6
 70
     1
102
RTVSPropertyOp7
 70
     1
102
RTVSPropertyOp8
 70
     1
102
RTVSPropertyOp9
 70
     1
102
RTVSPropertyOp10
 70
     1
102
RTVSPropertyOp11
 70
     1
102
RTVSPropertyOp12
 70
     1
102
RTVSPropertyOp13
 70
     1
102
RTVSPropertyOp14
 70
     1
102
RTVSPropertyOp15
 70
     1
102
RTVSPropertyOp16
 70
     1
102
RTVSPropertyOp17
 70
     1
102
RTVSPropertyOp18
 70
     1
102
RTVSPropertyOp19
 70
     1
102
RTVSPropertyOp20
 70
     1
102
RTVSPropertyOp21
 70
     1
102
RTVSPropertyOp22
 70
     1
102
RTVSPropertyOp23
 70
     1
102
RTVSPropertyOp24
 70
     1
102
RTVSPropertyOp25
 70
     1
102
RTVSPropertyOp26
 70
     1
102
RTVSPropertyOp27
 70
     1
102
RTVSPropertyOp28
 70
     1
102
RTVSPropertyOp29
 70
     1
102
RTVSPropertyOp30
 70
     1
102
RTVSPropertyOp31
 70
     1
102
RTVSPropertyOp32
 70
     1
102
RTVSPropertyOp33
 70
     1
102
RTVSPropertyOp34
 70
     1
102
RTVSPropertyOp35
 70
     1
102
RTVSPropertyOp36
 70
     1
102
RTVSPropertyOp37
 70
     1
102
RTVSPropertyOp38
 70
     1
102
RTVSPropertyOp39
 70
     1
102
RTVSPropertyOp40
 70
     1
102
RTVSPropertyOp41
 70
     1
102
RTVSPropertyOp42
 70
     1
102
RTVSPropertyOp43
 70
     1
102
RTVSPropertyOp44
 70
     1
102
RTVSPropertyOp45
 70
     1
102
RTVSPropertyOp46
 70
     1
102
RTVSPropertyOp47
 70
     1
102
RTVSPropertyOp48
 70
     1
102
RTVSPropertyOp49
 70
     1
102
RTVSPropertyOp50
 70
     1
102
RTVSPropertyOp51
 70
     0
102
RTVSPropertyOp52
 70
     0
102
RTVSPropertyOp53
 70
     1
102
RTVSPropertyOp54
 70
     1
102
RTVSPropertyOp55
 70
     1
102
RTVSPropertyOp56
 70
     1
102
RTVSPropertyOp57
 70
     1
102
RTVSPost2010Prop28
280
     0
102
RTVSPost2010PropOp28
 70
     1
102
RTVSPost2010Prop29
280
     1
102
RTVSPost2010PropOp29
 70
     1
102
RTVSPost2010Prop30
280
     1
102
RTVSPost2010PropOp30
 70
     1
102
RTVSPost2010Prop31
280
     0
102
RTVSPost2010PropOp31
 70
     1
102
RTVSPost2010Prop32
280
     0
102
RTVSPost2010PropOp32
 70
     1
102
RTVSPost2010Prop33
280
     0
102
RTVSPost2010PropOp33
 70
     1
102
RTVSPost2010Prop34
280
     0
102
RTVSPost2010PropOp34
 70
     1
102
RTVSPost2010Prop35
280
     0
102
RTVSPost2010PropOp35
 70
     1
102
RTVSPost2010Prop36
280
     0
102
RTVSPost2010PropOp36
 70
     1
102
RTVSPost2010Prop37
 90
       50
102
RTVSPost2010PropOp37
 70
     1
102
RTVSPost2010Prop38
140
0.0
102
RTVSPost2010PropOp38
 70
     1
102
RTVSPost2010Prop39
140
1.0
102
RTVSPost2010PropOp39
 70
     1
102
RTVSPost2010Prop40
 90
        0
102
RTVSPost2010PropOp40
 70
     1
102
RTVSPost2010Prop41ColorIndex
 90
       18
102
RTVSPost2010Prop41ColorRGB
 90
        0
102
RTVSPost2010PropOp41
 70
     1
102
RTVSPost2010Prop42
 90
       50
102
RTVSPost2010PropOp42
 70
     1
102
RTVSPost2010Prop43
 90
        3
102
RTVSPost2010PropOp43
 70
     1
102
RTVSPost2010Prop44ColorIndex
 90
        5
102
RTVSPost2010Prop44ColorRGB
 90
      255
102
RTVSPost2010PropOp44
 70
     1
102
RTVSPost2010Prop45
280
     0
102
RTVSPost2010PropOp45
 70
     1
102
RTVSPost2010Prop46
 90
       50
102
RTVSPost2010PropOp46
 70
     1
102
RTVSPost2010Prop47
 90
       50
102
RTVSPost2010PropOp47
 70
     1
102
RTVSPost2010Prop48
 90
       50
102
RTVSPost2010PropOp48
 70
     1
102
RTVSPost2010Prop49
280
     0
102
RTVSPost2010PropOp49
 70
     1
102
RTVSPost2010Prop50
 90
       50
102
RTVSPost2010PropOp50
 70
     1
102
RTVSPost2010Prop51ColorIndex
 90
      256
102
RTVSPost2010Prop51ColorRGB
 90
-16777216
102
RTVSPost2010PropOp51
 70
     0
102
RTVSPost2010Prop52
140
1.0
102
RTVSPost2010PropOp52
 70
     0
102
RTVSPost2010Prop53
 90
        2
102
RTVSPost2010PropOp53
 70
     1
102
RTVSPost2010Prop54
  1
strokes_ogs.tif
102
RTVSPost2010PropOp54
 70
     1
102
RTVSPost2010Prop55
280
     0
102
RTVSPost2010PropOp55
 70
     1
102
RTVSPost2010Prop56
140
1.0
102
RTVSPost2010PropOp56
 70
     1
102
RTVSPost2010Prop57
140
1.0
102
RTVSPost2010PropOp57
 70
     1
  0
ENDSEC
  0
EOF
