  0
SECTION
  2
HEADER
  9
$ACADVER
  1
AC1015
  9
$ACADMAINTVER
 70
     6
  9
$DWGCODEPAGE
  3
ANSI_932
  9
$INSBASE
 10
0.0
 20
0.0
 30
0.0
  9
$EXTMIN
 10
-15.45
 20
-22.791072
 30
0.0
  9
$EXTMAX
 10
75.63000000000001
 20
47.6982144
 30
0.0
  9
$LIMMIN
 10
0.0
 20
0.0
  9
$LIMMAX
 10
12.0
 20
9.0
  9
$ORTHOMODE
 70
     0
  9
$REGENMODE
 70
     1
  9
$FILLMODE
 70
     1
  9
$QTEXTMODE
 70
     0
  9
$MIRRTEXT
 70
     1
  9
$LTSCALE
 40
1.0
  9
$ATTMODE
 70
     1
  9
$TEXTSIZE
 40
0.2
  9
$TRACEWID
 40
0.05
  9
$TEXTSTYLE
  7
Standard
  9
$CLAYER
  8
0
  9
$CELTYPE
  6
ByBlock
  9
$CECOLOR
 62
   256
  9
$CELTSCALE
 40
1.0
  9
$DISPSILH
 70
     0
  9
$DIMSCALE
 40
1.0
  9
$DIMASZ
 40
0.18
  9
$DIMEXO
 40
0.0625
  9
$DIMDLI
 40
0.38
  9
$DIMRND
 40
0.0
  9
$DIMDLE
 40
0.0
  9
$DIMEXE
 40
0.18
  9
$DIMTP
 40
0.0
  9
$DIMTM
 40
0.0
  9
$DIMTXT
 40
0.18
  9
$DIMCEN
 40
0.09
  9
$DIMTSZ
 40
0.0
  9
$DIMTOL
 70
     0
  9
$DIMLIM
 70
     0
  9
$DIMTIH
 70
     1
  9
$DIMTOH
 70
     1
  9
$DIMSE1
 70
     0
  9
$DIMSE2
 70
     0
  9
$DIMTAD
 70
     0
  9
$DIMZIN
 70
     0
  9
$DIMBLK
  1

  9
$DIMASO
 70
     1
  9
$DIMSHO
 70
     1
  9
$DIMPOST
  1

  9
$DIMAPOST
  1

  9
$DIMALT
 70
     0
  9
$DIMALTD
 70
     2
  9
$DIMALTF
 40
25.4
  9
$DIMLFAC
 40
1.0
  9
$DIMTOFL
 70
     0
  9
$DIMTVP
 40
0.0
  9
$DIMTIX
 70
     0
  9
$DIMSOXD
 70
     0
  9
$DIMSAH
 70
     0
  9
$DIMBLK1
  1

  9
$DIMBLK2
  1

  9
$DIMSTYLE
  2
STANDARD
  9
$DIMCLRD
 70
     0
  9
$DIMCLRE
 70
     0
  9
$DIMCLRT
 70
     0
  9
$DIMTFAC
 40
1.0
  9
$DIMGAP
 40
0.09
  9
$DIMJUST
 70
     0
  9
$DIMSD1
 70
     0
  9
$DIMSD2
 70
     0
  9
$DIMTOLJ
 70
     1
  9
$DIMTZIN
 70
     0
  9
$DIMALTZ
 70
     0
  9
$DIMALTTZ
 70
     0
  9
$DIMUPT
 70
     0
  9
$DIMDEC
 70
     4
  9
$DIMTDEC
 70
     4
  9
$DIMALTU
 70
     2
  9
$DIMALTTD
 70
     2
  9
$DIMTXSTY
  7
Standard
  9
$DIMAUNIT
 70
     0
  9
$DIMADEC
 70
     0
  9
$DIMALTRND
 40
0.0
  9
$DIMAZIN
 70
     0
  9
$DIMDSEP
 70
    46
  9
$DIMATFIT
 70
     3
  9
$DIMFRAC
 70
     0
  9
$DIMLDRBLK
  1

  9
$DIMLUNIT
 70
     2
  9
$DIMLWD
 70
    -2
  9
$DIMLWE
 70
    -2
  9
$DIMTMOVE
 70
     0
  9
$LUNITS
 70
     2
  9
$LUPREC
 70
     4
  9
$SKETCHINC
 40
0.1
  9
$FILLETRAD
 40
0.5
  9
$AUNITS
 70
     0
  9
$AUPREC
 70
     0
  9
$MENU
  1
.
  9
$ELEVATION
 40
0.0
  9
$PELEVATION
 40
0.0
  9
$THICKNESS
 40
0.0
  9
$LIMCHECK
 70
     0
  9
$CHAMFERA
 40
0.0
  9
$CHAMFERB
 40
0.0
  9
$CHAMFERC
 40
0.0
  9
$CHAMFERD
 40
0.0
  9
$SKPOLY
 70
     0
  9
$TDCREATE
 40
2447893.375
  9
$TDUCREATE
 40
0.0
  9
$TDUPDATE
 40
2460796.679329063
  9
$TDUUPDATE
 40
2460796.304329063
  9
$TDINDWG
 40
0.003849213
  9
$TDUSRTIMER
 40
0.0003689005
  9
$USRTIMER
 70
     1
  9
$ANGBASE
 50
0.0
  9
$ANGDIR
 70
     0
  9
$PDMODE
 70
     0
  9
$PDSIZE
 40
0.0
  9
$PLINEWID
 40
0.0
  9
$SPLFRAME
 70
     0
  9
$SPLINETYPE
 70
     6
  9
$SPLINESEGS
 70
     8
  9
$HANDSEED
  5
106ACB9
  9
$SURFTAB1
 70
     6
  9
$SURFTAB2
 70
     6
  9
$SURFTYPE
 70
     6
  9
$SURFU
 70
     6
  9
$SURFV
 70
     6
  9
$UCSBASE
  2

  9
$UCSNAME
  2

  9
$UCSORG
 10
0.0
 20
0.0
 30
0.0
  9
$UCSXDIR
 10
1.0
 20
0.0
 30
0.0
  9
$UCSYDIR
 10
0.0
 20
1.0
 30
0.0
  9
$UCSORTHOREF
  2

  9
$UCSORTHOVIEW
 70
     0
  9
$UCSORGTOP
 10
0.0
 20
0.0
 30
0.0
  9
$UCSORGBOTTOM
 10
0.0
 20
0.0
 30
0.0
  9
$UCSORGLEFT
 10
0.0
 20
0.0
 30
0.0
  9
$UCSORGRIGHT
 10
0.0
 20
0.0
 30
0.0
  9
$UCSORGFRONT
 10
0.0
 20
0.0
 30
0.0
  9
$UCSORGBACK
 10
0.0
 20
0.0
 30
0.0
  9
$PUCSBASE
  2

  9
$PUCSNAME
  2

  9
$PUCSORG
 10
0.0
 20
0.0
 30
0.0
  9
$PUCSXDIR
 10
1.0
 20
0.0
 30
0.0
  9
$PUCSYDIR
 10
0.0
 20
1.0
 30
0.0
  9
$PUCSORTHOREF
  2

  9
$PUCSORTHOVIEW
 70
     0
  9
$PUCSORGTOP
 10
0.0
 20
0.0
 30
0.0
  9
$PUCSORGBOTTOM
 10
0.0
 20
0.0
 30
0.0
  9
$PUCSORGLEFT
 10
0.0
 20
0.0
 30
0.0
  9
$PUCSORGRIGHT
 10
0.0
 20
0.0
 30
0.0
  9
$PUCSORGFRONT
 10
0.0
 20
0.0
 30
0.0
  9
$PUCSORGBACK
 10
0.0
 20
0.0
 30
0.0
  9
$USERI1
 70
     0
  9
$USERI2
 70
     0
  9
$USERI3
 70
     0
  9
$USERI4
 70
     0
  9
$USERI5
 70
     0
  9
$USERR1
 40
0.0
  9
$USERR2
 40
0.0
  9
$USERR3
 40
0.0
  9
$USERR4
 40
0.0
  9
$USERR5
 40
0.0
  9
$WORLDVIEW
 70
     1
  9
$SHADEDGE
 70
     3
  9
$SHADEDIF
 70
    70
  9
$TILEMODE
 70
     1
  9
$MAXACTVP
 70
    64
  9
$PINSBASE
 10
0.0
 20
0.0
 30
0.0
  9
$PLIMCHECK
 70
     0
  9
$PEXTMIN
 10
1.000000000000000E+20
 20
1.000000000000000E+20
 30
1.000000000000000E+20
  9
$PEXTMAX
 10
-1.000000000000000E+20
 20
-1.000000000000000E+20
 30
-1.000000000000000E+20
  9
$PLIMMIN
 10
0.0
 20
0.0
  9
$PLIMMAX
 10
0.0
 20
0.0
  9
$UNITMODE
 70
     0
  9
$VISRETAIN
 70
     1
  9
$PLINEGEN
 70
     0
  9
$PSLTSCALE
 70
     1
  9
$TREEDEPTH
 70
  3020
  9
$CMLSTYLE
  2
Standard
  9
$CMLJUST
 70
     0
  9
$CMLSCALE
 40
1.0
  9
$PROXYGRAPHICS
 70
     1
  9
$MEASUREMENT
 70
     0
  9
$CELWEIGHT
370
    -1
  9
$ENDCAPS
280
     0
  9
$JOINSTYLE
280
     0
  9
$LWDISPLAY
290
     0
  9
$INSUNITS
 70
     4
  9
$HYPERLINKBASE
  1

  9
$STYLESHEET
  1

  9
$XEDIT
290
     1
  9
$CEPSNTYPE
380
     0
  9
$PSTYLEMODE
290
     1
  9
$FINGERPRINTGUID
  2
{03a74782-48ed-4a16-9649-b0df2d95c037}
  9
$VERSIONGUID
  2
{FAEB1C32-E019-11D5-929B-00C0DF256EC4}
  9
$EXTNAMES
290
     1
  9
$PSVPSCALE
 40
0.0
  9
$OLESTARTUP
290
     0
  0
ENDSEC
  0
SECTION
  2
CLASSES
  0
CLASS
  1
ACDBDICTIONARYWDFLT
  2
AcDbDictionaryWithDefault
  3
ObjectDBX Classes
 90
        0
280
     0
281
     0
  0
CLASS
  1
SCALE
  2
AcDbScale
  3
ObjectDBX Classes
 90
     1153
280
     0
281
     0
  0
CLASS
  1
MATERIAL
  2
AcDbMaterial
  3
ObjectDBX Classes
 90
     1153
280
     0
281
     0
  0
CLASS
  1
VISUALSTYLE
  2
AcDbVisualStyle
  3
ObjectDBX Classes
 90
     4095
280
     0
281
     0
  0
CLASS
  1
TABLESTYLE
  2
AcDbTableStyle
  3
ObjectDBX Classes
 90
     4095
280
     0
281
     0
  0
CLASS
  1
MLEADERSTYLE
  2
AcDbMLeaderStyle
  3
ACDB_MLEADERSTYLE_CLASS
 90
     4095
280
     0
281
     0
  0
CLASS
  1
RASTERVARIABLES
  2
AcDbRasterVariables
  3
ISM
 90
        0
280
     0
281
     0
  0
CLASS
  1
DICTIONARYVAR
  2
AcDbDictionaryVar
  3
ObjectDBX Classes
 90
        0
280
     0
281
     0
  0
CLASS
  1
ACDBPLACEHOLDER
  2
AcDbPlaceHolder
  3
ObjectDBX Classes
 90
        0
280
     0
281
     0
  0
CLASS
  1
LAYOUT
  2
AcDbLayout
  3
ObjectDBX Classes
 90
        0
280
     0
281
     0
  0
ENDSEC
  0
SECTION
  2
TABLES
  0
TABLE
  2
VPORT
  5
2
102
{ACAD_XDICTIONARY
360
106AC7E
102
}
330
0
100
AcDbSymbolTable
 70
     1
  0
VPORT
  5
106AB91
330
2
100
AcDbSymbolTableRecord
100
AcDbViewportTableRecord
  2
*Active
 70
     0
 10
0.0
 20
0.0
 11
1.0
 21
1.0
 12
30.09
 22
12.4535712
 13
0.0
 23
0.0
 14
0.5
 24
0.5
 15
0.5
 25
0.5
 16
0.0
 26
0.0
 36
1.0
 17
0.0
 27
0.0
 37
0.0
 40
71.899072128
 41
2.051748251748252
 42
50.0
 43
0.0
 44
0.0
 50
0.0
 51
0.0
 71
    16
 72
   100
 73
     1
 74
     3
 75
     0
 76
     0
 77
     0
 78
     0
281
     0
 65
     1
110
0.0
120
0.0
130
0.0
111
1.0
121
0.0
131
0.0
112
0.0
122
1.0
132
0.0
 79
     0
146
0.0
  0
ENDTAB
  0
TABLE
  2
LTYPE
  5
3
330
0
100
AcDbSymbolTable
 70
     3
  0
LTYPE
  5
4
330
3
100
AcDbSymbolTableRecord
100
AcDbLinetypeTableRecord
  2
ByBlock
 70
     0
  3

 72
    65
 73
     0
 40
0.0
  0
LTYPE
  5
5
330
3
100
AcDbSymbolTableRecord
100
AcDbLinetypeTableRecord
  2
ByLayer
 70
     0
  3

 72
    65
 73
     0
 40
0.0
  0
LTYPE
  5
6
330
3
100
AcDbSymbolTableRecord
100
AcDbLinetypeTableRecord
  2
CONTINUOUS
 70
     0
  3
Solid Line
 72
    65
 73
     0
 40
0.0
  0
LTYPE
  5
7
330
3
100
AcDbSymbolTableRecord
100
AcDbLinetypeTableRecord
  2
DASH
 70
     0
  3
Hidden
 72
    65
 73
     2
 40
2.5
 49
1.5
 74
     0
 49
-1.0
 74
     0
  0
LTYPE
  5
8
330
3
100
AcDbSymbolTableRecord
100
AcDbLinetypeTableRecord
  2
LONGDASHDASH
 70
     0
  3
__ . __
 72
    65
 73
     4
 40
7.0
 49
4.0
 74
     0
 49
-1.0
 74
     0
 49
1.0
 74
     0
 49
-1.0
 74
     0
  0
ENDTAB
  0
TABLE
  2
LAYER
  5
9
330
0
100
AcDbSymbolTable
 70
    11
  0
LAYER
  5
A
330
9
100
AcDbSymbolTableRecord
100
AcDbLayerTableRecord
  2
0
 70
     0
 62
     7
  6
CONTINUOUS
370
    -3
390
106AB96
  0
LAYER
  5
C
330
9
100
AcDbSymbolTableRecord
100
AcDbLayerTableRecord
  2
1
 70
     0
 62
     4
  6
CONTINUOUS
370
    50
390
106AB96
  0
LAYER
  5
D
330
9
100
AcDbSymbolTableRecord
100
AcDbLayerTableRecord
  2
2
 70
     0
 62
     7
  6
CONTINUOUS
370
    25
390
106AB96
  0
LAYER
  5
F
330
9
100
AcDbSymbolTableRecord
100
AcDbLayerTableRecord
  2
4
 70
     0
 62
     2
  6
LONGDASHDASH
370
    25
390
106AB96
  0
LAYER
  5
13
330
9
100
AcDbSymbolTableRecord
100
AcDbLayerTableRecord
  2
SK1
 70
     0
 62
     4
  6
CONTINUOUS
370
    50
390
106AB96
  0
LAYER
  5
14
330
9
100
AcDbSymbolTableRecord
100
AcDbLayerTableRecord
  2
SK2
 70
     0
 62
     7
  6
CONTINUOUS
370
    25
390
106AB96
  0
LAYER
  5
16
330
9
100
AcDbSymbolTableRecord
100
AcDbLayerTableRecord
  2
SK4
 70
     0
 62
     2
  6
LONGDASHDASH
370
    25
390
106AB96
  0
LAYER
  5
21
330
9
100
AcDbSymbolTableRecord
100
AcDbLayerTableRecord
  2
NOCUT
 70
     0
 62
     7
  6
CONTINUOUS
370
    25
390
106AB96
  0
LAYER
  5
22
330
9
100
AcDbSymbolTableRecord
100
AcDbLayerTableRecord
  2
CUT
 70
     0
 62
     1
  6
CONTINUOUS
370
    25
390
106AB96
  0
LAYER
  5
26
330
9
100
AcDbSymbolTableRecord
100
AcDbLayerTableRecord
  2
INFTOTAL
 70
     0
 62
     9
  6
CONTINUOUS
370
    18
390
106AB96
  0
LAYER
  5
106ABE0
330
9
100
AcDbSymbolTableRecord
100
AcDbLayerTableRecord
  2
Defpoints
 70
     0
 62
     7
  6
CONTINUOUS
290
     0
370
    -3
390
106AB96
  0
ENDTAB
  0
TABLE
  2
STYLE
  5
27
330
0
100
AcDbSymbolTable
 70
     2
  0
STYLE
  5
28
330
27
100
AcDbSymbolTableRecord
100
AcDbTextStyleTableRecord
  2
Monospac821 BT
 70
     0
 40
3.5
 41
1.0
 50
0.0
 71
     0
 42
3.0
  3

  4

1001
ACAD
1000
Monospac821 BT
1071
      256
  0
STYLE
  5
106AB90
330
27
100
AcDbSymbolTableRecord
100
AcDbTextStyleTableRecord
  2
Standard
 70
     0
 40
0.0
 41
1.0
 50
0.0
 71
     0
 42
0.2
  3
txt
  4

  0
ENDTAB
  0
TABLE
  2
VIEW
  5
29
330
0
100
AcDbSymbolTable
 70
     0
  0
ENDTAB
  0
TABLE
  2
UCS
  5
2A
330
0
100
AcDbSymbolTable
 70
     0
  0
ENDTAB
  0
TABLE
  2
APPID
  5
2B
330
0
100
AcDbSymbolTable
 70
     3
  0
APPID
  5
2C
330
2B
100
AcDbSymbolTableRecord
100
AcDbRegAppTableRecord
  2
ACAD
 70
     0
  0
APPID
  5
106AC35
330
2B
100
AcDbSymbolTableRecord
100
AcDbRegAppTableRecord
  2
ACAD_MLEADERVER
 70
     0
  0
APPID
  5
106AC3A
330
2B
100
AcDbSymbolTableRecord
100
AcDbRegAppTableRecord
  2
FX_DIMP_FAV_VERSION
 70
     0
  0
ENDTAB
  0
TABLE
  2
DIMSTYLE
  5
2D
330
0
100
AcDbSymbolTable
 70
     1
100
AcDbDimStyleTable
  0
DIMSTYLE
105
2E
330
2D
100
AcDbSymbolTableRecord
100
AcDbDimStyleTableRecord
  2
STANDARD
 70
     0
 41
3.0
 42
0.5
 44
1.0
 73
     0
 77
     1
 78
     1
140
3.5
141
2.5
143
0.03937
147
0.8
172
     1
174
     1
178
     0
179
     1
271
     2
279
     1
284
     1
340
28
  0
ENDTAB
  0
TABLE
  2
BLOCK_RECORD
  5
2F
330
0
100
AcDbSymbolTable
 70
     9
  0
BLOCK_RECORD
  5
30
102
{ACAD_XDICTIONARY
360
106ABF1
102
}
330
2F
100
AcDbSymbolTableRecord
100
AcDbBlockTableRecord
  2
*Model_Space
340
106AB98
  0
BLOCK_RECORD
  5
31
330
2F
100
AcDbSymbolTableRecord
100
AcDbBlockTableRecord
  2
*Paper_Space
340
106AB99
  0
BLOCK_RECORD
  5
35B
330
2F
100
AcDbSymbolTableRecord
100
AcDbBlockTableRecord
  2
*D0
340
0
  0
BLOCK_RECORD
  5
369
330
2F
100
AcDbSymbolTableRecord
100
AcDbBlockTableRecord
  2
*D1
340
0
  0
BLOCK_RECORD
  5
377
330
2F
100
AcDbSymbolTableRecord
100
AcDbBlockTableRecord
  2
*D2
340
0
  0
BLOCK_RECORD
  5
385
330
2F
100
AcDbSymbolTableRecord
100
AcDbBlockTableRecord
  2
*D3
340
0
  0
BLOCK_RECORD
  5
393
330
2F
100
AcDbSymbolTableRecord
100
AcDbBlockTableRecord
  2
*D4
340
0
  0
BLOCK_RECORD
  5
39D
330
2F
100
AcDbSymbolTableRecord
100
AcDbBlockTableRecord
  2
*D5
340
0
  0
BLOCK_RECORD
  5
3AB
330
2F
100
AcDbSymbolTableRecord
100
AcDbBlockTableRecord
  2
*D6
340
0
  0
BLOCK_RECORD
  5
3B9
330
2F
100
AcDbSymbolTableRecord
100
AcDbBlockTableRecord
  2
*D7
340
0
  0
BLOCK_RECORD
  5
3C7
330
2F
100
AcDbSymbolTableRecord
100
AcDbBlockTableRecord
  2
*D8
340
0
  0
ENDTAB
  0
ENDSEC
  0
SECTION
  2
BLOCKS
  0
BLOCK
  5
32
330
30
100
AcDbEntity
  8
0
100
AcDbBlockBegin
  2
*Model_Space
 70
     0
 10
0.0
 20
0.0
 30
0.0
  3
*Model_Space
  1

  0
ENDBLK
  5
33
330
30
100
AcDbEntity
  8
0
100
AcDbBlockEnd
  0
BLOCK
  5
34
330
31
100
AcDbEntity
 67
     1
  8
0
100
AcDbBlockBegin
  2
*Paper_Space
 70
     0
 10
0.0
 20
0.0
 30
0.0
  3
*Paper_Space
  1

  0
ENDBLK
  5
35
330
31
100
AcDbEntity
 67
     1
  8
0
100
AcDbBlockEnd
  0
BLOCK
  5
359
330
35B
100
AcDbEntity
  8
SK2
100
AcDbBlockBegin
  2
*D0
 70
     1
 10
0.0
 20
0.0
 30
0.0
  3
*D0
  1

  0
LINE
  5
35C
330
35B
100
AcDbEntity
  8
SK2
 62
     0
370
    -2
100
AcDbLine
 10
0.0
 20
1.490475
 30
0.0
 11
0.0
 21
39.6452375
 31
0.0
  0
LINE
  5
35D
330
35B
100
AcDbEntity
  8
SK2
 62
     0
370
    -2
100
AcDbLine
 10
40.0
 20
0.5
 30
0.0
 11
40.0
 21
39.6452375
 31
0.0
  0
LINE
  5
35E
330
35B
100
AcDbEntity
  8
SK2
 62
     0
370
    -2
100
AcDbLine
 10
3.0
 20
38.6452375
 30
0.0
 11
37.0
 21
38.6452375
 31
0.0
  0
SOLID
  5
35F
330
35B
100
AcDbEntity
  8
SK2
 62
     0
100
AcDbTrace
 10
3.0
 20
39.1452375
 30
0.0
 11
3.0
 21
38.1452375
 31
0.0
 12
0.0
 22
38.6452375
 32
0.0
 13
0.0
 23
38.6452375
 33
0.0
  0
SOLID
  5
360
330
35B
100
AcDbEntity
  8
SK2
 62
     0
100
AcDbTrace
 10
37.0
 20
38.1452375
 30
0.0
 11
37.0
 21
39.1452375
 31
0.0
 12
40.0
 22
38.6452375
 32
0.0
 13
40.0
 23
38.6452375
 33
0.0
  0
MTEXT
  5
361
330
35B
100
AcDbEntity
  8
SK2
  6
ByBlock
 62
     0
100
AcDbMText
 10
20.0
 20
41.2564875
 30
0.0
 40
3.5
 41
0.0
 71
     5
 72
     1
  1
\A1;40
 73
     1
 44
1.0
  0
POINT
  5
362
330
35B
100
AcDbEntity
  8
Defpoints
 62
     0
100
AcDbPoint
 10
0.0
 20
0.990475
 30
0.0
  0
POINT
  5
363
330
35B
100
AcDbEntity
  8
Defpoints
 62
     0
100
AcDbPoint
 10
40.0
 20
0.0
 30
0.0
  0
POINT
  5
364
330
35B
100
AcDbEntity
  8
Defpoints
 62
     0
100
AcDbPoint
 10
40.0
 20
38.6452375
 30
0.0
  0
ENDBLK
  5
365
330
35B
100
AcDbEntity
  8
SK2
100
AcDbBlockEnd
  0
BLOCK
  5
367
330
369
100
AcDbEntity
  8
SK2
100
AcDbBlockBegin
  2
*D1
 70
     1
 10
0.0
 20
0.0
 30
0.0
  3
*D1
  1

  0
LINE
  5
36A
330
369
100
AcDbEntity
  8
SK2
 62
     0
370
    -2
100
AcDbLine
 10
13.0
 20
4.0
 30
0.0
 11
13.0
 21
31.0
 31
0.0
  0
LINE
  5
36B
330
369
100
AcDbEntity
  8
SK2
 62
     0
370
    -2
100
AcDbLine
 10
0.0
 20
1.490475
 30
0.0
 11
0.0
 21
31.0
 31
0.0
  0
LINE
  5
36C
330
369
100
AcDbEntity
  8
SK2
 62
     0
370
    -2
100
AcDbLine
 10
10.0
 20
30.0
 30
0.0
 11
3.0
 21
30.0
 31
0.0
  0
SOLID
  5
36D
330
369
100
AcDbEntity
  8
SK2
 62
     0
100
AcDbTrace
 10
10.0
 20
29.5
 30
0.0
 11
10.0
 21
30.5
 31
0.0
 12
13.0
 22
30.0
 32
0.0
 13
13.0
 23
30.0
 33
0.0
  0
SOLID
  5
36E
330
369
100
AcDbEntity
  8
SK2
 62
     0
100
AcDbTrace
 10
3.0
 20
30.5
 30
0.0
 11
3.0
 21
29.5
 31
0.0
 12
0.0
 22
30.0
 32
0.0
 13
0.0
 23
30.0
 33
0.0
  0
MTEXT
  5
36F
330
369
100
AcDbEntity
  8
SK2
  6
ByBlock
 62
     0
100
AcDbMText
 10
6.500000000000001
 20
32.61125
 30
0.0
 40
3.5
 41
0.0
 71
     5
 72
     1
  1
\A1;13
 73
     1
 44
1.0
  0
POINT
  5
370
330
369
100
AcDbEntity
  8
Defpoints
 62
     0
100
AcDbPoint
 10
13.0
 20
3.5
 30
0.0
  0
POINT
  5
371
330
369
100
AcDbEntity
  8
Defpoints
 62
     0
100
AcDbPoint
 10
0.0
 20
0.990475
 30
0.0
  0
POINT
  5
372
330
369
100
AcDbEntity
  8
Defpoints
 62
     0
100
AcDbPoint
 10
0.0
 20
30.60469206997082
 30
0.0
  0
ENDBLK
  5
373
330
369
100
AcDbEntity
  8
SK2
100
AcDbBlockEnd
  0
BLOCK
  5
375
330
377
100
AcDbEntity
  8
SK2
100
AcDbBlockBegin
  2
*D2
 70
     1
 10
0.0
 20
0.0
 30
0.0
  3
*D2
  1

  0
LINE
  5
378
330
377
100
AcDbEntity
  8
SK2
 62
     0
370
    -2
100
AcDbLine
 10
0.5
 20
-1.5
 30
0.0
 11
-7.65
 21
-1.5
 31
0.0
  0
LINE
  5
379
330
377
100
AcDbEntity
  8
SK2
 62
     0
370
    -2
100
AcDbLine
 10
0.5
 20
1.5
 30
0.0
 11
-7.65
 21
1.5
 31
0.0
  0
LINE
  5
37A
330
377
100
AcDbEntity
  8
SK2
 62
     0
370
    -2
100
AcDbLine
 10
-6.65
 20
1.5
 30
0.0
 11
-6.65
 21
14.686
 31
0.0
  0
LINE
  5
37B
330
377
100
AcDbEntity
  8
SK2
 62
     0
370
    -2
100
AcDbLine
 10
-6.65
 20
-1.5
 30
0.0
 11
-6.65
 21
1.5
 31
0.0
  0
LINE
  5
37C
330
377
100
AcDbEntity
  8
SK2
 62
     0
370
    -2
100
AcDbLine
 10
-6.65
 20
-4.5
 30
0.0
 11
-6.65
 21
-7.5
 31
0.0
  0
LINE
  5
37D
330
377
100
AcDbEntity
  8
SK2
 62
     0
370
    -2
100
AcDbLine
 10
-6.65
 20
4.5
 30
0.0
 11
-6.65
 21
7.5
 31
0.0
  0
SOLID
  5
37E
330
377
100
AcDbEntity
  8
SK2
 62
     0
100
AcDbTrace
 10
-6.15
 20
-4.5
 30
0.0
 11
-7.15
 21
-4.5
 31
0.0
 12
-6.65
 22
-1.5
 32
0.0
 13
-6.65
 23
-1.5
 33
0.0
  0
SOLID
  5
37F
330
377
100
AcDbEntity
  8
SK2
 62
     0
100
AcDbTrace
 10
-7.15
 20
4.5
 30
0.0
 11
-6.15
 21
4.5
 31
0.0
 12
-6.65
 22
1.5
 32
0.0
 13
-6.65
 23
1.5
 33
0.0
  0
MTEXT
  5
380
330
377
100
AcDbEntity
  8
SK2
  6
ByBlock
 62
     0
100
AcDbMText
 10
-9.312000000000001
 20
11.093
 30
0.0
 40
3.5
 41
0.0
 71
     5
 72
     1
  1
\A1;%%c3
 11
0.0
 21
1.0
 31
0.0
 73
     1
 44
1.0
  0
POINT
  5
106ABE9
330
377
100
AcDbEntity
  8
Defpoints
 62
     0
100
AcDbPoint
 10
1.0
 20
-1.5
 30
0.0
  0
POINT
  5
106ABEA
330
377
100
AcDbEntity
  8
Defpoints
 62
     0
100
AcDbPoint
 10
1.0
 20
1.5
 30
0.0
  0
POINT
  5
106ABF0
330
377
100
AcDbEntity
  8
Defpoints
 62
     0
100
AcDbPoint
 10
-6.65
 20
1.5
 30
0.0
  0
ENDBLK
  5
381
330
377
100
AcDbEntity
  8
SK2
100
AcDbBlockEnd
  0
BLOCK
  5
383
330
385
100
AcDbEntity
  8
2
100
AcDbBlockBegin
  2
*D3
 70
     1
 10
0.0
 20
0.0
 30
0.0
  3
*D3
  1

  0
LINE
  5
386
330
385
100
AcDbEntity
  8
2
 62
     0
370
    -2
100
AcDbLine
 10
40.2
 20
-0.3
 30
0.0
 11
69.85
 21
-0.2999999999999989
 31
0.0
  0
LINE
  5
387
330
385
100
AcDbEntity
  8
2
 62
     0
370
    -2
100
AcDbLine
 10
40.2
 20
0.3
 30
0.0
 11
69.85
 21
0.3000000000000026
 31
0.0
  0
LINE
  5
388
330
385
100
AcDbEntity
  8
2
 62
     0
370
    -2
100
AcDbLine
 10
68.85
 20
0.3000000000000025
 30
0.0
 11
68.85
 21
19.61449999999999
 31
0.0
  0
LINE
  5
389
330
385
100
AcDbEntity
  8
2
 62
     0
370
    -2
100
AcDbLine
 10
68.85
 20
-0.2999999999999989
 30
0.0
 11
68.85
 21
0.3000000000000025
 31
0.0
  0
LINE
  5
38A
330
385
100
AcDbEntity
  8
2
 62
     0
370
    -2
100
AcDbLine
 10
68.85
 20
-3.299999999999999
 30
0.0
 11
68.85
 21
-6.299999999999999
 31
0.0
  0
LINE
  5
38B
330
385
100
AcDbEntity
  8
2
 62
     0
370
    -2
100
AcDbLine
 10
68.85
 20
3.300000000000002
 30
0.0
 11
68.85
 21
6.300000000000002
 31
0.0
  0
SOLID
  5
38C
330
385
100
AcDbEntity
  8
2
 62
     0
100
AcDbTrace
 10
69.35
 20
-3.299999999999999
 30
0.0
 11
68.35
 21
-3.299999999999999
 31
0.0
 12
68.85
 22
-0.2999999999999989
 32
0.0
 13
68.85
 23
-0.2999999999999989
 33
0.0
  0
SOLID
  5
38D
330
385
100
AcDbEntity
  8
2
 62
     0
100
AcDbTrace
 10
68.35
 20
3.300000000000002
 30
0.0
 11
69.35
 21
3.300000000000002
 31
0.0
 12
68.85
 22
0.3000000000000025
 32
0.0
 13
68.85
 23
0.3000000000000025
 33
0.0
  0
MTEXT
  5
38E
330
385
100
AcDbEntity
  8
2
  6
ByBlock
 62
     0
100
AcDbMText
 10
66.18799999999999
 20
12.95725
 30
0.0
 40
3.5
 41
0.0
 71
     5
 72
     1
  1
\A1;%%c0.6
 11
0.0
 21
1.0
 31
0.0
 73
     1
 44
1.0
  0
POINT
  5
106ABE5
330
385
100
AcDbEntity
  8
Defpoints
 62
     0
100
AcDbPoint
 10
39.7
 20
-0.3
 30
0.0
  0
POINT
  5
106ABE6
330
385
100
AcDbEntity
  8
Defpoints
 62
     0
100
AcDbPoint
 10
39.7
 20
0.3
 30
0.0
  0
POINT
  5
106ABEC
330
385
100
AcDbEntity
  8
Defpoints
 62
     0
100
AcDbPoint
 10
68.85
 20
0.3000000000000018
 30
0.0
  0
ENDBLK
  5
38F
330
385
100
AcDbEntity
  8
2
100
AcDbBlockEnd
  0
BLOCK
  5
391
330
393
100
AcDbEntity
  8
2
100
AcDbBlockBegin
  2
*D4
 70
     1
 10
0.0
 20
0.0
 30
0.0
  3
*D4
  1

  0
LINE
  5
394
330
393
100
AcDbEntity
  8
2
 62
     0
370
    -2
100
AcDbLine
 10
61.24816181902405
 20
13.99974717201166
 30
0.0
 11
49.05916181902405
 21
13.99974717201166
 31
0.0
  0
LINE
  5
395
330
393
100
AcDbEntity
  8
2
 62
     0
370
    -2
100
AcDbLine
 10
49.05916181902405
 20
13.99974717201166
 30
0.0
 11
41.53403601682376
 21
2.743412394869067
 31
0.0
  0
MTEXT
  5
396
330
393
100
AcDbEntity
  8
2
  6
ByBlock
 62
     0
100
AcDbMText
 10
55.55366181902404
 20
16.61099717201166
 30
0.0
 40
3.5
 41
0.0
 71
     5
 72
     1
  1
\A1;R0.3
 73
     1
 44
1.0
  0
LINE
  5
397
330
393
100
AcDbEntity
  8
2
 62
     0
370
    -2
100
AcDbLine
 10
39.7
 20
0.0
 30
0.0
 11
39.86673052243585
 21
0.2494010900863666
 31
0.0
  0
SOLID
  5
398
330
393
100
AcDbEntity
  8
2
 62
     0
100
AcDbTrace
 10
41.11836746602664
 20
3.021296643933717
 30
0.0
 11
41.94970456762087
 21
2.465528145804416
 31
0.0
 12
39.86673052243585
 22
0.2494010900863666
 32
0.0
 13
39.86673052243585
 23
0.2494010900863666
 33
0.0
  0
POINT
  5
106ABEE
330
393
100
AcDbEntity
  8
Defpoints
 62
     0
100
AcDbPoint
 10
39.86673052243585
 20
0.2494010900863666
 30
0.0
  0
POINT
  5
106ABEF
330
393
100
AcDbEntity
  8
Defpoints
 62
     0
100
AcDbPoint
 10
39.7
 20
0.0
 30
0.0
  0
ENDBLK
  5
399
330
393
100
AcDbEntity
  8
2
100
AcDbBlockEnd
  0
BLOCK
  5
39B
330
39D
100
AcDbEntity
  8
2
100
AcDbBlockBegin
  2
*D5
 70
     1
 10
0.0
 20
0.0
 30
0.0
  3
*D5
  1

  0
LINE
  5
39E
330
39D
100
AcDbEntity
  8
2
 62
     0
370
    -2
100
AcDbLine
 10
36.85
 20
0.2750000000000004
 30
0.0
 11
36.85
 21
22.5715
 31
0.0
  0
LINE
  5
39F
330
39D
100
AcDbEntity
  8
2
 62
     0
370
    -2
100
AcDbLine
 10
36.85
 20
-0.2750000000000004
 30
0.0
 11
36.85
 21
0.2750000000000004
 31
0.0
  0
LINE
  5
3A0
330
39D
100
AcDbEntity
  8
2
 62
     0
370
    -2
100
AcDbLine
 10
36.85
 20
-3.275
 30
0.0
 11
36.85
 21
-6.275
 31
0.0
  0
LINE
  5
3A1
330
39D
100
AcDbEntity
  8
2
 62
     0
370
    -2
100
AcDbLine
 10
36.85
 20
3.275
 30
0.0
 11
36.85
 21
6.275
 31
0.0
  0
SOLID
  5
3A2
330
39D
100
AcDbEntity
  8
2
 62
     0
100
AcDbTrace
 10
37.35
 20
-3.275
 30
0.0
 11
36.35
 21
-3.275
 31
0.0
 12
36.85
 22
-0.2750000000000004
 32
0.0
 13
36.85
 23
-0.2750000000000004
 33
0.0
  0
SOLID
  5
3A3
330
39D
100
AcDbEntity
  8
2
 62
     0
100
AcDbTrace
 10
36.35
 20
3.275
 30
0.0
 11
37.35
 21
3.275
 31
0.0
 12
36.85
 22
0.2750000000000004
 32
0.0
 13
36.85
 23
0.2750000000000004
 33
0.0
  0
MTEXT
  5
3A4
330
39D
100
AcDbEntity
  8
2
  6
ByBlock
 62
     0
100
AcDbMText
 10
34.188
 20
14.42325
 30
0.0
 40
3.5
 41
0.0
 71
     5
 72
     1
  1
\A1;%%c0.55
 11
0.0
 21
1.0
 31
0.0
 73
     1
 44
1.0
  0
POINT
  5
3A5
330
39D
100
AcDbEntity
  8
Defpoints
 62
     0
100
AcDbPoint
 10
34.315238
 20
-0.275
 30
0.0
  0
POINT
  5
3A6
330
39D
100
AcDbEntity
  8
Defpoints
 62
     0
100
AcDbPoint
 10
34.315238
 20
0.275
 30
0.0
  0
POINT
  5
106ABE1
330
39D
100
AcDbEntity
  8
Defpoints
 62
     0
100
AcDbPoint
 10
36.85
 20
0.2750000000000002
 30
0.0
  0
ENDBLK
  5
3A7
330
39D
100
AcDbEntity
  8
2
100
AcDbBlockEnd
  0
BLOCK
  5
3A9
330
3AB
100
AcDbEntity
  8
2
100
AcDbBlockBegin
  2
*D6
 70
     1
 10
0.0
 20
0.0
 30
0.0
  3
*D6
  1

  0
LINE
  5
3AC
330
3AB
100
AcDbEntity
  8
2
 62
     0
370
    -2
100
AcDbLine
 10
39.5
 20
-0.775
 30
0.0
 11
39.5
 21
-13.0
 31
0.0
  0
LINE
  5
3AD
330
3AB
100
AcDbEntity
  8
2
 62
     0
370
    -2
100
AcDbLine
 10
40.0
 20
-0.5
 30
0.0
 11
40.0
 21
-13.0
 31
0.0
  0
LINE
  5
3AE
330
3AB
100
AcDbEntity
  8
2
 62
     0
370
    -2
100
AcDbLine
 10
40.0
 20
-12.0
 30
0.0
 11
56.0665
 21
-12.0
 31
0.0
  0
LINE
  5
3AF
330
3AB
100
AcDbEntity
  8
2
 62
     0
370
    -2
100
AcDbLine
 10
39.5
 20
-12.0
 30
0.0
 11
40.0
 21
-12.0
 31
0.0
  0
LINE
  5
3B0
330
3AB
100
AcDbEntity
  8
2
 62
     0
370
    -2
100
AcDbLine
 10
36.5
 20
-12.0
 30
0.0
 11
33.5
 21
-12.0
 31
0.0
  0
LINE
  5
3B1
330
3AB
100
AcDbEntity
  8
2
 62
     0
370
    -2
100
AcDbLine
 10
43.0
 20
-12.0
 30
0.0
 11
46.0
 21
-12.0
 31
0.0
  0
SOLID
  5
3B2
330
3AB
100
AcDbEntity
  8
2
 62
     0
100
AcDbTrace
 10
36.5
 20
-12.5
 30
0.0
 11
36.5
 21
-11.5
 31
0.0
 12
39.5
 22
-12.0
 32
0.0
 13
39.5
 23
-12.0
 33
0.0
  0
SOLID
  5
3B3
330
3AB
100
AcDbEntity
  8
2
 62
     0
100
AcDbTrace
 10
43.0
 20
-11.5
 30
0.0
 11
43.0
 21
-12.5
 31
0.0
 12
40.0
 22
-12.0
 32
0.0
 13
40.0
 23
-12.0
 33
0.0
  0
MTEXT
  5
3B4
330
3AB
100
AcDbEntity
  8
2
  6
ByBlock
 62
     0
100
AcDbMText
 10
51.03325
 20
-9.388750000000002
 30
0.0
 40
3.5
 41
0.0
 71
     5
 72
     1
  1
\A1;0.5
 73
     1
 44
1.0
  0
POINT
  5
106ABE7
330
3AB
100
AcDbEntity
  8
Defpoints
 62
     0
100
AcDbPoint
 10
39.5
 20
-0.275
 30
0.0
  0
POINT
  5
106ABE8
330
3AB
100
AcDbEntity
  8
Defpoints
 62
     0
100
AcDbPoint
 10
40.0
 20
0.0
 30
0.0
  0
POINT
  5
106ABED
330
3AB
100
AcDbEntity
  8
Defpoints
 62
     0
100
AcDbPoint
 10
40.0
 20
-11.0375
 30
0.0
  0
ENDBLK
  5
3B5
330
3AB
100
AcDbEntity
  8
2
100
AcDbBlockEnd
  0
BLOCK
  5
3B7
330
3B9
100
AcDbEntity
  8
2
100
AcDbBlockBegin
  2
*D7
 70
     1
 10
0.0
 20
0.0
 30
0.0
  3
*D7
  1

  0
LINE
  5
3BA
330
3B9
100
AcDbEntity
  8
2
 62
     0
370
    -2
100
AcDbLine
 10
13.0
 20
4.0
 30
0.0
 11
13.0
 21
31.0
 31
0.0
  0
LINE
  5
3BB
330
3B9
100
AcDbEntity
  8
2
 62
     0
370
    -2
100
AcDbLine
 10
40.0
 20
0.5
 30
0.0
 11
40.0
 21
31.0
 31
0.0
  0
LINE
  5
3BC
330
3B9
100
AcDbEntity
  8
2
 62
     0
370
    -2
100
AcDbLine
 10
16.0
 20
30.0
 30
0.0
 11
37.0
 21
30.0
 31
0.0
  0
SOLID
  5
3BD
330
3B9
100
AcDbEntity
  8
2
 62
     0
100
AcDbTrace
 10
16.0
 20
30.5
 30
0.0
 11
16.0
 21
29.5
 31
0.0
 12
13.0
 22
30.0
 32
0.0
 13
13.0
 23
30.0
 33
0.0
  0
SOLID
  5
3BE
330
3B9
100
AcDbEntity
  8
2
 62
     0
100
AcDbTrace
 10
37.0
 20
29.5
 30
0.0
 11
37.0
 21
30.5
 31
0.0
 12
40.0
 22
30.0
 32
0.0
 13
40.0
 23
30.0
 33
0.0
  0
MTEXT
  5
3BF
330
3B9
100
AcDbEntity
  8
2
  6
ByBlock
 62
     0
100
AcDbMText
 10
26.5
 20
32.5605
 30
0.0
 40
3.5
 41
0.0
 71
     5
 72
     1
  1
\A1;27
 73
     1
 44
1.0
  0
POINT
  5
3C0
330
3B9
100
AcDbEntity
  8
Defpoints
 62
     0
100
AcDbPoint
 10
13.0
 20
3.5
 30
0.0
  0
POINT
  5
3C1
330
3B9
100
AcDbEntity
  8
Defpoints
 62
     0
100
AcDbPoint
 10
40.0
 20
0.0
 30
0.0
  0
POINT
  5
3C2
330
3B9
100
AcDbEntity
  8
Defpoints
 62
     0
100
AcDbPoint
 10
40.0
 20
30.61111696793001
 30
0.0
  0
ENDBLK
  5
3C3
330
3B9
100
AcDbEntity
  8
2
100
AcDbBlockEnd
  0
BLOCK
  5
3C5
330
3C7
100
AcDbEntity
  8
2
100
AcDbBlockBegin
  2
*D8
 70
     1
 10
0.0
 20
0.0
 30
0.0
  3
*D8
  1

  0
LINE
  5
3C8
330
3C7
100
AcDbEntity
  8
2
 62
     0
370
    -2
100
AcDbLine
 10
34.0
 20
-0.8
 30
0.0
 11
34.0
 21
-21.0
 31
0.0
  0
LINE
  5
3C9
330
3C7
100
AcDbEntity
  8
2
 62
     0
370
    -2
100
AcDbLine
 10
40.0
 20
-0.5
 30
0.0
 11
40.0
 21
-21.0
 31
0.0
  0
LINE
  5
3CA
330
3C7
100
AcDbEntity
  8
2
 62
     0
370
    -2
100
AcDbLine
 10
34.0
 20
-20.0
 30
0.0
 11
23.943
 21
-20.0
 31
0.0
  0
LINE
  5
3CB
330
3C7
100
AcDbEntity
  8
2
 62
     0
370
    -2
100
AcDbLine
 10
34.0
 20
-20.0
 30
0.0
 11
40.0
 21
-20.0
 31
0.0
  0
LINE
  5
3CC
330
3C7
100
AcDbEntity
  8
2
 62
     0
370
    -2
100
AcDbLine
 10
31.0
 20
-20.0
 30
0.0
 11
28.0
 21
-20.0
 31
0.0
  0
LINE
  5
3CD
330
3C7
100
AcDbEntity
  8
2
 62
     0
370
    -2
100
AcDbLine
 10
43.0
 20
-20.0
 30
0.0
 11
46.0
 21
-20.0
 31
0.0
  0
SOLID
  5
3CE
330
3C7
100
AcDbEntity
  8
2
 62
     0
100
AcDbTrace
 10
31.0
 20
-20.5
 30
0.0
 11
31.0
 21
-19.5
 31
0.0
 12
34.0
 22
-20.0
 32
0.0
 13
34.0
 23
-20.0
 33
0.0
  0
SOLID
  5
3CF
330
3C7
100
AcDbEntity
  8
2
 62
     0
100
AcDbTrace
 10
43.0
 20
-19.5
 30
0.0
 11
43.0
 21
-20.5
 31
0.0
 12
40.0
 22
-20.0
 32
0.0
 13
40.0
 23
-20.0
 33
0.0
  0
MTEXT
  5
3D0
330
3C7
100
AcDbEntity
  8
2
  6
ByBlock
 62
     0
100
AcDbMText
 10
25.9715
 20
-17.38875
 30
0.0
 40
3.5
 41
0.0
 71
     5
 72
     1
  1
\A1;6
 73
     1
 44
1.0
  0
POINT
  5
106ABE3
330
3C7
100
AcDbEntity
  8
Defpoints
 62
     0
100
AcDbPoint
 10
34.0
 20
-0.3
 30
0.0
  0
POINT
  5
106ABE4
330
3C7
100
AcDbEntity
  8
Defpoints
 62
     0
100
AcDbPoint
 10
40.0
 20
0.0
 30
0.0
  0
POINT
  5
106AC7A
330
3C7
100
AcDbEntity
  8
Defpoints
 62
     0
100
AcDbPoint
 10
40.0
 20
-18.41252903790089
 30
0.0
  0
ENDBLK
  5
3D1
330
3C7
100
AcDbEntity
  8
2
100
AcDbBlockEnd
  0
ENDSEC
  0
SECTION
  2
ENTITIES
  0
DIMENSION
  5
366
330
30
100
AcDbEntity
  8
SK2
100
AcDbDimension
  2
*D0
 10
40.0
 20
38.6452375
 30
0.0
 11
20.0
 21
38.6452375
 31
0.0
 70
   160
  1
<>
 71
     5
 42
40.0
  3
STANDARD
100
AcDbAlignedDimension
 13
0.0
 23
0.990475
 33
0.0
 14
40.0
 24
0.0
 34
0.0
100
AcDbRotatedDimension
1001
ACAD
1000
DSTYLE
1002
{
1070
   279
1070
     0
1070
    78
1070
     9
1070
    74
1070
     0
1002
}
  0
DIMENSION
  5
374
330
30
100
AcDbEntity
  8
SK2
100
AcDbDimension
  2
*D1
 10
0.0
 20
30.0
 30
0.0
 11
6.500000000000001
 21
30.0
 31
0.0
 70
   160
  1
<>
 71
     5
 42
13.0
  3
STANDARD
100
AcDbAlignedDimension
 13
13.0
 23
3.5
 33
0.0
 14
0.0
 24
0.990475
 34
0.0
100
AcDbRotatedDimension
1001
ACAD
1000
DSTYLE
1002
{
1070
   279
1070
     0
1070
    78
1070
     9
1070
    74
1070
     0
1002
}
  0
DIMENSION
  5
382
330
30
100
AcDbEntity
  8
SK2
100
AcDbDimension
  2
*D2
 10
-6.65
 20
1.5
 30
0.0
 11
-6.65
 21
11.093
 31
0.0
 70
   160
  1
%%c<>
 71
     5
 42
3.0
  3
STANDARD
100
AcDbAlignedDimension
 13
1.0
 23
-1.5
 33
0.0
 14
1.0
 24
1.5
 34
0.0
 50
-90.0
100
AcDbRotatedDimension
1001
ACAD
1000
DSTYLE
1002
{
1070
   279
1070
     0
1070
    78
1070
     9
1070
    74
1070
     0
1002
}
  0
DIMENSION
  5
390
330
30
100
AcDbEntity
  8
2
100
AcDbDimension
  2
*D3
 10
68.85
 20
0.3000000000000025
 30
0.0
 11
68.85
 21
12.95725
 31
0.0
 70
   160
  1
%%c<>
 71
     5
 42
0.6
  3
STANDARD
100
AcDbAlignedDimension
 13
39.7
 23
-0.3
 33
0.0
 14
39.7
 24
0.3
 34
0.0
 50
-90.0
100
AcDbRotatedDimension
1001
ACAD
1000
DSTYLE
1002
{
1070
   279
1070
     0
1070
    78
1070
     9
1070
    74
1070
     0
1002
}
  0
DIMENSION
  5
39A
330
30
100
AcDbEntity
  8
2
100
AcDbDimension
  2
*D4
 10
39.7
 20
0.0
 30
0.0
 11
49.05916181902405
 21
13.99974717201166
 31
0.0
 70
   164
  1
R0.3
 71
     5
 42
0.2999999514133277
  3
STANDARD
100
AcDbRadialDimension
 15
39.86673052243585
 25
0.2494010900863666
 35
0.0
 40
0.0
  0
DIMENSION
  5
3A8
330
30
100
AcDbEntity
  8
2
100
AcDbDimension
  2
*D5
 10
36.85
 20
0.2750000000000004
 30
0.0
 11
36.85
 21
14.42325
 31
0.0
 70
   160
  1
%%c<>
 71
     5
 42
0.55
  3
STANDARD
100
AcDbAlignedDimension
 13
34.315238
 23
-0.275
 33
0.0
 14
34.315238
 24
0.275
 34
0.0
 50
-90.0
100
AcDbRotatedDimension
1001
ACAD
1000
DSTYLE
1002
{
1070
    76
1070
     1
1070
    75
1070
     1
1070
   279
1070
     0
1070
    78
1070
     9
1070
    74
1070
     0
1002
}
  0
DIMENSION
  5
3B6
330
30
100
AcDbEntity
  8
2
100
AcDbDimension
  2
*D6
 10
40.0
 20
-12.0
 30
0.0
 11
51.03325
 21
-12.0
 31
0.0
 70
   160
  1
<>
 71
     5
 42
0.5
  3
STANDARD
100
AcDbAlignedDimension
 13
39.5
 23
-0.275
 33
0.0
 14
40.0
 24
0.0
 34
0.0
100
AcDbRotatedDimension
1001
ACAD
1000
DSTYLE
1002
{
1070
   279
1070
     0
1070
    78
1070
     9
1070
    74
1070
     0
1002
}
  0
DIMENSION
  5
3C4
330
30
100
AcDbEntity
  8
2
100
AcDbDimension
  2
*D7
 10
40.0
 20
30.0
 30
0.0
 11
26.5
 21
30.0
 31
0.0
 70
   160
  1
<>
 71
     5
 42
27.0
  3
STANDARD
100
AcDbAlignedDimension
 13
13.0
 23
3.5
 33
0.0
 14
40.0
 24
0.0
 34
0.0
100
AcDbRotatedDimension
1001
ACAD
1000
DSTYLE
1002
{
1070
   279
1070
     0
1070
    78
1070
     9
1070
    74
1070
     0
1002
}
  0
DIMENSION
  5
3D2
330
30
100
AcDbEntity
  8
2
100
AcDbDimension
  2
*D8
 10
40.0
 20
-20.0
 30
0.0
 11
25.9715
 21
-20.0
 31
0.0
 70
   160
  1
<>
 71
     5
 42
6.0
  3
STANDARD
100
AcDbAlignedDimension
 13
34.0
 23
-0.3
 33
0.0
 14
40.0
 24
0.0
 34
0.0
100
AcDbRotatedDimension
1001
ACAD
1000
DSTYLE
1002
{
1070
   279
1070
     0
1070
    78
1070
     9
1070
    74
1070
     0
1002
}
  0
LINE
  5
36
330
30
100
AcDbEntity
  8
1
100
AcDbLine
 10
13.0
 20
1.5
 30
0.0
 11
13.0
 21
3.5
 31
0.0
  0
LINE
  5
37
330
30
100
AcDbEntity
  8
1
100
AcDbLine
 10
13.0
 20
3.5
 30
0.0
 11
13.0
 21
-3.5
 31
0.0
  0
LINE
  5
38
330
30
100
AcDbEntity
  8
1
100
AcDbLine
 10
13.0
 20
-3.5
 30
0.0
 11
13.0
 21
-1.5
 31
0.0
  0
LINE
  5
39
330
30
100
AcDbEntity
  8
1
100
AcDbLine
 10
13.0
 20
-1.5
 30
0.0
 11
13.0
 21
1.5
 31
0.0
  0
LINE
  5
3A
330
30
100
AcDbEntity
  8
1
100
AcDbLine
 10
13.35
 20
-1.5
 30
0.0
 11
13.35
 21
1.5
 31
0.0
  0
LINE
  5
3B
330
30
100
AcDbEntity
  8
1
100
AcDbLine
 10
27.19294
 20
1.5
 30
0.0
 11
27.19294
 21
-1.5
 31
0.0
  0
ARC
  5
3C
330
30
100
AcDbEntity
  8
1
100
AcDbCircle
 10
34.315238
 20
-2.275
 30
0.0
 40
2.0
100
AcDbArc
 50
90.0
 51
100.0
  0
LINE
  5
3D
330
30
100
AcDbEntity
  8
1
100
AcDbLine
 10
34.315238
 20
-0.275
 30
0.0
 11
39.5
 21
-0.275
 31
0.0
  0
LINE
  5
3E
330
30
100
AcDbEntity
  8
1
100
AcDbLine
 10
39.5
 20
-0.275
 30
0.0
 11
39.5
 21
-0.3
 31
0.0
  0
LINE
  5
3F
330
30
100
AcDbEntity
  8
1
100
AcDbLine
 10
39.5
 20
-0.3
 30
0.0
 11
39.7
 21
-0.3
 31
0.0
  0
ARC
  5
40
330
30
100
AcDbEntity
  8
1
100
AcDbCircle
 10
39.7
 20
0.0
 30
0.0
 40
0.3
100
AcDbArc
 50
270.0
 51
0.0
  0
ARC
  5
41
330
30
100
AcDbEntity
  8
1
100
AcDbCircle
 10
39.7
 20
0.0
 30
0.0
 40
0.3
100
AcDbArc
 50
0.0
 51
90.0
  0
LINE
  5
42
330
30
100
AcDbEntity
  8
1
100
AcDbLine
 10
39.7
 20
0.3
 30
0.0
 11
39.5
 21
0.3
 31
0.0
  0
LINE
  5
43
330
30
100
AcDbEntity
  8
1
100
AcDbLine
 10
39.5
 20
0.3
 30
0.0
 11
39.5
 21
0.275
 31
0.0
  0
LINE
  5
44
330
30
100
AcDbEntity
  8
1
100
AcDbLine
 10
39.5
 20
0.275
 30
0.0
 11
34.315238
 21
0.275
 31
0.0
  0
ARC
  5
45
330
30
100
AcDbEntity
  8
1
100
AcDbCircle
 10
34.315238
 20
2.275
 30
0.0
 40
2.0
100
AcDbArc
 50
260.0
 51
270.0
  0
LINE
  5
46
330
30
100
AcDbEntity
  8
1
100
AcDbLine
 10
33.967942
 20
0.305384
 30
0.0
 11
27.19294
 21
1.5
 31
0.0
  0
LINE
  5
47
330
30
100
AcDbEntity
  8
1
100
AcDbLine
 10
27.19294
 20
1.5
 30
0.0
 11
13.35
 21
1.5
 31
0.0
  0
LINE
  5
48
330
30
100
AcDbEntity
  8
1
100
AcDbLine
 10
13.35
 20
1.5
 30
0.0
 11
13.35
 21
3.5
 31
0.0
  0
LINE
  5
49
330
30
100
AcDbEntity
  8
1
100
AcDbLine
 10
13.35
 20
3.5
 30
0.0
 11
13.0
 21
3.5
 31
0.0
  0
LINE
  5
4A
330
30
100
AcDbEntity
  8
1
100
AcDbLine
 10
13.0
 20
3.5
 30
0.0
 11
13.0
 21
1.5
 31
0.0
  0
LINE
  5
4B
330
30
100
AcDbEntity
  8
1
100
AcDbLine
 10
13.0
 20
1.5
 30
0.0
 11
13.0
 21
-1.5
 31
0.0
  0
LINE
  5
4C
330
30
100
AcDbEntity
  8
1
100
AcDbLine
 10
13.0
 20
-1.5
 30
0.0
 11
13.0
 21
-3.5
 31
0.0
  0
LINE
  5
4D
330
30
100
AcDbEntity
  8
1
100
AcDbLine
 10
13.0
 20
-3.5
 30
0.0
 11
13.35
 21
-3.5
 31
0.0
  0
LINE
  5
4E
330
30
100
AcDbEntity
  8
1
100
AcDbLine
 10
13.35
 20
-3.5
 30
0.0
 11
13.35
 21
-1.5
 31
0.0
  0
LINE
  5
4F
330
30
100
AcDbEntity
  8
1
100
AcDbLine
 10
13.35
 20
-1.5
 30
0.0
 11
27.19294
 21
-1.5
 31
0.0
  0
LINE
  5
50
330
30
100
AcDbEntity
  8
1
100
AcDbLine
 10
27.19294
 20
-1.5
 30
0.0
 11
33.967942
 21
-0.305384
 31
0.0
  0
LINE
  5
51
330
30
100
AcDbEntity
  8
1
100
AcDbLine
 10
33.967942
 20
-0.305384
 30
0.0
 11
33.967942
 21
0.305384
 31
0.0
  0
LINE
  5
52
330
30
100
AcDbEntity
  8
1
100
AcDbLine
 10
34.315238
 20
0.275
 30
0.0
 11
34.315238
 21
-0.275
 31
0.0
  0
LINE
  5
53
330
30
100
AcDbEntity
  8
1
100
AcDbLine
 10
38.972419
 20
0.275
 30
0.0
 11
38.973333
 21
0.274987
 31
0.0
  0
LINE
  5
54
330
30
100
AcDbEntity
  8
1
100
AcDbLine
 10
38.973333
 20
0.274987
 30
0.0
 11
38.977
 21
0.274687
 31
0.0
  0
LINE
  5
55
330
30
100
AcDbEntity
  8
1
100
AcDbLine
 10
38.977
 20
0.274687
 30
0.0
 11
38.980667
 21
0.274015
 31
0.0
  0
LINE
  5
56
330
30
100
AcDbEntity
  8
1
100
AcDbLine
 10
38.980667
 20
0.274015
 30
0.0
 11
38.984333
 21
0.273004
 31
0.0
  0
LINE
  5
57
330
30
100
AcDbEntity
  8
1
100
AcDbLine
 10
38.984333
 20
0.273004
 30
0.0
 11
38.988
 21
0.271684
 31
0.0
  0
LINE
  5
58
330
30
100
AcDbEntity
  8
1
100
AcDbLine
 10
38.988
 20
0.271684
 30
0.0
 11
38.991667
 21
0.270085
 31
0.0
  0
LINE
  5
59
330
30
100
AcDbEntity
  8
1
100
AcDbLine
 10
38.991667
 20
0.270085
 30
0.0
 11
38.995333
 21
0.268233
 31
0.0
  0
LINE
  5
5A
330
30
100
AcDbEntity
  8
1
100
AcDbLine
 10
38.995333
 20
0.268233
 30
0.0
 11
38.999
 21
0.266153
 31
0.0
  0
LINE
  5
5B
330
30
100
AcDbEntity
  8
1
100
AcDbLine
 10
38.999
 20
0.266153
 30
0.0
 11
39.002667
 21
0.26387
 31
0.0
  0
LINE
  5
5C
330
30
100
AcDbEntity
  8
1
100
AcDbLine
 10
39.002667
 20
0.26387
 30
0.0
 11
39.006333
 21
0.261406
 31
0.0
  0
LINE
  5
5D
330
30
100
AcDbEntity
  8
1
100
AcDbLine
 10
39.006333
 20
0.261406
 30
0.0
 11
39.01
 21
0.258782
 31
0.0
  0
LINE
  5
5E
330
30
100
AcDbEntity
  8
1
100
AcDbLine
 10
39.01
 20
0.258782
 30
0.0
 11
39.013667
 21
0.256015
 31
0.0
  0
LINE
  5
5F
330
30
100
AcDbEntity
  8
1
100
AcDbLine
 10
39.013667
 20
0.256015
 30
0.0
 11
39.017333
 21
0.253126
 31
0.0
  0
LINE
  5
60
330
30
100
AcDbEntity
  8
1
100
AcDbLine
 10
39.017333
 20
0.253126
 30
0.0
 11
39.021
 21
0.250129
 31
0.0
  0
LINE
  5
61
330
30
100
AcDbEntity
  8
1
100
AcDbLine
 10
39.021
 20
0.250129
 30
0.0
 11
39.024667
 21
0.24704
 31
0.0
  0
LINE
  5
62
330
30
100
AcDbEntity
  8
1
100
AcDbLine
 10
39.024667
 20
0.24704
 30
0.0
 11
39.028333
 21
0.243873
 31
0.0
  0
LINE
  5
63
330
30
100
AcDbEntity
  8
1
100
AcDbLine
 10
39.028333
 20
0.243873
 30
0.0
 11
39.032
 21
0.240641
 31
0.0
  0
LINE
  5
64
330
30
100
AcDbEntity
  8
1
100
AcDbLine
 10
39.032
 20
0.240641
 30
0.0
 11
39.035667
 21
0.237355
 31
0.0
  0
LINE
  5
65
330
30
100
AcDbEntity
  8
1
100
AcDbLine
 10
39.035667
 20
0.237355
 30
0.0
 11
39.039333
 21
0.234027
 31
0.0
  0
LINE
  5
66
330
30
100
AcDbEntity
  8
1
100
AcDbLine
 10
39.039333
 20
0.234027
 30
0.0
 11
39.043
 21
0.230665
 31
0.0
  0
LINE
  5
67
330
30
100
AcDbEntity
  8
1
100
AcDbLine
 10
39.043
 20
0.230665
 30
0.0
 11
39.046667
 21
0.227279
 31
0.0
  0
LINE
  5
68
330
30
100
AcDbEntity
  8
1
100
AcDbLine
 10
39.046667
 20
0.227279
 30
0.0
 11
39.050333
 21
0.223876
 31
0.0
  0
LINE
  5
69
330
30
100
AcDbEntity
  8
1
100
AcDbLine
 10
39.050333
 20
0.223876
 30
0.0
 11
39.054
 21
0.220465
 31
0.0
  0
LINE
  5
6A
330
30
100
AcDbEntity
  8
1
100
AcDbLine
 10
39.054
 20
0.220465
 30
0.0
 11
39.057667
 21
0.217051
 31
0.0
  0
LINE
  5
6B
330
30
100
AcDbEntity
  8
1
100
AcDbLine
 10
39.057667
 20
0.217051
 30
0.0
 11
39.061333
 21
0.213641
 31
0.0
  0
LINE
  5
6C
330
30
100
AcDbEntity
  8
1
100
AcDbLine
 10
39.061333
 20
0.213641
 30
0.0
 11
39.065
 21
0.210239
 31
0.0
  0
LINE
  5
6D
330
30
100
AcDbEntity
  8
1
100
AcDbLine
 10
39.065
 20
0.210239
 30
0.0
 11
39.068667
 21
0.20685
 31
0.0
  0
LINE
  5
6E
330
30
100
AcDbEntity
  8
1
100
AcDbLine
 10
39.068667
 20
0.20685
 30
0.0
 11
39.072333
 21
0.203479
 31
0.0
  0
LINE
  5
6F
330
30
100
AcDbEntity
  8
1
100
AcDbLine
 10
39.072333
 20
0.203479
 30
0.0
 11
39.076
 21
0.200129
 31
0.0
  0
LINE
  5
70
330
30
100
AcDbEntity
  8
1
100
AcDbLine
 10
39.076
 20
0.200129
 30
0.0
 11
39.079667
 21
0.196802
 31
0.0
  0
LINE
  5
71
330
30
100
AcDbEntity
  8
1
100
AcDbLine
 10
39.079667
 20
0.196802
 30
0.0
 11
39.083333
 21
0.193503
 31
0.0
  0
LINE
  5
72
330
30
100
AcDbEntity
  8
1
100
AcDbLine
 10
39.083333
 20
0.193503
 30
0.0
 11
39.087
 21
0.190232
 31
0.0
  0
LINE
  5
73
330
30
100
AcDbEntity
  8
1
100
AcDbLine
 10
39.087
 20
0.190232
 30
0.0
 11
39.090667
 21
0.186993
 31
0.0
  0
LINE
  5
74
330
30
100
AcDbEntity
  8
1
100
AcDbLine
 10
39.090667
 20
0.186993
 30
0.0
 11
39.094333
 21
0.183787
 31
0.0
  0
LINE
  5
75
330
30
100
AcDbEntity
  8
1
100
AcDbLine
 10
39.094333
 20
0.183787
 30
0.0
 11
39.098
 21
0.180614
 31
0.0
  0
LINE
  5
76
330
30
100
AcDbEntity
  8
1
100
AcDbLine
 10
39.098
 20
0.180614
 30
0.0
 11
39.101667
 21
0.177478
 31
0.0
  0
LINE
  5
77
330
30
100
AcDbEntity
  8
1
100
AcDbLine
 10
39.101667
 20
0.177478
 30
0.0
 11
39.105333
 21
0.174377
 31
0.0
  0
LINE
  5
78
330
30
100
AcDbEntity
  8
1
100
AcDbLine
 10
39.105333
 20
0.174377
 30
0.0
 11
39.109
 21
0.171313
 31
0.0
  0
LINE
  5
79
330
30
100
AcDbEntity
  8
1
100
AcDbLine
 10
39.109
 20
0.171313
 30
0.0
 11
39.112667
 21
0.168286
 31
0.0
  0
LINE
  5
7A
330
30
100
AcDbEntity
  8
1
100
AcDbLine
 10
39.112667
 20
0.168286
 30
0.0
 11
39.116333
 21
0.165297
 31
0.0
  0
LINE
  5
7B
330
30
100
AcDbEntity
  8
1
100
AcDbLine
 10
39.116333
 20
0.165297
 30
0.0
 11
39.12
 21
0.162346
 31
0.0
  0
LINE
  5
7C
330
30
100
AcDbEntity
  8
1
100
AcDbLine
 10
39.12
 20
0.162346
 30
0.0
 11
39.123667
 21
0.159432
 31
0.0
  0
LINE
  5
7D
330
30
100
AcDbEntity
  8
1
100
AcDbLine
 10
39.123667
 20
0.159432
 30
0.0
 11
39.127333
 21
0.156555
 31
0.0
  0
LINE
  5
7E
330
30
100
AcDbEntity
  8
1
100
AcDbLine
 10
39.127333
 20
0.156555
 30
0.0
 11
39.131
 21
0.153716
 31
0.0
  0
LINE
  5
7F
330
30
100
AcDbEntity
  8
1
100
AcDbLine
 10
39.131
 20
0.153716
 30
0.0
 11
39.134667
 21
0.150913
 31
0.0
  0
LINE
  5
80
330
30
100
AcDbEntity
  8
1
100
AcDbLine
 10
39.134667
 20
0.150913
 30
0.0
 11
39.138333
 21
0.148146
 31
0.0
  0
LINE
  5
81
330
30
100
AcDbEntity
  8
1
100
AcDbLine
 10
39.138333
 20
0.148146
 30
0.0
 11
39.142
 21
0.145416
 31
0.0
  0
LINE
  5
82
330
30
100
AcDbEntity
  8
1
100
AcDbLine
 10
39.142
 20
0.145416
 30
0.0
 11
39.145667
 21
0.142719
 31
0.0
  0
LINE
  5
83
330
30
100
AcDbEntity
  8
1
100
AcDbLine
 10
39.145667
 20
0.142719
 30
0.0
 11
39.149333
 21
0.140058
 31
0.0
  0
LINE
  5
84
330
30
100
AcDbEntity
  8
1
100
AcDbLine
 10
39.149333
 20
0.140058
 30
0.0
 11
39.153
 21
0.137429
 31
0.0
  0
LINE
  5
85
330
30
100
AcDbEntity
  8
1
100
AcDbLine
 10
39.153
 20
0.137429
 30
0.0
 11
39.156667
 21
0.134834
 31
0.0
  0
LINE
  5
86
330
30
100
AcDbEntity
  8
1
100
AcDbLine
 10
39.156667
 20
0.134834
 30
0.0
 11
39.160333
 21
0.13227
 31
0.0
  0
LINE
  5
87
330
30
100
AcDbEntity
  8
1
100
AcDbLine
 10
39.160333
 20
0.13227
 30
0.0
 11
39.164
 21
0.129737
 31
0.0
  0
LINE
  5
88
330
30
100
AcDbEntity
  8
1
100
AcDbLine
 10
39.164
 20
0.129737
 30
0.0
 11
39.167667
 21
0.127234
 31
0.0
  0
LINE
  5
89
330
30
100
AcDbEntity
  8
1
100
AcDbLine
 10
39.167667
 20
0.127234
 30
0.0
 11
39.171333
 21
0.12476
 31
0.0
  0
LINE
  5
8A
330
30
100
AcDbEntity
  8
1
100
AcDbLine
 10
39.171333
 20
0.12476
 30
0.0
 11
39.175
 21
0.122315
 31
0.0
  0
LINE
  5
8B
330
30
100
AcDbEntity
  8
1
100
AcDbLine
 10
39.175
 20
0.122315
 30
0.0
 11
39.178667
 21
0.119896
 31
0.0
  0
LINE
  5
8C
330
30
100
AcDbEntity
  8
1
100
AcDbLine
 10
39.178667
 20
0.119896
 30
0.0
 11
39.182333
 21
0.117504
 31
0.0
  0
LINE
  5
8D
330
30
100
AcDbEntity
  8
1
100
AcDbLine
 10
39.182333
 20
0.117504
 30
0.0
 11
39.186
 21
0.115137
 31
0.0
  0
LINE
  5
8E
330
30
100
AcDbEntity
  8
1
100
AcDbLine
 10
39.186
 20
0.115137
 30
0.0
 11
39.189667
 21
0.112795
 31
0.0
  0
LINE
  5
8F
330
30
100
AcDbEntity
  8
1
100
AcDbLine
 10
39.189667
 20
0.112795
 30
0.0
 11
39.193333
 21
0.110476
 31
0.0
  0
LINE
  5
90
330
30
100
AcDbEntity
  8
1
100
AcDbLine
 10
39.193333
 20
0.110476
 30
0.0
 11
39.197
 21
0.108179
 31
0.0
  0
LINE
  5
91
330
30
100
AcDbEntity
  8
1
100
AcDbLine
 10
39.197
 20
0.108179
 30
0.0
 11
39.200667
 21
0.105904
 31
0.0
  0
LINE
  5
92
330
30
100
AcDbEntity
  8
1
100
AcDbLine
 10
39.200667
 20
0.105904
 30
0.0
 11
39.204333
 21
0.103649
 31
0.0
  0
LINE
  5
93
330
30
100
AcDbEntity
  8
1
100
AcDbLine
 10
39.204333
 20
0.103649
 30
0.0
 11
39.208
 21
0.101415
 31
0.0
  0
LINE
  5
94
330
30
100
AcDbEntity
  8
1
100
AcDbLine
 10
39.208
 20
0.101415
 30
0.0
 11
39.211667
 21
0.099198
 31
0.0
  0
LINE
  5
95
330
30
100
AcDbEntity
  8
1
100
AcDbLine
 10
39.211667
 20
0.099198
 30
0.0
 11
39.215333
 21
0.097
 31
0.0
  0
LINE
  5
96
330
30
100
AcDbEntity
  8
1
100
AcDbLine
 10
39.215333
 20
0.097
 30
0.0
 11
39.219
 21
0.094819
 31
0.0
  0
LINE
  5
97
330
30
100
AcDbEntity
  8
1
100
AcDbLine
 10
39.219
 20
0.094819
 30
0.0
 11
39.222667
 21
0.092654
 31
0.0
  0
LINE
  5
98
330
30
100
AcDbEntity
  8
1
100
AcDbLine
 10
39.222667
 20
0.092654
 30
0.0
 11
39.226333
 21
0.090505
 31
0.0
  0
LINE
  5
99
330
30
100
AcDbEntity
  8
1
100
AcDbLine
 10
39.226333
 20
0.090505
 30
0.0
 11
39.23
 21
0.08837
 31
0.0
  0
LINE
  5
9A
330
30
100
AcDbEntity
  8
1
100
AcDbLine
 10
39.23
 20
0.08837
 30
0.0
 11
39.233667
 21
0.086249
 31
0.0
  0
LINE
  5
9B
330
30
100
AcDbEntity
  8
1
100
AcDbLine
 10
39.233667
 20
0.086249
 30
0.0
 11
39.237333
 21
0.084141
 31
0.0
  0
LINE
  5
9C
330
30
100
AcDbEntity
  8
1
100
AcDbLine
 10
39.237333
 20
0.084141
 30
0.0
 11
39.241
 21
0.082045
 31
0.0
  0
LINE
  5
9D
330
30
100
AcDbEntity
  8
1
100
AcDbLine
 10
39.241
 20
0.082045
 30
0.0
 11
39.244667
 21
0.079961
 31
0.0
  0
LINE
  5
9E
330
30
100
AcDbEntity
  8
1
100
AcDbLine
 10
39.244667
 20
0.079961
 30
0.0
 11
39.248333
 21
0.077887
 31
0.0
  0
LINE
  5
9F
330
30
100
AcDbEntity
  8
1
100
AcDbLine
 10
39.248333
 20
0.077887
 30
0.0
 11
39.252
 21
0.075825
 31
0.0
  0
LINE
  5
A0
330
30
100
AcDbEntity
  8
1
100
AcDbLine
 10
39.252
 20
0.075825
 30
0.0
 11
39.255667
 21
0.073771
 31
0.0
  0
LINE
  5
A1
330
30
100
AcDbEntity
  8
1
100
AcDbLine
 10
39.255667
 20
0.073771
 30
0.0
 11
39.259333
 21
0.071727
 31
0.0
  0
LINE
  5
A2
330
30
100
AcDbEntity
  8
1
100
AcDbLine
 10
39.259333
 20
0.071727
 30
0.0
 11
39.263
 21
0.069691
 31
0.0
  0
LINE
  5
A3
330
30
100
AcDbEntity
  8
1
100
AcDbLine
 10
39.263
 20
0.069691
 30
0.0
 11
39.266667
 21
0.067663
 31
0.0
  0
LINE
  5
A4
330
30
100
AcDbEntity
  8
1
100
AcDbLine
 10
39.266667
 20
0.067663
 30
0.0
 11
39.270333
 21
0.065643
 31
0.0
  0
LINE
  5
A5
330
30
100
AcDbEntity
  8
1
100
AcDbLine
 10
39.270333
 20
0.065643
 30
0.0
 11
39.274
 21
0.063629
 31
0.0
  0
LINE
  5
A6
330
30
100
AcDbEntity
  8
1
100
AcDbLine
 10
39.274
 20
0.063629
 30
0.0
 11
39.277667
 21
0.061622
 31
0.0
  0
LINE
  5
A7
330
30
100
AcDbEntity
  8
1
100
AcDbLine
 10
39.277667
 20
0.061622
 30
0.0
 11
39.281333
 21
0.059621
 31
0.0
  0
LINE
  5
A8
330
30
100
AcDbEntity
  8
1
100
AcDbLine
 10
39.281333
 20
0.059621
 30
0.0
 11
39.285
 21
0.057624
 31
0.0
  0
LINE
  5
A9
330
30
100
AcDbEntity
  8
1
100
AcDbLine
 10
39.285
 20
0.057624
 30
0.0
 11
39.288667
 21
0.055634
 31
0.0
  0
LINE
  5
AA
330
30
100
AcDbEntity
  8
1
100
AcDbLine
 10
39.288667
 20
0.055634
 30
0.0
 11
39.292333
 21
0.053647
 31
0.0
  0
LINE
  5
AB
330
30
100
AcDbEntity
  8
1
100
AcDbLine
 10
39.292333
 20
0.053647
 30
0.0
 11
39.296
 21
0.051665
 31
0.0
  0
LINE
  5
AC
330
30
100
AcDbEntity
  8
1
100
AcDbLine
 10
39.296
 20
0.051665
 30
0.0
 11
39.299667
 21
0.049687
 31
0.0
  0
LINE
  5
AD
330
30
100
AcDbEntity
  8
1
100
AcDbLine
 10
39.299667
 20
0.049687
 30
0.0
 11
39.303333
 21
0.047712
 31
0.0
  0
LINE
  5
AE
330
30
100
AcDbEntity
  8
1
100
AcDbLine
 10
39.303333
 20
0.047712
 30
0.0
 11
39.307
 21
0.045741
 31
0.0
  0
LINE
  5
AF
330
30
100
AcDbEntity
  8
1
100
AcDbLine
 10
39.307
 20
0.045741
 30
0.0
 11
39.310667
 21
0.043772
 31
0.0
  0
LINE
  5
B0
330
30
100
AcDbEntity
  8
1
100
AcDbLine
 10
39.310667
 20
0.043772
 30
0.0
 11
39.314333
 21
0.041806
 31
0.0
  0
LINE
  5
B1
330
30
100
AcDbEntity
  8
1
100
AcDbLine
 10
39.314333
 20
0.041806
 30
0.0
 11
39.318
 21
0.039843
 31
0.0
  0
LINE
  5
B2
330
30
100
AcDbEntity
  8
1
100
AcDbLine
 10
39.318
 20
0.039843
 30
0.0
 11
39.321667
 21
0.037882
 31
0.0
  0
LINE
  5
B3
330
30
100
AcDbEntity
  8
1
100
AcDbLine
 10
39.321667
 20
0.037882
 30
0.0
 11
39.325333
 21
0.035922
 31
0.0
  0
LINE
  5
B4
330
30
100
AcDbEntity
  8
1
100
AcDbLine
 10
39.325333
 20
0.035922
 30
0.0
 11
39.329
 21
0.033965
 31
0.0
  0
LINE
  5
B5
330
30
100
AcDbEntity
  8
1
100
AcDbLine
 10
39.329
 20
0.033965
 30
0.0
 11
39.332667
 21
0.032009
 31
0.0
  0
LINE
  5
B6
330
30
100
AcDbEntity
  8
1
100
AcDbLine
 10
39.332667
 20
0.032009
 30
0.0
 11
39.336333
 21
0.030055
 31
0.0
  0
LINE
  5
B7
330
30
100
AcDbEntity
  8
1
100
AcDbLine
 10
39.336333
 20
0.030055
 30
0.0
 11
39.34
 21
0.028101
 31
0.0
  0
LINE
  5
B8
330
30
100
AcDbEntity
  8
1
100
AcDbLine
 10
39.34
 20
0.028101
 30
0.0
 11
39.343667
 21
0.026149
 31
0.0
  0
LINE
  5
B9
330
30
100
AcDbEntity
  8
1
100
AcDbLine
 10
39.343667
 20
0.026149
 30
0.0
 11
39.347333
 21
0.024198
 31
0.0
  0
LINE
  5
BA
330
30
100
AcDbEntity
  8
1
100
AcDbLine
 10
39.347333
 20
0.024198
 30
0.0
 11
39.351
 21
0.022248
 31
0.0
  0
LINE
  5
BB
330
30
100
AcDbEntity
  8
1
100
AcDbLine
 10
39.351
 20
0.022248
 30
0.0
 11
39.354667
 21
0.020298
 31
0.0
  0
LINE
  5
BC
330
30
100
AcDbEntity
  8
1
100
AcDbLine
 10
39.354667
 20
0.020298
 30
0.0
 11
39.358333
 21
0.01835
 31
0.0
  0
LINE
  5
BD
330
30
100
AcDbEntity
  8
1
100
AcDbLine
 10
39.358333
 20
0.01835
 30
0.0
 11
39.362
 21
0.016402
 31
0.0
  0
LINE
  5
BE
330
30
100
AcDbEntity
  8
1
100
AcDbLine
 10
39.362
 20
0.016402
 30
0.0
 11
39.365667
 21
0.014454
 31
0.0
  0
LINE
  5
BF
330
30
100
AcDbEntity
  8
1
100
AcDbLine
 10
39.365667
 20
0.014454
 30
0.0
 11
39.369333
 21
0.012507
 31
0.0
  0
LINE
  5
C0
330
30
100
AcDbEntity
  8
1
100
AcDbLine
 10
39.369333
 20
0.012507
 30
0.0
 11
39.373
 21
0.010561
 31
0.0
  0
LINE
  5
C1
330
30
100
AcDbEntity
  8
1
100
AcDbLine
 10
39.373
 20
0.010561
 30
0.0
 11
39.376667
 21
0.008615
 31
0.0
  0
LINE
  5
C2
330
30
100
AcDbEntity
  8
1
100
AcDbLine
 10
39.376667
 20
0.008615
 30
0.0
 11
39.380333
 21
0.006669
 31
0.0
  0
LINE
  5
C3
330
30
100
AcDbEntity
  8
1
100
AcDbLine
 10
39.380333
 20
0.006669
 30
0.0
 11
39.384
 21
0.004724
 31
0.0
  0
LINE
  5
C4
330
30
100
AcDbEntity
  8
1
100
AcDbLine
 10
39.384
 20
0.004724
 30
0.0
 11
39.387667
 21
0.00278
 31
0.0
  0
LINE
  5
C5
330
30
100
AcDbEntity
  8
1
100
AcDbLine
 10
39.387667
 20
0.00278
 30
0.0
 11
39.391333
 21
0.000836
 31
0.0
  0
LINE
  5
C6
330
30
100
AcDbEntity
  8
1
100
AcDbLine
 10
39.391333
 20
0.000836
 30
0.0
 11
39.395
 21
-0.001108
 31
0.0
  0
LINE
  5
C7
330
30
100
AcDbEntity
  8
1
100
AcDbLine
 10
39.395
 20
-0.001108
 30
0.0
 11
39.398667
 21
-0.003051
 31
0.0
  0
LINE
  5
C8
330
30
100
AcDbEntity
  8
1
100
AcDbLine
 10
39.398667
 20
-0.003051
 30
0.0
 11
39.402333
 21
-0.004993
 31
0.0
  0
LINE
  5
C9
330
30
100
AcDbEntity
  8
1
100
AcDbLine
 10
39.402333
 20
-0.004993
 30
0.0
 11
39.406
 21
-0.006935
 31
0.0
  0
LINE
  5
CA
330
30
100
AcDbEntity
  8
1
100
AcDbLine
 10
39.406
 20
-0.006935
 30
0.0
 11
39.409667
 21
-0.008876
 31
0.0
  0
LINE
  5
CB
330
30
100
AcDbEntity
  8
1
100
AcDbLine
 10
39.409667
 20
-0.008876
 30
0.0
 11
39.413333
 21
-0.010816
 31
0.0
  0
LINE
  5
CC
330
30
100
AcDbEntity
  8
1
100
AcDbLine
 10
39.413333
 20
-0.010816
 30
0.0
 11
39.417
 21
-0.012756
 31
0.0
  0
LINE
  5
CD
330
30
100
AcDbEntity
  8
1
100
AcDbLine
 10
39.417
 20
-0.012756
 30
0.0
 11
39.420667
 21
-0.014695
 31
0.0
  0
LINE
  5
CE
330
30
100
AcDbEntity
  8
1
100
AcDbLine
 10
39.420667
 20
-0.014695
 30
0.0
 11
39.424333
 21
-0.016633
 31
0.0
  0
LINE
  5
CF
330
30
100
AcDbEntity
  8
1
100
AcDbLine
 10
39.424333
 20
-0.016633
 30
0.0
 11
39.428
 21
-0.01857
 31
0.0
  0
LINE
  5
D0
330
30
100
AcDbEntity
  8
1
100
AcDbLine
 10
39.428
 20
-0.01857
 30
0.0
 11
39.431667
 21
-0.020506
 31
0.0
  0
LINE
  5
D1
330
30
100
AcDbEntity
  8
1
100
AcDbLine
 10
39.431667
 20
-0.020506
 30
0.0
 11
39.435333
 21
-0.022441
 31
0.0
  0
LINE
  5
D2
330
30
100
AcDbEntity
  8
1
100
AcDbLine
 10
39.435333
 20
-0.022441
 30
0.0
 11
39.439
 21
-0.024375
 31
0.0
  0
LINE
  5
D3
330
30
100
AcDbEntity
  8
1
100
AcDbLine
 10
39.439
 20
-0.024375
 30
0.0
 11
39.442667
 21
-0.026307
 31
0.0
  0
LINE
  5
D4
330
30
100
AcDbEntity
  8
1
100
AcDbLine
 10
39.442667
 20
-0.026307
 30
0.0
 11
39.446333
 21
-0.028238
 31
0.0
  0
LINE
  5
D5
330
30
100
AcDbEntity
  8
1
100
AcDbLine
 10
39.446333
 20
-0.028238
 30
0.0
 11
39.45
 21
-0.030168
 31
0.0
  0
LINE
  5
D6
330
30
100
AcDbEntity
  8
1
100
AcDbLine
 10
39.45
 20
-0.030168
 30
0.0
 11
39.453667
 21
-0.032096
 31
0.0
  0
LINE
  5
D7
330
30
100
AcDbEntity
  8
1
100
AcDbLine
 10
39.453667
 20
-0.032096
 30
0.0
 11
39.457333
 21
-0.034022
 31
0.0
  0
LINE
  5
D8
330
30
100
AcDbEntity
  8
1
100
AcDbLine
 10
39.457333
 20
-0.034022
 30
0.0
 11
39.461
 21
-0.035947
 31
0.0
  0
LINE
  5
D9
330
30
100
AcDbEntity
  8
1
100
AcDbLine
 10
39.461
 20
-0.035947
 30
0.0
 11
39.464667
 21
-0.03787
 31
0.0
  0
LINE
  5
DA
330
30
100
AcDbEntity
  8
1
100
AcDbLine
 10
39.464667
 20
-0.03787
 30
0.0
 11
39.468333
 21
-0.039791
 31
0.0
  0
LINE
  5
DB
330
30
100
AcDbEntity
  8
1
100
AcDbLine
 10
39.468333
 20
-0.039791
 30
0.0
 11
39.472
 21
-0.04171
 31
0.0
  0
LINE
  5
DC
330
30
100
AcDbEntity
  8
1
100
AcDbLine
 10
39.472
 20
-0.04171
 30
0.0
 11
39.475667
 21
-0.043627
 31
0.0
  0
LINE
  5
DD
330
30
100
AcDbEntity
  8
1
100
AcDbLine
 10
39.475667
 20
-0.043627
 30
0.0
 11
39.479333
 21
-0.045542
 31
0.0
  0
LINE
  5
DE
330
30
100
AcDbEntity
  8
1
100
AcDbLine
 10
39.479333
 20
-0.045542
 30
0.0
 11
39.483
 21
-0.047455
 31
0.0
  0
LINE
  5
DF
330
30
100
AcDbEntity
  8
1
100
AcDbLine
 10
39.483
 20
-0.047455
 30
0.0
 11
39.486667
 21
-0.049365
 31
0.0
  0
LINE
  5
E0
330
30
100
AcDbEntity
  8
1
100
AcDbLine
 10
39.486667
 20
-0.049365
 30
0.0
 11
39.490333
 21
-0.051273
 31
0.0
  0
LINE
  5
E1
330
30
100
AcDbEntity
  8
1
100
AcDbLine
 10
39.490333
 20
-0.051273
 30
0.0
 11
39.494
 21
-0.053178
 31
0.0
  0
LINE
  5
E2
330
30
100
AcDbEntity
  8
1
100
AcDbLine
 10
39.494
 20
-0.053178
 30
0.0
 11
39.497667
 21
-0.055081
 31
0.0
  0
LINE
  5
E3
330
30
100
AcDbEntity
  8
1
100
AcDbLine
 10
39.497667
 20
-0.055081
 30
0.0
 11
39.501333
 21
-0.077717
 31
0.0
  0
LINE
  5
E4
330
30
100
AcDbEntity
  8
1
100
AcDbLine
 10
39.501333
 20
-0.077717
 30
0.0
 11
39.505
 21
-0.07976
 31
0.0
  0
LINE
  5
E5
330
30
100
AcDbEntity
  8
1
100
AcDbLine
 10
39.505
 20
-0.07976
 30
0.0
 11
39.508667
 21
-0.081799
 31
0.0
  0
LINE
  5
E6
330
30
100
AcDbEntity
  8
1
100
AcDbLine
 10
39.508667
 20
-0.081799
 30
0.0
 11
39.512333
 21
-0.083833
 31
0.0
  0
LINE
  5
E7
330
30
100
AcDbEntity
  8
1
100
AcDbLine
 10
39.512333
 20
-0.083833
 30
0.0
 11
39.516
 21
-0.085864
 31
0.0
  0
LINE
  5
E8
330
30
100
AcDbEntity
  8
1
100
AcDbLine
 10
39.516
 20
-0.085864
 30
0.0
 11
39.519667
 21
-0.08789
 31
0.0
  0
LINE
  5
E9
330
30
100
AcDbEntity
  8
1
100
AcDbLine
 10
39.519667
 20
-0.08789
 30
0.0
 11
39.523333
 21
-0.089912
 31
0.0
  0
LINE
  5
EA
330
30
100
AcDbEntity
  8
1
100
AcDbLine
 10
39.523333
 20
-0.089912
 30
0.0
 11
39.527
 21
-0.091929
 31
0.0
  0
LINE
  5
EB
330
30
100
AcDbEntity
  8
1
100
AcDbLine
 10
39.527
 20
-0.091929
 30
0.0
 11
39.530667
 21
-0.093942
 31
0.0
  0
LINE
  5
EC
330
30
100
AcDbEntity
  8
1
100
AcDbLine
 10
39.530667
 20
-0.093942
 30
0.0
 11
39.534333
 21
-0.09595
 31
0.0
  0
LINE
  5
ED
330
30
100
AcDbEntity
  8
1
100
AcDbLine
 10
39.534333
 20
-0.09595
 30
0.0
 11
39.538
 21
-0.097954
 31
0.0
  0
LINE
  5
EE
330
30
100
AcDbEntity
  8
1
100
AcDbLine
 10
39.538
 20
-0.097954
 30
0.0
 11
39.541667
 21
-0.099952
 31
0.0
  0
LINE
  5
EF
330
30
100
AcDbEntity
  8
1
100
AcDbLine
 10
39.541667
 20
-0.099952
 30
0.0
 11
39.545333
 21
-0.101946
 31
0.0
  0
LINE
  5
F0
330
30
100
AcDbEntity
  8
1
100
AcDbLine
 10
39.545333
 20
-0.101946
 30
0.0
 11
39.549
 21
-0.103934
 31
0.0
  0
LINE
  5
F1
330
30
100
AcDbEntity
  8
1
100
AcDbLine
 10
39.549
 20
-0.103934
 30
0.0
 11
39.552667
 21
-0.105917
 31
0.0
  0
LINE
  5
F2
330
30
100
AcDbEntity
  8
1
100
AcDbLine
 10
39.552667
 20
-0.105917
 30
0.0
 11
39.556333
 21
-0.107895
 31
0.0
  0
LINE
  5
F3
330
30
100
AcDbEntity
  8
1
100
AcDbLine
 10
39.556333
 20
-0.107895
 30
0.0
 11
39.56
 21
-0.109868
 31
0.0
  0
LINE
  5
F4
330
30
100
AcDbEntity
  8
1
100
AcDbLine
 10
39.56
 20
-0.109868
 30
0.0
 11
39.563667
 21
-0.111835
 31
0.0
  0
LINE
  5
F5
330
30
100
AcDbEntity
  8
1
100
AcDbLine
 10
39.563667
 20
-0.111835
 30
0.0
 11
39.567333
 21
-0.113797
 31
0.0
  0
LINE
  5
F6
330
30
100
AcDbEntity
  8
1
100
AcDbLine
 10
39.567333
 20
-0.113797
 30
0.0
 11
39.571
 21
-0.115752
 31
0.0
  0
LINE
  5
F7
330
30
100
AcDbEntity
  8
1
100
AcDbLine
 10
39.571
 20
-0.115752
 30
0.0
 11
39.574667
 21
-0.117703
 31
0.0
  0
LINE
  5
F8
330
30
100
AcDbEntity
  8
1
100
AcDbLine
 10
39.574667
 20
-0.117703
 30
0.0
 11
39.578333
 21
-0.119647
 31
0.0
  0
LINE
  5
F9
330
30
100
AcDbEntity
  8
1
100
AcDbLine
 10
39.578333
 20
-0.119647
 30
0.0
 11
39.582
 21
-0.121585
 31
0.0
  0
LINE
  5
FA
330
30
100
AcDbEntity
  8
1
100
AcDbLine
 10
39.582
 20
-0.121585
 30
0.0
 11
39.585667
 21
-0.123517
 31
0.0
  0
LINE
  5
FB
330
30
100
AcDbEntity
  8
1
100
AcDbLine
 10
39.585667
 20
-0.123517
 30
0.0
 11
39.589333
 21
-0.125443
 31
0.0
  0
LINE
  5
FC
330
30
100
AcDbEntity
  8
1
100
AcDbLine
 10
39.589333
 20
-0.125443
 30
0.0
 11
39.593
 21
-0.127363
 31
0.0
  0
LINE
  5
FD
330
30
100
AcDbEntity
  8
1
100
AcDbLine
 10
39.593
 20
-0.127363
 30
0.0
 11
39.596667
 21
-0.129277
 31
0.0
  0
LINE
  5
FE
330
30
100
AcDbEntity
  8
1
100
AcDbLine
 10
39.596667
 20
-0.129277
 30
0.0
 11
39.600333
 21
-0.131184
 31
0.0
  0
LINE
  5
FF
330
30
100
AcDbEntity
  8
1
100
AcDbLine
 10
39.600333
 20
-0.131184
 30
0.0
 11
39.604
 21
-0.133084
 31
0.0
  0
LINE
  5
100
330
30
100
AcDbEntity
  8
1
100
AcDbLine
 10
39.604
 20
-0.133084
 30
0.0
 11
39.607667
 21
-0.134978
 31
0.0
  0
LINE
  5
101
330
30
100
AcDbEntity
  8
1
100
AcDbLine
 10
39.607667
 20
-0.134978
 30
0.0
 11
39.611333
 21
-0.136866
 31
0.0
  0
LINE
  5
102
330
30
100
AcDbEntity
  8
1
100
AcDbLine
 10
39.611333
 20
-0.136866
 30
0.0
 11
39.615
 21
-0.138746
 31
0.0
  0
LINE
  5
103
330
30
100
AcDbEntity
  8
1
100
AcDbLine
 10
39.615
 20
-0.138746
 30
0.0
 11
39.618667
 21
-0.140619
 31
0.0
  0
LINE
  5
104
330
30
100
AcDbEntity
  8
1
100
AcDbLine
 10
39.618667
 20
-0.140619
 30
0.0
 11
39.622333
 21
-0.142486
 31
0.0
  0
LINE
  5
105
330
30
100
AcDbEntity
  8
1
100
AcDbLine
 10
39.622333
 20
-0.142486
 30
0.0
 11
39.626
 21
-0.144345
 31
0.0
  0
LINE
  5
106
330
30
100
AcDbEntity
  8
1
100
AcDbLine
 10
39.626
 20
-0.144345
 30
0.0
 11
39.629667
 21
-0.146197
 31
0.0
  0
LINE
  5
107
330
30
100
AcDbEntity
  8
1
100
AcDbLine
 10
39.629667
 20
-0.146197
 30
0.0
 11
39.633333
 21
-0.148042
 31
0.0
  0
LINE
  5
108
330
30
100
AcDbEntity
  8
1
100
AcDbLine
 10
39.633333
 20
-0.148042
 30
0.0
 11
39.637
 21
-0.14988
 31
0.0
  0
LINE
  5
109
330
30
100
AcDbEntity
  8
1
100
AcDbLine
 10
39.637
 20
-0.14988
 30
0.0
 11
39.640667
 21
-0.15171
 31
0.0
  0
LINE
  5
10A
330
30
100
AcDbEntity
  8
1
100
AcDbLine
 10
39.640667
 20
-0.15171
 30
0.0
 11
39.644333
 21
-0.153533
 31
0.0
  0
LINE
  5
10B
330
30
100
AcDbEntity
  8
1
100
AcDbLine
 10
39.644333
 20
-0.153533
 30
0.0
 11
39.648
 21
-0.155347
 31
0.0
  0
LINE
  5
10C
330
30
100
AcDbEntity
  8
1
100
AcDbLine
 10
39.648
 20
-0.155347
 30
0.0
 11
39.651667
 21
-0.157155
 31
0.0
  0
LINE
  5
10D
330
30
100
AcDbEntity
  8
1
100
AcDbLine
 10
39.651667
 20
-0.157155
 30
0.0
 11
39.655333
 21
-0.158954
 31
0.0
  0
LINE
  5
10E
330
30
100
AcDbEntity
  8
1
100
AcDbLine
 10
39.655333
 20
-0.158954
 30
0.0
 11
39.659
 21
-0.160745
 31
0.0
  0
LINE
  5
10F
330
30
100
AcDbEntity
  8
1
100
AcDbLine
 10
39.659
 20
-0.160745
 30
0.0
 11
39.662667
 21
-0.162529
 31
0.0
  0
LINE
  5
110
330
30
100
AcDbEntity
  8
1
100
AcDbLine
 10
39.662667
 20
-0.162529
 30
0.0
 11
39.666333
 21
-0.164304
 31
0.0
  0
LINE
  5
111
330
30
100
AcDbEntity
  8
1
100
AcDbLine
 10
39.666333
 20
-0.164304
 30
0.0
 11
39.67
 21
-0.166071
 31
0.0
  0
LINE
  5
112
330
30
100
AcDbEntity
  8
1
100
AcDbLine
 10
39.67
 20
-0.166071
 30
0.0
 11
39.673667
 21
-0.16783
 31
0.0
  0
LINE
  5
113
330
30
100
AcDbEntity
  8
1
100
AcDbLine
 10
39.673667
 20
-0.16783
 30
0.0
 11
39.677333
 21
-0.16958
 31
0.0
  0
LINE
  5
114
330
30
100
AcDbEntity
  8
1
100
AcDbLine
 10
39.677333
 20
-0.16958
 30
0.0
 11
39.681
 21
-0.171322
 31
0.0
  0
LINE
  5
115
330
30
100
AcDbEntity
  8
1
100
AcDbLine
 10
39.681
 20
-0.171322
 30
0.0
 11
39.684667
 21
-0.173056
 31
0.0
  0
LINE
  5
116
330
30
100
AcDbEntity
  8
1
100
AcDbLine
 10
39.684667
 20
-0.173056
 30
0.0
 11
39.688333
 21
-0.174781
 31
0.0
  0
LINE
  5
117
330
30
100
AcDbEntity
  8
1
100
AcDbLine
 10
39.688333
 20
-0.174781
 30
0.0
 11
39.692
 21
-0.176497
 31
0.0
  0
LINE
  5
118
330
30
100
AcDbEntity
  8
1
100
AcDbLine
 10
39.692
 20
-0.176497
 30
0.0
 11
39.695667
 21
-0.178205
 31
0.0
  0
LINE
  5
119
330
30
100
AcDbEntity
  8
1
100
AcDbLine
 10
39.695667
 20
-0.178205
 30
0.0
 11
39.699333
 21
-0.179903
 31
0.0
  0
LINE
  5
11A
330
30
100
AcDbEntity
  8
1
100
AcDbLine
 10
39.699333
 20
-0.179903
 30
0.0
 11
39.703
 21
-0.181577
 31
0.0
  0
LINE
  5
11B
330
30
100
AcDbEntity
  8
1
100
AcDbLine
 10
39.703
 20
-0.181577
 30
0.0
 11
39.706667
 21
-0.183194
 31
0.0
  0
LINE
  5
11C
330
30
100
AcDbEntity
  8
1
100
AcDbLine
 10
39.706667
 20
-0.183194
 30
0.0
 11
39.710333
 21
-0.184754
 31
0.0
  0
LINE
  5
11D
330
30
100
AcDbEntity
  8
1
100
AcDbLine
 10
39.710333
 20
-0.184754
 30
0.0
 11
39.714
 21
-0.186256
 31
0.0
  0
LINE
  5
11E
330
30
100
AcDbEntity
  8
1
100
AcDbLine
 10
39.714
 20
-0.186256
 30
0.0
 11
39.717667
 21
-0.187699
 31
0.0
  0
LINE
  5
11F
330
30
100
AcDbEntity
  8
1
100
AcDbLine
 10
39.717667
 20
-0.187699
 30
0.0
 11
39.721333
 21
-0.189083
 31
0.0
  0
LINE
  5
120
330
30
100
AcDbEntity
  8
1
100
AcDbLine
 10
39.721333
 20
-0.189083
 30
0.0
 11
39.725
 21
-0.190407
 31
0.0
  0
LINE
  5
121
330
30
100
AcDbEntity
  8
1
100
AcDbLine
 10
39.725
 20
-0.190407
 30
0.0
 11
39.728667
 21
-0.19167
 31
0.0
  0
LINE
  5
122
330
30
100
AcDbEntity
  8
1
100
AcDbLine
 10
39.728667
 20
-0.19167
 30
0.0
 11
39.732333
 21
-0.192873
 31
0.0
  0
LINE
  5
123
330
30
100
AcDbEntity
  8
1
100
AcDbLine
 10
39.732333
 20
-0.192873
 30
0.0
 11
39.736
 21
-0.194014
 31
0.0
  0
LINE
  5
124
330
30
100
AcDbEntity
  8
1
100
AcDbLine
 10
39.736
 20
-0.194014
 30
0.0
 11
39.739667
 21
-0.195092
 31
0.0
  0
LINE
  5
125
330
30
100
AcDbEntity
  8
1
100
AcDbLine
 10
39.739667
 20
-0.195092
 30
0.0
 11
39.743333
 21
-0.196108
 31
0.0
  0
LINE
  5
126
330
30
100
AcDbEntity
  8
1
100
AcDbLine
 10
39.743333
 20
-0.196108
 30
0.0
 11
39.747
 21
-0.19706
 31
0.0
  0
LINE
  5
127
330
30
100
AcDbEntity
  8
1
100
AcDbLine
 10
39.747
 20
-0.19706
 30
0.0
 11
39.750667
 21
-0.197947
 31
0.0
  0
LINE
  5
128
330
30
100
AcDbEntity
  8
1
100
AcDbLine
 10
39.750667
 20
-0.197947
 30
0.0
 11
39.754333
 21
-0.198769
 31
0.0
  0
LINE
  5
129
330
30
100
AcDbEntity
  8
1
100
AcDbLine
 10
39.754333
 20
-0.198769
 30
0.0
 11
39.758
 21
-0.199525
 31
0.0
  0
LINE
  5
12A
330
30
100
AcDbEntity
  8
1
100
AcDbLine
 10
39.758
 20
-0.199525
 30
0.0
 11
39.761667
 21
-0.200214
 31
0.0
  0
LINE
  5
12B
330
30
100
AcDbEntity
  8
1
100
AcDbLine
 10
39.761667
 20
-0.200214
 30
0.0
 11
39.765333
 21
-0.200835
 31
0.0
  0
LINE
  5
12C
330
30
100
AcDbEntity
  8
1
100
AcDbLine
 10
39.765333
 20
-0.200835
 30
0.0
 11
39.769
 21
-0.201388
 31
0.0
  0
LINE
  5
12D
330
30
100
AcDbEntity
  8
1
100
AcDbLine
 10
39.769
 20
-0.201388
 30
0.0
 11
39.772667
 21
-0.201871
 31
0.0
  0
LINE
  5
12E
330
30
100
AcDbEntity
  8
1
100
AcDbLine
 10
39.772667
 20
-0.201871
 30
0.0
 11
39.776333
 21
-0.202284
 31
0.0
  0
LINE
  5
12F
330
30
100
AcDbEntity
  8
1
100
AcDbLine
 10
39.776333
 20
-0.202284
 30
0.0
 11
39.78
 21
-0.202625
 31
0.0
  0
LINE
  5
130
330
30
100
AcDbEntity
  8
1
100
AcDbLine
 10
39.78
 20
-0.202625
 30
0.0
 11
39.783667
 21
-0.202894
 31
0.0
  0
LINE
  5
131
330
30
100
AcDbEntity
  8
1
100
AcDbLine
 10
39.783667
 20
-0.202894
 30
0.0
 11
39.787333
 21
-0.203089
 31
0.0
  0
LINE
  5
132
330
30
100
AcDbEntity
  8
1
100
AcDbLine
 10
39.787333
 20
-0.203089
 30
0.0
 11
39.791
 21
-0.20321
 31
0.0
  0
LINE
  5
133
330
30
100
AcDbEntity
  8
1
100
AcDbLine
 10
39.791
 20
-0.20321
 30
0.0
 11
39.794667
 21
-0.203255
 31
0.0
  0
LINE
  5
134
330
30
100
AcDbEntity
  8
1
100
AcDbLine
 10
39.794667
 20
-0.203255
 30
0.0
 11
39.798333
 21
-0.203223
 31
0.0
  0
LINE
  5
135
330
30
100
AcDbEntity
  8
1
100
AcDbLine
 10
39.798333
 20
-0.203223
 30
0.0
 11
39.802
 21
-0.203112
 31
0.0
  0
LINE
  5
136
330
30
100
AcDbEntity
  8
1
100
AcDbLine
 10
39.802
 20
-0.203112
 30
0.0
 11
39.805667
 21
-0.202922
 31
0.0
  0
LINE
  5
137
330
30
100
AcDbEntity
  8
1
100
AcDbLine
 10
39.805667
 20
-0.202922
 30
0.0
 11
39.809333
 21
-0.20265
 31
0.0
  0
LINE
  5
138
330
30
100
AcDbEntity
  8
1
100
AcDbLine
 10
39.809333
 20
-0.20265
 30
0.0
 11
39.813
 21
-0.202296
 31
0.0
  0
LINE
  5
139
330
30
100
AcDbEntity
  8
1
100
AcDbLine
 10
39.813
 20
-0.202296
 30
0.0
 11
39.816667
 21
-0.201858
 31
0.0
  0
LINE
  5
13A
330
30
100
AcDbEntity
  8
1
100
AcDbLine
 10
39.816667
 20
-0.201858
 30
0.0
 11
39.820333
 21
-0.201333
 31
0.0
  0
LINE
  5
13B
330
30
100
AcDbEntity
  8
1
100
AcDbLine
 10
39.820333
 20
-0.201333
 30
0.0
 11
39.824
 21
-0.20072
 31
0.0
  0
LINE
  5
13C
330
30
100
AcDbEntity
  8
1
100
AcDbLine
 10
39.824
 20
-0.20072
 30
0.0
 11
39.827667
 21
-0.200018
 31
0.0
  0
LINE
  5
13D
330
30
100
AcDbEntity
  8
1
100
AcDbLine
 10
39.827667
 20
-0.200018
 30
0.0
 11
39.831333
 21
-0.199224
 31
0.0
  0
LINE
  5
13E
330
30
100
AcDbEntity
  8
1
100
AcDbLine
 10
39.831333
 20
-0.199224
 30
0.0
 11
39.835
 21
-0.198335
 31
0.0
  0
LINE
  5
13F
330
30
100
AcDbEntity
  8
1
100
AcDbLine
 10
39.835
 20
-0.198335
 30
0.0
 11
39.838667
 21
-0.19735
 31
0.0
  0
LINE
  5
140
330
30
100
AcDbEntity
  8
1
100
AcDbLine
 10
39.838667
 20
-0.19735
 30
0.0
 11
39.842333
 21
-0.196266
 31
0.0
  0
LINE
  5
141
330
30
100
AcDbEntity
  8
1
100
AcDbLine
 10
39.842333
 20
-0.196266
 30
0.0
 11
39.846
 21
-0.195081
 31
0.0
  0
LINE
  5
142
330
30
100
AcDbEntity
  8
1
100
AcDbLine
 10
39.846
 20
-0.195081
 30
0.0
 11
39.849667
 21
-0.19379
 31
0.0
  0
LINE
  5
143
330
30
100
AcDbEntity
  8
1
100
AcDbLine
 10
39.849667
 20
-0.19379
 30
0.0
 11
39.853333
 21
-0.192392
 31
0.0
  0
LINE
  5
144
330
30
100
AcDbEntity
  8
1
100
AcDbLine
 10
39.853333
 20
-0.192392
 30
0.0
 11
39.857
 21
-0.190882
 31
0.0
  0
LINE
  5
145
330
30
100
AcDbEntity
  8
1
100
AcDbLine
 10
39.857
 20
-0.190882
 30
0.0
 11
39.860667
 21
-0.189256
 31
0.0
  0
LINE
  5
146
330
30
100
AcDbEntity
  8
1
100
AcDbLine
 10
39.860667
 20
-0.189256
 30
0.0
 11
39.864333
 21
-0.187512
 31
0.0
  0
LINE
  5
147
330
30
100
AcDbEntity
  8
1
100
AcDbLine
 10
39.864333
 20
-0.187512
 30
0.0
 11
39.868
 21
-0.185643
 31
0.0
  0
LINE
  5
148
330
30
100
AcDbEntity
  8
1
100
AcDbLine
 10
39.868
 20
-0.185643
 30
0.0
 11
39.871667
 21
-0.183646
 31
0.0
  0
LINE
  5
149
330
30
100
AcDbEntity
  8
1
100
AcDbLine
 10
39.871667
 20
-0.183646
 30
0.0
 11
39.875333
 21
-0.181513
 31
0.0
  0
LINE
  5
14A
330
30
100
AcDbEntity
  8
1
100
AcDbLine
 10
39.875333
 20
-0.181513
 30
0.0
 11
39.879
 21
-0.179241
 31
0.0
  0
LINE
  5
14B
330
30
100
AcDbEntity
  8
1
100
AcDbLine
 10
39.879
 20
-0.179241
 30
0.0
 11
39.882667
 21
-0.17682
 31
0.0
  0
LINE
  5
14C
330
30
100
AcDbEntity
  8
1
100
AcDbLine
 10
39.882667
 20
-0.17682
 30
0.0
 11
39.886333
 21
-0.174245
 31
0.0
  0
LINE
  5
14D
330
30
100
AcDbEntity
  8
1
100
AcDbLine
 10
39.886333
 20
-0.174245
 30
0.0
 11
39.89
 21
-0.171505
 31
0.0
  0
LINE
  5
14E
330
30
100
AcDbEntity
  8
1
100
AcDbLine
 10
39.89
 20
-0.171505
 30
0.0
 11
39.893667
 21
-0.168592
 31
0.0
  0
LINE
  5
14F
330
30
100
AcDbEntity
  8
1
100
AcDbLine
 10
39.893667
 20
-0.168592
 30
0.0
 11
39.897333
 21
-0.165494
 31
0.0
  0
LINE
  5
150
330
30
100
AcDbEntity
  8
1
100
AcDbLine
 10
39.897333
 20
-0.165494
 30
0.0
 11
39.901
 21
-0.162198
 31
0.0
  0
LINE
  5
151
330
30
100
AcDbEntity
  8
1
100
AcDbLine
 10
39.901
 20
-0.162198
 30
0.0
 11
39.904667
 21
-0.158689
 31
0.0
  0
LINE
  5
152
330
30
100
AcDbEntity
  8
1
100
AcDbLine
 10
39.904667
 20
-0.158689
 30
0.0
 11
39.908333
 21
-0.154951
 31
0.0
  0
LINE
  5
153
330
30
100
AcDbEntity
  8
1
100
AcDbLine
 10
39.908333
 20
-0.154951
 30
0.0
 11
39.912
 21
-0.150961
 31
0.0
  0
LINE
  5
154
330
30
100
AcDbEntity
  8
1
100
AcDbLine
 10
39.912
 20
-0.150961
 30
0.0
 11
39.915667
 21
-0.146696
 31
0.0
  0
LINE
  5
155
330
30
100
AcDbEntity
  8
1
100
AcDbLine
 10
39.915667
 20
-0.146696
 30
0.0
 11
39.919333
 21
-0.142126
 31
0.0
  0
LINE
  5
156
330
30
100
AcDbEntity
  8
1
100
AcDbLine
 10
39.919333
 20
-0.142126
 30
0.0
 11
39.923
 21
-0.137213
 31
0.0
  0
LINE
  5
157
330
30
100
AcDbEntity
  8
1
100
AcDbLine
 10
39.923
 20
-0.137213
 30
0.0
 11
39.926667
 21
-0.131912
 31
0.0
  0
LINE
  5
158
330
30
100
AcDbEntity
  8
1
100
AcDbLine
 10
39.926667
 20
-0.131912
 30
0.0
 11
39.930333
 21
-0.126163
 31
0.0
  0
LINE
  5
159
330
30
100
AcDbEntity
  8
1
100
AcDbLine
 10
39.930333
 20
-0.126163
 30
0.0
 11
39.934
 21
-0.119887
 31
0.0
  0
LINE
  5
15A
330
30
100
AcDbEntity
  8
1
100
AcDbLine
 10
39.934
 20
-0.119887
 30
0.0
 11
39.937667
 21
-0.112976
 31
0.0
  0
LINE
  5
15B
330
30
100
AcDbEntity
  8
1
100
AcDbLine
 10
39.937667
 20
-0.112976
 30
0.0
 11
39.941333
 21
-0.105275
 31
0.0
  0
LINE
  5
15C
330
30
100
AcDbEntity
  8
1
100
AcDbLine
 10
39.941333
 20
-0.105275
 30
0.0
 11
39.945
 21
-0.096549
 31
0.0
  0
LINE
  5
15D
330
30
100
AcDbEntity
  8
1
100
AcDbLine
 10
39.945
 20
-0.096549
 30
0.0
 11
39.948667
 21
-0.0864
 31
0.0
  0
LINE
  5
15E
330
30
100
AcDbEntity
  8
1
100
AcDbLine
 10
39.948667
 20
-0.0864
 30
0.0
 11
39.952333
 21
-0.074064
 31
0.0
  0
LINE
  5
15F
330
30
100
AcDbEntity
  8
1
100
AcDbLine
 10
39.952333
 20
-0.074064
 30
0.0
 11
39.956
 21
-0.057598
 31
0.0
  0
LINE
  5
160
330
30
100
AcDbEntity
  8
1
100
AcDbLine
 10
39.956
 20
-0.057598
 30
0.0
 11
39.959667
 21
-0.023031
 31
0.0
  0
LINE
  5
161
330
30
100
AcDbEntity
  8
1
100
AcDbLine
 10
39.959667
 20
-0.023031
 30
0.0
 11
39.959667
 21
0.149183
 31
0.0
  0
LINE
  5
162
330
30
100
AcDbEntity
  8
1
100
AcDbLine
 10
39.959667
 20
0.149183
 30
0.0
 11
39.956211
 21
0.156064
 31
0.0
  0
LINE
  5
163
330
30
100
AcDbEntity
  8
1
100
AcDbLine
 10
39.959667
 20
0.149183
 30
0.0
 11
39.959667
 21
-0.023031
 31
0.0
  0
LINE
  5
164
330
30
100
AcDbEntity
  8
1
100
AcDbLine
 10
39.959667
 20
-0.147515
 30
0.0
 11
39.956
 21
-0.150991
 31
0.0
  0
LINE
  5
165
330
30
100
AcDbEntity
  8
1
100
AcDbLine
 10
39.956
 20
-0.150991
 30
0.0
 11
39.952333
 21
-0.154907
 31
0.0
  0
LINE
  5
166
330
30
100
AcDbEntity
  8
1
100
AcDbLine
 10
39.952333
 20
-0.154907
 30
0.0
 11
39.948667
 21
-0.158856
 31
0.0
  0
LINE
  5
167
330
30
100
AcDbEntity
  8
1
100
AcDbLine
 10
39.948667
 20
-0.158856
 30
0.0
 11
39.945
 21
-0.162773
 31
0.0
  0
LINE
  5
168
330
30
100
AcDbEntity
  8
1
100
AcDbLine
 10
39.945
 20
-0.162773
 30
0.0
 11
39.941333
 21
-0.16664
 31
0.0
  0
LINE
  5
169
330
30
100
AcDbEntity
  8
1
100
AcDbLine
 10
39.941333
 20
-0.16664
 30
0.0
 11
39.937667
 21
-0.170439
 31
0.0
  0
LINE
  5
16A
330
30
100
AcDbEntity
  8
1
100
AcDbLine
 10
39.937667
 20
-0.170439
 30
0.0
 11
39.934
 21
-0.17417
 31
0.0
  0
LINE
  5
16B
330
30
100
AcDbEntity
  8
1
100
AcDbLine
 10
39.934
 20
-0.17417
 30
0.0
 11
39.930333
 21
-0.177828
 31
0.0
  0
LINE
  5
16C
330
30
100
AcDbEntity
  8
1
100
AcDbLine
 10
39.930333
 20
-0.177828
 30
0.0
 11
39.926667
 21
-0.181412
 31
0.0
  0
LINE
  5
16D
330
30
100
AcDbEntity
  8
1
100
AcDbLine
 10
39.926667
 20
-0.181412
 30
0.0
 11
39.923
 21
-0.184925
 31
0.0
  0
LINE
  5
16E
330
30
100
AcDbEntity
  8
1
100
AcDbLine
 10
39.923
 20
-0.184925
 30
0.0
 11
39.919333
 21
-0.188368
 31
0.0
  0
LINE
  5
16F
330
30
100
AcDbEntity
  8
1
100
AcDbLine
 10
39.919333
 20
-0.188368
 30
0.0
 11
39.915667
 21
-0.191741
 31
0.0
  0
LINE
  5
170
330
30
100
AcDbEntity
  8
1
100
AcDbLine
 10
39.915667
 20
-0.191741
 30
0.0
 11
39.912
 21
-0.195046
 31
0.0
  0
LINE
  5
171
330
30
100
AcDbEntity
  8
1
100
AcDbLine
 10
39.912
 20
-0.195046
 30
0.0
 11
39.908333
 21
-0.198262
 31
0.0
  0
LINE
  5
172
330
30
100
AcDbEntity
  8
1
100
AcDbLine
 10
39.908333
 20
-0.198262
 30
0.0
 11
39.904667
 21
-0.201341
 31
0.0
  0
LINE
  5
173
330
30
100
AcDbEntity
  8
1
100
AcDbLine
 10
39.904667
 20
-0.201341
 30
0.0
 11
39.901
 21
-0.204283
 31
0.0
  0
LINE
  5
174
330
30
100
AcDbEntity
  8
1
100
AcDbLine
 10
39.901
 20
-0.204283
 30
0.0
 11
39.897333
 21
-0.207095
 31
0.0
  0
LINE
  5
175
330
30
100
AcDbEntity
  8
1
100
AcDbLine
 10
39.897333
 20
-0.207095
 30
0.0
 11
39.893667
 21
-0.20978
 31
0.0
  0
LINE
  5
176
330
30
100
AcDbEntity
  8
1
100
AcDbLine
 10
39.893667
 20
-0.20978
 30
0.0
 11
39.89
 21
-0.212344
 31
0.0
  0
LINE
  5
177
330
30
100
AcDbEntity
  8
1
100
AcDbLine
 10
39.89
 20
-0.212344
 30
0.0
 11
39.886333
 21
-0.21479
 31
0.0
  0
LINE
  5
178
330
30
100
AcDbEntity
  8
1
100
AcDbLine
 10
39.886333
 20
-0.21479
 30
0.0
 11
39.882667
 21
-0.217123
 31
0.0
  0
LINE
  5
179
330
30
100
AcDbEntity
  8
1
100
AcDbLine
 10
39.882667
 20
-0.217123
 30
0.0
 11
39.879
 21
-0.219347
 31
0.0
  0
LINE
  5
17A
330
30
100
AcDbEntity
  8
1
100
AcDbLine
 10
39.879
 20
-0.219347
 30
0.0
 11
39.875333
 21
-0.221464
 31
0.0
  0
LINE
  5
17B
330
30
100
AcDbEntity
  8
1
100
AcDbLine
 10
39.875333
 20
-0.221464
 30
0.0
 11
39.871667
 21
-0.223478
 31
0.0
  0
LINE
  5
17C
330
30
100
AcDbEntity
  8
1
100
AcDbLine
 10
39.871667
 20
-0.223478
 30
0.0
 11
39.868
 21
-0.225391
 31
0.0
  0
LINE
  5
17D
330
30
100
AcDbEntity
  8
1
100
AcDbLine
 10
39.868
 20
-0.225391
 30
0.0
 11
39.864333
 21
-0.227205
 31
0.0
  0
LINE
  5
17E
330
30
100
AcDbEntity
  8
1
100
AcDbLine
 10
39.864333
 20
-0.227205
 30
0.0
 11
39.860667
 21
-0.228924
 31
0.0
  0
LINE
  5
17F
330
30
100
AcDbEntity
  8
1
100
AcDbLine
 10
39.860667
 20
-0.228924
 30
0.0
 11
39.857
 21
-0.23055
 31
0.0
  0
LINE
  5
180
330
30
100
AcDbEntity
  8
1
100
AcDbLine
 10
39.857
 20
-0.23055
 30
0.0
 11
39.853333
 21
-0.232085
 31
0.0
  0
LINE
  5
181
330
30
100
AcDbEntity
  8
1
100
AcDbLine
 10
39.853333
 20
-0.232085
 30
0.0
 11
39.849667
 21
-0.23353
 31
0.0
  0
LINE
  5
182
330
30
100
AcDbEntity
  8
1
100
AcDbLine
 10
39.849667
 20
-0.23353
 30
0.0
 11
39.846
 21
-0.234887
 31
0.0
  0
LINE
  5
183
330
30
100
AcDbEntity
  8
1
100
AcDbLine
 10
39.846
 20
-0.234887
 30
0.0
 11
39.842333
 21
-0.236159
 31
0.0
  0
LINE
  5
184
330
30
100
AcDbEntity
  8
1
100
AcDbLine
 10
39.842333
 20
-0.236159
 30
0.0
 11
39.838667
 21
-0.237346
 31
0.0
  0
LINE
  5
185
330
30
100
AcDbEntity
  8
1
100
AcDbLine
 10
39.838667
 20
-0.237346
 30
0.0
 11
39.835
 21
-0.238451
 31
0.0
  0
LINE
  5
186
330
30
100
AcDbEntity
  8
1
100
AcDbLine
 10
39.835
 20
-0.238451
 30
0.0
 11
39.831333
 21
-0.239475
 31
0.0
  0
LINE
  5
187
330
30
100
AcDbEntity
  8
1
100
AcDbLine
 10
39.831333
 20
-0.239475
 30
0.0
 11
39.827667
 21
-0.240419
 31
0.0
  0
LINE
  5
188
330
30
100
AcDbEntity
  8
1
100
AcDbLine
 10
39.827667
 20
-0.240419
 30
0.0
 11
39.824
 21
-0.241285
 31
0.0
  0
LINE
  5
189
330
30
100
AcDbEntity
  8
1
100
AcDbLine
 10
39.824
 20
-0.241285
 30
0.0
 11
39.820333
 21
-0.242073
 31
0.0
  0
LINE
  5
18A
330
30
100
AcDbEntity
  8
1
100
AcDbLine
 10
39.820333
 20
-0.242073
 30
0.0
 11
39.816667
 21
-0.242786
 31
0.0
  0
LINE
  5
18B
330
30
100
AcDbEntity
  8
1
100
AcDbLine
 10
39.816667
 20
-0.242786
 30
0.0
 11
39.813
 21
-0.243423
 31
0.0
  0
LINE
  5
18C
330
30
100
AcDbEntity
  8
1
100
AcDbLine
 10
39.813
 20
-0.243423
 30
0.0
 11
39.809333
 21
-0.243987
 31
0.0
  0
LINE
  5
18D
330
30
100
AcDbEntity
  8
1
100
AcDbLine
 10
39.809333
 20
-0.243987
 30
0.0
 11
39.805667
 21
-0.244478
 31
0.0
  0
LINE
  5
18E
330
30
100
AcDbEntity
  8
1
100
AcDbLine
 10
39.805667
 20
-0.244478
 30
0.0
 11
39.802
 21
-0.244897
 31
0.0
  0
LINE
  5
18F
330
30
100
AcDbEntity
  8
1
100
AcDbLine
 10
39.802
 20
-0.244897
 30
0.0
 11
39.798333
 21
-0.245246
 31
0.0
  0
LINE
  5
190
330
30
100
AcDbEntity
  8
1
100
AcDbLine
 10
39.798333
 20
-0.245246
 30
0.0
 11
39.794667
 21
-0.245524
 31
0.0
  0
LINE
  5
191
330
30
100
AcDbEntity
  8
1
100
AcDbLine
 10
39.794667
 20
-0.245524
 30
0.0
 11
39.791
 21
-0.245734
 31
0.0
  0
LINE
  5
192
330
30
100
AcDbEntity
  8
1
100
AcDbLine
 10
39.791
 20
-0.245734
 30
0.0
 11
39.787333
 21
-0.245875
 31
0.0
  0
LINE
  5
193
330
30
100
AcDbEntity
  8
1
100
AcDbLine
 10
39.787333
 20
-0.245875
 30
0.0
 11
39.783667
 21
-0.245949
 31
0.0
  0
LINE
  5
194
330
30
100
AcDbEntity
  8
1
100
AcDbLine
 10
39.783667
 20
-0.245949
 30
0.0
 11
39.78
 21
-0.245957
 31
0.0
  0
LINE
  5
195
330
30
100
AcDbEntity
  8
1
100
AcDbLine
 10
39.78
 20
-0.245957
 30
0.0
 11
39.776333
 21
-0.245898
 31
0.0
  0
LINE
  5
196
330
30
100
AcDbEntity
  8
1
100
AcDbLine
 10
39.776333
 20
-0.245898
 30
0.0
 11
39.772667
 21
-0.245775
 31
0.0
  0
LINE
  5
197
330
30
100
AcDbEntity
  8
1
100
AcDbLine
 10
39.772667
 20
-0.245775
 30
0.0
 11
39.769
 21
-0.245587
 31
0.0
  0
LINE
  5
198
330
30
100
AcDbEntity
  8
1
100
AcDbLine
 10
39.769
 20
-0.245587
 30
0.0
 11
39.765333
 21
-0.245336
 31
0.0
  0
LINE
  5
199
330
30
100
AcDbEntity
  8
1
100
AcDbLine
 10
39.765333
 20
-0.245336
 30
0.0
 11
39.761667
 21
-0.245022
 31
0.0
  0
LINE
  5
19A
330
30
100
AcDbEntity
  8
1
100
AcDbLine
 10
39.761667
 20
-0.245022
 30
0.0
 11
39.758
 21
-0.244646
 31
0.0
  0
LINE
  5
19B
330
30
100
AcDbEntity
  8
1
100
AcDbLine
 10
39.758
 20
-0.244646
 30
0.0
 11
39.754333
 21
-0.244208
 31
0.0
  0
LINE
  5
19C
330
30
100
AcDbEntity
  8
1
100
AcDbLine
 10
39.754333
 20
-0.244208
 30
0.0
 11
39.750667
 21
-0.243709
 31
0.0
  0
LINE
  5
19D
330
30
100
AcDbEntity
  8
1
100
AcDbLine
 10
39.750667
 20
-0.243709
 30
0.0
 11
39.747
 21
-0.243149
 31
0.0
  0
LINE
  5
19E
330
30
100
AcDbEntity
  8
1
100
AcDbLine
 10
39.747
 20
-0.243149
 30
0.0
 11
39.743333
 21
-0.24253
 31
0.0
  0
LINE
  5
19F
330
30
100
AcDbEntity
  8
1
100
AcDbLine
 10
39.743333
 20
-0.24253
 30
0.0
 11
39.739667
 21
-0.241852
 31
0.0
  0
LINE
  5
1A0
330
30
100
AcDbEntity
  8
1
100
AcDbLine
 10
39.739667
 20
-0.241852
 30
0.0
 11
39.736
 21
-0.241115
 31
0.0
  0
LINE
  5
1A1
330
30
100
AcDbEntity
  8
1
100
AcDbLine
 10
39.736
 20
-0.241115
 30
0.0
 11
39.732333
 21
-0.24032
 31
0.0
  0
LINE
  5
1A2
330
30
100
AcDbEntity
  8
1
100
AcDbLine
 10
39.732333
 20
-0.24032
 30
0.0
 11
39.728667
 21
-0.239468
 31
0.0
  0
LINE
  5
1A3
330
30
100
AcDbEntity
  8
1
100
AcDbLine
 10
39.728667
 20
-0.239468
 30
0.0
 11
39.725
 21
-0.238559
 31
0.0
  0
LINE
  5
1A4
330
30
100
AcDbEntity
  8
1
100
AcDbLine
 10
39.725
 20
-0.238559
 30
0.0
 11
39.721333
 21
-0.237593
 31
0.0
  0
LINE
  5
1A5
330
30
100
AcDbEntity
  8
1
100
AcDbLine
 10
39.721333
 20
-0.237593
 30
0.0
 11
39.717667
 21
-0.236572
 31
0.0
  0
LINE
  5
1A6
330
30
100
AcDbEntity
  8
1
100
AcDbLine
 10
39.717667
 20
-0.236572
 30
0.0
 11
39.714
 21
-0.235495
 31
0.0
  0
LINE
  5
1A7
330
30
100
AcDbEntity
  8
1
100
AcDbLine
 10
39.714
 20
-0.235495
 30
0.0
 11
39.710333
 21
-0.234363
 31
0.0
  0
LINE
  5
1A8
330
30
100
AcDbEntity
  8
1
100
AcDbLine
 10
39.710333
 20
-0.234363
 30
0.0
 11
39.706667
 21
-0.233177
 31
0.0
  0
LINE
  5
1A9
330
30
100
AcDbEntity
  8
1
100
AcDbLine
 10
39.706667
 20
-0.233177
 30
0.0
 11
39.703
 21
-0.231937
 31
0.0
  0
LINE
  5
1AA
330
30
100
AcDbEntity
  8
1
100
AcDbLine
 10
39.703
 20
-0.231937
 30
0.0
 11
39.699333
 21
-0.230645
 31
0.0
  0
LINE
  5
1AB
330
30
100
AcDbEntity
  8
1
100
AcDbLine
 10
39.699333
 20
-0.230645
 30
0.0
 11
39.695667
 21
-0.229327
 31
0.0
  0
LINE
  5
1AC
330
30
100
AcDbEntity
  8
1
100
AcDbLine
 10
39.695667
 20
-0.229327
 30
0.0
 11
39.692
 21
-0.227998
 31
0.0
  0
LINE
  5
1AD
330
30
100
AcDbEntity
  8
1
100
AcDbLine
 10
39.692
 20
-0.227998
 30
0.0
 11
39.688333
 21
-0.226657
 31
0.0
  0
LINE
  5
1AE
330
30
100
AcDbEntity
  8
1
100
AcDbLine
 10
39.688333
 20
-0.226657
 30
0.0
 11
39.684667
 21
-0.225305
 31
0.0
  0
LINE
  5
1AF
330
30
100
AcDbEntity
  8
1
100
AcDbLine
 10
39.684667
 20
-0.225305
 30
0.0
 11
39.681
 21
-0.223942
 31
0.0
  0
LINE
  5
1B0
330
30
100
AcDbEntity
  8
1
100
AcDbLine
 10
39.681
 20
-0.223942
 30
0.0
 11
39.677333
 21
-0.222567
 31
0.0
  0
LINE
  5
1B1
330
30
100
AcDbEntity
  8
1
100
AcDbLine
 10
39.677333
 20
-0.222567
 30
0.0
 11
39.673667
 21
-0.221182
 31
0.0
  0
LINE
  5
1B2
330
30
100
AcDbEntity
  8
1
100
AcDbLine
 10
39.673667
 20
-0.221182
 30
0.0
 11
39.67
 21
-0.219786
 31
0.0
  0
LINE
  5
1B3
330
30
100
AcDbEntity
  8
1
100
AcDbLine
 10
39.67
 20
-0.219786
 30
0.0
 11
39.666333
 21
-0.218378
 31
0.0
  0
LINE
  5
1B4
330
30
100
AcDbEntity
  8
1
100
AcDbLine
 10
39.666333
 20
-0.218378
 30
0.0
 11
39.662667
 21
-0.21696
 31
0.0
  0
LINE
  5
1B5
330
30
100
AcDbEntity
  8
1
100
AcDbLine
 10
39.662667
 20
-0.21696
 30
0.0
 11
39.659
 21
-0.215531
 31
0.0
  0
LINE
  5
1B6
330
30
100
AcDbEntity
  8
1
100
AcDbLine
 10
39.659
 20
-0.215531
 30
0.0
 11
39.655333
 21
-0.214091
 31
0.0
  0
LINE
  5
1B7
330
30
100
AcDbEntity
  8
1
100
AcDbLine
 10
39.655333
 20
-0.214091
 30
0.0
 11
39.651667
 21
-0.212641
 31
0.0
  0
LINE
  5
1B8
330
30
100
AcDbEntity
  8
1
100
AcDbLine
 10
39.651667
 20
-0.212641
 30
0.0
 11
39.648
 21
-0.21118
 31
0.0
  0
LINE
  5
1B9
330
30
100
AcDbEntity
  8
1
100
AcDbLine
 10
39.648
 20
-0.21118
 30
0.0
 11
39.644333
 21
-0.209708
 31
0.0
  0
LINE
  5
1BA
330
30
100
AcDbEntity
  8
1
100
AcDbLine
 10
39.644333
 20
-0.209708
 30
0.0
 11
39.640667
 21
-0.208226
 31
0.0
  0
LINE
  5
1BB
330
30
100
AcDbEntity
  8
1
100
AcDbLine
 10
39.640667
 20
-0.208226
 30
0.0
 11
39.637
 21
-0.206734
 31
0.0
  0
LINE
  5
1BC
330
30
100
AcDbEntity
  8
1
100
AcDbLine
 10
39.637
 20
-0.206734
 30
0.0
 11
39.633333
 21
-0.205231
 31
0.0
  0
LINE
  5
1BD
330
30
100
AcDbEntity
  8
1
100
AcDbLine
 10
39.633333
 20
-0.205231
 30
0.0
 11
39.629667
 21
-0.203718
 31
0.0
  0
LINE
  5
1BE
330
30
100
AcDbEntity
  8
1
100
AcDbLine
 10
39.629667
 20
-0.203718
 30
0.0
 11
39.626
 21
-0.202195
 31
0.0
  0
LINE
  5
1BF
330
30
100
AcDbEntity
  8
1
100
AcDbLine
 10
39.626
 20
-0.202195
 30
0.0
 11
39.622333
 21
-0.200662
 31
0.0
  0
LINE
  5
1C0
330
30
100
AcDbEntity
  8
1
100
AcDbLine
 10
39.622333
 20
-0.200662
 30
0.0
 11
39.618667
 21
-0.199119
 31
0.0
  0
LINE
  5
1C1
330
30
100
AcDbEntity
  8
1
100
AcDbLine
 10
39.618667
 20
-0.199119
 30
0.0
 11
39.615
 21
-0.197566
 31
0.0
  0
LINE
  5
1C2
330
30
100
AcDbEntity
  8
1
100
AcDbLine
 10
39.615
 20
-0.197566
 30
0.0
 11
39.611333
 21
-0.196004
 31
0.0
  0
LINE
  5
1C3
330
30
100
AcDbEntity
  8
1
100
AcDbLine
 10
39.611333
 20
-0.196004
 30
0.0
 11
39.607667
 21
-0.194431
 31
0.0
  0
LINE
  5
1C4
330
30
100
AcDbEntity
  8
1
100
AcDbLine
 10
39.607667
 20
-0.194431
 30
0.0
 11
39.604
 21
-0.192849
 31
0.0
  0
LINE
  5
1C5
330
30
100
AcDbEntity
  8
1
100
AcDbLine
 10
39.604
 20
-0.192849
 30
0.0
 11
39.600333
 21
-0.191257
 31
0.0
  0
LINE
  5
1C6
330
30
100
AcDbEntity
  8
1
100
AcDbLine
 10
39.600333
 20
-0.191257
 30
0.0
 11
39.596667
 21
-0.189656
 31
0.0
  0
LINE
  5
1C7
330
30
100
AcDbEntity
  8
1
100
AcDbLine
 10
39.596667
 20
-0.189656
 30
0.0
 11
39.593
 21
-0.188045
 31
0.0
  0
LINE
  5
1C8
330
30
100
AcDbEntity
  8
1
100
AcDbLine
 10
39.593
 20
-0.188045
 30
0.0
 11
39.589333
 21
-0.186425
 31
0.0
  0
LINE
  5
1C9
330
30
100
AcDbEntity
  8
1
100
AcDbLine
 10
39.589333
 20
-0.186425
 30
0.0
 11
39.585667
 21
-0.184795
 31
0.0
  0
LINE
  5
1CA
330
30
100
AcDbEntity
  8
1
100
AcDbLine
 10
39.585667
 20
-0.184795
 30
0.0
 11
39.582
 21
-0.183156
 31
0.0
  0
LINE
  5
1CB
330
30
100
AcDbEntity
  8
1
100
AcDbLine
 10
39.582
 20
-0.183156
 30
0.0
 11
39.578333
 21
-0.181509
 31
0.0
  0
LINE
  5
1CC
330
30
100
AcDbEntity
  8
1
100
AcDbLine
 10
39.578333
 20
-0.181509
 30
0.0
 11
39.574667
 21
-0.179852
 31
0.0
  0
LINE
  5
1CD
330
30
100
AcDbEntity
  8
1
100
AcDbLine
 10
39.574667
 20
-0.179852
 30
0.0
 11
39.571
 21
-0.178186
 31
0.0
  0
LINE
  5
1CE
330
30
100
AcDbEntity
  8
1
100
AcDbLine
 10
39.571
 20
-0.178186
 30
0.0
 11
39.567333
 21
-0.176511
 31
0.0
  0
LINE
  5
1CF
330
30
100
AcDbEntity
  8
1
100
AcDbLine
 10
39.567333
 20
-0.176511
 30
0.0
 11
39.563667
 21
-0.174828
 31
0.0
  0
LINE
  5
1D0
330
30
100
AcDbEntity
  8
1
100
AcDbLine
 10
39.563667
 20
-0.174828
 30
0.0
 11
39.56
 21
-0.173136
 31
0.0
  0
LINE
  5
1D1
330
30
100
AcDbEntity
  8
1
100
AcDbLine
 10
39.56
 20
-0.173136
 30
0.0
 11
39.556333
 21
-0.171435
 31
0.0
  0
LINE
  5
1D2
330
30
100
AcDbEntity
  8
1
100
AcDbLine
 10
39.556333
 20
-0.171435
 30
0.0
 11
39.552667
 21
-0.169726
 31
0.0
  0
LINE
  5
1D3
330
30
100
AcDbEntity
  8
1
100
AcDbLine
 10
39.552667
 20
-0.169726
 30
0.0
 11
39.549
 21
-0.168008
 31
0.0
  0
LINE
  5
1D4
330
30
100
AcDbEntity
  8
1
100
AcDbLine
 10
39.549
 20
-0.168008
 30
0.0
 11
39.545333
 21
-0.166282
 31
0.0
  0
LINE
  5
1D5
330
30
100
AcDbEntity
  8
1
100
AcDbLine
 10
39.545333
 20
-0.166282
 30
0.0
 11
39.541667
 21
-0.164547
 31
0.0
  0
LINE
  5
1D6
330
30
100
AcDbEntity
  8
1
100
AcDbLine
 10
39.541667
 20
-0.164547
 30
0.0
 11
39.538
 21
-0.162805
 31
0.0
  0
LINE
  5
1D7
330
30
100
AcDbEntity
  8
1
100
AcDbLine
 10
39.538
 20
-0.162805
 30
0.0
 11
39.534333
 21
-0.161054
 31
0.0
  0
LINE
  5
1D8
330
30
100
AcDbEntity
  8
1
100
AcDbLine
 10
39.534333
 20
-0.161054
 30
0.0
 11
39.530667
 21
-0.159295
 31
0.0
  0
LINE
  5
1D9
330
30
100
AcDbEntity
  8
1
100
AcDbLine
 10
39.530667
 20
-0.159295
 30
0.0
 11
39.527
 21
-0.157529
 31
0.0
  0
LINE
  5
1DA
330
30
100
AcDbEntity
  8
1
100
AcDbLine
 10
39.527
 20
-0.157529
 30
0.0
 11
39.523333
 21
-0.155754
 31
0.0
  0
LINE
  5
1DB
330
30
100
AcDbEntity
  8
1
100
AcDbLine
 10
39.523333
 20
-0.155754
 30
0.0
 11
39.519667
 21
-0.153972
 31
0.0
  0
LINE
  5
1DC
330
30
100
AcDbEntity
  8
1
100
AcDbLine
 10
39.519667
 20
-0.153972
 30
0.0
 11
39.516
 21
-0.152182
 31
0.0
  0
LINE
  5
1DD
330
30
100
AcDbEntity
  8
1
100
AcDbLine
 10
39.516
 20
-0.152182
 30
0.0
 11
39.512333
 21
-0.150385
 31
0.0
  0
LINE
  5
1DE
330
30
100
AcDbEntity
  8
1
100
AcDbLine
 10
39.512333
 20
-0.150385
 30
0.0
 11
39.508667
 21
-0.14858
 31
0.0
  0
LINE
  5
1DF
330
30
100
AcDbEntity
  8
1
100
AcDbLine
 10
39.508667
 20
-0.14858
 30
0.0
 11
39.505
 21
-0.146767
 31
0.0
  0
LINE
  5
1E0
330
30
100
AcDbEntity
  8
1
100
AcDbLine
 10
39.505
 20
-0.146767
 30
0.0
 11
39.501333
 21
-0.144947
 31
0.0
  0
LINE
  5
1E1
330
30
100
AcDbEntity
  8
1
100
AcDbLine
 10
39.5
 20
-0.275
 30
0.0
 11
39.5
 21
0.275
 31
0.0
  0
LINE
  5
1E2
330
30
100
AcDbEntity
  8
1
100
AcDbLine
 10
39.5
 20
0.3
 30
0.0
 11
39.5
 21
-0.3
 31
0.0
  0
LINE
  5
1E3
330
30
100
AcDbEntity
  8
1
100
AcDbLine
 10
39.7
 20
0.3
 30
0.0
 11
39.7
 21
-0.3
 31
0.0
  0
LINE
  5
1E4
330
30
100
AcDbEntity
  8
1
100
AcDbLine
 10
39.956211
 20
-0.156064
 30
0.0
 11
39.956
 21
-0.156406
 31
0.0
  0
LINE
  5
1E5
330
30
100
AcDbEntity
  8
1
100
AcDbLine
 10
39.956
 20
-0.156406
 30
0.0
 11
39.952333
 21
-0.161944
 31
0.0
  0
LINE
  5
1E6
330
30
100
AcDbEntity
  8
1
100
AcDbLine
 10
39.952333
 20
-0.161944
 30
0.0
 11
39.948667
 21
-0.166987
 31
0.0
  0
LINE
  5
1E7
330
30
100
AcDbEntity
  8
1
100
AcDbLine
 10
39.948667
 20
-0.166987
 30
0.0
 11
39.945
 21
-0.171714
 31
0.0
  0
LINE
  5
1E8
330
30
100
AcDbEntity
  8
1
100
AcDbLine
 10
39.945
 20
-0.171714
 30
0.0
 11
39.941333
 21
-0.176207
 31
0.0
  0
LINE
  5
1E9
330
30
100
AcDbEntity
  8
1
100
AcDbLine
 10
39.941333
 20
-0.176207
 30
0.0
 11
39.937667
 21
-0.180504
 31
0.0
  0
LINE
  5
1EA
330
30
100
AcDbEntity
  8
1
100
AcDbLine
 10
39.937667
 20
-0.180504
 30
0.0
 11
39.934
 21
-0.184638
 31
0.0
  0
LINE
  5
1EB
330
30
100
AcDbEntity
  8
1
100
AcDbLine
 10
39.934
 20
-0.184638
 30
0.0
 11
39.930333
 21
-0.188624
 31
0.0
  0
LINE
  5
1EC
330
30
100
AcDbEntity
  8
1
100
AcDbLine
 10
39.930333
 20
-0.188624
 30
0.0
 11
39.926667
 21
-0.192479
 31
0.0
  0
LINE
  5
1ED
330
30
100
AcDbEntity
  8
1
100
AcDbLine
 10
39.926667
 20
-0.192479
 30
0.0
 11
39.923
 21
-0.196214
 31
0.0
  0
LINE
  5
1EE
330
30
100
AcDbEntity
  8
1
100
AcDbLine
 10
39.923
 20
-0.196214
 30
0.0
 11
39.919333
 21
-0.19984
 31
0.0
  0
LINE
  5
1EF
330
30
100
AcDbEntity
  8
1
100
AcDbLine
 10
39.919333
 20
-0.19984
 30
0.0
 11
39.915667
 21
-0.203362
 31
0.0
  0
LINE
  5
1F0
330
30
100
AcDbEntity
  8
1
100
AcDbLine
 10
39.915667
 20
-0.203362
 30
0.0
 11
39.912
 21
-0.206788
 31
0.0
  0
LINE
  5
1F1
330
30
100
AcDbEntity
  8
1
100
AcDbLine
 10
39.912
 20
-0.206788
 30
0.0
 11
39.908333
 21
-0.210109
 31
0.0
  0
LINE
  5
1F2
330
30
100
AcDbEntity
  8
1
100
AcDbLine
 10
39.908333
 20
-0.210109
 30
0.0
 11
39.904667
 21
-0.213296
 31
0.0
  0
LINE
  5
1F3
330
30
100
AcDbEntity
  8
1
100
AcDbLine
 10
39.904667
 20
-0.213296
 30
0.0
 11
39.901
 21
-0.216352
 31
0.0
  0
LINE
  5
1F4
330
30
100
AcDbEntity
  8
1
100
AcDbLine
 10
39.901
 20
-0.216352
 30
0.0
 11
39.897333
 21
-0.219282
 31
0.0
  0
LINE
  5
1F5
330
30
100
AcDbEntity
  8
1
100
AcDbLine
 10
39.897333
 20
-0.219282
 30
0.0
 11
39.893667
 21
-0.222089
 31
0.0
  0
LINE
  5
1F6
330
30
100
AcDbEntity
  8
1
100
AcDbLine
 10
39.893667
 20
-0.222089
 30
0.0
 11
39.89
 21
-0.224779
 31
0.0
  0
LINE
  5
1F7
330
30
100
AcDbEntity
  8
1
100
AcDbLine
 10
39.89
 20
-0.224779
 30
0.0
 11
39.886333
 21
-0.227356
 31
0.0
  0
LINE
  5
1F8
330
30
100
AcDbEntity
  8
1
100
AcDbLine
 10
39.886333
 20
-0.227356
 30
0.0
 11
39.882667
 21
-0.229822
 31
0.0
  0
LINE
  5
1F9
330
30
100
AcDbEntity
  8
1
100
AcDbLine
 10
39.882667
 20
-0.229822
 30
0.0
 11
39.879
 21
-0.232182
 31
0.0
  0
LINE
  5
1FA
330
30
100
AcDbEntity
  8
1
100
AcDbLine
 10
39.879
 20
-0.232182
 30
0.0
 11
39.875333
 21
-0.234437
 31
0.0
  0
LINE
  5
1FB
330
30
100
AcDbEntity
  8
1
100
AcDbLine
 10
39.875333
 20
-0.234437
 30
0.0
 11
39.871667
 21
-0.236592
 31
0.0
  0
LINE
  5
1FC
330
30
100
AcDbEntity
  8
1
100
AcDbLine
 10
39.871667
 20
-0.236592
 30
0.0
 11
39.868
 21
-0.238648
 31
0.0
  0
LINE
  5
1FD
330
30
100
AcDbEntity
  8
1
100
AcDbLine
 10
39.868
 20
-0.238648
 30
0.0
 11
39.864333
 21
-0.240608
 31
0.0
  0
LINE
  5
1FE
330
30
100
AcDbEntity
  8
1
100
AcDbLine
 10
39.864333
 20
-0.240608
 30
0.0
 11
39.860667
 21
-0.242474
 31
0.0
  0
LINE
  5
1FF
330
30
100
AcDbEntity
  8
1
100
AcDbLine
 10
39.860667
 20
-0.242474
 30
0.0
 11
39.857
 21
-0.244248
 31
0.0
  0
LINE
  5
200
330
30
100
AcDbEntity
  8
1
100
AcDbLine
 10
39.857
 20
-0.244248
 30
0.0
 11
39.853333
 21
-0.245933
 31
0.0
  0
LINE
  5
201
330
30
100
AcDbEntity
  8
1
100
AcDbLine
 10
39.853333
 20
-0.245933
 30
0.0
 11
39.849667
 21
-0.247529
 31
0.0
  0
LINE
  5
202
330
30
100
AcDbEntity
  8
1
100
AcDbLine
 10
39.849667
 20
-0.247529
 30
0.0
 11
39.846
 21
-0.24904
 31
0.0
  0
LINE
  5
203
330
30
100
AcDbEntity
  8
1
100
AcDbLine
 10
39.846
 20
-0.24904
 30
0.0
 11
39.842333
 21
-0.250465
 31
0.0
  0
LINE
  5
204
330
30
100
AcDbEntity
  8
1
100
AcDbLine
 10
39.842333
 20
-0.250465
 30
0.0
 11
39.838667
 21
-0.251808
 31
0.0
  0
LINE
  5
205
330
30
100
AcDbEntity
  8
1
100
AcDbLine
 10
39.838667
 20
-0.251808
 30
0.0
 11
39.835
 21
-0.253069
 31
0.0
  0
LINE
  5
206
330
30
100
AcDbEntity
  8
1
100
AcDbLine
 10
39.835
 20
-0.253069
 30
0.0
 11
39.831333
 21
-0.254249
 31
0.0
  0
LINE
  5
207
330
30
100
AcDbEntity
  8
1
100
AcDbLine
 10
39.831333
 20
-0.254249
 30
0.0
 11
39.827667
 21
-0.255351
 31
0.0
  0
LINE
  5
208
330
30
100
AcDbEntity
  8
1
100
AcDbLine
 10
39.827667
 20
-0.255351
 30
0.0
 11
39.824
 21
-0.256375
 31
0.0
  0
LINE
  5
209
330
30
100
AcDbEntity
  8
1
100
AcDbLine
 10
39.824
 20
-0.256375
 30
0.0
 11
39.820333
 21
-0.257322
 31
0.0
  0
LINE
  5
20A
330
30
100
AcDbEntity
  8
1
100
AcDbLine
 10
39.820333
 20
-0.257322
 30
0.0
 11
39.816667
 21
-0.258194
 31
0.0
  0
LINE
  5
20B
330
30
100
AcDbEntity
  8
1
100
AcDbLine
 10
39.816667
 20
-0.258194
 30
0.0
 11
39.813
 21
-0.258991
 31
0.0
  0
LINE
  5
20C
330
30
100
AcDbEntity
  8
1
100
AcDbLine
 10
39.813
 20
-0.258991
 30
0.0
 11
39.809333
 21
-0.259715
 31
0.0
  0
LINE
  5
20D
330
30
100
AcDbEntity
  8
1
100
AcDbLine
 10
39.809333
 20
-0.259715
 30
0.0
 11
39.805667
 21
-0.260367
 31
0.0
  0
LINE
  5
20E
330
30
100
AcDbEntity
  8
1
100
AcDbLine
 10
39.805667
 20
-0.260367
 30
0.0
 11
39.802
 21
-0.260947
 31
0.0
  0
LINE
  5
20F
330
30
100
AcDbEntity
  8
1
100
AcDbLine
 10
39.802
 20
-0.260947
 30
0.0
 11
39.798333
 21
-0.261456
 31
0.0
  0
LINE
  5
210
330
30
100
AcDbEntity
  8
1
100
AcDbLine
 10
39.798333
 20
-0.261456
 30
0.0
 11
39.794667
 21
-0.261896
 31
0.0
  0
LINE
  5
211
330
30
100
AcDbEntity
  8
1
100
AcDbLine
 10
39.794667
 20
-0.261896
 30
0.0
 11
39.791
 21
-0.262267
 31
0.0
  0
LINE
  5
212
330
30
100
AcDbEntity
  8
1
100
AcDbLine
 10
39.791
 20
-0.262267
 30
0.0
 11
39.787333
 21
-0.26257
 31
0.0
  0
LINE
  5
213
330
30
100
AcDbEntity
  8
1
100
AcDbLine
 10
39.787333
 20
-0.26257
 30
0.0
 11
39.783667
 21
-0.262806
 31
0.0
  0
LINE
  5
214
330
30
100
AcDbEntity
  8
1
100
AcDbLine
 10
39.783667
 20
-0.262806
 30
0.0
 11
39.78
 21
-0.262975
 31
0.0
  0
LINE
  5
215
330
30
100
AcDbEntity
  8
1
100
AcDbLine
 10
39.78
 20
-0.262975
 30
0.0
 11
39.776333
 21
-0.263078
 31
0.0
  0
LINE
  5
216
330
30
100
AcDbEntity
  8
1
100
AcDbLine
 10
39.776333
 20
-0.263078
 30
0.0
 11
39.772667
 21
-0.263117
 31
0.0
  0
LINE
  5
217
330
30
100
AcDbEntity
  8
1
100
AcDbLine
 10
39.772667
 20
-0.263117
 30
0.0
 11
39.769
 21
-0.263091
 31
0.0
  0
LINE
  5
218
330
30
100
AcDbEntity
  8
1
100
AcDbLine
 10
39.769
 20
-0.263091
 30
0.0
 11
39.765333
 21
-0.263001
 31
0.0
  0
LINE
  5
219
330
30
100
AcDbEntity
  8
1
100
AcDbLine
 10
39.765333
 20
-0.263001
 30
0.0
 11
39.761667
 21
-0.262848
 31
0.0
  0
LINE
  5
21A
330
30
100
AcDbEntity
  8
1
100
AcDbLine
 10
39.761667
 20
-0.262848
 30
0.0
 11
39.758
 21
-0.262633
 31
0.0
  0
LINE
  5
21B
330
30
100
AcDbEntity
  8
1
100
AcDbLine
 10
39.758
 20
-0.262633
 30
0.0
 11
39.754333
 21
-0.262356
 31
0.0
  0
LINE
  5
21C
330
30
100
AcDbEntity
  8
1
100
AcDbLine
 10
39.754333
 20
-0.262356
 30
0.0
 11
39.750667
 21
-0.262017
 31
0.0
  0
LINE
  5
21D
330
30
100
AcDbEntity
  8
1
100
AcDbLine
 10
39.750667
 20
-0.262017
 30
0.0
 11
39.747
 21
-0.261618
 31
0.0
  0
LINE
  5
21E
330
30
100
AcDbEntity
  8
1
100
AcDbLine
 10
39.747
 20
-0.261618
 30
0.0
 11
39.743333
 21
-0.261159
 31
0.0
  0
LINE
  5
21F
330
30
100
AcDbEntity
  8
1
100
AcDbLine
 10
39.743333
 20
-0.261159
 30
0.0
 11
39.739667
 21
-0.260641
 31
0.0
  0
LINE
  5
220
330
30
100
AcDbEntity
  8
1
100
AcDbLine
 10
39.739667
 20
-0.260641
 30
0.0
 11
39.736
 21
-0.260063
 31
0.0
  0
LINE
  5
221
330
30
100
AcDbEntity
  8
1
100
AcDbLine
 10
39.736
 20
-0.260063
 30
0.0
 11
39.732333
 21
-0.259428
 31
0.0
  0
LINE
  5
222
330
30
100
AcDbEntity
  8
1
100
AcDbLine
 10
39.732333
 20
-0.259428
 30
0.0
 11
39.728667
 21
-0.258734
 31
0.0
  0
LINE
  5
223
330
30
100
AcDbEntity
  8
1
100
AcDbLine
 10
39.728667
 20
-0.258734
 30
0.0
 11
39.725
 21
-0.257983
 31
0.0
  0
LINE
  5
224
330
30
100
AcDbEntity
  8
1
100
AcDbLine
 10
39.725
 20
-0.257983
 30
0.0
 11
39.721333
 21
-0.257175
 31
0.0
  0
LINE
  5
225
330
30
100
AcDbEntity
  8
1
100
AcDbLine
 10
39.721333
 20
-0.257175
 30
0.0
 11
39.717667
 21
-0.256311
 31
0.0
  0
LINE
  5
226
330
30
100
AcDbEntity
  8
1
100
AcDbLine
 10
39.717667
 20
-0.256311
 30
0.0
 11
39.714
 21
-0.255391
 31
0.0
  0
LINE
  5
227
330
30
100
AcDbEntity
  8
1
100
AcDbLine
 10
39.714
 20
-0.255391
 30
0.0
 11
39.710333
 21
-0.254416
 31
0.0
  0
LINE
  5
228
330
30
100
AcDbEntity
  8
1
100
AcDbLine
 10
39.710333
 20
-0.254416
 30
0.0
 11
39.706667
 21
-0.253385
 31
0.0
  0
LINE
  5
229
330
30
100
AcDbEntity
  8
1
100
AcDbLine
 10
39.706667
 20
-0.253385
 30
0.0
 11
39.703
 21
-0.252301
 31
0.0
  0
LINE
  5
22A
330
30
100
AcDbEntity
  8
1
100
AcDbLine
 10
39.703
 20
-0.252301
 30
0.0
 11
39.699333
 21
-0.251163
 31
0.0
  0
LINE
  5
22B
330
30
100
AcDbEntity
  8
1
100
AcDbLine
 10
39.699333
 20
-0.251163
 30
0.0
 11
39.695667
 21
-0.249999
 31
0.0
  0
LINE
  5
22C
330
30
100
AcDbEntity
  8
1
100
AcDbLine
 10
39.695667
 20
-0.249999
 30
0.0
 11
39.692
 21
-0.248823
 31
0.0
  0
LINE
  5
22D
330
30
100
AcDbEntity
  8
1
100
AcDbLine
 10
39.692
 20
-0.248823
 30
0.0
 11
39.688333
 21
-0.247634
 31
0.0
  0
LINE
  5
22E
330
30
100
AcDbEntity
  8
1
100
AcDbLine
 10
39.688333
 20
-0.247634
 30
0.0
 11
39.684667
 21
-0.246433
 31
0.0
  0
LINE
  5
22F
330
30
100
AcDbEntity
  8
1
100
AcDbLine
 10
39.684667
 20
-0.246433
 30
0.0
 11
39.681
 21
-0.24522
 31
0.0
  0
LINE
  5
230
330
30
100
AcDbEntity
  8
1
100
AcDbLine
 10
39.681
 20
-0.24522
 30
0.0
 11
39.677333
 21
-0.243994
 31
0.0
  0
LINE
  5
231
330
30
100
AcDbEntity
  8
1
100
AcDbLine
 10
39.677333
 20
-0.243994
 30
0.0
 11
39.673667
 21
-0.242756
 31
0.0
  0
LINE
  5
232
330
30
100
AcDbEntity
  8
1
100
AcDbLine
 10
39.673667
 20
-0.242756
 30
0.0
 11
39.67
 21
-0.241506
 31
0.0
  0
LINE
  5
233
330
30
100
AcDbEntity
  8
1
100
AcDbLine
 10
39.67
 20
-0.241506
 30
0.0
 11
39.666333
 21
-0.240244
 31
0.0
  0
LINE
  5
234
330
30
100
AcDbEntity
  8
1
100
AcDbLine
 10
39.666333
 20
-0.240244
 30
0.0
 11
39.662667
 21
-0.238971
 31
0.0
  0
LINE
  5
235
330
30
100
AcDbEntity
  8
1
100
AcDbLine
 10
39.662667
 20
-0.238971
 30
0.0
 11
39.659
 21
-0.237685
 31
0.0
  0
LINE
  5
236
330
30
100
AcDbEntity
  8
1
100
AcDbLine
 10
39.659
 20
-0.237685
 30
0.0
 11
39.655333
 21
-0.236387
 31
0.0
  0
LINE
  5
237
330
30
100
AcDbEntity
  8
1
100
AcDbLine
 10
39.655333
 20
-0.236387
 30
0.0
 11
39.651667
 21
-0.235078
 31
0.0
  0
LINE
  5
238
330
30
100
AcDbEntity
  8
1
100
AcDbLine
 10
39.651667
 20
-0.235078
 30
0.0
 11
39.648
 21
-0.233757
 31
0.0
  0
LINE
  5
239
330
30
100
AcDbEntity
  8
1
100
AcDbLine
 10
39.648
 20
-0.233757
 30
0.0
 11
39.644333
 21
-0.232424
 31
0.0
  0
LINE
  5
23A
330
30
100
AcDbEntity
  8
1
100
AcDbLine
 10
39.644333
 20
-0.232424
 30
0.0
 11
39.640667
 21
-0.23108
 31
0.0
  0
LINE
  5
23B
330
30
100
AcDbEntity
  8
1
100
AcDbLine
 10
39.640667
 20
-0.23108
 30
0.0
 11
39.637
 21
-0.229724
 31
0.0
  0
LINE
  5
23C
330
30
100
AcDbEntity
  8
1
100
AcDbLine
 10
39.637
 20
-0.229724
 30
0.0
 11
39.633333
 21
-0.228357
 31
0.0
  0
LINE
  5
23D
330
30
100
AcDbEntity
  8
1
100
AcDbLine
 10
39.633333
 20
-0.228357
 30
0.0
 11
39.629667
 21
-0.226978
 31
0.0
  0
LINE
  5
23E
330
30
100
AcDbEntity
  8
1
100
AcDbLine
 10
39.629667
 20
-0.226978
 30
0.0
 11
39.626
 21
-0.225589
 31
0.0
  0
LINE
  5
23F
330
30
100
AcDbEntity
  8
1
100
AcDbLine
 10
39.626
 20
-0.225589
 30
0.0
 11
39.622333
 21
-0.224187
 31
0.0
  0
LINE
  5
240
330
30
100
AcDbEntity
  8
1
100
AcDbLine
 10
39.622333
 20
-0.224187
 30
0.0
 11
39.618667
 21
-0.222775
 31
0.0
  0
LINE
  5
241
330
30
100
AcDbEntity
  8
1
100
AcDbLine
 10
39.618667
 20
-0.222775
 30
0.0
 11
39.615
 21
-0.221352
 31
0.0
  0
LINE
  5
242
330
30
100
AcDbEntity
  8
1
100
AcDbLine
 10
39.615
 20
-0.221352
 30
0.0
 11
39.611333
 21
-0.219917
 31
0.0
  0
LINE
  5
243
330
30
100
AcDbEntity
  8
1
100
AcDbLine
 10
39.611333
 20
-0.219917
 30
0.0
 11
39.607667
 21
-0.218472
 31
0.0
  0
LINE
  5
244
330
30
100
AcDbEntity
  8
1
100
AcDbLine
 10
39.607667
 20
-0.218472
 30
0.0
 11
39.604
 21
-0.217016
 31
0.0
  0
LINE
  5
245
330
30
100
AcDbEntity
  8
1
100
AcDbLine
 10
39.604
 20
-0.217016
 30
0.0
 11
39.600333
 21
-0.215549
 31
0.0
  0
LINE
  5
246
330
30
100
AcDbEntity
  8
1
100
AcDbLine
 10
39.600333
 20
-0.215549
 30
0.0
 11
39.596667
 21
-0.214071
 31
0.0
  0
LINE
  5
247
330
30
100
AcDbEntity
  8
1
100
AcDbLine
 10
39.596667
 20
-0.214071
 30
0.0
 11
39.593
 21
-0.212583
 31
0.0
  0
LINE
  5
248
330
30
100
AcDbEntity
  8
1
100
AcDbLine
 10
39.593
 20
-0.212583
 30
0.0
 11
39.589333
 21
-0.211084
 31
0.0
  0
LINE
  5
249
330
30
100
AcDbEntity
  8
1
100
AcDbLine
 10
39.589333
 20
-0.211084
 30
0.0
 11
39.585667
 21
-0.209574
 31
0.0
  0
LINE
  5
24A
330
30
100
AcDbEntity
  8
1
100
AcDbLine
 10
39.585667
 20
-0.209574
 30
0.0
 11
39.582
 21
-0.208054
 31
0.0
  0
LINE
  5
24B
330
30
100
AcDbEntity
  8
1
100
AcDbLine
 10
39.582
 20
-0.208054
 30
0.0
 11
39.578333
 21
-0.206524
 31
0.0
  0
LINE
  5
24C
330
30
100
AcDbEntity
  8
1
100
AcDbLine
 10
39.578333
 20
-0.206524
 30
0.0
 11
39.574667
 21
-0.204983
 31
0.0
  0
LINE
  5
24D
330
30
100
AcDbEntity
  8
1
100
AcDbLine
 10
39.574667
 20
-0.204983
 30
0.0
 11
39.571
 21
-0.203432
 31
0.0
  0
LINE
  5
24E
330
30
100
AcDbEntity
  8
1
100
AcDbLine
 10
39.571
 20
-0.203432
 30
0.0
 11
39.567333
 21
-0.201872
 31
0.0
  0
LINE
  5
24F
330
30
100
AcDbEntity
  8
1
100
AcDbLine
 10
39.567333
 20
-0.201872
 30
0.0
 11
39.563667
 21
-0.200301
 31
0.0
  0
LINE
  5
250
330
30
100
AcDbEntity
  8
1
100
AcDbLine
 10
39.563667
 20
-0.200301
 30
0.0
 11
39.56
 21
-0.19872
 31
0.0
  0
LINE
  5
251
330
30
100
AcDbEntity
  8
1
100
AcDbLine
 10
39.56
 20
-0.19872
 30
0.0
 11
39.556333
 21
-0.197129
 31
0.0
  0
LINE
  5
252
330
30
100
AcDbEntity
  8
1
100
AcDbLine
 10
39.556333
 20
-0.197129
 30
0.0
 11
39.552667
 21
-0.195528
 31
0.0
  0
LINE
  5
253
330
30
100
AcDbEntity
  8
1
100
AcDbLine
 10
39.552667
 20
-0.195528
 30
0.0
 11
39.549
 21
-0.193918
 31
0.0
  0
LINE
  5
254
330
30
100
AcDbEntity
  8
1
100
AcDbLine
 10
39.549
 20
-0.193918
 30
0.0
 11
39.545333
 21
-0.192298
 31
0.0
  0
LINE
  5
255
330
30
100
AcDbEntity
  8
1
100
AcDbLine
 10
39.545333
 20
-0.192298
 30
0.0
 11
39.541667
 21
-0.190668
 31
0.0
  0
LINE
  5
256
330
30
100
AcDbEntity
  8
1
100
AcDbLine
 10
39.541667
 20
-0.190668
 30
0.0
 11
39.538
 21
-0.189029
 31
0.0
  0
LINE
  5
257
330
30
100
AcDbEntity
  8
1
100
AcDbLine
 10
39.538
 20
-0.189029
 30
0.0
 11
39.534333
 21
-0.18738
 31
0.0
  0
LINE
  5
258
330
30
100
AcDbEntity
  8
1
100
AcDbLine
 10
39.534333
 20
-0.18738
 30
0.0
 11
39.530667
 21
-0.185722
 31
0.0
  0
LINE
  5
259
330
30
100
AcDbEntity
  8
1
100
AcDbLine
 10
39.530667
 20
-0.185722
 30
0.0
 11
39.527
 21
-0.184055
 31
0.0
  0
LINE
  5
25A
330
30
100
AcDbEntity
  8
1
100
AcDbLine
 10
39.527
 20
-0.184055
 30
0.0
 11
39.523333
 21
-0.182379
 31
0.0
  0
LINE
  5
25B
330
30
100
AcDbEntity
  8
1
100
AcDbLine
 10
39.523333
 20
-0.182379
 30
0.0
 11
39.519667
 21
-0.180694
 31
0.0
  0
LINE
  5
25C
330
30
100
AcDbEntity
  8
1
100
AcDbLine
 10
39.519667
 20
-0.180694
 30
0.0
 11
39.516
 21
-0.178999
 31
0.0
  0
LINE
  5
25D
330
30
100
AcDbEntity
  8
1
100
AcDbLine
 10
39.516
 20
-0.178999
 30
0.0
 11
39.512333
 21
-0.177296
 31
0.0
  0
LINE
  5
25E
330
30
100
AcDbEntity
  8
1
100
AcDbLine
 10
39.512333
 20
-0.177296
 30
0.0
 11
39.508667
 21
-0.175584
 31
0.0
  0
LINE
  5
25F
330
30
100
AcDbEntity
  8
1
100
AcDbLine
 10
39.508667
 20
-0.175584
 30
0.0
 11
39.505
 21
-0.173863
 31
0.0
  0
LINE
  5
260
330
30
100
AcDbEntity
  8
1
100
AcDbLine
 10
39.505
 20
-0.173863
 30
0.0
 11
39.501333
 21
-0.172134
 31
0.0
  0
LINE
  5
261
330
30
100
AcDbEntity
  8
1
100
AcDbLine
 10
39.501333
 20
-0.172134
 30
0.0
 11
39.497667
 21
-0.153289
 31
0.0
  0
LINE
  5
262
330
30
100
AcDbEntity
  8
1
100
AcDbLine
 10
39.497667
 20
-0.153289
 30
0.0
 11
39.494
 21
-0.151674
 31
0.0
  0
LINE
  5
263
330
30
100
AcDbEntity
  8
1
100
AcDbLine
 10
39.494
 20
-0.151674
 30
0.0
 11
39.490333
 21
-0.150051
 31
0.0
  0
LINE
  5
264
330
30
100
AcDbEntity
  8
1
100
AcDbLine
 10
39.490333
 20
-0.150051
 30
0.0
 11
39.486667
 21
-0.148421
 31
0.0
  0
LINE
  5
265
330
30
100
AcDbEntity
  8
1
100
AcDbLine
 10
39.486667
 20
-0.148421
 30
0.0
 11
39.483
 21
-0.146784
 31
0.0
  0
LINE
  5
266
330
30
100
AcDbEntity
  8
1
100
AcDbLine
 10
39.483
 20
-0.146784
 30
0.0
 11
39.479333
 21
-0.145139
 31
0.0
  0
LINE
  5
267
330
30
100
AcDbEntity
  8
1
100
AcDbLine
 10
39.479333
 20
-0.145139
 30
0.0
 11
39.475667
 21
-0.143488
 31
0.0
  0
LINE
  5
268
330
30
100
AcDbEntity
  8
1
100
AcDbLine
 10
39.475667
 20
-0.143488
 30
0.0
 11
39.472
 21
-0.141829
 31
0.0
  0
LINE
  5
269
330
30
100
AcDbEntity
  8
1
100
AcDbLine
 10
39.472
 20
-0.141829
 30
0.0
 11
39.468333
 21
-0.140163
 31
0.0
  0
LINE
  5
26A
330
30
100
AcDbEntity
  8
1
100
AcDbLine
 10
39.468333
 20
-0.140163
 30
0.0
 11
39.464667
 21
-0.138489
 31
0.0
  0
LINE
  5
26B
330
30
100
AcDbEntity
  8
1
100
AcDbLine
 10
39.464667
 20
-0.138489
 30
0.0
 11
39.461
 21
-0.13681
 31
0.0
  0
LINE
  5
26C
330
30
100
AcDbEntity
  8
1
100
AcDbLine
 10
39.461
 20
-0.13681
 30
0.0
 11
39.457333
 21
-0.135123
 31
0.0
  0
LINE
  5
26D
330
30
100
AcDbEntity
  8
1
100
AcDbLine
 10
39.457333
 20
-0.135123
 30
0.0
 11
39.453667
 21
-0.133429
 31
0.0
  0
LINE
  5
26E
330
30
100
AcDbEntity
  8
1
100
AcDbLine
 10
39.453667
 20
-0.133429
 30
0.0
 11
39.45
 21
-0.131729
 31
0.0
  0
LINE
  5
26F
330
30
100
AcDbEntity
  8
1
100
AcDbLine
 10
39.45
 20
-0.131729
 30
0.0
 11
39.446333
 21
-0.130023
 31
0.0
  0
LINE
  5
270
330
30
100
AcDbEntity
  8
1
100
AcDbLine
 10
39.446333
 20
-0.130023
 30
0.0
 11
39.442667
 21
-0.128309
 31
0.0
  0
LINE
  5
271
330
30
100
AcDbEntity
  8
1
100
AcDbLine
 10
39.442667
 20
-0.128309
 30
0.0
 11
39.439
 21
-0.12659
 31
0.0
  0
LINE
  5
272
330
30
100
AcDbEntity
  8
1
100
AcDbLine
 10
39.439
 20
-0.12659
 30
0.0
 11
39.435333
 21
-0.124864
 31
0.0
  0
LINE
  5
273
330
30
100
AcDbEntity
  8
1
100
AcDbLine
 10
39.435333
 20
-0.124864
 30
0.0
 11
39.431667
 21
-0.123132
 31
0.0
  0
LINE
  5
274
330
30
100
AcDbEntity
  8
1
100
AcDbLine
 10
39.431667
 20
-0.123132
 30
0.0
 11
39.428
 21
-0.121394
 31
0.0
  0
LINE
  5
275
330
30
100
AcDbEntity
  8
1
100
AcDbLine
 10
39.428
 20
-0.121394
 30
0.0
 11
39.424333
 21
-0.119649
 31
0.0
  0
LINE
  5
276
330
30
100
AcDbEntity
  8
1
100
AcDbLine
 10
39.424333
 20
-0.119649
 30
0.0
 11
39.420667
 21
-0.117899
 31
0.0
  0
LINE
  5
277
330
30
100
AcDbEntity
  8
1
100
AcDbLine
 10
39.420667
 20
-0.117899
 30
0.0
 11
39.417
 21
-0.116143
 31
0.0
  0
LINE
  5
278
330
30
100
AcDbEntity
  8
1
100
AcDbLine
 10
39.417
 20
-0.116143
 30
0.0
 11
39.413333
 21
-0.114381
 31
0.0
  0
LINE
  5
279
330
30
100
AcDbEntity
  8
1
100
AcDbLine
 10
39.413333
 20
-0.114381
 30
0.0
 11
39.409667
 21
-0.112614
 31
0.0
  0
LINE
  5
27A
330
30
100
AcDbEntity
  8
1
100
AcDbLine
 10
39.409667
 20
-0.112614
 30
0.0
 11
39.406
 21
-0.110841
 31
0.0
  0
LINE
  5
27B
330
30
100
AcDbEntity
  8
1
100
AcDbLine
 10
39.406
 20
-0.110841
 30
0.0
 11
39.402333
 21
-0.109062
 31
0.0
  0
LINE
  5
27C
330
30
100
AcDbEntity
  8
1
100
AcDbLine
 10
39.402333
 20
-0.109062
 30
0.0
 11
39.398667
 21
-0.107278
 31
0.0
  0
LINE
  5
27D
330
30
100
AcDbEntity
  8
1
100
AcDbLine
 10
39.398667
 20
-0.107278
 30
0.0
 11
39.395
 21
-0.105488
 31
0.0
  0
LINE
  5
27E
330
30
100
AcDbEntity
  8
1
100
AcDbLine
 10
39.395
 20
-0.105488
 30
0.0
 11
39.391333
 21
-0.103694
 31
0.0
  0
LINE
  5
27F
330
30
100
AcDbEntity
  8
1
100
AcDbLine
 10
39.391333
 20
-0.103694
 30
0.0
 11
39.387667
 21
-0.101894
 31
0.0
  0
LINE
  5
280
330
30
100
AcDbEntity
  8
1
100
AcDbLine
 10
39.387667
 20
-0.101894
 30
0.0
 11
39.384
 21
-0.100089
 31
0.0
  0
LINE
  5
281
330
30
100
AcDbEntity
  8
1
100
AcDbLine
 10
39.384
 20
-0.100089
 30
0.0
 11
39.380333
 21
-0.098279
 31
0.0
  0
LINE
  5
282
330
30
100
AcDbEntity
  8
1
100
AcDbLine
 10
39.380333
 20
-0.098279
 30
0.0
 11
39.376667
 21
-0.096464
 31
0.0
  0
LINE
  5
283
330
30
100
AcDbEntity
  8
1
100
AcDbLine
 10
39.376667
 20
-0.096464
 30
0.0
 11
39.373
 21
-0.094645
 31
0.0
  0
LINE
  5
284
330
30
100
AcDbEntity
  8
1
100
AcDbLine
 10
39.373
 20
-0.094645
 30
0.0
 11
39.369333
 21
-0.09282
 31
0.0
  0
LINE
  5
285
330
30
100
AcDbEntity
  8
1
100
AcDbLine
 10
39.369333
 20
-0.09282
 30
0.0
 11
39.365667
 21
-0.090991
 31
0.0
  0
LINE
  5
286
330
30
100
AcDbEntity
  8
1
100
AcDbLine
 10
39.365667
 20
-0.090991
 30
0.0
 11
39.362
 21
-0.089158
 31
0.0
  0
LINE
  5
287
330
30
100
AcDbEntity
  8
1
100
AcDbLine
 10
39.362
 20
-0.089158
 30
0.0
 11
39.358333
 21
-0.08732
 31
0.0
  0
LINE
  5
288
330
30
100
AcDbEntity
  8
1
100
AcDbLine
 10
39.358333
 20
-0.08732
 30
0.0
 11
39.354667
 21
-0.085478
 31
0.0
  0
LINE
  5
289
330
30
100
AcDbEntity
  8
1
100
AcDbLine
 10
39.354667
 20
-0.085478
 30
0.0
 11
39.351
 21
-0.083631
 31
0.0
  0
LINE
  5
28A
330
30
100
AcDbEntity
  8
1
100
AcDbLine
 10
39.351
 20
-0.083631
 30
0.0
 11
39.347333
 21
-0.08178
 31
0.0
  0
LINE
  5
28B
330
30
100
AcDbEntity
  8
1
100
AcDbLine
 10
39.347333
 20
-0.08178
 30
0.0
 11
39.343667
 21
-0.079926
 31
0.0
  0
LINE
  5
28C
330
30
100
AcDbEntity
  8
1
100
AcDbLine
 10
39.343667
 20
-0.079926
 30
0.0
 11
39.34
 21
-0.078067
 31
0.0
  0
LINE
  5
28D
330
30
100
AcDbEntity
  8
1
100
AcDbLine
 10
39.34
 20
-0.078067
 30
0.0
 11
39.336333
 21
-0.076204
 31
0.0
  0
LINE
  5
28E
330
30
100
AcDbEntity
  8
1
100
AcDbLine
 10
39.336333
 20
-0.076204
 30
0.0
 11
39.332667
 21
-0.074338
 31
0.0
  0
LINE
  5
28F
330
30
100
AcDbEntity
  8
1
100
AcDbLine
 10
39.332667
 20
-0.074338
 30
0.0
 11
39.329
 21
-0.072468
 31
0.0
  0
LINE
  5
290
330
30
100
AcDbEntity
  8
1
100
AcDbLine
 10
39.329
 20
-0.072468
 30
0.0
 11
39.325333
 21
-0.070594
 31
0.0
  0
LINE
  5
291
330
30
100
AcDbEntity
  8
1
100
AcDbLine
 10
39.325333
 20
-0.070594
 30
0.0
 11
39.321667
 21
-0.068717
 31
0.0
  0
LINE
  5
292
330
30
100
AcDbEntity
  8
1
100
AcDbLine
 10
39.321667
 20
-0.068717
 30
0.0
 11
39.318
 21
-0.066836
 31
0.0
  0
LINE
  5
293
330
30
100
AcDbEntity
  8
1
100
AcDbLine
 10
39.318
 20
-0.066836
 30
0.0
 11
39.314333
 21
-0.064952
 31
0.0
  0
LINE
  5
294
330
30
100
AcDbEntity
  8
1
100
AcDbLine
 10
39.314333
 20
-0.064952
 30
0.0
 11
39.310667
 21
-0.063065
 31
0.0
  0
LINE
  5
295
330
30
100
AcDbEntity
  8
1
100
AcDbLine
 10
39.310667
 20
-0.063065
 30
0.0
 11
39.307
 21
-0.061175
 31
0.0
  0
LINE
  5
296
330
30
100
AcDbEntity
  8
1
100
AcDbLine
 10
39.307
 20
-0.061175
 30
0.0
 11
39.303333
 21
-0.059281
 31
0.0
  0
LINE
  5
297
330
30
100
AcDbEntity
  8
1
100
AcDbLine
 10
39.303333
 20
-0.059281
 30
0.0
 11
39.299667
 21
-0.057385
 31
0.0
  0
LINE
  5
298
330
30
100
AcDbEntity
  8
1
100
AcDbLine
 10
39.299667
 20
-0.057385
 30
0.0
 11
39.296
 21
-0.055486
 31
0.0
  0
LINE
  5
299
330
30
100
AcDbEntity
  8
1
100
AcDbLine
 10
39.296
 20
-0.055486
 30
0.0
 11
39.292333
 21
-0.053584
 31
0.0
  0
LINE
  5
29A
330
30
100
AcDbEntity
  8
1
100
AcDbLine
 10
39.292333
 20
-0.053584
 30
0.0
 11
39.288667
 21
-0.05168
 31
0.0
  0
LINE
  5
29B
330
30
100
AcDbEntity
  8
1
100
AcDbLine
 10
39.288667
 20
-0.05168
 30
0.0
 11
39.285
 21
-0.049773
 31
0.0
  0
LINE
  5
29C
330
30
100
AcDbEntity
  8
1
100
AcDbLine
 10
39.285
 20
-0.049773
 30
0.0
 11
39.281333
 21
-0.047863
 31
0.0
  0
LINE
  5
29D
330
30
100
AcDbEntity
  8
1
100
AcDbLine
 10
39.281333
 20
-0.047863
 30
0.0
 11
39.277667
 21
-0.045952
 31
0.0
  0
LINE
  5
29E
330
30
100
AcDbEntity
  8
1
100
AcDbLine
 10
39.277667
 20
-0.045952
 30
0.0
 11
39.274
 21
-0.044038
 31
0.0
  0
LINE
  5
29F
330
30
100
AcDbEntity
  8
1
100
AcDbLine
 10
39.274
 20
-0.044038
 30
0.0
 11
39.270333
 21
-0.042122
 31
0.0
  0
LINE
  5
2A0
330
30
100
AcDbEntity
  8
1
100
AcDbLine
 10
39.270333
 20
-0.042122
 30
0.0
 11
39.266667
 21
-0.040204
 31
0.0
  0
LINE
  5
2A1
330
30
100
AcDbEntity
  8
1
100
AcDbLine
 10
39.266667
 20
-0.040204
 30
0.0
 11
39.263
 21
-0.038284
 31
0.0
  0
LINE
  5
2A2
330
30
100
AcDbEntity
  8
1
100
AcDbLine
 10
39.263
 20
-0.038284
 30
0.0
 11
39.259333
 21
-0.036362
 31
0.0
  0
LINE
  5
2A3
330
30
100
AcDbEntity
  8
1
100
AcDbLine
 10
39.259333
 20
-0.036362
 30
0.0
 11
39.255667
 21
-0.034438
 31
0.0
  0
LINE
  5
2A4
330
30
100
AcDbEntity
  8
1
100
AcDbLine
 10
39.255667
 20
-0.034438
 30
0.0
 11
39.252
 21
-0.032514
 31
0.0
  0
LINE
  5
2A5
330
30
100
AcDbEntity
  8
1
100
AcDbLine
 10
39.252
 20
-0.032514
 30
0.0
 11
39.248333
 21
-0.030587
 31
0.0
  0
LINE
  5
2A6
330
30
100
AcDbEntity
  8
1
100
AcDbLine
 10
39.248333
 20
-0.030587
 30
0.0
 11
39.244667
 21
-0.02866
 31
0.0
  0
LINE
  5
2A7
330
30
100
AcDbEntity
  8
1
100
AcDbLine
 10
39.244667
 20
-0.02866
 30
0.0
 11
39.241
 21
-0.026731
 31
0.0
  0
LINE
  5
2A8
330
30
100
AcDbEntity
  8
1
100
AcDbLine
 10
39.241
 20
-0.026731
 30
0.0
 11
39.237333
 21
-0.024801
 31
0.0
  0
LINE
  5
2A9
330
30
100
AcDbEntity
  8
1
100
AcDbLine
 10
39.237333
 20
-0.024801
 30
0.0
 11
39.233667
 21
-0.022871
 31
0.0
  0
LINE
  5
2AA
330
30
100
AcDbEntity
  8
1
100
AcDbLine
 10
39.233667
 20
-0.022871
 30
0.0
 11
39.23
 21
-0.02094
 31
0.0
  0
LINE
  5
2AB
330
30
100
AcDbEntity
  8
1
100
AcDbLine
 10
39.23
 20
-0.02094
 30
0.0
 11
39.226333
 21
-0.019008
 31
0.0
  0
LINE
  5
2AC
330
30
100
AcDbEntity
  8
1
100
AcDbLine
 10
39.226333
 20
-0.019008
 30
0.0
 11
39.222667
 21
-0.017076
 31
0.0
  0
LINE
  5
2AD
330
30
100
AcDbEntity
  8
1
100
AcDbLine
 10
39.222667
 20
-0.017076
 30
0.0
 11
39.219
 21
-0.015143
 31
0.0
  0
LINE
  5
2AE
330
30
100
AcDbEntity
  8
1
100
AcDbLine
 10
39.219
 20
-0.015143
 30
0.0
 11
39.215333
 21
-0.013211
 31
0.0
  0
LINE
  5
2AF
330
30
100
AcDbEntity
  8
1
100
AcDbLine
 10
39.215333
 20
-0.013211
 30
0.0
 11
39.211667
 21
-0.011279
 31
0.0
  0
LINE
  5
2B0
330
30
100
AcDbEntity
  8
1
100
AcDbLine
 10
39.211667
 20
-0.011279
 30
0.0
 11
39.208
 21
-0.009347
 31
0.0
  0
LINE
  5
2B1
330
30
100
AcDbEntity
  8
1
100
AcDbLine
 10
39.208
 20
-0.009347
 30
0.0
 11
39.204333
 21
-0.007416
 31
0.0
  0
LINE
  5
2B2
330
30
100
AcDbEntity
  8
1
100
AcDbLine
 10
39.204333
 20
-0.007416
 30
0.0
 11
39.200667
 21
-0.005486
 31
0.0
  0
LINE
  5
2B3
330
30
100
AcDbEntity
  8
1
100
AcDbLine
 10
39.200667
 20
-0.005486
 30
0.0
 11
39.197
 21
-0.003557
 31
0.0
  0
LINE
  5
2B4
330
30
100
AcDbEntity
  8
1
100
AcDbLine
 10
39.197
 20
-0.003557
 30
0.0
 11
39.193333
 21
-0.001629
 31
0.0
  0
LINE
  5
2B5
330
30
100
AcDbEntity
  8
1
100
AcDbLine
 10
39.193333
 20
-0.001629
 30
0.0
 11
39.189667
 21
0.000297
 31
0.0
  0
LINE
  5
2B6
330
30
100
AcDbEntity
  8
1
100
AcDbLine
 10
39.189667
 20
0.000297
 30
0.0
 11
39.186
 21
0.002221
 31
0.0
  0
LINE
  5
2B7
330
30
100
AcDbEntity
  8
1
100
AcDbLine
 10
39.186
 20
0.002221
 30
0.0
 11
39.182333
 21
0.004142
 31
0.0
  0
LINE
  5
2B8
330
30
100
AcDbEntity
  8
1
100
AcDbLine
 10
39.182333
 20
0.004142
 30
0.0
 11
39.178667
 21
0.006061
 31
0.0
  0
LINE
  5
2B9
330
30
100
AcDbEntity
  8
1
100
AcDbLine
 10
39.178667
 20
0.006061
 30
0.0
 11
39.175
 21
0.007977
 31
0.0
  0
LINE
  5
2BA
330
30
100
AcDbEntity
  8
1
100
AcDbLine
 10
39.175
 20
0.007977
 30
0.0
 11
39.171333
 21
0.009889
 31
0.0
  0
LINE
  5
2BB
330
30
100
AcDbEntity
  8
1
100
AcDbLine
 10
39.171333
 20
0.009889
 30
0.0
 11
39.167667
 21
0.011797
 31
0.0
  0
LINE
  5
2BC
330
30
100
AcDbEntity
  8
1
100
AcDbLine
 10
39.167667
 20
0.011797
 30
0.0
 11
39.164
 21
0.0137
 31
0.0
  0
LINE
  5
2BD
330
30
100
AcDbEntity
  8
1
100
AcDbLine
 10
39.164
 20
0.0137
 30
0.0
 11
39.160333
 21
0.015598
 31
0.0
  0
LINE
  5
2BE
330
30
100
AcDbEntity
  8
1
100
AcDbLine
 10
39.160333
 20
0.015598
 30
0.0
 11
39.156667
 21
0.017491
 31
0.0
  0
LINE
  5
2BF
330
30
100
AcDbEntity
  8
1
100
AcDbLine
 10
39.156667
 20
0.017491
 30
0.0
 11
39.153
 21
0.019377
 31
0.0
  0
LINE
  5
2C0
330
30
100
AcDbEntity
  8
1
100
AcDbLine
 10
39.153
 20
0.019377
 30
0.0
 11
39.149333
 21
0.021256
 31
0.0
  0
LINE
  5
2C1
330
30
100
AcDbEntity
  8
1
100
AcDbLine
 10
39.149333
 20
0.021256
 30
0.0
 11
39.145667
 21
0.023127
 31
0.0
  0
LINE
  5
2C2
330
30
100
AcDbEntity
  8
1
100
AcDbLine
 10
39.145667
 20
0.023127
 30
0.0
 11
39.142
 21
0.024989
 31
0.0
  0
LINE
  5
2C3
330
30
100
AcDbEntity
  8
1
100
AcDbLine
 10
39.142
 20
0.024989
 30
0.0
 11
39.138333
 21
0.026842
 31
0.0
  0
LINE
  5
2C4
330
30
100
AcDbEntity
  8
1
100
AcDbLine
 10
39.138333
 20
0.026842
 30
0.0
 11
39.134667
 21
0.028685
 31
0.0
  0
LINE
  5
2C5
330
30
100
AcDbEntity
  8
1
100
AcDbLine
 10
39.134667
 20
0.028685
 30
0.0
 11
39.131
 21
0.030516
 31
0.0
  0
LINE
  5
2C6
330
30
100
AcDbEntity
  8
1
100
AcDbLine
 10
39.131
 20
0.030516
 30
0.0
 11
39.127333
 21
0.032334
 31
0.0
  0
LINE
  5
2C7
330
30
100
AcDbEntity
  8
1
100
AcDbLine
 10
39.127333
 20
0.032334
 30
0.0
 11
39.123667
 21
0.034138
 31
0.0
  0
LINE
  5
2C8
330
30
100
AcDbEntity
  8
1
100
AcDbLine
 10
39.123667
 20
0.034138
 30
0.0
 11
39.12
 21
0.035927
 31
0.0
  0
LINE
  5
2C9
330
30
100
AcDbEntity
  8
1
100
AcDbLine
 10
39.12
 20
0.035927
 30
0.0
 11
39.116333
 21
0.037699
 31
0.0
  0
LINE
  5
2CA
330
30
100
AcDbEntity
  8
1
100
AcDbLine
 10
39.116333
 20
0.037699
 30
0.0
 11
39.112667
 21
0.039453
 31
0.0
  0
LINE
  5
2CB
330
30
100
AcDbEntity
  8
1
100
AcDbLine
 10
39.112667
 20
0.039453
 30
0.0
 11
39.109
 21
0.041186
 31
0.0
  0
LINE
  5
2CC
330
30
100
AcDbEntity
  8
1
100
AcDbLine
 10
39.109
 20
0.041186
 30
0.0
 11
39.105333
 21
0.042898
 31
0.0
  0
LINE
  5
2CD
330
30
100
AcDbEntity
  8
1
100
AcDbLine
 10
39.105333
 20
0.042898
 30
0.0
 11
39.101667
 21
0.044586
 31
0.0
  0
LINE
  5
2CE
330
30
100
AcDbEntity
  8
1
100
AcDbLine
 10
39.101667
 20
0.044586
 30
0.0
 11
39.098
 21
0.046249
 31
0.0
  0
LINE
  5
2CF
330
30
100
AcDbEntity
  8
1
100
AcDbLine
 10
39.098
 20
0.046249
 30
0.0
 11
39.094333
 21
0.047883
 31
0.0
  0
LINE
  5
2D0
330
30
100
AcDbEntity
  8
1
100
AcDbLine
 10
39.094333
 20
0.047883
 30
0.0
 11
39.090667
 21
0.049486
 31
0.0
  0
LINE
  5
2D1
330
30
100
AcDbEntity
  8
1
100
AcDbLine
 10
39.090667
 20
0.049486
 30
0.0
 11
39.087
 21
0.051056
 31
0.0
  0
LINE
  5
2D2
330
30
100
AcDbEntity
  8
1
100
AcDbLine
 10
39.087
 20
0.051056
 30
0.0
 11
39.083333
 21
0.052589
 31
0.0
  0
LINE
  5
2D3
330
30
100
AcDbEntity
  8
1
100
AcDbLine
 10
39.083333
 20
0.052589
 30
0.0
 11
39.079667
 21
0.054083
 31
0.0
  0
LINE
  5
2D4
330
30
100
AcDbEntity
  8
1
100
AcDbLine
 10
39.079667
 20
0.054083
 30
0.0
 11
39.076
 21
0.055534
 31
0.0
  0
LINE
  5
2D5
330
30
100
AcDbEntity
  8
1
100
AcDbLine
 10
39.076
 20
0.055534
 30
0.0
 11
39.072333
 21
0.056939
 31
0.0
  0
LINE
  5
2D6
330
30
100
AcDbEntity
  8
1
100
AcDbLine
 10
39.072333
 20
0.056939
 30
0.0
 11
39.068667
 21
0.058293
 31
0.0
  0
LINE
  5
2D7
330
30
100
AcDbEntity
  8
1
100
AcDbLine
 10
39.068667
 20
0.058293
 30
0.0
 11
39.065
 21
0.059592
 31
0.0
  0
LINE
  5
2D8
330
30
100
AcDbEntity
  8
1
100
AcDbLine
 10
39.065
 20
0.059592
 30
0.0
 11
39.061333
 21
0.060833
 31
0.0
  0
LINE
  5
2D9
330
30
100
AcDbEntity
  8
1
100
AcDbLine
 10
39.061333
 20
0.060833
 30
0.0
 11
39.057667
 21
0.062009
 31
0.0
  0
LINE
  5
2DA
330
30
100
AcDbEntity
  8
1
100
AcDbLine
 10
39.057667
 20
0.062009
 30
0.0
 11
39.054
 21
0.063116
 31
0.0
  0
LINE
  5
2DB
330
30
100
AcDbEntity
  8
1
100
AcDbLine
 10
39.054
 20
0.063116
 30
0.0
 11
39.050333
 21
0.064148
 31
0.0
  0
LINE
  5
2DC
330
30
100
AcDbEntity
  8
1
100
AcDbLine
 10
39.050333
 20
0.064148
 30
0.0
 11
39.046667
 21
0.065098
 31
0.0
  0
LINE
  5
2DD
330
30
100
AcDbEntity
  8
1
100
AcDbLine
 10
39.046667
 20
0.065098
 30
0.0
 11
39.043
 21
0.065961
 31
0.0
  0
LINE
  5
2DE
330
30
100
AcDbEntity
  8
1
100
AcDbLine
 10
39.043
 20
0.065961
 30
0.0
 11
39.039333
 21
0.066729
 31
0.0
  0
LINE
  5
2DF
330
30
100
AcDbEntity
  8
1
100
AcDbLine
 10
39.039333
 20
0.066729
 30
0.0
 11
39.035667
 21
0.067395
 31
0.0
  0
LINE
  5
2E0
330
30
100
AcDbEntity
  8
1
100
AcDbLine
 10
39.035667
 20
0.067395
 30
0.0
 11
39.032
 21
0.06795
 31
0.0
  0
LINE
  5
2E1
330
30
100
AcDbEntity
  8
1
100
AcDbLine
 10
39.032
 20
0.06795
 30
0.0
 11
39.028333
 21
0.068385
 31
0.0
  0
LINE
  5
2E2
330
30
100
AcDbEntity
  8
1
100
AcDbLine
 10
39.028333
 20
0.068385
 30
0.0
 11
39.024667
 21
0.068691
 31
0.0
  0
LINE
  5
2E3
330
30
100
AcDbEntity
  8
1
100
AcDbLine
 10
39.024667
 20
0.068691
 30
0.0
 11
39.021
 21
0.068858
 31
0.0
  0
LINE
  5
2E4
330
30
100
AcDbEntity
  8
1
100
AcDbLine
 10
39.021
 20
0.068858
 30
0.0
 11
39.017333
 21
0.068875
 31
0.0
  0
LINE
  5
2E5
330
30
100
AcDbEntity
  8
1
100
AcDbLine
 10
39.017333
 20
0.068875
 30
0.0
 11
39.013667
 21
0.068729
 31
0.0
  0
LINE
  5
2E6
330
30
100
AcDbEntity
  8
1
100
AcDbLine
 10
39.013667
 20
0.068729
 30
0.0
 11
39.01
 21
0.068408
 31
0.0
  0
LINE
  5
2E7
330
30
100
AcDbEntity
  8
1
100
AcDbLine
 10
39.01
 20
0.068408
 30
0.0
 11
39.006333
 21
0.067898
 31
0.0
  0
LINE
  5
2E8
330
30
100
AcDbEntity
  8
1
100
AcDbLine
 10
39.006333
 20
0.067898
 30
0.0
 11
39.002667
 21
0.067184
 31
0.0
  0
LINE
  5
2E9
330
30
100
AcDbEntity
  8
1
100
AcDbLine
 10
39.002667
 20
0.067184
 30
0.0
 11
38.999
 21
0.066251
 31
0.0
  0
LINE
  5
2EA
330
30
100
AcDbEntity
  8
1
100
AcDbLine
 10
38.999
 20
0.066251
 30
0.0
 11
38.995333
 21
0.06508
 31
0.0
  0
LINE
  5
2EB
330
30
100
AcDbEntity
  8
1
100
AcDbLine
 10
38.995333
 20
0.06508
 30
0.0
 11
38.991667
 21
0.063653
 31
0.0
  0
LINE
  5
2EC
330
30
100
AcDbEntity
  8
1
100
AcDbLine
 10
38.991667
 20
0.063653
 30
0.0
 11
38.988
 21
0.06195
 31
0.0
  0
LINE
  5
2ED
330
30
100
AcDbEntity
  8
1
100
AcDbLine
 10
38.988
 20
0.06195
 30
0.0
 11
38.984333
 21
0.05995
 31
0.0
  0
LINE
  5
2EE
330
30
100
AcDbEntity
  8
1
100
AcDbLine
 10
38.984333
 20
0.05995
 30
0.0
 11
38.980667
 21
0.057629
 31
0.0
  0
LINE
  5
2EF
330
30
100
AcDbEntity
  8
1
100
AcDbLine
 10
38.980667
 20
0.057629
 30
0.0
 11
38.977
 21
0.054962
 31
0.0
  0
LINE
  5
2F0
330
30
100
AcDbEntity
  8
1
100
AcDbLine
 10
38.977
 20
0.054962
 30
0.0
 11
38.973333
 21
0.051922
 31
0.0
  0
LINE
  5
2F1
330
30
100
AcDbEntity
  8
1
100
AcDbLine
 10
38.973333
 20
0.051922
 30
0.0
 11
38.969667
 21
0.048481
 31
0.0
  0
LINE
  5
2F2
330
30
100
AcDbEntity
  8
1
100
AcDbLine
 10
38.969667
 20
0.048481
 30
0.0
 11
38.966
 21
0.044608
 31
0.0
  0
LINE
  5
2F3
330
30
100
AcDbEntity
  8
1
100
AcDbLine
 10
38.966
 20
0.044608
 30
0.0
 11
38.962333
 21
0.040271
 31
0.0
  0
LINE
  5
2F4
330
30
100
AcDbEntity
  8
1
100
AcDbLine
 10
38.962333
 20
0.040271
 30
0.0
 11
38.958667
 21
0.035434
 31
0.0
  0
LINE
  5
2F5
330
30
100
AcDbEntity
  8
1
100
AcDbLine
 10
38.958667
 20
0.035434
 30
0.0
 11
38.955
 21
0.030062
 31
0.0
  0
LINE
  5
2F6
330
30
100
AcDbEntity
  8
1
100
AcDbLine
 10
38.955
 20
0.030062
 30
0.0
 11
38.951333
 21
0.024115
 31
0.0
  0
LINE
  5
2F7
330
30
100
AcDbEntity
  8
1
100
AcDbLine
 10
38.951333
 20
0.024115
 30
0.0
 11
38.947667
 21
0.017554
 31
0.0
  0
LINE
  5
2F8
330
30
100
AcDbEntity
  8
1
100
AcDbLine
 10
38.947667
 20
0.017554
 30
0.0
 11
38.944
 21
0.010339
 31
0.0
  0
LINE
  5
2F9
330
30
100
AcDbEntity
  8
1
100
AcDbLine
 10
38.944
 20
0.010339
 30
0.0
 11
38.940333
 21
0.002426
 31
0.0
  0
LINE
  5
2FA
330
30
100
AcDbEntity
  8
1
100
AcDbLine
 10
38.940333
 20
0.002426
 30
0.0
 11
38.936667
 21
-0.006224
 31
0.0
  0
LINE
  5
2FB
330
30
100
AcDbEntity
  8
1
100
AcDbLine
 10
38.936667
 20
-0.006224
 30
0.0
 11
38.933
 21
-0.015654
 31
0.0
  0
LINE
  5
2FC
330
30
100
AcDbEntity
  8
1
100
AcDbLine
 10
38.933
 20
-0.015654
 30
0.0
 11
38.929333
 21
-0.0259
 31
0.0
  0
LINE
  5
2FD
330
30
100
AcDbEntity
  8
1
100
AcDbLine
 10
38.929333
 20
-0.0259
 30
0.0
 11
38.925667
 21
-0.036996
 31
0.0
  0
LINE
  5
2FE
330
30
100
AcDbEntity
  8
1
100
AcDbLine
 10
38.925667
 20
-0.036996
 30
0.0
 11
38.922
 21
-0.048971
 31
0.0
  0
LINE
  5
2FF
330
30
100
AcDbEntity
  8
1
100
AcDbLine
 10
38.922
 20
-0.048971
 30
0.0
 11
38.918333
 21
-0.061841
 31
0.0
  0
LINE
  5
300
330
30
100
AcDbEntity
  8
1
100
AcDbLine
 10
38.918333
 20
-0.061841
 30
0.0
 11
38.914667
 21
-0.075612
 31
0.0
  0
LINE
  5
301
330
30
100
AcDbEntity
  8
1
100
AcDbLine
 10
38.914667
 20
-0.075612
 30
0.0
 11
38.911
 21
-0.09027
 31
0.0
  0
LINE
  5
302
330
30
100
AcDbEntity
  8
1
100
AcDbLine
 10
38.911
 20
-0.09027
 30
0.0
 11
38.907333
 21
-0.10578
 31
0.0
  0
LINE
  5
303
330
30
100
AcDbEntity
  8
1
100
AcDbLine
 10
38.907333
 20
-0.10578
 30
0.0
 11
38.903667
 21
-0.122077
 31
0.0
  0
LINE
  5
304
330
30
100
AcDbEntity
  8
1
100
AcDbLine
 10
38.903667
 20
-0.122077
 30
0.0
 11
38.9
 21
-0.139055
 31
0.0
  0
LINE
  5
305
330
30
100
AcDbEntity
  8
1
100
AcDbLine
 10
38.9
 20
-0.139055
 30
0.0
 11
38.9
 21
-0.14267
 31
0.0
  0
LINE
  5
306
330
30
100
AcDbEntity
  8
1
100
AcDbLine
 10
38.9
 20
-0.14267
 30
0.0
 11
38.903667
 21
-0.157989
 31
0.0
  0
LINE
  5
307
330
30
100
AcDbEntity
  8
1
100
AcDbLine
 10
38.903667
 20
-0.157989
 30
0.0
 11
38.907333
 21
-0.172223
 31
0.0
  0
LINE
  5
308
330
30
100
AcDbEntity
  8
1
100
AcDbLine
 10
38.907333
 20
-0.172223
 30
0.0
 11
38.911
 21
-0.185378
 31
0.0
  0
LINE
  5
309
330
30
100
AcDbEntity
  8
1
100
AcDbLine
 10
38.911
 20
-0.185378
 30
0.0
 11
38.914667
 21
-0.19747
 31
0.0
  0
LINE
  5
30A
330
30
100
AcDbEntity
  8
1
100
AcDbLine
 10
38.914667
 20
-0.19747
 30
0.0
 11
38.918333
 21
-0.20852
 31
0.0
  0
LINE
  5
30B
330
30
100
AcDbEntity
  8
1
100
AcDbLine
 10
38.918333
 20
-0.20852
 30
0.0
 11
38.922
 21
-0.218559
 31
0.0
  0
LINE
  5
30C
330
30
100
AcDbEntity
  8
1
100
AcDbLine
 10
38.922
 20
-0.218559
 30
0.0
 11
38.925667
 21
-0.227618
 31
0.0
  0
LINE
  5
30D
330
30
100
AcDbEntity
  8
1
100
AcDbLine
 10
38.925667
 20
-0.227618
 30
0.0
 11
38.929333
 21
-0.235734
 31
0.0
  0
LINE
  5
30E
330
30
100
AcDbEntity
  8
1
100
AcDbLine
 10
38.929333
 20
-0.235734
 30
0.0
 11
38.933
 21
-0.242947
 31
0.0
  0
LINE
  5
30F
330
30
100
AcDbEntity
  8
1
100
AcDbLine
 10
38.933
 20
-0.242947
 30
0.0
 11
38.936667
 21
-0.249299
 31
0.0
  0
LINE
  5
310
330
30
100
AcDbEntity
  8
1
100
AcDbLine
 10
38.936667
 20
-0.249299
 30
0.0
 11
38.940333
 21
-0.254833
 31
0.0
  0
LINE
  5
311
330
30
100
AcDbEntity
  8
1
100
AcDbLine
 10
38.940333
 20
-0.254833
 30
0.0
 11
38.944
 21
-0.259592
 31
0.0
  0
LINE
  5
312
330
30
100
AcDbEntity
  8
1
100
AcDbLine
 10
38.944
 20
-0.259592
 30
0.0
 11
38.947667
 21
-0.263621
 31
0.0
  0
LINE
  5
313
330
30
100
AcDbEntity
  8
1
100
AcDbLine
 10
38.947667
 20
-0.263621
 30
0.0
 11
38.951333
 21
-0.266965
 31
0.0
  0
LINE
  5
314
330
30
100
AcDbEntity
  8
1
100
AcDbLine
 10
38.951333
 20
-0.266965
 30
0.0
 11
38.955
 21
-0.269665
 31
0.0
  0
LINE
  5
315
330
30
100
AcDbEntity
  8
1
100
AcDbLine
 10
38.955
 20
-0.269665
 30
0.0
 11
38.958667
 21
-0.271766
 31
0.0
  0
LINE
  5
316
330
30
100
AcDbEntity
  8
1
100
AcDbLine
 10
38.958667
 20
-0.271766
 30
0.0
 11
38.962333
 21
-0.27331
 31
0.0
  0
LINE
  5
317
330
30
100
AcDbEntity
  8
1
100
AcDbLine
 10
38.962333
 20
-0.27331
 30
0.0
 11
38.966
 21
-0.274335
 31
0.0
  0
LINE
  5
318
330
30
100
AcDbEntity
  8
1
100
AcDbLine
 10
38.966
 20
-0.274335
 30
0.0
 11
38.969667
 21
-0.274882
 31
0.0
  0
LINE
  5
319
330
30
100
AcDbEntity
  8
1
100
AcDbLine
 10
38.969667
 20
-0.274882
 30
0.0
 11
38.972419
 21
-0.275
 31
0.0
  0
LINE
  5
31A
330
30
100
AcDbEntity
  8
SK1
100
AcDbLine
 10
13.0
 20
3.5
 30
0.0
 11
13.0
 21
1.5
 31
0.0
  0
LINE
  5
31B
330
30
100
AcDbEntity
  8
SK1
100
AcDbLine
 10
13.0
 20
1.5
 30
0.0
 11
1.0
 21
1.5
 31
0.0
  0
LINE
  5
31C
330
30
100
AcDbEntity
  8
SK1
100
AcDbLine
 10
1.0
 20
1.5
 30
0.0
 11
0.0
 21
0.990475
 31
0.0
  0
LINE
  5
31D
330
30
100
AcDbEntity
  8
SK1
100
AcDbLine
 10
13.0
 20
-1.5
 30
0.0
 11
1.0
 21
-1.5
 31
0.0
  0
LINE
  5
31E
330
30
100
AcDbEntity
  8
SK1
100
AcDbLine
 10
1.0
 20
-1.5
 30
0.0
 11
0.0
 21
-0.990475
 31
0.0
  0
LINE
  5
31F
330
30
100
AcDbEntity
  8
SK1
100
AcDbLine
 10
1.0
 20
1.5
 30
0.0
 11
1.0
 21
-1.5
 31
0.0
  0
LINE
  5
320
330
30
100
AcDbEntity
  8
SK1
100
AcDbLine
 10
0.0
 20
0.990475
 30
0.0
 11
0.0
 21
-0.990475
 31
0.0
  0
LINE
  5
321
330
30
100
AcDbEntity
  8
SK1
100
AcDbLine
 10
14.0401
 20
1.40688
 30
0.0
 11
14.4069
 21
1.0401
 31
0.0
  0
LINE
  5
322
330
30
100
AcDbEntity
  8
SK1
100
AcDbLine
 10
13.5328
 20
1.66666
 30
0.0
 11
14.6667
 21
0.532833
 31
0.0
  0
LINE
  5
323
330
30
100
AcDbEntity
  8
SK1
100
AcDbLine
 10
13.2154
 20
1.73657
 30
0.0
 11
14.7366
 21
0.215434
 31
0.0
  0
LINE
  5
324
330
30
100
AcDbEntity
  8
SK1
100
AcDbLine
 10
13.0
 20
1.70452
 30
0.0
 11
14.7045
 21
0.0
 31
0.0
  0
LINE
  5
325
330
30
100
AcDbEntity
  8
SK1
100
AcDbLine
 10
13.0
 20
1.45703
 30
0.0
 11
14.457
 21
0.0
 31
0.0
  0
LINE
  5
326
330
30
100
AcDbEntity
  8
SK1
100
AcDbLine
 10
13.0
 20
1.20954
 30
0.0
 11
14.2095
 21
0.0
 31
0.0
  0
LINE
  5
327
330
30
100
AcDbEntity
  8
SK1
100
AcDbLine
 10
13.0
 20
0.962054
 30
0.0
 11
13.9621
 21
0.0
 31
0.0
  0
LINE
  5
328
330
30
100
AcDbEntity
  8
SK1
100
AcDbLine
 10
13.0
 20
0.714566
 30
0.0
 11
13.7146
 21
0.0
 31
0.0
  0
LINE
  5
329
330
30
100
AcDbEntity
  8
SK1
100
AcDbLine
 10
13.0
 20
0.467079
 30
0.0
 11
13.4671
 21
0.0
 31
0.0
  0
LINE
  5
32A
330
30
100
AcDbEntity
  8
SK1
100
AcDbLine
 10
13.0
 20
0.219592
 30
0.0
 11
13.2196
 21
0.0
 31
0.0
  0
LINE
  5
32B
330
30
100
AcDbEntity
  8
SK1
100
AcDbLine
 10
13.0
 20
1.70452
 30
0.0
 11
13.0441
 21
1.74861
 31
0.0
  0
LINE
  5
32C
330
30
100
AcDbEntity
  8
SK1
100
AcDbLine
 10
13.0
 20
1.45703
 30
0.0
 11
13.271
 21
1.72802
 31
0.0
  0
LINE
  5
32D
330
30
100
AcDbEntity
  8
SK1
100
AcDbLine
 10
13.0
 20
1.20954
 30
0.0
 11
13.4742
 21
1.6837
 31
0.0
  0
LINE
  5
32E
330
30
100
AcDbEntity
  8
SK1
100
AcDbLine
 10
13.0
 20
0.962054
 30
0.0
 11
13.6588
 21
1.62082
 31
0.0
  0
LINE
  5
32F
330
30
100
AcDbEntity
  8
SK1
100
AcDbLine
 10
13.0
 20
0.714566
 30
0.0
 11
13.8271
 21
1.54167
 31
0.0
  0
LINE
  5
330
330
30
100
AcDbEntity
  8
SK1
100
AcDbLine
 10
13.0
 20
0.467079
 30
0.0
 11
13.981
 21
1.44812
 31
0.0
  0
LINE
  5
331
330
30
100
AcDbEntity
  8
SK1
100
AcDbLine
 10
13.0
 20
0.219592
 30
0.0
 11
14.1226
 21
1.34216
 31
0.0
  0
LINE
  5
332
330
30
100
AcDbEntity
  8
SK1
100
AcDbLine
 10
13.0279
 20
0.0
 30
0.0
 11
14.2508
 21
1.22288
 31
0.0
  0
LINE
  5
333
330
30
100
AcDbEntity
  8
SK1
100
AcDbLine
 10
13.2754
 20
0.0
 30
0.0
 11
14.367
 21
1.09157
 31
0.0
  0
LINE
  5
334
330
30
100
AcDbEntity
  8
SK1
100
AcDbLine
 10
13.5229
 20
0.0
 30
0.0
 11
14.4707
 21
0.947822
 31
0.0
  0
LINE
  5
335
330
30
100
AcDbEntity
  8
SK1
100
AcDbLine
 10
13.7704
 20
0.0
 30
0.0
 11
14.5605
 21
0.790145
 31
0.0
  0
LINE
  5
336
330
30
100
AcDbEntity
  8
SK1
100
AcDbLine
 10
14.0178
 20
0.0
 30
0.0
 11
14.6364
 21
0.618517
 31
0.0
  0
LINE
  5
337
330
30
100
AcDbEntity
  8
SK1
100
AcDbLine
 10
14.2653
 20
0.0
 30
0.0
 11
14.696
 21
0.430696
 31
0.0
  0
LINE
  5
338
330
30
100
AcDbEntity
  8
SK1
100
AcDbLine
 10
14.5128
 20
0.0
 30
0.0
 11
14.7356
 21
0.222827
 31
0.0
  0
LINE
  5
339
330
30
100
AcDbEntity
  8
SK1
100
AcDbLine
 10
13.0
 20
0.0
 30
0.0
 11
13.0
 21
1.75
 31
0.0
  0
LINE
  5
33A
330
30
100
AcDbEntity
  8
SK1
100
AcDbLine
 10
13.0
 20
0.0
 30
0.0
 11
14.75
 21
0.0
 31
0.0
  0
ARC
  5
33B
330
30
100
AcDbEntity
  8
SK1
100
AcDbCircle
 10
13.0
 20
0.0
 30
0.0
 40
1.75
100
AcDbArc
 50
0.0
 51
90.0
  0
ARC
  5
33C
330
30
100
AcDbEntity
  8
SK1
100
AcDbCircle
 10
13.0
 20
0.0
 30
0.0
 40
1.75
100
AcDbArc
 50
90.0
 51
180.0
  0
LINE
  5
33D
330
30
100
AcDbEntity
  8
SK1
100
AcDbLine
 10
12.9721
 20
0.0
 30
0.0
 11
13.0
 21
-0.027896
 31
0.0
  0
LINE
  5
33E
330
30
100
AcDbEntity
  8
SK1
100
AcDbLine
 10
12.7246
 20
0.0
 30
0.0
 11
13.0
 21
-0.275383
 31
0.0
  0
LINE
  5
33F
330
30
100
AcDbEntity
  8
SK1
100
AcDbLine
 10
12.4771
 20
0.0
 30
0.0
 11
13.0
 21
-0.522871
 31
0.0
  0
LINE
  5
340
330
30
100
AcDbEntity
  8
SK1
100
AcDbLine
 10
12.2296
 20
0.0
 30
0.0
 11
13.0
 21
-0.770358
 31
0.0
  0
LINE
  5
341
330
30
100
AcDbEntity
  8
SK1
100
AcDbLine
 10
11.9822
 20
0.0
 30
0.0
 11
13.0
 21
-1.01785
 31
0.0
  0
LINE
  5
342
330
30
100
AcDbEntity
  8
SK1
100
AcDbLine
 10
11.7347
 20
0.0
 30
0.0
 11
13.0
 21
-1.26533
 31
0.0
  0
LINE
  5
343
330
30
100
AcDbEntity
  8
SK1
100
AcDbLine
 10
11.4872
 20
0.0
 30
0.0
 11
13.0
 21
-1.51282
 31
0.0
  0
LINE
  5
344
330
30
100
AcDbEntity
  8
SK1
100
AcDbLine
 10
11.2503
 20
-0.010642
 30
0.0
 11
12.9894
 21
-1.74967
 31
0.0
  0
LINE
  5
345
330
30
100
AcDbEntity
  8
SK1
100
AcDbLine
 10
11.2736
 20
-0.281429
 30
0.0
 11
12.7186
 21
-1.72637
 31
0.0
  0
LINE
  5
346
330
30
100
AcDbEntity
  8
SK1
100
AcDbLine
 10
11.3639
 20
-0.619147
 30
0.0
 11
12.3809
 21
-1.63613
 31
0.0
  0
LINE
  5
347
330
30
100
AcDbEntity
  8
SK1
100
AcDbLine
 10
11.2514
 20
-0.044098
 30
0.0
 11
11.2955
 21
0.0
 31
0.0
  0
LINE
  5
348
330
30
100
AcDbEntity
  8
SK1
100
AcDbLine
 10
11.272
 20
-0.270991
 30
0.0
 11
11.543
 21
0.0
 31
0.0
  0
LINE
  5
349
330
30
100
AcDbEntity
  8
SK1
100
AcDbLine
 10
11.3163
 20
-0.474162
 30
0.0
 11
11.7905
 21
0.0
 31
0.0
  0
LINE
  5
34A
330
30
100
AcDbEntity
  8
SK1
100
AcDbLine
 10
11.3792
 20
-0.658762
 30
0.0
 11
12.0379
 21
0.0
 31
0.0
  0
LINE
  5
34B
330
30
100
AcDbEntity
  8
SK1
100
AcDbLine
 10
11.4583
 20
-0.827105
 30
0.0
 11
12.2854
 21
0.0
 31
0.0
  0
LINE
  5
34C
330
30
100
AcDbEntity
  8
SK1
100
AcDbLine
 10
11.5519
 20
-0.981039
 30
0.0
 11
12.5329
 21
0.0
 31
0.0
  0
LINE
  5
34D
330
30
100
AcDbEntity
  8
SK1
100
AcDbLine
 10
11.6578
 20
-1.12257
 30
0.0
 11
12.7804
 21
0.0
 31
0.0
  0
LINE
  5
34E
330
30
100
AcDbEntity
  8
SK1
100
AcDbLine
 10
11.7771
 20
-1.25077
 30
0.0
 11
13.0
 21
-0.027896
 31
0.0
  0
LINE
  5
34F
330
30
100
AcDbEntity
  8
SK1
100
AcDbLine
 10
11.9084
 20
-1.36695
 30
0.0
 11
13.0
 21
-0.275383
 31
0.0
  0
LINE
  5
350
330
30
100
AcDbEntity
  8
SK1
100
AcDbLine
 10
12.0522
 20
-1.47069
 30
0.0
 11
13.0
 21
-0.522871
 31
0.0
  0
LINE
  5
351
330
30
100
AcDbEntity
  8
SK1
100
AcDbLine
 10
12.2099
 20
-1.5605
 30
0.0
 11
13.0
 21
-0.770358
 31
0.0
  0
LINE
  5
352
330
30
100
AcDbEntity
  8
SK1
100
AcDbLine
 10
12.3815
 20
-1.63636
 30
0.0
 11
13.0
 21
-1.01785
 31
0.0
  0
LINE
  5
353
330
30
100
AcDbEntity
  8
SK1
100
AcDbLine
 10
12.5693
 20
-1.69603
 30
0.0
 11
13.0
 21
-1.26533
 31
0.0
  0
LINE
  5
354
330
30
100
AcDbEntity
  8
SK1
100
AcDbLine
 10
12.7772
 20
-1.73565
 30
0.0
 11
13.0
 21
-1.51282
 31
0.0
  0
LINE
  5
355
330
30
100
AcDbEntity
  8
SK1
100
AcDbLine
 10
13.0
 20
0.0
 30
0.0
 11
11.25
 21
0.0
 31
0.0
  0
LINE
  5
356
330
30
100
AcDbEntity
  8
SK1
100
AcDbLine
 10
13.0
 20
-1.75
 30
0.0
 11
13.0
 21
0.0
 31
0.0
  0
ARC
  5
357
330
30
100
AcDbEntity
  8
SK1
100
AcDbCircle
 10
13.0
 20
0.0
 30
0.0
 40
1.75
100
AcDbArc
 50
180.0
 51
270.0
  0
ARC
  5
358
330
30
100
AcDbEntity
  8
SK1
100
AcDbCircle
 10
13.0
 20
0.0
 30
0.0
 40
1.75
100
AcDbArc
 50
270.0
 51
0.0
  0
LINE
  5
3D3
330
30
100
AcDbEntity
  8
NOCUT
100
AcDbLine
 10
39.5
 20
0.0
 30
0.0
 11
39.5
 21
0.275
 31
0.0
  0
LINE
  5
3D4
330
30
100
AcDbEntity
  8
NOCUT
100
AcDbLine
 10
39.5
 20
0.275
 30
0.0
 11
34.315238
 21
0.275
 31
0.0
  0
ARC
  5
3D5
330
30
100
AcDbEntity
  8
NOCUT
100
AcDbCircle
 10
34.315238
 20
2.275
 30
0.0
 40
2.0
100
AcDbArc
 50
260.0
 51
270.0
  0
LINE
  5
3D6
330
30
100
AcDbEntity
  8
NOCUT
100
AcDbLine
 10
33.967942
 20
0.305384
 30
0.0
 11
27.19294
 21
1.5
 31
0.0
  0
LINE
  5
3D7
330
30
100
AcDbEntity
  8
NOCUT
100
AcDbLine
 10
27.19294
 20
1.5
 30
0.0
 11
13.35
 21
1.5
 31
0.0
  0
LINE
  5
3D8
330
30
100
AcDbEntity
  8
NOCUT
100
AcDbLine
 10
13.35
 20
1.5
 30
0.0
 11
13.35
 21
3.5
 31
0.0
  0
LINE
  5
3D9
330
30
100
AcDbEntity
  8
NOCUT
100
AcDbLine
 10
13.35
 20
3.5
 30
0.0
 11
13.0
 21
3.5
 31
0.0
  0
LINE
  5
3DA
330
30
100
AcDbEntity
  8
NOCUT
100
AcDbLine
 10
13.0
 20
3.5
 30
0.0
 11
13.0
 21
0.0
 31
0.0
  0
LINE
  5
3DB
330
30
100
AcDbEntity
  8
NOCUT
100
AcDbLine
 10
13.0
 20
0.0
 30
0.0
 11
39.5
 21
0.0
 31
0.0
  0
ARC
  5
3DC
330
30
100
AcDbEntity
  8
CUT
100
AcDbCircle
 10
39.7
 20
0.0
 30
0.0
 40
0.3
100
AcDbArc
 50
0.0
 51
90.0
  0
LINE
  5
3DD
330
30
100
AcDbEntity
  8
CUT
100
AcDbLine
 10
39.7
 20
0.3
 30
0.0
 11
39.5
 21
0.3
 31
0.0
  0
LINE
  5
3DE
330
30
100
AcDbEntity
  8
CUT
100
AcDbLine
 10
39.5
 20
0.3
 30
0.0
 11
39.5
 21
0.0
 31
0.0
  0
LINE
  5
3DF
330
30
100
AcDbEntity
  8
CUT
100
AcDbLine
 10
39.5
 20
0.0
 30
0.0
 11
40.0
 21
0.0
 31
0.0
  0
LINE
  5
3E0
330
30
100
AcDbEntity
  8
4
100
AcDbLine
 10
13.0
 20
0.0
 30
0.0
 11
40.0
 21
0.0
 31
0.0
  0
LINE
  5
3E1
330
30
100
AcDbEntity
  8
SK4
100
AcDbLine
 10
-1.0
 20
0.0
 30
0.0
 11
41.0
 21
0.0
 31
0.0
  0
LINE
  5
3E2
330
30
100
AcDbEntity
  8
INFTOTAL
100
AcDbLine
 10
-15.45
 20
47.6982144
 30
0.0
 11
75.63000000000001
 21
47.6982144
 31
0.0
  0
LINE
  5
3E3
330
30
100
AcDbEntity
  8
INFTOTAL
100
AcDbLine
 10
75.63000000000001
 20
47.6982144
 30
0.0
 11
75.63000000000001
 21
-22.79107200000001
 31
0.0
  0
LINE
  5
3E4
330
30
100
AcDbEntity
  8
INFTOTAL
100
AcDbLine
 10
75.63000000000001
 20
-22.79107200000001
 30
0.0
 11
-15.45
 21
-22.791072
 31
0.0
  0
LINE
  5
3E5
330
30
100
AcDbEntity
  8
INFTOTAL
100
AcDbLine
 10
-15.45
 20
-22.791072
 30
0.0
 11
-15.45
 21
47.6982144
 31
0.0
  0
ENDSEC
  0
SECTION
  2
OBJECTS
  0
DICTIONARY
  5
3E6
330
0
100
AcDbDictionary
281
     1
  3
ACAD_GROUP
350
3E7
  3
ACAD_IMAGE_VARS
350
106ABDE
  3
ACAD_LAYOUT
350
106AB97
  3
ACAD_MATERIAL
350
106ABBC
  3
ACAD_MLEADERSTYLE
350
106ABDB
  3
ACAD_MLINESTYLE
350
106AB92
  3
ACAD_PLOTSETTINGS
350
106AB94
  3
ACAD_PLOTSTYLENAME
350
106AB95
  3
ACAD_SCALELIST
350
106AB9A
  3
ACAD_TABLESTYLE
350
106ABD9
  3
ACAD_VISUALSTYLE
350
106ABC0
  3
AcDbVariableDictionary
350
106ABF3
  3
APPDATA
350
106ABDD
  3
DWGPROPS
350
106AC7D
  3
FX_DICT_DIMENSION_PALETTE
350
106AC39
  3
PRINTCONFIG
350
106AC79
  0
DICTIONARY
  5
106AC7E
330
2
100
AcDbDictionary
280
     1
281
     1
  3
ACAD_XREC_ROUNDTRIP
360
106AC7F
  0
DICTIONARY
  5
106ABF1
330
30
100
AcDbDictionary
280
     1
281
     1
  3
DIM_BOUNDING_BOXES_V1
360
106ABF2
  0
DICTIONARY
  5
3E7
102
{ACAD_REACTORS
330
3E6
102
}
330
3E6
100
AcDbDictionary
281
     1
  0
RASTERVARIABLES
  5
106ABDE
102
{ACAD_REACTORS
330
3E6
102
}
330
3E6
100
AcDbRasterVariables
 90
        0
 70
     1
 71
     1
 72
     1
  0
DICTIONARY
  5
106AB97
102
{ACAD_REACTORS
330
3E6
102
}
330
3E6
100
AcDbDictionary
281
     1
  3
Model
350
106AB98
  3
シート 1
350
106AB99
  0
DICTIONARY
  5
106ABBC
102
{ACAD_REACTORS
330
3E6
102
}
330
3E6
100
AcDbDictionary
281
     1
  3
ByBlock
350
106ABBE
  3
ByLayer
350
106ABBD
  3
Global
350
106ABBF
  0
DICTIONARY
  5
106ABDB
102
{ACAD_REACTORS
330
3E6
102
}
330
3E6
100
AcDbDictionary
281
     1
  3
Standard
350
106ABDC
  0
DICTIONARY
  5
106AB92
102
{ACAD_REACTORS
330
3E6
102
}
330
3E6
100
AcDbDictionary
281
     1
  3
Standard
350
106AB93
  0
DICTIONARY
  5
106AB94
102
{ACAD_REACTORS
330
3E6
102
}
330
3E6
100
AcDbDictionary
281
     1
  0
ACDBDICTIONARYWDFLT
  5
106AB95
102
{ACAD_REACTORS
330
3E6
102
}
330
3E6
100
AcDbDictionary
281
     1
  3
Normal
350
106AB96
100
AcDbDictionaryWithDefault
340
106AB96
  0
DICTIONARY
  5
106AB9A
102
{ACAD_REACTORS
330
3E6
102
}
330
3E6
100
AcDbDictionary
281
     1
  3
A0
350
106AB9B
  3
A1
350
106AB9C
  3
A2
350
106AB9D
  3
A3
350
106AB9E
  3
A4
350
106AB9F
  3
A5
350
106ABA0
  3
A6
350
106ABA1
  3
A7
350
106ABA2
  3
A8
350
106ABA3
  3
A9
350
106ABA4
  3
B0
350
106ABA5
  3
B1
350
106ABA6
  3
B2
350
106ABA7
  3
B3
350
106ABA8
  3
B4
350
106ABA9
  3
B5
350
106ABAA
  3
B6
350
106ABAB
  3
B7
350
106ABAC
  3
B8
350
106ABAD
  3
B9
350
106ABAE
  3
C0
350
106ABAF
  3
C1
350
106ABB0
  3
C2
350
106ABB1
  3
C3
350
106ABB2
  3
C4
350
106ABB3
  3
C5
350
106ABB4
  3
C6
350
106ABB5
  3
C7
350
106ABB6
  3
C8
350
106ABB7
  3
C9
350
106ABB8
  3
D0
350
106ABB9
  3
D1
350
106ABBA
  3
D2
350
106ABBB
  0
DICTIONARY
  5
106ABD9
102
{ACAD_REACTORS
330
3E6
102
}
330
3E6
100
AcDbDictionary
281
     1
  3
Standard
350
106ABDA
  0
DICTIONARY
  5
106ABC0
102
{ACAD_REACTORS
330
3E6
102
}
330
3E6
100
AcDbDictionary
281
     1
  3
2dWireframe
350
106ABC5
  3
Basic
350
106ABC8
  3
Brighten
350
106ABCC
  3
ColorChange
350
106ABD0
  3
Conceptual
350
106ABCA
  3
Dim
350
106ABCB
  3
EdgeColorOff
350
106ABD3
  3
Facepattern
350
106ABCF
  3
Flat
350
106ABC1
  3
FlatWithEdges
350
106ABC2
  3
Gouraud
350
106ABC3
  3
GouraudWithEdges
350
106ABC4
  3
Hidden
350
106ABC7
  3
JitterOff
350
106ABD1
  3
Linepattern
350
106ABCE
  3
OverhangOff
350
106ABD2
  3
Realistic
350
106ABC9
  3
Shaded
350
106ABD8
  3
Shaded with edges
350
106ABD7
  3
Shades of Gray
350
106ABD4
  3
Sketchy
350
106ABD5
  3
Thicken
350
106ABCD
  3
Wireframe
350
106ABC6
  3
X-Ray
350
106ABD6
  0
DICTIONARY
  5
106ABF3
102
{ACAD_REACTORS
330
3E6
102
}
330
3E6
100
AcDbDictionary
281
     1
  3
CANNOSCALE
350
106AC80
  3
CMLEADERSTYLE
350
106ABF5
  3
CTABLESTYLE
350
106ABF4
  3
DIMASSOC
350
106ABF9
  3
HIDETEXT
350
106ABFA
  3
MSLTSCALE
350
106ABF6
  0
DICTIONARY
  5
106ABDD
102
{ACAD_REACTORS
330
3E6
102
}
330
3E6
100
AcDbDictionary
281
     1
  0
XRECORD
  5
106AC7D
102
{ACAD_REACTORS
330
3E6
102
}
330
3E6
100
AcDbXrecord
280
     1
  1
DWGPROPS COOKIE
  2

  3

  4

  6

  7

  8
usr2460
  9

300
=
301
=
302
=
303
=
304
=
305
=
306
=
307
=
308
=
309
=
 40
0.0
 41
0.0
 42
2460796.304329063
  1

 90
        0
  0
DICTIONARY
  5
106AC39
102
{ACAD_REACTORS
330
3E6
102
}
330
3E6
100
AcDbDictionary
281
     1
1001
FX_DIMP_FAV_VERSION
1071
        1
  0
DICTIONARYVAR
  5
106AC79
102
{ACAD_REACTORS
330
3E6
102
}
330
3E6
100
DictionaryVariables
280
     0
  1
0
  0
XRECORD
  5
106AC7F
102
{ACAD_REACTORS
330
106AC7E
102
}
330
106AC7E
100
AcDbXrecord
280
     1
102
VTR_0.000_0.000_1.000_1.000_VISUALSTYLE
340
106ABC5
102
VTR_0.000_0.000_1.000_1.000_GRIDDISPLAY
 70
     3
102
VTR_0.000_0.000_1.000_1.000_GRIDMAJOR
 70
     5
102
VTR_0.000_0.000_1.000_1.000_DEFAULTLIGHTING
280
     1
102
VTR_0.000_0.000_1.000_1.000_DEFAULTLIGHTINGTYPE
 70
     1
102
VTR_0.000_0.000_1.000_1.000_BRIGHTNESS
141
0.0
102
VTR_0.000_0.000_1.000_1.000_CONTRAST
142
0.0
  0
DICTIONARY
  5
106ABF2
102
{ACAD_REACTORS
330
106ABF1
102
}
330
106ABF1
100
AcDbDictionary
281
     1
  0
LAYOUT
  5
106AB98
102
{ACAD_REACTORS
330
106AB97
102
}
330
106AB97
100
AcDbPlotSettings
  1

  2
none_device
  4
Letter_(8.50_x_11.00_Inches)
  6

 40
6.35
 41
6.35
 42
6.35
 43
6.35
 44
215.9
 45
279.4
 46
0.0
 47
0.0
 48
0.0
 49
0.0
140
0.0
141
0.0
142
1.0
143
2.21959459445662
 70
  1712
 72
     0
 73
     0
 74
     0
  7

 75
     0
147
0.4505327245333333
148
-39.40881537143161
149
0.0
100
AcDbLayout
  1
Model
 70
     1
 71
     0
 10
0.0
 20
0.0
 11
12.0
 21
9.0
 12
0.0
 22
0.0
 32
0.0
 14
-15.45
 24
-22.791072
 34
0.0
 15
75.63000000000001
 25
47.6982144
 35
0.0
146
0.0
 13
0.0
 23
0.0
 33
0.0
 16
1.0
 26
0.0
 36
0.0
 17
0.0
 27
1.0
 37
0.0
 76
     0
330
30
331
106AB91
  0
LAYOUT
  5
106AB99
102
{ACAD_REACTORS
330
106AB97
102
}
330
106AB97
100
AcDbPlotSettings
  1

  2
none_device
  4

  6

 40
0.0
 41
0.0
 42
0.0
 43
0.0
 44
0.0
 45
0.0
 46
0.0
 47
0.0
 48
0.0
 49
0.0
140
0.0
141
0.0
142
1.0
143
1.0
 70
   688
 72
     0
 73
     0
 74
     5
  7

 75
    16
147
1.0
148
0.0
149
0.0
100
AcDbLayout
  1
シート 1
 70
     1
 71
     1
 10
0.0
 20
0.0
 11
0.0
 21
0.0
 12
0.0
 22
0.0
 32
0.0
 14
1.000000000000000E+20
 24
1.000000000000000E+20
 34
1.000000000000000E+20
 15
-1.000000000000000E+20
 25
-1.000000000000000E+20
 35
-1.000000000000000E+20
146
0.0
 13
0.0
 23
0.0
 33
0.0
 16
1.0
 26
0.0
 36
0.0
 17
0.0
 27
1.0
 37
0.0
 76
     0
330
31
  0
MATERIAL
  5
106ABBE
102
{ACAD_REACTORS
330
106ABBC
102
}
102
{ACAD_XDICTIONARY
360
106AC81
102
}
330
106ABBC
100
AcDbMaterial
  1
ByBlock
  0
MATERIAL
  5
106ABBD
102
{ACAD_REACTORS
330
106ABBC
102
}
102
{ACAD_XDICTIONARY
360
106AC83
102
}
330
106ABBC
100
AcDbMaterial
  1
ByLayer
  0
MATERIAL
  5
106ABBF
102
{ACAD_REACTORS
330
106ABBC
102
}
102
{ACAD_XDICTIONARY
360
106AC85
102
}
330
106ABBC
100
AcDbMaterial
  1
Global
  0
MLEADERSTYLE
  5
106ABDC
102
{ACAD_REACTORS
330
106ABDB
102
}
102
{ACAD_XDICTIONARY
360
106AC87
102
}
330
106ABDB
100
AcDbMLeaderStyle
170
     2
171
     1
172
     0
 90
        2
 40
0.0
 41
0.0
173
     1
 91
-1056964608
340
4
 92
       -2
290
     1
 42
0.09
291
     1
 43
0.36
  3
Standard
341
0
 44
0.18
300

342
28
174
     1
178
     1
175
     1
176
     0
 93
-1056964608
 45
0.18
292
     0
297
     0
 46
0.18
343
0
 94
-1056964608
 47
1.0
 49
1.0
140
1.0
293
     1
141
0.0
294
     1
177
     0
142
1.0
295
     0
296
     0
143
0.125
1001
ACAD_MLEADERVER
1070
     2
  0
MLINESTYLE
  5
106AB93
102
{ACAD_REACTORS
330
106AB92
102
}
330
106AB92
100
AcDbMlineStyle
  2
Standard
 70
     0
  3

 62
   256
 51
90.0
 52
90.0
 71
     2
 49
0.5
 62
   256
  6
BYLAYER
 49
-0.5
 62
   256
  6
BYLAYER
  0
ACDBPLACEHOLDER
  5
106AB96
102
{ACAD_REACTORS
330
106AB95
102
}
330
106AB95
  0
SCALE
  5
106AB9B
102
{ACAD_REACTORS
330
106AB9A
102
}
330
106AB9A
100
AcDbScale
 70
     0
300
1:1
140
1.0
141
1.0
290
     1
  0
SCALE
  5
106AB9C
102
{ACAD_REACTORS
330
106AB9A
102
}
330
106AB9A
100
AcDbScale
 70
     0
300
1:2
140
1.0
141
2.0
290
     0
  0
SCALE
  5
106AB9D
102
{ACAD_REACTORS
330
106AB9A
102
}
330
106AB9A
100
AcDbScale
 70
     0
300
1:4
140
1.0
141
4.0
290
     0
  0
SCALE
  5
106AB9E
102
{ACAD_REACTORS
330
106AB9A
102
}
330
106AB9A
100
AcDbScale
 70
     0
300
1:5
140
1.0
141
5.0
290
     0
  0
SCALE
  5
106AB9F
102
{ACAD_REACTORS
330
106AB9A
102
}
330
106AB9A
100
AcDbScale
 70
     0
300
1:8
140
1.0
141
8.0
290
     0
  0
SCALE
  5
106ABA0
102
{ACAD_REACTORS
330
106AB9A
102
}
330
106AB9A
100
AcDbScale
 70
     0
300
1:10
140
1.0
141
10.0
290
     0
  0
SCALE
  5
106ABA1
102
{ACAD_REACTORS
330
106AB9A
102
}
330
106AB9A
100
AcDbScale
 70
     0
300
1:16
140
1.0
141
16.0
290
     0
  0
SCALE
  5
106ABA2
102
{ACAD_REACTORS
330
106AB9A
102
}
330
106AB9A
100
AcDbScale
 70
     0
300
1:20
140
1.0
141
20.0
290
     0
  0
SCALE
  5
106ABA3
102
{ACAD_REACTORS
330
106AB9A
102
}
330
106AB9A
100
AcDbScale
 70
     0
300
1:30
140
1.0
141
30.0
290
     0
  0
SCALE
  5
106ABA4
102
{ACAD_REACTORS
330
106AB9A
102
}
330
106AB9A
100
AcDbScale
 70
     0
300
1:40
140
1.0
141
40.0
290
     0
  0
SCALE
  5
106ABA5
102
{ACAD_REACTORS
330
106AB9A
102
}
330
106AB9A
100
AcDbScale
 70
     0
300
1:50
140
1.0
141
50.0
290
     0
  0
SCALE
  5
106ABA6
102
{ACAD_REACTORS
330
106AB9A
102
}
330
106AB9A
100
AcDbScale
 70
     0
300
1:100
140
1.0
141
100.0
290
     0
  0
SCALE
  5
106ABA7
102
{ACAD_REACTORS
330
106AB9A
102
}
330
106AB9A
100
AcDbScale
 70
     0
300
2:1
140
2.0
141
1.0
290
     0
  0
SCALE
  5
106ABA8
102
{ACAD_REACTORS
330
106AB9A
102
}
330
106AB9A
100
AcDbScale
 70
     0
300
4:1
140
4.0
141
1.0
290
     0
  0
SCALE
  5
106ABA9
102
{ACAD_REACTORS
330
106AB9A
102
}
330
106AB9A
100
AcDbScale
 70
     0
300
8:1
140
8.0
141
1.0
290
     0
  0
SCALE
  5
106ABAA
102
{ACAD_REACTORS
330
106AB9A
102
}
330
106AB9A
100
AcDbScale
 70
     0
300
10:1
140
10.0
141
1.0
290
     0
  0
SCALE
  5
106ABAB
102
{ACAD_REACTORS
330
106AB9A
102
}
330
106AB9A
100
AcDbScale
 70
     0
300
100:1
140
100.0
141
1.0
290
     0
  0
SCALE
  5
106ABAC
102
{ACAD_REACTORS
330
106AB9A
102
}
330
106AB9A
100
AcDbScale
 70
     0
300
1/128" = 1'-0"
140
0.0078125
141
12.0
290
     0
  0
SCALE
  5
106ABAD
102
{ACAD_REACTORS
330
106AB9A
102
}
330
106AB9A
100
AcDbScale
 70
     0
300
1/64" = 1'-0"
140
0.015625
141
12.0
290
     0
  0
SCALE
  5
106ABAE
102
{ACAD_REACTORS
330
106AB9A
102
}
330
106AB9A
100
AcDbScale
 70
     0
300
1/32" = 1'-0"
140
0.03125
141
12.0
290
     0
  0
SCALE
  5
106ABAF
102
{ACAD_REACTORS
330
106AB9A
102
}
330
106AB9A
100
AcDbScale
 70
     0
300
1/16" = 1'-0"
140
0.0625
141
12.0
290
     0
  0
SCALE
  5
106ABB0
102
{ACAD_REACTORS
330
106AB9A
102
}
330
106AB9A
100
AcDbScale
 70
     0
300
3/32" = 1'-0"
140
0.09375
141
12.0
290
     0
  0
SCALE
  5
106ABB1
102
{ACAD_REACTORS
330
106AB9A
102
}
330
106AB9A
100
AcDbScale
 70
     0
300
1/8" = 1'-0"
140
0.125
141
12.0
290
     0
  0
SCALE
  5
106ABB2
102
{ACAD_REACTORS
330
106AB9A
102
}
330
106AB9A
100
AcDbScale
 70
     0
300
3/16" = 1'-0"
140
0.1875
141
12.0
290
     0
  0
SCALE
  5
106ABB3
102
{ACAD_REACTORS
330
106AB9A
102
}
330
106AB9A
100
AcDbScale
 70
     0
300
1/4" = 1'-0"
140
0.25
141
12.0
290
     0
  0
SCALE
  5
106ABB4
102
{ACAD_REACTORS
330
106AB9A
102
}
330
106AB9A
100
AcDbScale
 70
     0
300
3/8" = 1'-0"
140
0.375
141
12.0
290
     0
  0
SCALE
  5
106ABB5
102
{ACAD_REACTORS
330
106AB9A
102
}
330
106AB9A
100
AcDbScale
 70
     0
300
1/2" = 1'-0"
140
0.5
141
12.0
290
     0
  0
SCALE
  5
106ABB6
102
{ACAD_REACTORS
330
106AB9A
102
}
330
106AB9A
100
AcDbScale
 70
     0
300
3/4" = 1'-0"
140
0.75
141
12.0
290
     0
  0
SCALE
  5
106ABB7
102
{ACAD_REACTORS
330
106AB9A
102
}
330
106AB9A
100
AcDbScale
 70
     0
300
1" = 1'-0"
140
1.0
141
12.0
290
     0
  0
SCALE
  5
106ABB8
102
{ACAD_REACTORS
330
106AB9A
102
}
330
106AB9A
100
AcDbScale
 70
     0
300
1-1/2" = 1'-0"
140
1.5
141
12.0
290
     0
  0
SCALE
  5
106ABB9
102
{ACAD_REACTORS
330
106AB9A
102
}
330
106AB9A
100
AcDbScale
 70
     0
300
3" = 1'-0"
140
3.0
141
12.0
290
     0
  0
SCALE
  5
106ABBA
102
{ACAD_REACTORS
330
106AB9A
102
}
330
106AB9A
100
AcDbScale
 70
     0
300
6" = 1'-0"
140
6.0
141
12.0
290
     0
  0
SCALE
  5
106ABBB
102
{ACAD_REACTORS
330
106AB9A
102
}
330
106AB9A
100
AcDbScale
 70
     0
300
1'-0" = 1'-0"
140
12.0
141
12.0
290
     0
  0
TABLESTYLE
  5
106ABDA
102
{ACAD_REACTORS
330
106ABD9
102
}
330
106ABD9
100
AcDbTableStyle
  3
Standard
 70
     0
 71
     0
 40
0.06
 41
0.06
280
     0
281
     0
  7
Monospac821 BT
140
0.18
170
     2
 62
     0
 63
   257
283
     0
274
    -2
284
     1
 64
     0
275
    -2
285
     1
 65
     0
276
    -2
286
     1
 66
     0
277
    -2
287
     1
 67
     0
278
    -2
288
     1
 68
     0
279
    -2
289
     1
 69
     0
  7
Monospac821 BT
140
0.25
170
     5
 62
     0
 63
   257
283
     0
274
    -2
284
     1
 64
     0
275
    -2
285
     1
 65
     0
276
    -2
286
     1
 66
     0
277
    -2
287
     1
 67
     0
278
    -2
288
     1
 68
     0
279
    -2
289
     1
 69
     0
  7
Monospac821 BT
140
0.18
170
     5
 62
     0
 63
   257
283
     0
274
    -2
284
     1
 64
     0
275
    -2
285
     1
 65
     0
276
    -2
286
     1
 66
     0
277
    -2
287
     1
 67
     0
278
    -2
288
     1
 68
     0
279
    -2
289
     1
 69
     0
  0
VISUALSTYLE
  5
106ABC5
102
{ACAD_REACTORS
330
106ABC0
102
}
102
{ACAD_XDICTIONARY
360
106AC89
102
}
330
106ABC0
100
AcDbVisualStyle
  2
2dWireframe
 70
     4
 71
     0
 72
     2
 73
     0
 90
        0
 40
0.6
 41
30.0
 62
     5
 63
     7
 74
     1
 91
        4
 64
     7
 65
   257
 75
     1
175
     1
 42
1.0
 92
        0
 66
   257
 43
1.0
 76
     1
 77
     6
 78
     2
 67
     7
 79
     5
170
     0
171
     0
290
     0
174
     0
 93
        1
 44
0.0
173
     0
291
     0
 45
0.0
1001
ACAD
1000
AcDbSavedByObjectVersion
1070
     0
  0
VISUALSTYLE
  5
106ABC8
102
{ACAD_REACTORS
330
106ABC0
102
}
102
{ACAD_XDICTIONARY
360
106AC8B
102
}
330
106ABC0
100
AcDbVisualStyle
  2
Basic
 70
     7
 71
     1
 72
     0
 73
     1
 90
        0
 40
0.6
 41
30.0
 62
     5
 63
     7
 74
     0
 91
        4
 64
     7
 65
   257
 75
     1
175
     1
 42
1.0
 92
        8
 66
     7
 43
1.0
 76
     1
 77
     6
 78
     2
 67
     7
 79
     5
170
     0
171
     0
290
     0
174
     0
 93
        1
 44
0.0
173
     0
291
     1
 45
0.0
1001
ACAD
1000
AcDbSavedByObjectVersion
1070
     0
  0
VISUALSTYLE
  5
106ABCC
102
{ACAD_REACTORS
330
106ABC0
102
}
102
{ACAD_XDICTIONARY
360
106AC8D
102
}
330
106ABC0
100
AcDbVisualStyle
  2
Brighten
 70
    12
 71
     2
 72
     2
 73
     0
 90
        0
 40
0.6
 41
30.0
 62
     5
 63
     7
 74
     1
 91
        4
 64
     7
 65
   257
 75
     1
175
     1
 42
1.0
 92
        8
 66
     7
 43
1.0
 76
     1
 77
     6
 78
     2
 67
     7
 79
     5
170
     0
171
     0
290
     0
174
     0
 93
        1
 44
50.0
173
     0
291
     1
 45
0.0
1001
ACAD
1000
AcDbSavedByObjectVersion
1070
     0
  0
VISUALSTYLE
  5
106ABD0
102
{ACAD_REACTORS
330
106ABC0
102
}
102
{ACAD_XDICTIONARY
360
106AC8F
102
}
330
106ABC0
100
AcDbVisualStyle
  2
ColorChange
 70
    16
 71
     2
 72
     2
 73
     3
 90
        0
 40
0.6
 41
30.0
 62
     5
 63
     8
 74
     1
 91
        4
 64
     7
 65
   257
 75
     1
175
     1
 42
1.0
 92
        8
 66
     8
 43
1.0
 76
     1
 77
     6
 78
     2
 67
     7
 79
     5
170
     0
171
     0
290
     0
174
     0
 93
        1
 44
0.0
173
     0
291
     1
 45
0.0
1001
ACAD
1000
AcDbSavedByObjectVersion
1070
     0
  0
VISUALSTYLE
  5
106ABCA
102
{ACAD_REACTORS
330
106ABC0
102
}
102
{ACAD_XDICTIONARY
360
106AC91
102
}
330
106ABC0
100
AcDbVisualStyle
  2
Conceptual
 70
     9
 71
     3
 72
     2
 73
     0
 90
        0
 40
0.6
 41
30.0
 62
     5
 63
     7
 74
     2
 91
        2
 64
     7
 65
   257
 75
     1
175
     1
 42
179.0
 92
        8
 66
     7
 43
1.0
 76
     1
 77
     6
 78
     2
 67
     7
 79
     3
170
     0
171
     0
290
     0
174
     0
 93
        1
 44
0.0
173
     0
291
     0
 45
0.0
1001
ACAD
1000
AcDbSavedByObjectVersion
1070
     0
  0
VISUALSTYLE
  5
106ABCB
102
{ACAD_REACTORS
330
106ABC0
102
}
102
{ACAD_XDICTIONARY
360
106AC93
102
}
330
106ABC0
100
AcDbVisualStyle
  2
Dim
 70
    11
 71
     2
 72
     2
 73
     0
 90
        0
 40
0.6
 41
30.0
 62
     5
 63
     7
 74
     1
 91
        4
 64
     7
 65
   257
 75
     1
175
     1
 42
1.0
 92
        8
 66
     7
 43
1.0
 76
     1
 77
     6
 78
     2
 67
     7
 79
     5
170
     0
171
     0
290
     0
174
     0
 93
        1
 44
-50.0
173
     0
291
     1
 45
0.0
1001
ACAD
1000
AcDbSavedByObjectVersion
1070
     0
  0
VISUALSTYLE
  5
106ABD3
102
{ACAD_REACTORS
330
106ABC0
102
}
102
{ACAD_XDICTIONARY
360
106AC95
102
}
330
106ABC0
100
AcDbVisualStyle
  2
EdgeColorOff
 70
    22
 71
     2
 72
     2
 73
     0
 90
        0
 40
0.6
 41
30.0
 62
     5
 63
     7
 74
     1
 91
        4
 64
     7
 65
   257
 75
     1
175
     1
 42
1.0
 92
        8
 66
     7
 43
1.0
 76
     1
 77
     6
 78
     2
 67
     7
 79
     5
170
     0
171
     0
290
     0
174
     0
 93
        1
 44
0.0
173
     0
291
     1
 45
0.0
1001
ACAD
1000
AcDbSavedByObjectVersion
1070
     0
  0
VISUALSTYLE
  5
106ABCF
102
{ACAD_REACTORS
330
106ABC0
102
}
102
{ACAD_XDICTIONARY
360
106AC97
102
}
330
106ABC0
100
AcDbVisualStyle
  2
Facepattern
 70
    15
 71
     2
 72
     2
 73
     0
 90
        0
 40
0.6
 41
30.0
 62
     5
 63
     7
 74
     1
 91
        4
 64
     7
 65
   257
 75
     1
175
     1
 42
1.0
 92
        8
 66
     7
 43
1.0
 76
     1
 77
     6
 78
     2
 67
     7
 79
     5
170
     0
171
     0
290
     0
174
     0
 93
        1
 44
0.0
173
     0
291
     1
 45
0.0
1001
ACAD
1000
AcDbSavedByObjectVersion
1070
     0
  0
VISUALSTYLE
  5
106ABC1
102
{ACAD_REACTORS
330
106ABC0
102
}
102
{ACAD_XDICTIONARY
360
106AC99
102
}
330
106ABC0
100
AcDbVisualStyle
  2
Flat
 70
     0
 71
     2
 72
     1
 73
     1
 90
        2
 40
0.6
 41
30.0
 62
     5
 63
     7
 74
     0
 91
        0
 64
     7
 65
   257
 75
     1
175
     1
 42
1.0
 92
        8
 66
     7
 43
1.0
 76
     1
 77
     6
 78
     2
 67
     7
 79
     5
170
     0
171
     0
290
     0
174
     0
 93
       13
 44
0.0
173
     0
291
     1
 45
0.0
1001
ACAD
1000
AcDbSavedByObjectVersion
1070
     0
  0
VISUALSTYLE
  5
106ABC2
102
{ACAD_REACTORS
330
106ABC0
102
}
102
{ACAD_XDICTIONARY
360
106AC9B
102
}
330
106ABC0
100
AcDbVisualStyle
  2
FlatWithEdges
 70
     1
 71
     2
 72
     1
 73
     1
 90
        2
 40
0.6
 41
30.0
 62
     5
 63
     7
 74
     1
 91
        0
 64
     7
 65
   257
 75
     1
175
     1
 42
1.0
 92
        0
 66
   257
 43
1.0
 76
     1
 77
     6
 78
     2
 67
     7
 79
     5
170
     0
171
     0
290
     0
174
     0
 93
       13
 44
0.0
173
     0
291
     1
 45
0.0
1001
ACAD
1000
AcDbSavedByObjectVersion
1070
     0
  0
VISUALSTYLE
  5
106ABC3
102
{ACAD_REACTORS
330
106ABC0
102
}
102
{ACAD_XDICTIONARY
360
106AC9D
102
}
330
106ABC0
100
AcDbVisualStyle
  2
Gouraud
 70
     2
 71
     2
 72
     2
 73
     1
 90
        2
 40
0.6
 41
30.0
 62
     5
 63
     7
 74
     0
 91
        0
 64
     7
 65
   257
 75
     1
175
     1
 42
1.0
 92
        0
 66
     7
 43
1.0
 76
     1
 77
     6
 78
     2
 67
     7
 79
     5
170
     0
171
     0
290
     0
174
     0
 93
       13
 44
0.0
173
     0
291
     1
 45
0.0
1001
ACAD
1000
AcDbSavedByObjectVersion
1070
     0
  0
VISUALSTYLE
  5
106ABC4
102
{ACAD_REACTORS
330
106ABC0
102
}
102
{ACAD_XDICTIONARY
360
106AC9F
102
}
330
106ABC0
100
AcDbVisualStyle
  2
GouraudWithEdges
 70
     3
 71
     2
 72
     2
 73
     1
 90
        2
 40
0.6
 41
30.0
 62
     5
 63
     7
 74
     1
 91
        0
 64
     7
 65
   257
 75
     1
175
     1
 42
1.0
 92
        0
 66
   257
 43
1.0
 76
     1
 77
     6
 78
     2
 67
     7
 79
     5
170
     0
171
     0
290
     0
174
     0
 93
       13
 44
0.0
173
     0
291
     1
 45
0.0
1001
ACAD
1000
AcDbSavedByObjectVersion
1070
     0
  0
VISUALSTYLE
  5
106ABC7
102
{ACAD_REACTORS
330
106ABC0
102
}
102
{ACAD_XDICTIONARY
360
106ACA1
102
}
330
106ABC0
100
AcDbVisualStyle
  2
Hidden
 70
     6
 71
     1
 72
     2
 73
     2
 90
        0
 40
0.6
 41
30.0
 62
     5
 63
     7
 74
     2
 91
        2
 64
     7
 65
   257
 75
     2
175
     1
 42
40.0
 92
        0
 66
   257
 43
1.0
 76
     1
 77
     6
 78
     2
 67
     7
 79
     3
170
     0
171
     0
290
     0
174
     0
 93
        1
 44
0.0
173
     0
291
     0
 45
0.0
1001
ACAD
1000
AcDbSavedByObjectVersion
1070
     0
  0
VISUALSTYLE
  5
106ABD1
102
{ACAD_REACTORS
330
106ABC0
102
}
102
{ACAD_XDICTIONARY
360
106ACA3
102
}
330
106ABC0
100
AcDbVisualStyle
  2
JitterOff
 70
    20
 71
     2
 72
     2
 73
     0
 90
        0
 40
0.6
 41
30.0
 62
     5
 63
     7
 74
     1
 91
        4
 64
     7
 65
   257
 75
     1
175
     1
 42
1.0
 92
       10
 66
     7
 43
1.0
 76
     1
 77
     6
 78
     2
 67
     7
 79
     5
170
     0
171
     0
290
     0
174
     0
 93
        1
 44
0.0
173
     0
291
     1
 45
0.0
1001
ACAD
1000
AcDbSavedByObjectVersion
1070
     0
  0
VISUALSTYLE
  5
106ABCE
102
{ACAD_REACTORS
330
106ABC0
102
}
102
{ACAD_XDICTIONARY
360
106ACA5
102
}
330
106ABC0
100
AcDbVisualStyle
  2
Linepattern
 70
    14
 71
     2
 72
     2
 73
     0
 90
        0
 40
0.6
 41
30.0
 62
     5
 63
     7
 74
     1
 91
        4
 64
     7
 65
   257
 75
     7
175
     7
 42
1.0
 92
        8
 66
     7
 43
1.0
 76
     1
 77
     6
 78
     2
 67
     7
 79
     5
170
     0
171
     0
290
     0
174
     0
 93
        1
 44
0.0
173
     0
291
     1
 45
0.0
1001
ACAD
1000
AcDbSavedByObjectVersion
1070
     0
  0
VISUALSTYLE
  5
106ABD2
102
{ACAD_REACTORS
330
106ABC0
102
}
102
{ACAD_XDICTIONARY
360
106ACA7
102
}
330
106ABC0
100
AcDbVisualStyle
  2
OverhangOff
 70
    21
 71
     2
 72
     2
 73
     0
 90
        0
 40
0.6
 41
30.0
 62
     5
 63
     7
 74
     1
 91
        4
 64
     7
 65
   257
 75
     1
175
     1
 42
1.0
 92
        9
 66
     7
 43
1.0
 76
     1
 77
     6
 78
     2
 67
     7
 79
     5
170
     0
171
     0
290
     0
174
     0
 93
        1
 44
0.0
173
     0
291
     1
 45
0.0
1001
ACAD
1000
AcDbSavedByObjectVersion
1070
     0
  0
VISUALSTYLE
  5
106ABC9
102
{ACAD_REACTORS
330
106ABC0
102
}
102
{ACAD_XDICTIONARY
360
106ACA9
102
}
330
106ABC0
100
AcDbVisualStyle
  2
Realistic
 70
     8
 71
     2
 72
     3
 73
     0
 90
        2
 40
0.6
 41
30.0
 62
     5
 63
     7
 74
     0
 91
        0
 64
     7
 65
   257
 75
     1
175
     1
 42
1.0
 92
        8
 66
   257
 43
1.0
 76
     1
 77
     6
 78
     2
 67
     7
 79
     3
170
     0
171
     0
290
     0
174
     0
 93
       13
 44
0.0
173
     0
291
     0
 45
0.0
1001
ACAD
1000
AcDbSavedByObjectVersion
1070
     0
  0
VISUALSTYLE
  5
106ABD8
102
{ACAD_REACTORS
330
106ABC0
102
}
102
{ACAD_XDICTIONARY
360
106ACAB
102
}
330
106ABC0
100
AcDbVisualStyle
  2
Shaded
 70
    27
 71
     2
 72
     2
 73
     1
 90
        2
 40
0.6
 41
30.0
 62
     5
 63
     7
 74
     0
 91
        4
 64
     7
 65
   257
 75
     1
175
     1
 42
1.0
 92
        8
 66
   257
 43
1.0
 76
     1
 77
     6
 78
     2
 67
     8
 79
     3
170
     0
171
     0
290
     0
174
     0
 93
        5
 44
0.0
173
     0
291
     0
 45
0.0
1001
ACAD
1000
AcDbSavedByObjectVersion
1070
     0
  0
VISUALSTYLE
  5
106ABD7
102
{ACAD_REACTORS
330
106ABC0
102
}
102
{ACAD_XDICTIONARY
360
106ACAD
102
}
330
106ABC0
100
AcDbVisualStyle
  2
Shaded with edges
 70
    26
 71
     2
 72
     2
 73
     1
 90
        2
 40
0.6
 41
30.0
 62
     5
 63
     7
 74
     1
 91
       10
 64
     7
 65
   257
 75
     2
175
     1
 42
1.0
 92
        8
 66
   257
 43
1.0
 76
     1
 77
     6
 78
     2
 67
     7
 79
     3
170
     0
171
     0
290
     0
174
     0
 93
        5
 44
0.0
173
     0
291
     0
 45
0.0
1001
ACAD
1000
AcDbSavedByObjectVersion
1070
     0
  0
VISUALSTYLE
  5
106ABD4
102
{ACAD_REACTORS
330
106ABC0
102
}
102
{ACAD_XDICTIONARY
360
106ACAF
102
}
330
106ABC0
100
AcDbVisualStyle
  2
Shades of Gray
 70
    23
 71
     2
 72
     2
 73
     3
 90
        0
 40
0.6
 41
30.0
 62
     5
 63
     7
 74
     2
 91
        2
 64
     7
 65
     7
 75
     1
175
     1
 42
40.0
 92
        8
 66
     7
 43
1.0
 76
     1
 77
     6
 78
     2
 67
     7
 79
     3
170
     0
171
     0
290
     0
174
     0
 93
        1
 44
0.0
173
     0
291
     0
 45
0.0
1001
ACAD
1000
AcDbSavedByObjectVersion
1070
     0
  0
VISUALSTYLE
  5
106ABD5
102
{ACAD_REACTORS
330
106ABC0
102
}
102
{ACAD_XDICTIONARY
360
106ACB1
102
}
330
106ABC0
100
AcDbVisualStyle
  2
Sketchy
 70
    24
 71
     1
 72
     2
 73
     2
 90
        0
 40
0.6
 41
30.0
 62
     5
 63
     7
 74
     2
 91
        2
 64
     7
 65
     7
 75
     1
175
     1
 42
40.0
 92
       11
 66
     7
 43
1.0
 76
     1
 77
     6
 78
     2
 67
     7
 79
     6
170
     0
171
     0
290
     0
174
     0
 93
        1
 44
0.0
173
     0
291
     0
 45
0.0
1001
ACAD
1000
AcDbSavedByObjectVersion
1070
     0
  0
VISUALSTYLE
  5
106ABCD
102
{ACAD_REACTORS
330
106ABC0
102
}
102
{ACAD_XDICTIONARY
360
106ACB3
102
}
330
106ABC0
100
AcDbVisualStyle
  2
Thicken
 70
    13
 71
     2
 72
     2
 73
     0
 90
        0
 40
0.6
 41
30.0
 62
     5
 63
     7
 74
     1
 91
        4
 64
     7
 65
   257
 75
     1
175
     1
 42
1.0
 92
       12
 66
     7
 43
1.0
 76
     1
 77
     6
 78
     2
 67
     7
 79
     5
170
     0
171
     0
290
     0
174
     0
 93
        1
 44
0.0
173
     0
291
     1
 45
0.0
1001
ACAD
1000
AcDbSavedByObjectVersion
1070
     0
  0
VISUALSTYLE
  5
106ABC6
102
{ACAD_REACTORS
330
106ABC0
102
}
102
{ACAD_XDICTIONARY
360
106ACB5
102
}
330
106ABC0
100
AcDbVisualStyle
  2
Wireframe
 70
     5
 71
     0
 72
     2
 73
     0
 90
        0
 40
0.6
 41
30.0
 62
     5
 63
     7
 74
     1
 91
        4
 64
     7
 65
   257
 75
     1
175
     1
 42
1.0
 92
        0
 66
   257
 43
1.0
 76
     1
 77
     6
 78
     2
 67
     7
 79
     3
170
     0
171
     0
290
     0
174
     0
 93
        1
 44
0.0
173
     0
291
     0
 45
0.0
1001
ACAD
1000
AcDbSavedByObjectVersion
1070
     0
  0
VISUALSTYLE
  5
106ABD6
102
{ACAD_REACTORS
330
106ABC0
102
}
102
{ACAD_XDICTIONARY
360
106ACB7
102
}
330
106ABC0
100
AcDbVisualStyle
  2
X-Ray
 70
    25
 71
     2
 72
     2
 73
     1
 90
        1
 40
0.5
 41
30.0
 62
     5
 63
     7
 74
     1
 91
        0
 64
     7
 65
   257
 75
     1
175
     1
 42
1.0
 92
        8
 66
     7
 43
1.0
 76
     1
 77
     6
 78
     2
 67
     7
 79
     3
170
     0
171
     0
290
     0
174
     0
 93
       13
 44
0.0
173
     0
291
     0
 45
0.0
1001
ACAD
1000
AcDbSavedByObjectVersion
1070
     0
  0
DICTIONARYVAR
  5
106AC80
102
{ACAD_REACTORS
330
106ABF3
102
}
330
106ABF3
100
DictionaryVariables
280
     0
  1
1:1
  0
DICTIONARYVAR
  5
106ABF5
102
{ACAD_REACTORS
330
106ABF3
102
}
330
106ABF3
100
DictionaryVariables
280
     0
  1
Standard
  0
DICTIONARYVAR
  5
106ABF4
102
{ACAD_REACTORS
330
106ABF3
102
}
330
106ABF3
100
DictionaryVariables
280
     0
  1
Standard
  0
DICTIONARYVAR
  5
106ABF9
102
{ACAD_REACTORS
330
106ABF3
102
}
330
106ABF3
100
DictionaryVariables
280
     0
  1
2
  0
DICTIONARYVAR
  5
106ABFA
102
{ACAD_REACTORS
330
106ABF3
102
}
330
106ABF3
100
DictionaryVariables
280
     0
  1
1
  0
DICTIONARYVAR
  5
106ABF6
102
{ACAD_REACTORS
330
106ABF3
102
}
330
106ABF3
100
DictionaryVariables
280
     0
  1
0
  0
DICTIONARY
  5
106AC81
330
106ABBE
100
AcDbDictionary
280
     1
281
     1
  3
ACAD_XREC_ROUNDTRIP
360
106AC82
  0
DICTIONARY
  5
106AC83
330
106ABBD
100
AcDbDictionary
280
     1
281
     1
  3
ACAD_XREC_ROUNDTRIP
360
106AC84
  0
DICTIONARY
  5
106AC85
330
106ABBF
100
AcDbDictionary
280
     1
281
     1
  3
ACAD_XREC_ROUNDTRIP
360
106AC86
  0
DICTIONARY
  5
106AC87
330
106ABDC
100
AcDbDictionary
280
     1
281
     1
  3
ACAD_XREC_ROUNDTRIP
360
106AC88
  0
DICTIONARY
  5
106AC89
330
106ABC5
100
AcDbDictionary
280
     1
281
     1
  3
ACAD_XREC_ROUNDTRIP
360
106AC8A
  0
DICTIONARY
  5
106AC8B
330
106ABC8
100
AcDbDictionary
280
     1
281
     1
  3
ACAD_XREC_ROUNDTRIP
360
106AC8C
  0
DICTIONARY
  5
106AC8D
330
106ABCC
100
AcDbDictionary
280
     1
281
     1
  3
ACAD_XREC_ROUNDTRIP
360
106AC8E
  0
DICTIONARY
  5
106AC8F
330
106ABD0
100
AcDbDictionary
280
     1
281
     1
  3
ACAD_XREC_ROUNDTRIP
360
106AC90
  0
DICTIONARY
  5
106AC91
330
106ABCA
100
AcDbDictionary
280
     1
281
     1
  3
ACAD_XREC_ROUNDTRIP
360
106AC92
  0
DICTIONARY
  5
106AC93
330
106ABCB
100
AcDbDictionary
280
     1
281
     1
  3
ACAD_XREC_ROUNDTRIP
360
106AC94
  0
DICTIONARY
  5
106AC95
330
106ABD3
100
AcDbDictionary
280
     1
281
     1
  3
ACAD_XREC_ROUNDTRIP
360
106AC96
  0
DICTIONARY
  5
106AC97
330
106ABCF
100
AcDbDictionary
280
     1
281
     1
  3
ACAD_XREC_ROUNDTRIP
360
106AC98
  0
DICTIONARY
  5
106AC99
330
106ABC1
100
AcDbDictionary
280
     1
281
     1
  3
ACAD_XREC_ROUNDTRIP
360
106AC9A
  0
DICTIONARY
  5
106AC9B
330
106ABC2
100
AcDbDictionary
280
     1
281
     1
  3
ACAD_XREC_ROUNDTRIP
360
106AC9C
  0
DICTIONARY
  5
106AC9D
330
106ABC3
100
AcDbDictionary
280
     1
281
     1
  3
ACAD_XREC_ROUNDTRIP
360
106AC9E
  0
DICTIONARY
  5
106AC9F
330
106ABC4
100
AcDbDictionary
280
     1
281
     1
  3
ACAD_XREC_ROUNDTRIP
360
106ACA0
  0
DICTIONARY
  5
106ACA1
330
106ABC7
100
AcDbDictionary
280
     1
281
     1
  3
ACAD_XREC_ROUNDTRIP
360
106ACA2
  0
DICTIONARY
  5
106ACA3
330
106ABD1
100
AcDbDictionary
280
     1
281
     1
  3
ACAD_XREC_ROUNDTRIP
360
106ACA4
  0
DICTIONARY
  5
106ACA5
330
106ABCE
100
AcDbDictionary
280
     1
281
     1
  3
ACAD_XREC_ROUNDTRIP
360
106ACA6
  0
DICTIONARY
  5
106ACA7
330
106ABD2
100
AcDbDictionary
280
     1
281
     1
  3
ACAD_XREC_ROUNDTRIP
360
106ACA8
  0
DICTIONARY
  5
106ACA9
330
106ABC9
100
AcDbDictionary
280
     1
281
     1
  3
ACAD_XREC_ROUNDTRIP
360
106ACAA
  0
DICTIONARY
  5
106ACAB
330
106ABD8
100
AcDbDictionary
280
     1
281
     1
  3
ACAD_XREC_ROUNDTRIP
360
106ACAC
  0
DICTIONARY
  5
106ACAD
330
106ABD7
100
AcDbDictionary
280
     1
281
     1
  3
ACAD_XREC_ROUNDTRIP
360
106ACAE
  0
DICTIONARY
  5
106ACAF
330
106ABD4
100
AcDbDictionary
280
     1
281
     1
  3
ACAD_XREC_ROUNDTRIP
360
106ACB0
  0
DICTIONARY
  5
106ACB1
330
106ABD5
100
AcDbDictionary
280
     1
281
     1
  3
ACAD_XREC_ROUNDTRIP
360
106ACB2
  0
DICTIONARY
  5
106ACB3
330
106ABCD
100
AcDbDictionary
280
     1
281
     1
  3
ACAD_XREC_ROUNDTRIP
360
106ACB4
  0
DICTIONARY
  5
106ACB5
330
106ABC6
100
AcDbDictionary
280
     1
281
     1
  3
ACAD_XREC_ROUNDTRIP
360
106ACB6
  0
DICTIONARY
  5
106ACB7
330
106ABD6
100
AcDbDictionary
280
     1
281
     1
  3
ACAD_XREC_ROUNDTRIP
360
106ACB8
  0
XRECORD
  5
106AC82
102
{ACAD_REACTORS
330
106AC81
102
}
330
106AC81
100
AcDbXrecord
280
     1
102
MATERIAL
148
0.0
149
0.0
149
0.0
 93
        0
 94
      127
282
     0
 72
     1
 77
     1
171
     1
175
     1
179
     1
273
     0
  0
XRECORD
  5
106AC84
102
{ACAD_REACTORS
330
106AC83
102
}
330
106AC83
100
AcDbXrecord
280
     1
102
MATERIAL
148
0.0
149
0.0
149
0.0
 93
        0
 94
      127
282
     0
 72
     1
 77
     1
171
     1
175
     1
179
     1
273
     0
  0
XRECORD
  5
106AC86
102
{ACAD_REACTORS
330
106AC85
102
}
330
106AC85
100
AcDbXrecord
280
     1
102
MATERIAL
148
0.0
149
0.0
149
0.0
 93
        0
 94
      127
282
     0
 72
     1
 77
     1
171
     1
175
     1
179
     1
273
     0
  0
XRECORD
  5
106AC88
102
{ACAD_REACTORS
330
106AC87
102
}
330
106AC87
100
AcDbXrecord
280
     1
102
ACAD_ROUNDTRIP_2010_MLEADER_STYLE
  0
XRECORD
  5
106AC8A
102
{ACAD_REACTORS
330
106AC89
102
}
330
106AC89
100
AcDbXrecord
280
     1
102
RTVSPropertyOp0
 70
     1
102
RTVSPropertyOp1
 70
     1
102
RTVSPropertyOp2
 70
     1
102
RTVSPropertyOp3
 70
     1
102
RTVSPropertyOp4
 70
     1
102
RTVSPropertyOp5
 70
     1
102
RTVSPropertyOp6
 70
     1
102
RTVSPropertyOp7
 70
     1
102
RTVSPropertyOp8
 70
     1
102
RTVSPropertyOp9
 70
     1
102
RTVSPropertyOp10
 70
     1
102
RTVSPropertyOp11
 70
     1
102
RTVSPropertyOp12
 70
     1
102
RTVSPropertyOp13
 70
     1
102
RTVSPropertyOp14
 70
     1
102
RTVSPropertyOp15
 70
     1
102
RTVSPropertyOp16
 70
     1
102
RTVSPropertyOp17
 70
     1
102
RTVSPropertyOp18
 70
     1
102
RTVSPropertyOp19
 70
     1
102
RTVSPropertyOp20
 70
     1
102
RTVSPropertyOp21
 70
     1
102
RTVSPropertyOp22
 70
     1
102
RTVSPropertyOp23
 70
     1
102
RTVSPropertyOp24
 70
     1
102
RTVSPropertyOp25
 70
     1
102
RTVSPropertyOp26
 70
     1
102
RTVSPropertyOp27
 70
     1
102
RTVSPropertyOp28
 70
     1
102
RTVSPropertyOp29
 70
     1
102
RTVSPropertyOp30
 70
     1
102
RTVSPropertyOp31
 70
     1
102
RTVSPropertyOp32
 70
     1
102
RTVSPropertyOp33
 70
     1
102
RTVSPropertyOp34
 70
     1
102
RTVSPropertyOp35
 70
     1
102
RTVSPropertyOp36
 70
     1
102
RTVSPropertyOp37
 70
     1
102
RTVSPropertyOp38
 70
     1
102
RTVSPropertyOp39
 70
     1
102
RTVSPropertyOp40
 70
     1
102
RTVSPropertyOp41
 70
     1
102
RTVSPropertyOp42
 70
     1
102
RTVSPropertyOp43
 70
     1
102
RTVSPropertyOp44
 70
     1
102
RTVSPropertyOp45
 70
     1
102
RTVSPropertyOp46
 70
     1
102
RTVSPropertyOp47
 70
     1
102
RTVSPropertyOp48
 70
     1
102
RTVSPropertyOp49
 70
     1
102
RTVSPropertyOp50
 70
     1
102
RTVSPropertyOp51
 70
     0
102
RTVSPropertyOp52
 70
     0
102
RTVSPropertyOp53
 70
     1
102
RTVSPropertyOp54
 70
     1
102
RTVSPropertyOp55
 70
     1
102
RTVSPropertyOp56
 70
     1
102
RTVSPropertyOp57
 70
     1
102
RTVSPost2010Prop28
280
     1
102
RTVSPost2010PropOp28
 70
     1
102
RTVSPost2010Prop29
280
     1
102
RTVSPost2010PropOp29
 70
     1
102
RTVSPost2010Prop30
280
     0
102
RTVSPost2010PropOp30
 70
     1
102
RTVSPost2010Prop31
280
     0
102
RTVSPost2010PropOp31
 70
     1
102
RTVSPost2010Prop32
280
     0
102
RTVSPost2010PropOp32
 70
     1
102
RTVSPost2010Prop33
280
     0
102
RTVSPost2010PropOp33
 70
     1
102
RTVSPost2010Prop34
280
     0
102
RTVSPost2010PropOp34
 70
     1
102
RTVSPost2010Prop35
280
     0
102
RTVSPost2010PropOp35
 70
     1
102
RTVSPost2010Prop36
280
     0
102
RTVSPost2010PropOp36
 70
     1
102
RTVSPost2010Prop37
 90
       50
102
RTVSPost2010PropOp37
 70
     1
102
RTVSPost2010Prop38
140
0.0
102
RTVSPost2010PropOp38
 70
     1
102
RTVSPost2010Prop39
140
1.0
102
RTVSPost2010PropOp39
 70
     1
102
RTVSPost2010Prop40
 90
        0
102
RTVSPost2010PropOp40
 70
     1
102
RTVSPost2010Prop41ColorIndex
 90
       18
102
RTVSPost2010Prop41ColorRGB
 90
        0
102
RTVSPost2010PropOp41
 70
     1
102
RTVSPost2010Prop42
 90
       50
102
RTVSPost2010PropOp42
 70
     1
102
RTVSPost2010Prop43
 90
        3
102
RTVSPost2010PropOp43
 70
     1
102
RTVSPost2010Prop44ColorIndex
 90
        5
102
RTVSPost2010Prop44ColorRGB
 90
      255
102
RTVSPost2010PropOp44
 70
     1
102
RTVSPost2010Prop45
280
     0
102
RTVSPost2010PropOp45
 70
     1
102
RTVSPost2010Prop46
 90
       50
102
RTVSPost2010PropOp46
 70
     1
102
RTVSPost2010Prop47
 90
       50
102
RTVSPost2010PropOp47
 70
     1
102
RTVSPost2010Prop48
 90
       50
102
RTVSPost2010PropOp48
 70
     1
102
RTVSPost2010Prop49
280
     0
102
RTVSPost2010PropOp49
 70
     1
102
RTVSPost2010Prop50
 90
       50
102
RTVSPost2010PropOp50
 70
     1
102
RTVSPost2010Prop51ColorIndex
 90
      256
102
RTVSPost2010Prop51ColorRGB
 90
-16777216
102
RTVSPost2010PropOp51
 70
     0
102
RTVSPost2010Prop52
140
1.0
102
RTVSPost2010PropOp52
 70
     0
102
RTVSPost2010Prop53
 90
        2
102
RTVSPost2010PropOp53
 70
     1
102
RTVSPost2010Prop54
  1
strokes_ogs.tif
102
RTVSPost2010PropOp54
 70
     1
102
RTVSPost2010Prop55
280
     0
102
RTVSPost2010PropOp55
 70
     1
102
RTVSPost2010Prop56
140
1.0
102
RTVSPost2010PropOp56
 70
     1
102
RTVSPost2010Prop57
140
1.0
102
RTVSPost2010PropOp57
 70
     1
  0
XRECORD
  5
106AC8C
102
{ACAD_REACTORS
330
106AC8B
102
}
330
106AC8B
100
AcDbXrecord
280
     1
102
RTVSPropertyOp0
 70
     1
102
RTVSPropertyOp1
 70
     1
102
RTVSPropertyOp2
 70
     1
102
RTVSPropertyOp3
 70
     1
102
RTVSPropertyOp4
 70
     1
102
RTVSPropertyOp5
 70
     1
102
RTVSPropertyOp6
 70
     1
102
RTVSPropertyOp7
 70
     1
102
RTVSPropertyOp8
 70
     1
102
RTVSPropertyOp9
 70
     1
102
RTVSPropertyOp10
 70
     1
102
RTVSPropertyOp11
 70
     1
102
RTVSPropertyOp12
 70
     1
102
RTVSPropertyOp13
 70
     1
102
RTVSPropertyOp14
 70
     1
102
RTVSPropertyOp15
 70
     1
102
RTVSPropertyOp16
 70
     1
102
RTVSPropertyOp17
 70
     1
102
RTVSPropertyOp18
 70
     1
102
RTVSPropertyOp19
 70
     1
102
RTVSPropertyOp20
 70
     1
102
RTVSPropertyOp21
 70
     1
102
RTVSPropertyOp22
 70
     1
102
RTVSPropertyOp23
 70
     1
102
RTVSPropertyOp24
 70
     1
102
RTVSPropertyOp25
 70
     1
102
RTVSPropertyOp26
 70
     1
102
RTVSPropertyOp27
 70
     1
102
RTVSPropertyOp28
 70
     1
102
RTVSPropertyOp29
 70
     1
102
RTVSPropertyOp30
 70
     1
102
RTVSPropertyOp31
 70
     1
102
RTVSPropertyOp32
 70
     1
102
RTVSPropertyOp33
 70
     1
102
RTVSPropertyOp34
 70
     1
102
RTVSPropertyOp35
 70
     1
102
RTVSPropertyOp36
 70
     1
102
RTVSPropertyOp37
 70
     1
102
RTVSPropertyOp38
 70
     1
102
RTVSPropertyOp39
 70
     1
102
RTVSPropertyOp40
 70
     1
102
RTVSPropertyOp41
 70
     1
102
RTVSPropertyOp42
 70
     1
102
RTVSPropertyOp43
 70
     1
102
RTVSPropertyOp44
 70
     1
102
RTVSPropertyOp45
 70
     1
102
RTVSPropertyOp46
 70
     1
102
RTVSPropertyOp47
 70
     1
102
RTVSPropertyOp48
 70
     1
102
RTVSPropertyOp49
 70
     1
102
RTVSPropertyOp50
 70
     1
102
RTVSPropertyOp51
 70
     0
102
RTVSPropertyOp52
 70
     0
102
RTVSPropertyOp53
 70
     1
102
RTVSPropertyOp54
 70
     1
102
RTVSPropertyOp55
 70
     1
102
RTVSPropertyOp56
 70
     1
102
RTVSPropertyOp57
 70
     1
102
RTVSPost2010Prop28
280
     0
102
RTVSPost2010PropOp28
 70
     1
102
RTVSPost2010Prop29
280
     1
102
RTVSPost2010PropOp29
 70
     1
102
RTVSPost2010Prop30
280
     1
102
RTVSPost2010PropOp30
 70
     1
102
RTVSPost2010Prop31
280
     0
102
RTVSPost2010PropOp31
 70
     1
102
RTVSPost2010Prop32
280
     0
102
RTVSPost2010PropOp32
 70
     1
102
RTVSPost2010Prop33
280
     0
102
RTVSPost2010PropOp33
 70
     1
102
RTVSPost2010Prop34
280
     0
102
RTVSPost2010PropOp34
 70
     1
102
RTVSPost2010Prop35
280
     0
102
RTVSPost2010PropOp35
 70
     1
102
RTVSPost2010Prop36
280
     0
102
RTVSPost2010PropOp36
 70
     1
102
RTVSPost2010Prop37
 90
       50
102
RTVSPost2010PropOp37
 70
     1
102
RTVSPost2010Prop38
140
0.0
102
RTVSPost2010PropOp38
 70
     1
102
RTVSPost2010Prop39
140
1.0
102
RTVSPost2010PropOp39
 70
     1
102
RTVSPost2010Prop40
 90
        0
102
RTVSPost2010PropOp40
 70
     1
102
RTVSPost2010Prop41ColorIndex
 90
       18
102
RTVSPost2010Prop41ColorRGB
 90
        0
102
RTVSPost2010PropOp41
 70
     1
102
RTVSPost2010Prop42
 90
       50
102
RTVSPost2010PropOp42
 70
     1
102
RTVSPost2010Prop43
 90
        3
102
RTVSPost2010PropOp43
 70
     1
102
RTVSPost2010Prop44ColorIndex
 90
        5
102
RTVSPost2010Prop44ColorRGB
 90
      255
102
RTVSPost2010PropOp44
 70
     1
102
RTVSPost2010Prop45
280
     0
102
RTVSPost2010PropOp45
 70
     1
102
RTVSPost2010Prop46
 90
       50
102
RTVSPost2010PropOp46
 70
     1
102
RTVSPost2010Prop47
 90
       50
102
RTVSPost2010PropOp47
 70
     1
102
RTVSPost2010Prop48
 90
       50
102
RTVSPost2010PropOp48
 70
     1
102
RTVSPost2010Prop49
280
     0
102
RTVSPost2010PropOp49
 70
     1
102
RTVSPost2010Prop50
 90
       50
102
RTVSPost2010PropOp50
 70
     1
102
RTVSPost2010Prop51ColorIndex
 90
      256
102
RTVSPost2010Prop51ColorRGB
 90
-16777216
102
RTVSPost2010PropOp51
 70
     0
102
RTVSPost2010Prop52
140
1.0
102
RTVSPost2010PropOp52
 70
     0
102
RTVSPost2010Prop53
 90
        2
102
RTVSPost2010PropOp53
 70
     1
102
RTVSPost2010Prop54
  1
strokes_ogs.tif
102
RTVSPost2010PropOp54
 70
     1
102
RTVSPost2010Prop55
280
     0
102
RTVSPost2010PropOp55
 70
     1
102
RTVSPost2010Prop56
140
1.0
102
RTVSPost2010PropOp56
 70
     1
102
RTVSPost2010Prop57
140
1.0
102
RTVSPost2010PropOp57
 70
     1
  0
XRECORD
  5
106AC8E
102
{ACAD_REACTORS
330
106AC8D
102
}
330
106AC8D
100
AcDbXrecord
280
     1
102
RTVSPropertyOp0
 70
     1
102
RTVSPropertyOp1
 70
     1
102
RTVSPropertyOp2
 70
     1
102
RTVSPropertyOp3
 70
     1
102
RTVSPropertyOp4
 70
     1
102
RTVSPropertyOp5
 70
     1
102
RTVSPropertyOp6
 70
     1
102
RTVSPropertyOp7
 70
     1
102
RTVSPropertyOp8
 70
     1
102
RTVSPropertyOp9
 70
     1
102
RTVSPropertyOp10
 70
     1
102
RTVSPropertyOp11
 70
     1
102
RTVSPropertyOp12
 70
     1
102
RTVSPropertyOp13
 70
     1
102
RTVSPropertyOp14
 70
     1
102
RTVSPropertyOp15
 70
     1
102
RTVSPropertyOp16
 70
     1
102
RTVSPropertyOp17
 70
     1
102
RTVSPropertyOp18
 70
     1
102
RTVSPropertyOp19
 70
     1
102
RTVSPropertyOp20
 70
     1
102
RTVSPropertyOp21
 70
     1
102
RTVSPropertyOp22
 70
     1
102
RTVSPropertyOp23
 70
     1
102
RTVSPropertyOp24
 70
     1
102
RTVSPropertyOp25
 70
     1
102
RTVSPropertyOp26
 70
     1
102
RTVSPropertyOp27
 70
     1
102
RTVSPropertyOp28
 70
     1
102
RTVSPropertyOp29
 70
     1
102
RTVSPropertyOp30
 70
     1
102
RTVSPropertyOp31
 70
     1
102
RTVSPropertyOp32
 70
     1
102
RTVSPropertyOp33
 70
     1
102
RTVSPropertyOp34
 70
     1
102
RTVSPropertyOp35
 70
     1
102
RTVSPropertyOp36
 70
     1
102
RTVSPropertyOp37
 70
     1
102
RTVSPropertyOp38
 70
     1
102
RTVSPropertyOp39
 70
     1
102
RTVSPropertyOp40
 70
     1
102
RTVSPropertyOp41
 70
     1
102
RTVSPropertyOp42
 70
     1
102
RTVSPropertyOp43
 70
     1
102
RTVSPropertyOp44
 70
     1
102
RTVSPropertyOp45
 70
     1
102
RTVSPropertyOp46
 70
     1
102
RTVSPropertyOp47
 70
     1
102
RTVSPropertyOp48
 70
     1
102
RTVSPropertyOp49
 70
     1
102
RTVSPropertyOp50
 70
     1
102
RTVSPropertyOp51
 70
     0
102
RTVSPropertyOp52
 70
     0
102
RTVSPropertyOp53
 70
     1
102
RTVSPropertyOp54
 70
     1
102
RTVSPropertyOp55
 70
     1
102
RTVSPropertyOp56
 70
     1
102
RTVSPropertyOp57
 70
     1
102
RTVSPost2010Prop28
280
     0
102
RTVSPost2010PropOp28
 70
     1
102
RTVSPost2010Prop29
280
     1
102
RTVSPost2010PropOp29
 70
     1
102
RTVSPost2010Prop30
280
     1
102
RTVSPost2010PropOp30
 70
     1
102
RTVSPost2010Prop31
280
     0
102
RTVSPost2010PropOp31
 70
     1
102
RTVSPost2010Prop32
280
     0
102
RTVSPost2010PropOp32
 70
     1
102
RTVSPost2010Prop33
280
     0
102
RTVSPost2010PropOp33
 70
     1
102
RTVSPost2010Prop34
280
     0
102
RTVSPost2010PropOp34
 70
     1
102
RTVSPost2010Prop35
280
     0
102
RTVSPost2010PropOp35
 70
     1
102
RTVSPost2010Prop36
280
     0
102
RTVSPost2010PropOp36
 70
     1
102
RTVSPost2010Prop37
 90
       50
102
RTVSPost2010PropOp37
 70
     1
102
RTVSPost2010Prop38
140
0.0
102
RTVSPost2010PropOp38
 70
     1
102
RTVSPost2010Prop39
140
1.0
102
RTVSPost2010PropOp39
 70
     1
102
RTVSPost2010Prop40
 90
        0
102
RTVSPost2010PropOp40
 70
     1
102
RTVSPost2010Prop41ColorIndex
 90
       18
102
RTVSPost2010Prop41ColorRGB
 90
        0
102
RTVSPost2010PropOp41
 70
     1
102
RTVSPost2010Prop42
 90
       50
102
RTVSPost2010PropOp42
 70
     1
102
RTVSPost2010Prop43
 90
        3
102
RTVSPost2010PropOp43
 70
     1
102
RTVSPost2010Prop44ColorIndex
 90
        5
102
RTVSPost2010Prop44ColorRGB
 90
      255
102
RTVSPost2010PropOp44
 70
     1
102
RTVSPost2010Prop45
280
     0
102
RTVSPost2010PropOp45
 70
     1
102
RTVSPost2010Prop46
 90
       50
102
RTVSPost2010PropOp46
 70
     1
102
RTVSPost2010Prop47
 90
       50
102
RTVSPost2010PropOp47
 70
     1
102
RTVSPost2010Prop48
 90
       50
102
RTVSPost2010PropOp48
 70
     1
102
RTVSPost2010Prop49
280
     0
102
RTVSPost2010PropOp49
 70
     1
102
RTVSPost2010Prop50
 90
       50
102
RTVSPost2010PropOp50
 70
     1
102
RTVSPost2010Prop51ColorIndex
 90
      256
102
RTVSPost2010Prop51ColorRGB
 90
-16777216
102
RTVSPost2010PropOp51
 70
     0
102
RTVSPost2010Prop52
140
1.0
102
RTVSPost2010PropOp52
 70
     0
102
RTVSPost2010Prop53
 90
        2
102
RTVSPost2010PropOp53
 70
     1
102
RTVSPost2010Prop54
  1
strokes_ogs.tif
102
RTVSPost2010PropOp54
 70
     1
102
RTVSPost2010Prop55
280
     0
102
RTVSPost2010PropOp55
 70
     1
102
RTVSPost2010Prop56
140
1.0
102
RTVSPost2010PropOp56
 70
     1
102
RTVSPost2010Prop57
140
1.0
102
RTVSPost2010PropOp57
 70
     1
  0
XRECORD
  5
106AC90
102
{ACAD_REACTORS
330
106AC8F
102
}
330
106AC8F
100
AcDbXrecord
280
     1
102
RTVSPropertyOp0
 70
     1
102
RTVSPropertyOp1
 70
     1
102
RTVSPropertyOp2
 70
     1
102
RTVSPropertyOp3
 70
     1
102
RTVSPropertyOp4
 70
     1
102
RTVSPropertyOp5
 70
     1
102
RTVSPropertyOp6
 70
     1
102
RTVSPropertyOp7
 70
     1
102
RTVSPropertyOp8
 70
     1
102
RTVSPropertyOp9
 70
     1
102
RTVSPropertyOp10
 70
     1
102
RTVSPropertyOp11
 70
     1
102
RTVSPropertyOp12
 70
     1
102
RTVSPropertyOp13
 70
     1
102
RTVSPropertyOp14
 70
     1
102
RTVSPropertyOp15
 70
     1
102
RTVSPropertyOp16
 70
     1
102
RTVSPropertyOp17
 70
     1
102
RTVSPropertyOp18
 70
     1
102
RTVSPropertyOp19
 70
     1
102
RTVSPropertyOp20
 70
     1
102
RTVSPropertyOp21
 70
     1
102
RTVSPropertyOp22
 70
     1
102
RTVSPropertyOp23
 70
     1
102
RTVSPropertyOp24
 70
     1
102
RTVSPropertyOp25
 70
     1
102
RTVSPropertyOp26
 70
     1
102
RTVSPropertyOp27
 70
     1
102
RTVSPropertyOp28
 70
     1
102
RTVSPropertyOp29
 70
     1
102
RTVSPropertyOp30
 70
     1
102
RTVSPropertyOp31
 70
     1
102
RTVSPropertyOp32
 70
     1
102
RTVSPropertyOp33
 70
     1
102
RTVSPropertyOp34
 70
     1
102
RTVSPropertyOp35
 70
     1
102
RTVSPropertyOp36
 70
     1
102
RTVSPropertyOp37
 70
     1
102
RTVSPropertyOp38
 70
     1
102
RTVSPropertyOp39
 70
     1
102
RTVSPropertyOp40
 70
     1
102
RTVSPropertyOp41
 70
     1
102
RTVSPropertyOp42
 70
     1
102
RTVSPropertyOp43
 70
     1
102
RTVSPropertyOp44
 70
     1
102
RTVSPropertyOp45
 70
     1
102
RTVSPropertyOp46
 70
     1
102
RTVSPropertyOp47
 70
     1
102
RTVSPropertyOp48
 70
     1
102
RTVSPropertyOp49
 70
     1
102
RTVSPropertyOp50
 70
     1
102
RTVSPropertyOp51
 70
     0
102
RTVSPropertyOp52
 70
     0
102
RTVSPropertyOp53
 70
     1
102
RTVSPropertyOp54
 70
     1
102
RTVSPropertyOp55
 70
     1
102
RTVSPropertyOp56
 70
     1
102
RTVSPropertyOp57
 70
     1
102
RTVSPost2010Prop28
280
     0
102
RTVSPost2010PropOp28
 70
     1
102
RTVSPost2010Prop29
280
     1
102
RTVSPost2010PropOp29
 70
     1
102
RTVSPost2010Prop30
280
     1
102
RTVSPost2010PropOp30
 70
     1
102
RTVSPost2010Prop31
280
     0
102
RTVSPost2010PropOp31
 70
     1
102
RTVSPost2010Prop32
280
     0
102
RTVSPost2010PropOp32
 70
     1
102
RTVSPost2010Prop33
280
     0
102
RTVSPost2010PropOp33
 70
     1
102
RTVSPost2010Prop34
280
     0
102
RTVSPost2010PropOp34
 70
     1
102
RTVSPost2010Prop35
280
     0
102
RTVSPost2010PropOp35
 70
     1
102
RTVSPost2010Prop36
280
     0
102
RTVSPost2010PropOp36
 70
     1
102
RTVSPost2010Prop37
 90
       50
102
RTVSPost2010PropOp37
 70
     1
102
RTVSPost2010Prop38
140
0.0
102
RTVSPost2010PropOp38
 70
     1
102
RTVSPost2010Prop39
140
1.0
102
RTVSPost2010PropOp39
 70
     1
102
RTVSPost2010Prop40
 90
        0
102
RTVSPost2010PropOp40
 70
     1
102
RTVSPost2010Prop41ColorIndex
 90
       18
102
RTVSPost2010Prop41ColorRGB
 90
        0
102
RTVSPost2010PropOp41
 70
     1
102
RTVSPost2010Prop42
 90
       50
102
RTVSPost2010PropOp42
 70
     1
102
RTVSPost2010Prop43
 90
        3
102
RTVSPost2010PropOp43
 70
     1
102
RTVSPost2010Prop44ColorIndex
 90
        5
102
RTVSPost2010Prop44ColorRGB
 90
      255
102
RTVSPost2010PropOp44
 70
     1
102
RTVSPost2010Prop45
280
     0
102
RTVSPost2010PropOp45
 70
     1
102
RTVSPost2010Prop46
 90
       50
102
RTVSPost2010PropOp46
 70
     1
102
RTVSPost2010Prop47
 90
       50
102
RTVSPost2010PropOp47
 70
     1
102
RTVSPost2010Prop48
 90
       50
102
RTVSPost2010PropOp48
 70
     1
102
RTVSPost2010Prop49
280
     0
102
RTVSPost2010PropOp49
 70
     1
102
RTVSPost2010Prop50
 90
       50
102
RTVSPost2010PropOp50
 70
     1
102
RTVSPost2010Prop51ColorIndex
 90
      256
102
RTVSPost2010Prop51ColorRGB
 90
-16777216
102
RTVSPost2010PropOp51
 70
     0
102
RTVSPost2010Prop52
140
1.0
102
RTVSPost2010PropOp52
 70
     0
102
RTVSPost2010Prop53
 90
        2
102
RTVSPost2010PropOp53
 70
     1
102
RTVSPost2010Prop54
  1
strokes_ogs.tif
102
RTVSPost2010PropOp54
 70
     1
102
RTVSPost2010Prop55
280
     0
102
RTVSPost2010PropOp55
 70
     1
102
RTVSPost2010Prop56
140
1.0
102
RTVSPost2010PropOp56
 70
     1
102
RTVSPost2010Prop57
140
1.0
102
RTVSPost2010PropOp57
 70
     1
  0
XRECORD
  5
106AC92
102
{ACAD_REACTORS
330
106AC91
102
}
330
106AC91
100
AcDbXrecord
280
     1
102
RTVSPropertyOp0
 70
     1
102
RTVSPropertyOp1
 70
     1
102
RTVSPropertyOp2
 70
     1
102
RTVSPropertyOp3
 70
     1
102
RTVSPropertyOp4
 70
     1
102
RTVSPropertyOp5
 70
     1
102
RTVSPropertyOp6
 70
     1
102
RTVSPropertyOp7
 70
     1
102
RTVSPropertyOp8
 70
     1
102
RTVSPropertyOp9
 70
     1
102
RTVSPropertyOp10
 70
     1
102
RTVSPropertyOp11
 70
     1
102
RTVSPropertyOp12
 70
     1
102
RTVSPropertyOp13
 70
     1
102
RTVSPropertyOp14
 70
     1
102
RTVSPropertyOp15
 70
     1
102
RTVSPropertyOp16
 70
     1
102
RTVSPropertyOp17
 70
     1
102
RTVSPropertyOp18
 70
     1
102
RTVSPropertyOp19
 70
     1
102
RTVSPropertyOp20
 70
     1
102
RTVSPropertyOp21
 70
     1
102
RTVSPropertyOp22
 70
     1
102
RTVSPropertyOp23
 70
     1
102
RTVSPropertyOp24
 70
     1
102
RTVSPropertyOp25
 70
     1
102
RTVSPropertyOp26
 70
     1
102
RTVSPropertyOp27
 70
     1
102
RTVSPropertyOp28
 70
     1
102
RTVSPropertyOp29
 70
     1
102
RTVSPropertyOp30
 70
     1
102
RTVSPropertyOp31
 70
     1
102
RTVSPropertyOp32
 70
     1
102
RTVSPropertyOp33
 70
     1
102
RTVSPropertyOp34
 70
     1
102
RTVSPropertyOp35
 70
     1
102
RTVSPropertyOp36
 70
     1
102
RTVSPropertyOp37
 70
     1
102
RTVSPropertyOp38
 70
     1
102
RTVSPropertyOp39
 70
     1
102
RTVSPropertyOp40
 70
     1
102
RTVSPropertyOp41
 70
     1
102
RTVSPropertyOp42
 70
     1
102
RTVSPropertyOp43
 70
     1
102
RTVSPropertyOp44
 70
     1
102
RTVSPropertyOp45
 70
     1
102
RTVSPropertyOp46
 70
     1
102
RTVSPropertyOp47
 70
     1
102
RTVSPropertyOp48
 70
     1
102
RTVSPropertyOp49
 70
     1
102
RTVSPropertyOp50
 70
     1
102
RTVSPropertyOp51
 70
     0
102
RTVSPropertyOp52
 70
     0
102
RTVSPropertyOp53
 70
     1
102
RTVSPropertyOp54
 70
     1
102
RTVSPropertyOp55
 70
     1
102
RTVSPropertyOp56
 70
     1
102
RTVSPropertyOp57
 70
     1
102
RTVSPost2010Prop28
280
     0
102
RTVSPost2010PropOp28
 70
     1
102
RTVSPost2010Prop29
280
     1
102
RTVSPost2010PropOp29
 70
     1
102
RTVSPost2010Prop30
280
     1
102
RTVSPost2010PropOp30
 70
     1
102
RTVSPost2010Prop31
280
     0
102
RTVSPost2010PropOp31
 70
     1
102
RTVSPost2010Prop32
280
     0
102
RTVSPost2010PropOp32
 70
     1
102
RTVSPost2010Prop33
280
     0
102
RTVSPost2010PropOp33
 70
     1
102
RTVSPost2010Prop34
280
     0
102
RTVSPost2010PropOp34
 70
     1
102
RTVSPost2010Prop35
280
     0
102
RTVSPost2010PropOp35
 70
     1
102
RTVSPost2010Prop36
280
     0
102
RTVSPost2010PropOp36
 70
     1
102
RTVSPost2010Prop37
 90
       50
102
RTVSPost2010PropOp37
 70
     1
102
RTVSPost2010Prop38
140
0.0
102
RTVSPost2010PropOp38
 70
     1
102
RTVSPost2010Prop39
140
1.0
102
RTVSPost2010PropOp39
 70
     1
102
RTVSPost2010Prop40
 90
        0
102
RTVSPost2010PropOp40
 70
     1
102
RTVSPost2010Prop41ColorIndex
 90
       18
102
RTVSPost2010Prop41ColorRGB
 90
        0
102
RTVSPost2010PropOp41
 70
     1
102
RTVSPost2010Prop42
 90
       50
102
RTVSPost2010PropOp42
 70
     1
102
RTVSPost2010Prop43
 90
        3
102
RTVSPost2010PropOp43
 70
     1
102
RTVSPost2010Prop44ColorIndex
 90
        5
102
RTVSPost2010Prop44ColorRGB
 90
      255
102
RTVSPost2010PropOp44
 70
     1
102
RTVSPost2010Prop45
280
     0
102
RTVSPost2010PropOp45
 70
     1
102
RTVSPost2010Prop46
 90
       50
102
RTVSPost2010PropOp46
 70
     1
102
RTVSPost2010Prop47
 90
       50
102
RTVSPost2010PropOp47
 70
     1
102
RTVSPost2010Prop48
 90
       50
102
RTVSPost2010PropOp48
 70
     1
102
RTVSPost2010Prop49
280
     0
102
RTVSPost2010PropOp49
 70
     1
102
RTVSPost2010Prop50
 90
       50
102
RTVSPost2010PropOp50
 70
     1
102
RTVSPost2010Prop51ColorIndex
 90
      256
102
RTVSPost2010Prop51ColorRGB
 90
-16777216
102
RTVSPost2010PropOp51
 70
     0
102
RTVSPost2010Prop52
140
1.0
102
RTVSPost2010PropOp52
 70
     0
102
RTVSPost2010Prop53
 90
        2
102
RTVSPost2010PropOp53
 70
     1
102
RTVSPost2010Prop54
  1
strokes_ogs.tif
102
RTVSPost2010PropOp54
 70
     1
102
RTVSPost2010Prop55
280
     0
102
RTVSPost2010PropOp55
 70
     1
102
RTVSPost2010Prop56
140
1.0
102
RTVSPost2010PropOp56
 70
     1
102
RTVSPost2010Prop57
140
1.0
102
RTVSPost2010PropOp57
 70
     1
  0
XRECORD
  5
106AC94
102
{ACAD_REACTORS
330
106AC93
102
}
330
106AC93
100
AcDbXrecord
280
     1
102
RTVSPropertyOp0
 70
     1
102
RTVSPropertyOp1
 70
     1
102
RTVSPropertyOp2
 70
     1
102
RTVSPropertyOp3
 70
     1
102
RTVSPropertyOp4
 70
     1
102
RTVSPropertyOp5
 70
     1
102
RTVSPropertyOp6
 70
     1
102
RTVSPropertyOp7
 70
     1
102
RTVSPropertyOp8
 70
     1
102
RTVSPropertyOp9
 70
     1
102
RTVSPropertyOp10
 70
     1
102
RTVSPropertyOp11
 70
     1
102
RTVSPropertyOp12
 70
     1
102
RTVSPropertyOp13
 70
     1
102
RTVSPropertyOp14
 70
     1
102
RTVSPropertyOp15
 70
     1
102
RTVSPropertyOp16
 70
     1
102
RTVSPropertyOp17
 70
     1
102
RTVSPropertyOp18
 70
     1
102
RTVSPropertyOp19
 70
     1
102
RTVSPropertyOp20
 70
     1
102
RTVSPropertyOp21
 70
     1
102
RTVSPropertyOp22
 70
     1
102
RTVSPropertyOp23
 70
     1
102
RTVSPropertyOp24
 70
     1
102
RTVSPropertyOp25
 70
     1
102
RTVSPropertyOp26
 70
     1
102
RTVSPropertyOp27
 70
     1
102
RTVSPropertyOp28
 70
     1
102
RTVSPropertyOp29
 70
     1
102
RTVSPropertyOp30
 70
     1
102
RTVSPropertyOp31
 70
     1
102
RTVSPropertyOp32
 70
     1
102
RTVSPropertyOp33
 70
     1
102
RTVSPropertyOp34
 70
     1
102
RTVSPropertyOp35
 70
     1
102
RTVSPropertyOp36
 70
     1
102
RTVSPropertyOp37
 70
     1
102
RTVSPropertyOp38
 70
     1
102
RTVSPropertyOp39
 70
     1
102
RTVSPropertyOp40
 70
     1
102
RTVSPropertyOp41
 70
     1
102
RTVSPropertyOp42
 70
     1
102
RTVSPropertyOp43
 70
     1
102
RTVSPropertyOp44
 70
     1
102
RTVSPropertyOp45
 70
     1
102
RTVSPropertyOp46
 70
     1
102
RTVSPropertyOp47
 70
     1
102
RTVSPropertyOp48
 70
     1
102
RTVSPropertyOp49
 70
     1
102
RTVSPropertyOp50
 70
     1
102
RTVSPropertyOp51
 70
     0
102
RTVSPropertyOp52
 70
     0
102
RTVSPropertyOp53
 70
     1
102
RTVSPropertyOp54
 70
     1
102
RTVSPropertyOp55
 70
     1
102
RTVSPropertyOp56
 70
     1
102
RTVSPropertyOp57
 70
     1
102
RTVSPost2010Prop28
280
     0
102
RTVSPost2010PropOp28
 70
     1
102
RTVSPost2010Prop29
280
     1
102
RTVSPost2010PropOp29
 70
     1
102
RTVSPost2010Prop30
280
     1
102
RTVSPost2010PropOp30
 70
     1
102
RTVSPost2010Prop31
280
     0
102
RTVSPost2010PropOp31
 70
     1
102
RTVSPost2010Prop32
280
     0
102
RTVSPost2010PropOp32
 70
     1
102
RTVSPost2010Prop33
280
     0
102
RTVSPost2010PropOp33
 70
     1
102
RTVSPost2010Prop34
280
     0
102
RTVSPost2010PropOp34
 70
     1
102
RTVSPost2010Prop35
280
     0
102
RTVSPost2010PropOp35
 70
     1
102
RTVSPost2010Prop36
280
     0
102
RTVSPost2010PropOp36
 70
     1
102
RTVSPost2010Prop37
 90
       50
102
RTVSPost2010PropOp37
 70
     1
102
RTVSPost2010Prop38
140
0.0
102
RTVSPost2010PropOp38
 70
     1
102
RTVSPost2010Prop39
140
1.0
102
RTVSPost2010PropOp39
 70
     1
102
RTVSPost2010Prop40
 90
        0
102
RTVSPost2010PropOp40
 70
     1
102
RTVSPost2010Prop41ColorIndex
 90
       18
102
RTVSPost2010Prop41ColorRGB
 90
        0
102
RTVSPost2010PropOp41
 70
     1
102
RTVSPost2010Prop42
 90
       50
102
RTVSPost2010PropOp42
 70
     1
102
RTVSPost2010Prop43
 90
        3
102
RTVSPost2010PropOp43
 70
     1
102
RTVSPost2010Prop44ColorIndex
 90
        5
102
RTVSPost2010Prop44ColorRGB
 90
      255
102
RTVSPost2010PropOp44
 70
     1
102
RTVSPost2010Prop45
280
     0
102
RTVSPost2010PropOp45
 70
     1
102
RTVSPost2010Prop46
 90
       50
102
RTVSPost2010PropOp46
 70
     1
102
RTVSPost2010Prop47
 90
       50
102
RTVSPost2010PropOp47
 70
     1
102
RTVSPost2010Prop48
 90
       50
102
RTVSPost2010PropOp48
 70
     1
102
RTVSPost2010Prop49
280
     0
102
RTVSPost2010PropOp49
 70
     1
102
RTVSPost2010Prop50
 90
       50
102
RTVSPost2010PropOp50
 70
     1
102
RTVSPost2010Prop51ColorIndex
 90
      256
102
RTVSPost2010Prop51ColorRGB
 90
-16777216
102
RTVSPost2010PropOp51
 70
     0
102
RTVSPost2010Prop52
140
1.0
102
RTVSPost2010PropOp52
 70
     0
102
RTVSPost2010Prop53
 90
        2
102
RTVSPost2010PropOp53
 70
     1
102
RTVSPost2010Prop54
  1
strokes_ogs.tif
102
RTVSPost2010PropOp54
 70
     1
102
RTVSPost2010Prop55
280
     0
102
RTVSPost2010PropOp55
 70
     1
102
RTVSPost2010Prop56
140
1.0
102
RTVSPost2010PropOp56
 70
     1
102
RTVSPost2010Prop57
140
1.0
102
RTVSPost2010PropOp57
 70
     1
  0
XRECORD
  5
106AC96
102
{ACAD_REACTORS
330
106AC95
102
}
330
106AC95
100
AcDbXrecord
280
     1
102
RTVSPropertyOp0
 70
     0
102
RTVSPropertyOp1
 70
     0
102
RTVSPropertyOp2
 70
     0
102
RTVSPropertyOp3
 70
     0
102
RTVSPropertyOp4
 70
     0
102
RTVSPropertyOp5
 70
     0
102
RTVSPropertyOp6
 70
     0
102
RTVSPropertyOp7
 70
     0
102
RTVSPropertyOp8
 70
     0
102
RTVSPropertyOp9
 70
     0
102
RTVSPropertyOp10
 70
     0
102
RTVSPropertyOp11
 70
     0
102
RTVSPropertyOp12
 70
     0
102
RTVSPropertyOp13
 70
     0
102
RTVSPropertyOp14
 70
     2
102
RTVSPropertyOp15
 70
     0
102
RTVSPropertyOp16
 70
     0
102
RTVSPropertyOp17
 70
     0
102
RTVSPropertyOp18
 70
     0
102
RTVSPropertyOp19
 70
     0
102
RTVSPropertyOp20
 70
     0
102
RTVSPropertyOp21
 70
     0
102
RTVSPropertyOp22
 70
     0
102
RTVSPropertyOp23
 70
     0
102
RTVSPropertyOp24
 70
     0
102
RTVSPropertyOp25
 70
     0
102
RTVSPropertyOp26
 70
     0
102
RTVSPropertyOp27
 70
     0
102
RTVSPropertyOp28
 70
     0
102
RTVSPropertyOp29
 70
     0
102
RTVSPropertyOp30
 70
     0
102
RTVSPropertyOp31
 70
     0
102
RTVSPropertyOp32
 70
     0
102
RTVSPropertyOp33
 70
     0
102
RTVSPropertyOp34
 70
     0
102
RTVSPropertyOp35
 70
     0
102
RTVSPropertyOp36
 70
     0
102
RTVSPropertyOp37
 70
     0
102
RTVSPropertyOp38
 70
     0
102
RTVSPropertyOp39
 70
     0
102
RTVSPropertyOp40
 70
     0
102
RTVSPropertyOp41
 70
     0
102
RTVSPropertyOp42
 70
     0
102
RTVSPropertyOp43
 70
     0
102
RTVSPropertyOp44
 70
     0
102
RTVSPropertyOp45
 70
     0
102
RTVSPropertyOp46
 70
     0
102
RTVSPropertyOp47
 70
     0
102
RTVSPropertyOp48
 70
     0
102
RTVSPropertyOp49
 70
     0
102
RTVSPropertyOp50
 70
     0
102
RTVSPropertyOp51
 70
     0
102
RTVSPropertyOp52
 70
     0
102
RTVSPropertyOp53
 70
     0
102
RTVSPropertyOp54
 70
     0
102
RTVSPropertyOp55
 70
     0
102
RTVSPropertyOp56
 70
     0
102
RTVSPropertyOp57
 70
     0
102
RTVSPost2010Prop28
280
     0
102
RTVSPost2010PropOp28
 70
     0
102
RTVSPost2010Prop29
280
     1
102
RTVSPost2010PropOp29
 70
     0
102
RTVSPost2010Prop30
280
     1
102
RTVSPost2010PropOp30
 70
     0
102
RTVSPost2010Prop31
280
     0
102
RTVSPost2010PropOp31
 70
     0
102
RTVSPost2010Prop32
280
     0
102
RTVSPost2010PropOp32
 70
     0
102
RTVSPost2010Prop33
280
     0
102
RTVSPost2010PropOp33
 70
     0
102
RTVSPost2010Prop34
280
     0
102
RTVSPost2010PropOp34
 70
     0
102
RTVSPost2010Prop35
280
     0
102
RTVSPost2010PropOp35
 70
     0
102
RTVSPost2010Prop36
280
     0
102
RTVSPost2010PropOp36
 70
     0
102
RTVSPost2010Prop37
 90
       50
102
RTVSPost2010PropOp37
 70
     0
102
RTVSPost2010Prop38
140
0.0
102
RTVSPost2010PropOp38
 70
     0
102
RTVSPost2010Prop39
140
1.0
102
RTVSPost2010PropOp39
 70
     0
102
RTVSPost2010Prop40
 90
        0
102
RTVSPost2010PropOp40
 70
     0
102
RTVSPost2010Prop41ColorIndex
 90
       18
102
RTVSPost2010Prop41ColorRGB
 90
        0
102
RTVSPost2010PropOp41
 70
     0
102
RTVSPost2010Prop42
 90
       50
102
RTVSPost2010PropOp42
 70
     0
102
RTVSPost2010Prop43
 90
        3
102
RTVSPost2010PropOp43
 70
     0
102
RTVSPost2010Prop44ColorIndex
 90
        5
102
RTVSPost2010Prop44ColorRGB
 90
      255
102
RTVSPost2010PropOp44
 70
     0
102
RTVSPost2010Prop45
280
     0
102
RTVSPost2010PropOp45
 70
     0
102
RTVSPost2010Prop46
 90
       50
102
RTVSPost2010PropOp46
 70
     0
102
RTVSPost2010Prop47
 90
       50
102
RTVSPost2010PropOp47
 70
     0
102
RTVSPost2010Prop48
 90
       50
102
RTVSPost2010PropOp48
 70
     0
102
RTVSPost2010Prop49
280
     0
102
RTVSPost2010PropOp49
 70
     0
102
RTVSPost2010Prop50
 90
       50
102
RTVSPost2010PropOp50
 70
     0
102
RTVSPost2010Prop51ColorIndex
 90
      256
102
RTVSPost2010Prop51ColorRGB
 90
-16777216
102
RTVSPost2010PropOp51
 70
     0
102
RTVSPost2010Prop52
140
1.0
102
RTVSPost2010PropOp52
 70
     0
102
RTVSPost2010Prop53
 90
        2
102
RTVSPost2010PropOp53
 70
     0
102
RTVSPost2010Prop54
  1
strokes_ogs.tif
102
RTVSPost2010PropOp54
 70
     0
102
RTVSPost2010Prop55
280
     0
102
RTVSPost2010PropOp55
 70
     0
102
RTVSPost2010Prop56
140
1.0
102
RTVSPost2010PropOp56
 70
     0
102
RTVSPost2010Prop57
140
1.0
102
RTVSPost2010PropOp57
 70
     0
  0
XRECORD
  5
106AC98
102
{ACAD_REACTORS
330
106AC97
102
}
330
106AC97
100
AcDbXrecord
280
     1
102
RTVSPropertyOp0
 70
     1
102
RTVSPropertyOp1
 70
     1
102
RTVSPropertyOp2
 70
     1
102
RTVSPropertyOp3
 70
     1
102
RTVSPropertyOp4
 70
     1
102
RTVSPropertyOp5
 70
     1
102
RTVSPropertyOp6
 70
     1
102
RTVSPropertyOp7
 70
     1
102
RTVSPropertyOp8
 70
     1
102
RTVSPropertyOp9
 70
     1
102
RTVSPropertyOp10
 70
     1
102
RTVSPropertyOp11
 70
     1
102
RTVSPropertyOp12
 70
     1
102
RTVSPropertyOp13
 70
     1
102
RTVSPropertyOp14
 70
     1
102
RTVSPropertyOp15
 70
     1
102
RTVSPropertyOp16
 70
     1
102
RTVSPropertyOp17
 70
     1
102
RTVSPropertyOp18
 70
     1
102
RTVSPropertyOp19
 70
     1
102
RTVSPropertyOp20
 70
     1
102
RTVSPropertyOp21
 70
     1
102
RTVSPropertyOp22
 70
     1
102
RTVSPropertyOp23
 70
     1
102
RTVSPropertyOp24
 70
     1
102
RTVSPropertyOp25
 70
     1
102
RTVSPropertyOp26
 70
     1
102
RTVSPropertyOp27
 70
     1
102
RTVSPropertyOp28
 70
     1
102
RTVSPropertyOp29
 70
     1
102
RTVSPropertyOp30
 70
     1
102
RTVSPropertyOp31
 70
     1
102
RTVSPropertyOp32
 70
     1
102
RTVSPropertyOp33
 70
     1
102
RTVSPropertyOp34
 70
     1
102
RTVSPropertyOp35
 70
     1
102
RTVSPropertyOp36
 70
     1
102
RTVSPropertyOp37
 70
     1
102
RTVSPropertyOp38
 70
     1
102
RTVSPropertyOp39
 70
     1
102
RTVSPropertyOp40
 70
     1
102
RTVSPropertyOp41
 70
     1
102
RTVSPropertyOp42
 70
     1
102
RTVSPropertyOp43
 70
     1
102
RTVSPropertyOp44
 70
     1
102
RTVSPropertyOp45
 70
     1
102
RTVSPropertyOp46
 70
     1
102
RTVSPropertyOp47
 70
     1
102
RTVSPropertyOp48
 70
     1
102
RTVSPropertyOp49
 70
     1
102
RTVSPropertyOp50
 70
     1
102
RTVSPropertyOp51
 70
     0
102
RTVSPropertyOp52
 70
     0
102
RTVSPropertyOp53
 70
     1
102
RTVSPropertyOp54
 70
     1
102
RTVSPropertyOp55
 70
     1
102
RTVSPropertyOp56
 70
     1
102
RTVSPropertyOp57
 70
     1
102
RTVSPost2010Prop28
280
     0
102
RTVSPost2010PropOp28
 70
     1
102
RTVSPost2010Prop29
280
     1
102
RTVSPost2010PropOp29
 70
     1
102
RTVSPost2010Prop30
280
     1
102
RTVSPost2010PropOp30
 70
     1
102
RTVSPost2010Prop31
280
     0
102
RTVSPost2010PropOp31
 70
     1
102
RTVSPost2010Prop32
280
     0
102
RTVSPost2010PropOp32
 70
     1
102
RTVSPost2010Prop33
280
     0
102
RTVSPost2010PropOp33
 70
     1
102
RTVSPost2010Prop34
280
     0
102
RTVSPost2010PropOp34
 70
     1
102
RTVSPost2010Prop35
280
     0
102
RTVSPost2010PropOp35
 70
     1
102
RTVSPost2010Prop36
280
     0
102
RTVSPost2010PropOp36
 70
     1
102
RTVSPost2010Prop37
 90
       50
102
RTVSPost2010PropOp37
 70
     1
102
RTVSPost2010Prop38
140
0.0
102
RTVSPost2010PropOp38
 70
     1
102
RTVSPost2010Prop39
140
1.0
102
RTVSPost2010PropOp39
 70
     1
102
RTVSPost2010Prop40
 90
        0
102
RTVSPost2010PropOp40
 70
     1
102
RTVSPost2010Prop41ColorIndex
 90
       18
102
RTVSPost2010Prop41ColorRGB
 90
        0
102
RTVSPost2010PropOp41
 70
     1
102
RTVSPost2010Prop42
 90
       50
102
RTVSPost2010PropOp42
 70
     1
102
RTVSPost2010Prop43
 90
        3
102
RTVSPost2010PropOp43
 70
     1
102
RTVSPost2010Prop44ColorIndex
 90
        5
102
RTVSPost2010Prop44ColorRGB
 90
      255
102
RTVSPost2010PropOp44
 70
     1
102
RTVSPost2010Prop45
280
     0
102
RTVSPost2010PropOp45
 70
     1
102
RTVSPost2010Prop46
 90
       50
102
RTVSPost2010PropOp46
 70
     1
102
RTVSPost2010Prop47
 90
       50
102
RTVSPost2010PropOp47
 70
     1
102
RTVSPost2010Prop48
 90
       50
102
RTVSPost2010PropOp48
 70
     1
102
RTVSPost2010Prop49
280
     0
102
RTVSPost2010PropOp49
 70
     1
102
RTVSPost2010Prop50
 90
       50
102
RTVSPost2010PropOp50
 70
     1
102
RTVSPost2010Prop51ColorIndex
 90
      256
102
RTVSPost2010Prop51ColorRGB
 90
-16777216
102
RTVSPost2010PropOp51
 70
     0
102
RTVSPost2010Prop52
140
1.0
102
RTVSPost2010PropOp52
 70
     0
102
RTVSPost2010Prop53
 90
        2
102
RTVSPost2010PropOp53
 70
     1
102
RTVSPost2010Prop54
  1
strokes_ogs.tif
102
RTVSPost2010PropOp54
 70
     1
102
RTVSPost2010Prop55
280
     0
102
RTVSPost2010PropOp55
 70
     1
102
RTVSPost2010Prop56
140
1.0
102
RTVSPost2010PropOp56
 70
     1
102
RTVSPost2010Prop57
140
1.0
102
RTVSPost2010PropOp57
 70
     1
  0
XRECORD
  5
106AC9A
102
{ACAD_REACTORS
330
106AC99
102
}
330
106AC99
100
AcDbXrecord
280
     1
102
RTVSPropertyOp0
 70
     1
102
RTVSPropertyOp1
 70
     1
102
RTVSPropertyOp2
 70
     1
102
RTVSPropertyOp3
 70
     1
102
RTVSPropertyOp4
 70
     1
102
RTVSPropertyOp5
 70
     1
102
RTVSPropertyOp6
 70
     1
102
RTVSPropertyOp7
 70
     1
102
RTVSPropertyOp8
 70
     1
102
RTVSPropertyOp9
 70
     1
102
RTVSPropertyOp10
 70
     1
102
RTVSPropertyOp11
 70
     1
102
RTVSPropertyOp12
 70
     1
102
RTVSPropertyOp13
 70
     1
102
RTVSPropertyOp14
 70
     1
102
RTVSPropertyOp15
 70
     1
102
RTVSPropertyOp16
 70
     1
102
RTVSPropertyOp17
 70
     1
102
RTVSPropertyOp18
 70
     1
102
RTVSPropertyOp19
 70
     1
102
RTVSPropertyOp20
 70
     1
102
RTVSPropertyOp21
 70
     1
102
RTVSPropertyOp22
 70
     1
102
RTVSPropertyOp23
 70
     1
102
RTVSPropertyOp24
 70
     1
102
RTVSPropertyOp25
 70
     1
102
RTVSPropertyOp26
 70
     1
102
RTVSPropertyOp27
 70
     1
102
RTVSPropertyOp28
 70
     1
102
RTVSPropertyOp29
 70
     1
102
RTVSPropertyOp30
 70
     1
102
RTVSPropertyOp31
 70
     1
102
RTVSPropertyOp32
 70
     1
102
RTVSPropertyOp33
 70
     1
102
RTVSPropertyOp34
 70
     1
102
RTVSPropertyOp35
 70
     1
102
RTVSPropertyOp36
 70
     1
102
RTVSPropertyOp37
 70
     1
102
RTVSPropertyOp38
 70
     1
102
RTVSPropertyOp39
 70
     1
102
RTVSPropertyOp40
 70
     1
102
RTVSPropertyOp41
 70
     1
102
RTVSPropertyOp42
 70
     1
102
RTVSPropertyOp43
 70
     1
102
RTVSPropertyOp44
 70
     1
102
RTVSPropertyOp45
 70
     1
102
RTVSPropertyOp46
 70
     1
102
RTVSPropertyOp47
 70
     1
102
RTVSPropertyOp48
 70
     1
102
RTVSPropertyOp49
 70
     1
102
RTVSPropertyOp50
 70
     1
102
RTVSPropertyOp51
 70
     0
102
RTVSPropertyOp52
 70
     0
102
RTVSPropertyOp53
 70
     1
102
RTVSPropertyOp54
 70
     1
102
RTVSPropertyOp55
 70
     1
102
RTVSPropertyOp56
 70
     1
102
RTVSPropertyOp57
 70
     1
102
RTVSPost2010Prop28
280
     0
102
RTVSPost2010PropOp28
 70
     1
102
RTVSPost2010Prop29
280
     1
102
RTVSPost2010PropOp29
 70
     1
102
RTVSPost2010Prop30
280
     1
102
RTVSPost2010PropOp30
 70
     1
102
RTVSPost2010Prop31
280
     0
102
RTVSPost2010PropOp31
 70
     1
102
RTVSPost2010Prop32
280
     0
102
RTVSPost2010PropOp32
 70
     1
102
RTVSPost2010Prop33
280
     0
102
RTVSPost2010PropOp33
 70
     1
102
RTVSPost2010Prop34
280
     0
102
RTVSPost2010PropOp34
 70
     1
102
RTVSPost2010Prop35
280
     0
102
RTVSPost2010PropOp35
 70
     1
102
RTVSPost2010Prop36
280
     0
102
RTVSPost2010PropOp36
 70
     1
102
RTVSPost2010Prop37
 90
       50
102
RTVSPost2010PropOp37
 70
     1
102
RTVSPost2010Prop38
140
0.0
102
RTVSPost2010PropOp38
 70
     1
102
RTVSPost2010Prop39
140
1.0
102
RTVSPost2010PropOp39
 70
     1
102
RTVSPost2010Prop40
 90
        0
102
RTVSPost2010PropOp40
 70
     1
102
RTVSPost2010Prop41ColorIndex
 90
       18
102
RTVSPost2010Prop41ColorRGB
 90
        0
102
RTVSPost2010PropOp41
 70
     1
102
RTVSPost2010Prop42
 90
       50
102
RTVSPost2010PropOp42
 70
     1
102
RTVSPost2010Prop43
 90
        3
102
RTVSPost2010PropOp43
 70
     1
102
RTVSPost2010Prop44ColorIndex
 90
        5
102
RTVSPost2010Prop44ColorRGB
 90
      255
102
RTVSPost2010PropOp44
 70
     1
102
RTVSPost2010Prop45
280
     0
102
RTVSPost2010PropOp45
 70
     1
102
RTVSPost2010Prop46
 90
       50
102
RTVSPost2010PropOp46
 70
     1
102
RTVSPost2010Prop47
 90
       50
102
RTVSPost2010PropOp47
 70
     1
102
RTVSPost2010Prop48
 90
       50
102
RTVSPost2010PropOp48
 70
     1
102
RTVSPost2010Prop49
280
     0
102
RTVSPost2010PropOp49
 70
     1
102
RTVSPost2010Prop50
 90
       50
102
RTVSPost2010PropOp50
 70
     1
102
RTVSPost2010Prop51ColorIndex
 90
      256
102
RTVSPost2010Prop51ColorRGB
 90
-16777216
102
RTVSPost2010PropOp51
 70
     0
102
RTVSPost2010Prop52
140
1.0
102
RTVSPost2010PropOp52
 70
     0
102
RTVSPost2010Prop53
 90
        2
102
RTVSPost2010PropOp53
 70
     1
102
RTVSPost2010Prop54
  1
strokes_ogs.tif
102
RTVSPost2010PropOp54
 70
     1
102
RTVSPost2010Prop55
280
     0
102
RTVSPost2010PropOp55
 70
     1
102
RTVSPost2010Prop56
140
1.0
102
RTVSPost2010PropOp56
 70
     1
102
RTVSPost2010Prop57
140
1.0
102
RTVSPost2010PropOp57
 70
     1
  0
XRECORD
  5
106AC9C
102
{ACAD_REACTORS
330
106AC9B
102
}
330
106AC9B
100
AcDbXrecord
280
     1
102
RTVSPropertyOp0
 70
     1
102
RTVSPropertyOp1
 70
     1
102
RTVSPropertyOp2
 70
     1
102
RTVSPropertyOp3
 70
     1
102
RTVSPropertyOp4
 70
     1
102
RTVSPropertyOp5
 70
     1
102
RTVSPropertyOp6
 70
     1
102
RTVSPropertyOp7
 70
     1
102
RTVSPropertyOp8
 70
     1
102
RTVSPropertyOp9
 70
     1
102
RTVSPropertyOp10
 70
     1
102
RTVSPropertyOp11
 70
     1
102
RTVSPropertyOp12
 70
     1
102
RTVSPropertyOp13
 70
     1
102
RTVSPropertyOp14
 70
     1
102
RTVSPropertyOp15
 70
     1
102
RTVSPropertyOp16
 70
     1
102
RTVSPropertyOp17
 70
     1
102
RTVSPropertyOp18
 70
     1
102
RTVSPropertyOp19
 70
     1
102
RTVSPropertyOp20
 70
     1
102
RTVSPropertyOp21
 70
     1
102
RTVSPropertyOp22
 70
     1
102
RTVSPropertyOp23
 70
     1
102
RTVSPropertyOp24
 70
     1
102
RTVSPropertyOp25
 70
     1
102
RTVSPropertyOp26
 70
     1
102
RTVSPropertyOp27
 70
     1
102
RTVSPropertyOp28
 70
     1
102
RTVSPropertyOp29
 70
     1
102
RTVSPropertyOp30
 70
     1
102
RTVSPropertyOp31
 70
     1
102
RTVSPropertyOp32
 70
     1
102
RTVSPropertyOp33
 70
     1
102
RTVSPropertyOp34
 70
     1
102
RTVSPropertyOp35
 70
     1
102
RTVSPropertyOp36
 70
     1
102
RTVSPropertyOp37
 70
     1
102
RTVSPropertyOp38
 70
     1
102
RTVSPropertyOp39
 70
     1
102
RTVSPropertyOp40
 70
     1
102
RTVSPropertyOp41
 70
     1
102
RTVSPropertyOp42
 70
     1
102
RTVSPropertyOp43
 70
     1
102
RTVSPropertyOp44
 70
     1
102
RTVSPropertyOp45
 70
     1
102
RTVSPropertyOp46
 70
     1
102
RTVSPropertyOp47
 70
     1
102
RTVSPropertyOp48
 70
     1
102
RTVSPropertyOp49
 70
     1
102
RTVSPropertyOp50
 70
     1
102
RTVSPropertyOp51
 70
     0
102
RTVSPropertyOp52
 70
     0
102
RTVSPropertyOp53
 70
     1
102
RTVSPropertyOp54
 70
     1
102
RTVSPropertyOp55
 70
     1
102
RTVSPropertyOp56
 70
     1
102
RTVSPropertyOp57
 70
     1
102
RTVSPost2010Prop28
280
     0
102
RTVSPost2010PropOp28
 70
     1
102
RTVSPost2010Prop29
280
     1
102
RTVSPost2010PropOp29
 70
     1
102
RTVSPost2010Prop30
280
     1
102
RTVSPost2010PropOp30
 70
     1
102
RTVSPost2010Prop31
280
     0
102
RTVSPost2010PropOp31
 70
     1
102
RTVSPost2010Prop32
280
     0
102
RTVSPost2010PropOp32
 70
     1
102
RTVSPost2010Prop33
280
     0
102
RTVSPost2010PropOp33
 70
     1
102
RTVSPost2010Prop34
280
     0
102
RTVSPost2010PropOp34
 70
     1
102
RTVSPost2010Prop35
280
     0
102
RTVSPost2010PropOp35
 70
     1
102
RTVSPost2010Prop36
280
     0
102
RTVSPost2010PropOp36
 70
     1
102
RTVSPost2010Prop37
 90
       50
102
RTVSPost2010PropOp37
 70
     1
102
RTVSPost2010Prop38
140
0.0
102
RTVSPost2010PropOp38
 70
     1
102
RTVSPost2010Prop39
140
1.0
102
RTVSPost2010PropOp39
 70
     1
102
RTVSPost2010Prop40
 90
        0
102
RTVSPost2010PropOp40
 70
     1
102
RTVSPost2010Prop41ColorIndex
 90
       18
102
RTVSPost2010Prop41ColorRGB
 90
        0
102
RTVSPost2010PropOp41
 70
     1
102
RTVSPost2010Prop42
 90
       50
102
RTVSPost2010PropOp42
 70
     1
102
RTVSPost2010Prop43
 90
        3
102
RTVSPost2010PropOp43
 70
     1
102
RTVSPost2010Prop44ColorIndex
 90
        5
102
RTVSPost2010Prop44ColorRGB
 90
      255
102
RTVSPost2010PropOp44
 70
     1
102
RTVSPost2010Prop45
280
     0
102
RTVSPost2010PropOp45
 70
     1
102
RTVSPost2010Prop46
 90
       50
102
RTVSPost2010PropOp46
 70
     1
102
RTVSPost2010Prop47
 90
       50
102
RTVSPost2010PropOp47
 70
     1
102
RTVSPost2010Prop48
 90
       50
102
RTVSPost2010PropOp48
 70
     1
102
RTVSPost2010Prop49
280
     0
102
RTVSPost2010PropOp49
 70
     1
102
RTVSPost2010Prop50
 90
       50
102
RTVSPost2010PropOp50
 70
     1
102
RTVSPost2010Prop51ColorIndex
 90
      256
102
RTVSPost2010Prop51ColorRGB
 90
-16777216
102
RTVSPost2010PropOp51
 70
     0
102
RTVSPost2010Prop52
140
1.0
102
RTVSPost2010PropOp52
 70
     0
102
RTVSPost2010Prop53
 90
        2
102
RTVSPost2010PropOp53
 70
     1
102
RTVSPost2010Prop54
  1
strokes_ogs.tif
102
RTVSPost2010PropOp54
 70
     1
102
RTVSPost2010Prop55
280
     0
102
RTVSPost2010PropOp55
 70
     1
102
RTVSPost2010Prop56
140
1.0
102
RTVSPost2010PropOp56
 70
     1
102
RTVSPost2010Prop57
140
1.0
102
RTVSPost2010PropOp57
 70
     1
  0
XRECORD
  5
106AC9E
102
{ACAD_REACTORS
330
106AC9D
102
}
330
106AC9D
100
AcDbXrecord
280
     1
102
RTVSPropertyOp0
 70
     1
102
RTVSPropertyOp1
 70
     1
102
RTVSPropertyOp2
 70
     1
102
RTVSPropertyOp3
 70
     1
102
RTVSPropertyOp4
 70
     1
102
RTVSPropertyOp5
 70
     1
102
RTVSPropertyOp6
 70
     1
102
RTVSPropertyOp7
 70
     1
102
RTVSPropertyOp8
 70
     1
102
RTVSPropertyOp9
 70
     1
102
RTVSPropertyOp10
 70
     1
102
RTVSPropertyOp11
 70
     1
102
RTVSPropertyOp12
 70
     1
102
RTVSPropertyOp13
 70
     1
102
RTVSPropertyOp14
 70
     1
102
RTVSPropertyOp15
 70
     1
102
RTVSPropertyOp16
 70
     1
102
RTVSPropertyOp17
 70
     1
102
RTVSPropertyOp18
 70
     1
102
RTVSPropertyOp19
 70
     1
102
RTVSPropertyOp20
 70
     1
102
RTVSPropertyOp21
 70
     1
102
RTVSPropertyOp22
 70
     1
102
RTVSPropertyOp23
 70
     1
102
RTVSPropertyOp24
 70
     1
102
RTVSPropertyOp25
 70
     1
102
RTVSPropertyOp26
 70
     1
102
RTVSPropertyOp27
 70
     1
102
RTVSPropertyOp28
 70
     1
102
RTVSPropertyOp29
 70
     1
102
RTVSPropertyOp30
 70
     1
102
RTVSPropertyOp31
 70
     1
102
RTVSPropertyOp32
 70
     1
102
RTVSPropertyOp33
 70
     1
102
RTVSPropertyOp34
 70
     1
102
RTVSPropertyOp35
 70
     1
102
RTVSPropertyOp36
 70
     1
102
RTVSPropertyOp37
 70
     1
102
RTVSPropertyOp38
 70
     1
102
RTVSPropertyOp39
 70
     1
102
RTVSPropertyOp40
 70
     1
102
RTVSPropertyOp41
 70
     1
102
RTVSPropertyOp42
 70
     1
102
RTVSPropertyOp43
 70
     1
102
RTVSPropertyOp44
 70
     1
102
RTVSPropertyOp45
 70
     1
102
RTVSPropertyOp46
 70
     1
102
RTVSPropertyOp47
 70
     1
102
RTVSPropertyOp48
 70
     1
102
RTVSPropertyOp49
 70
     1
102
RTVSPropertyOp50
 70
     1
102
RTVSPropertyOp51
 70
     0
102
RTVSPropertyOp52
 70
     0
102
RTVSPropertyOp53
 70
     1
102
RTVSPropertyOp54
 70
     1
102
RTVSPropertyOp55
 70
     1
102
RTVSPropertyOp56
 70
     1
102
RTVSPropertyOp57
 70
     1
102
RTVSPost2010Prop28
280
     0
102
RTVSPost2010PropOp28
 70
     1
102
RTVSPost2010Prop29
280
     1
102
RTVSPost2010PropOp29
 70
     1
102
RTVSPost2010Prop30
280
     1
102
RTVSPost2010PropOp30
 70
     1
102
RTVSPost2010Prop31
280
     0
102
RTVSPost2010PropOp31
 70
     1
102
RTVSPost2010Prop32
280
     0
102
RTVSPost2010PropOp32
 70
     1
102
RTVSPost2010Prop33
280
     0
102
RTVSPost2010PropOp33
 70
     1
102
RTVSPost2010Prop34
280
     0
102
RTVSPost2010PropOp34
 70
     1
102
RTVSPost2010Prop35
280
     0
102
RTVSPost2010PropOp35
 70
     1
102
RTVSPost2010Prop36
280
     0
102
RTVSPost2010PropOp36
 70
     1
102
RTVSPost2010Prop37
 90
       50
102
RTVSPost2010PropOp37
 70
     1
102
RTVSPost2010Prop38
140
0.0
102
RTVSPost2010PropOp38
 70
     1
102
RTVSPost2010Prop39
140
1.0
102
RTVSPost2010PropOp39
 70
     1
102
RTVSPost2010Prop40
 90
        0
102
RTVSPost2010PropOp40
 70
     1
102
RTVSPost2010Prop41ColorIndex
 90
       18
102
RTVSPost2010Prop41ColorRGB
 90
        0
102
RTVSPost2010PropOp41
 70
     1
102
RTVSPost2010Prop42
 90
       50
102
RTVSPost2010PropOp42
 70
     1
102
RTVSPost2010Prop43
 90
        3
102
RTVSPost2010PropOp43
 70
     1
102
RTVSPost2010Prop44ColorIndex
 90
        5
102
RTVSPost2010Prop44ColorRGB
 90
      255
102
RTVSPost2010PropOp44
 70
     1
102
RTVSPost2010Prop45
280
     0
102
RTVSPost2010PropOp45
 70
     1
102
RTVSPost2010Prop46
 90
       50
102
RTVSPost2010PropOp46
 70
     1
102
RTVSPost2010Prop47
 90
       50
102
RTVSPost2010PropOp47
 70
     1
102
RTVSPost2010Prop48
 90
       50
102
RTVSPost2010PropOp48
 70
     1
102
RTVSPost2010Prop49
280
     0
102
RTVSPost2010PropOp49
 70
     1
102
RTVSPost2010Prop50
 90
       50
102
RTVSPost2010PropOp50
 70
     1
102
RTVSPost2010Prop51ColorIndex
 90
      256
102
RTVSPost2010Prop51ColorRGB
 90
-16777216
102
RTVSPost2010PropOp51
 70
     0
102
RTVSPost2010Prop52
140
1.0
102
RTVSPost2010PropOp52
 70
     0
102
RTVSPost2010Prop53
 90
        2
102
RTVSPost2010PropOp53
 70
     1
102
RTVSPost2010Prop54
  1
strokes_ogs.tif
102
RTVSPost2010PropOp54
 70
     1
102
RTVSPost2010Prop55
280
     0
102
RTVSPost2010PropOp55
 70
     1
102
RTVSPost2010Prop56
140
1.0
102
RTVSPost2010PropOp56
 70
     1
102
RTVSPost2010Prop57
140
1.0
102
RTVSPost2010PropOp57
 70
     1
  0
XRECORD
  5
106ACA0
102
{ACAD_REACTORS
330
106AC9F
102
}
330
106AC9F
100
AcDbXrecord
280
     1
102
RTVSPropertyOp0
 70
     1
102
RTVSPropertyOp1
 70
     1
102
RTVSPropertyOp2
 70
     1
102
RTVSPropertyOp3
 70
     1
102
RTVSPropertyOp4
 70
     1
102
RTVSPropertyOp5
 70
     1
102
RTVSPropertyOp6
 70
     1
102
RTVSPropertyOp7
 70
     1
102
RTVSPropertyOp8
 70
     1
102
RTVSPropertyOp9
 70
     1
102
RTVSPropertyOp10
 70
     1
102
RTVSPropertyOp11
 70
     1
102
RTVSPropertyOp12
 70
     1
102
RTVSPropertyOp13
 70
     1
102
RTVSPropertyOp14
 70
     1
102
RTVSPropertyOp15
 70
     1
102
RTVSPropertyOp16
 70
     1
102
RTVSPropertyOp17
 70
     1
102
RTVSPropertyOp18
 70
     1
102
RTVSPropertyOp19
 70
     1
102
RTVSPropertyOp20
 70
     1
102
RTVSPropertyOp21
 70
     1
102
RTVSPropertyOp22
 70
     1
102
RTVSPropertyOp23
 70
     1
102
RTVSPropertyOp24
 70
     1
102
RTVSPropertyOp25
 70
     1
102
RTVSPropertyOp26
 70
     1
102
RTVSPropertyOp27
 70
     1
102
RTVSPropertyOp28
 70
     1
102
RTVSPropertyOp29
 70
     1
102
RTVSPropertyOp30
 70
     1
102
RTVSPropertyOp31
 70
     1
102
RTVSPropertyOp32
 70
     1
102
RTVSPropertyOp33
 70
     1
102
RTVSPropertyOp34
 70
     1
102
RTVSPropertyOp35
 70
     1
102
RTVSPropertyOp36
 70
     1
102
RTVSPropertyOp37
 70
     1
102
RTVSPropertyOp38
 70
     1
102
RTVSPropertyOp39
 70
     1
102
RTVSPropertyOp40
 70
     1
102
RTVSPropertyOp41
 70
     1
102
RTVSPropertyOp42
 70
     1
102
RTVSPropertyOp43
 70
     1
102
RTVSPropertyOp44
 70
     1
102
RTVSPropertyOp45
 70
     1
102
RTVSPropertyOp46
 70
     1
102
RTVSPropertyOp47
 70
     1
102
RTVSPropertyOp48
 70
     1
102
RTVSPropertyOp49
 70
     1
102
RTVSPropertyOp50
 70
     1
102
RTVSPropertyOp51
 70
     0
102
RTVSPropertyOp52
 70
     0
102
RTVSPropertyOp53
 70
     1
102
RTVSPropertyOp54
 70
     1
102
RTVSPropertyOp55
 70
     1
102
RTVSPropertyOp56
 70
     1
102
RTVSPropertyOp57
 70
     1
102
RTVSPost2010Prop28
280
     0
102
RTVSPost2010PropOp28
 70
     1
102
RTVSPost2010Prop29
280
     1
102
RTVSPost2010PropOp29
 70
     1
102
RTVSPost2010Prop30
280
     1
102
RTVSPost2010PropOp30
 70
     1
102
RTVSPost2010Prop31
280
     0
102
RTVSPost2010PropOp31
 70
     1
102
RTVSPost2010Prop32
280
     0
102
RTVSPost2010PropOp32
 70
     1
102
RTVSPost2010Prop33
280
     0
102
RTVSPost2010PropOp33
 70
     1
102
RTVSPost2010Prop34
280
     0
102
RTVSPost2010PropOp34
 70
     1
102
RTVSPost2010Prop35
280
     0
102
RTVSPost2010PropOp35
 70
     1
102
RTVSPost2010Prop36
280
     0
102
RTVSPost2010PropOp36
 70
     1
102
RTVSPost2010Prop37
 90
       50
102
RTVSPost2010PropOp37
 70
     1
102
RTVSPost2010Prop38
140
0.0
102
RTVSPost2010PropOp38
 70
     1
102
RTVSPost2010Prop39
140
1.0
102
RTVSPost2010PropOp39
 70
     1
102
RTVSPost2010Prop40
 90
        0
102
RTVSPost2010PropOp40
 70
     1
102
RTVSPost2010Prop41ColorIndex
 90
       18
102
RTVSPost2010Prop41ColorRGB
 90
        0
102
RTVSPost2010PropOp41
 70
     1
102
RTVSPost2010Prop42
 90
       50
102
RTVSPost2010PropOp42
 70
     1
102
RTVSPost2010Prop43
 90
        3
102
RTVSPost2010PropOp43
 70
     1
102
RTVSPost2010Prop44ColorIndex
 90
        5
102
RTVSPost2010Prop44ColorRGB
 90
      255
102
RTVSPost2010PropOp44
 70
     1
102
RTVSPost2010Prop45
280
     0
102
RTVSPost2010PropOp45
 70
     1
102
RTVSPost2010Prop46
 90
       50
102
RTVSPost2010PropOp46
 70
     1
102
RTVSPost2010Prop47
 90
       50
102
RTVSPost2010PropOp47
 70
     1
102
RTVSPost2010Prop48
 90
       50
102
RTVSPost2010PropOp48
 70
     1
102
RTVSPost2010Prop49
280
     0
102
RTVSPost2010PropOp49
 70
     1
102
RTVSPost2010Prop50
 90
       50
102
RTVSPost2010PropOp50
 70
     1
102
RTVSPost2010Prop51ColorIndex
 90
      256
102
RTVSPost2010Prop51ColorRGB
 90
-16777216
102
RTVSPost2010PropOp51
 70
     0
102
RTVSPost2010Prop52
140
1.0
102
RTVSPost2010PropOp52
 70
     0
102
RTVSPost2010Prop53
 90
        2
102
RTVSPost2010PropOp53
 70
     1
102
RTVSPost2010Prop54
  1
strokes_ogs.tif
102
RTVSPost2010PropOp54
 70
     1
102
RTVSPost2010Prop55
280
     0
102
RTVSPost2010PropOp55
 70
     1
102
RTVSPost2010Prop56
140
1.0
102
RTVSPost2010PropOp56
 70
     1
102
RTVSPost2010Prop57
140
1.0
102
RTVSPost2010PropOp57
 70
     1
  0
XRECORD
  5
106ACA2
102
{ACAD_REACTORS
330
106ACA1
102
}
330
106ACA1
100
AcDbXrecord
280
     1
102
RTVSPropertyOp0
 70
     1
102
RTVSPropertyOp1
 70
     1
102
RTVSPropertyOp2
 70
     1
102
RTVSPropertyOp3
 70
     1
102
RTVSPropertyOp4
 70
     1
102
RTVSPropertyOp5
 70
     1
102
RTVSPropertyOp6
 70
     1
102
RTVSPropertyOp7
 70
     1
102
RTVSPropertyOp8
 70
     1
102
RTVSPropertyOp9
 70
     1
102
RTVSPropertyOp10
 70
     1
102
RTVSPropertyOp11
 70
     1
102
RTVSPropertyOp12
 70
     1
102
RTVSPropertyOp13
 70
     1
102
RTVSPropertyOp14
 70
     1
102
RTVSPropertyOp15
 70
     1
102
RTVSPropertyOp16
 70
     1
102
RTVSPropertyOp17
 70
     1
102
RTVSPropertyOp18
 70
     1
102
RTVSPropertyOp19
 70
     1
102
RTVSPropertyOp20
 70
     1
102
RTVSPropertyOp21
 70
     1
102
RTVSPropertyOp22
 70
     1
102
RTVSPropertyOp23
 70
     1
102
RTVSPropertyOp24
 70
     1
102
RTVSPropertyOp25
 70
     1
102
RTVSPropertyOp26
 70
     1
102
RTVSPropertyOp27
 70
     1
102
RTVSPropertyOp28
 70
     1
102
RTVSPropertyOp29
 70
     1
102
RTVSPropertyOp30
 70
     1
102
RTVSPropertyOp31
 70
     1
102
RTVSPropertyOp32
 70
     1
102
RTVSPropertyOp33
 70
     1
102
RTVSPropertyOp34
 70
     1
102
RTVSPropertyOp35
 70
     1
102
RTVSPropertyOp36
 70
     1
102
RTVSPropertyOp37
 70
     1
102
RTVSPropertyOp38
 70
     1
102
RTVSPropertyOp39
 70
     1
102
RTVSPropertyOp40
 70
     1
102
RTVSPropertyOp41
 70
     1
102
RTVSPropertyOp42
 70
     1
102
RTVSPropertyOp43
 70
     1
102
RTVSPropertyOp44
 70
     1
102
RTVSPropertyOp45
 70
     1
102
RTVSPropertyOp46
 70
     1
102
RTVSPropertyOp47
 70
     1
102
RTVSPropertyOp48
 70
     1
102
RTVSPropertyOp49
 70
     1
102
RTVSPropertyOp50
 70
     1
102
RTVSPropertyOp51
 70
     0
102
RTVSPropertyOp52
 70
     0
102
RTVSPropertyOp53
 70
     1
102
RTVSPropertyOp54
 70
     1
102
RTVSPropertyOp55
 70
     1
102
RTVSPropertyOp56
 70
     1
102
RTVSPropertyOp57
 70
     1
102
RTVSPost2010Prop28
280
     0
102
RTVSPost2010PropOp28
 70
     1
102
RTVSPost2010Prop29
280
     1
102
RTVSPost2010PropOp29
 70
     1
102
RTVSPost2010Prop30
280
     1
102
RTVSPost2010PropOp30
 70
     1
102
RTVSPost2010Prop31
280
     0
102
RTVSPost2010PropOp31
 70
     1
102
RTVSPost2010Prop32
280
     0
102
RTVSPost2010PropOp32
 70
     1
102
RTVSPost2010Prop33
280
     0
102
RTVSPost2010PropOp33
 70
     1
102
RTVSPost2010Prop34
280
     0
102
RTVSPost2010PropOp34
 70
     1
102
RTVSPost2010Prop35
280
     0
102
RTVSPost2010PropOp35
 70
     1
102
RTVSPost2010Prop36
280
     0
102
RTVSPost2010PropOp36
 70
     1
102
RTVSPost2010Prop37
 90
       50
102
RTVSPost2010PropOp37
 70
     1
102
RTVSPost2010Prop38
140
0.0
102
RTVSPost2010PropOp38
 70
     1
102
RTVSPost2010Prop39
140
1.0
102
RTVSPost2010PropOp39
 70
     1
102
RTVSPost2010Prop40
 90
        0
102
RTVSPost2010PropOp40
 70
     1
102
RTVSPost2010Prop41ColorIndex
 90
       18
102
RTVSPost2010Prop41ColorRGB
 90
        0
102
RTVSPost2010PropOp41
 70
     1
102
RTVSPost2010Prop42
 90
       50
102
RTVSPost2010PropOp42
 70
     1
102
RTVSPost2010Prop43
 90
        3
102
RTVSPost2010PropOp43
 70
     1
102
RTVSPost2010Prop44ColorIndex
 90
        5
102
RTVSPost2010Prop44ColorRGB
 90
      255
102
RTVSPost2010PropOp44
 70
     1
102
RTVSPost2010Prop45
280
     0
102
RTVSPost2010PropOp45
 70
     1
102
RTVSPost2010Prop46
 90
       50
102
RTVSPost2010PropOp46
 70
     1
102
RTVSPost2010Prop47
 90
       50
102
RTVSPost2010PropOp47
 70
     1
102
RTVSPost2010Prop48
 90
       50
102
RTVSPost2010PropOp48
 70
     1
102
RTVSPost2010Prop49
280
     0
102
RTVSPost2010PropOp49
 70
     1
102
RTVSPost2010Prop50
 90
       50
102
RTVSPost2010PropOp50
 70
     1
102
RTVSPost2010Prop51ColorIndex
 90
      256
102
RTVSPost2010Prop51ColorRGB
 90
-16777216
102
RTVSPost2010PropOp51
 70
     0
102
RTVSPost2010Prop52
140
1.0
102
RTVSPost2010PropOp52
 70
     0
102
RTVSPost2010Prop53
 90
        2
102
RTVSPost2010PropOp53
 70
     1
102
RTVSPost2010Prop54
  1
strokes_ogs.tif
102
RTVSPost2010PropOp54
 70
     1
102
RTVSPost2010Prop55
280
     0
102
RTVSPost2010PropOp55
 70
     1
102
RTVSPost2010Prop56
140
1.0
102
RTVSPost2010PropOp56
 70
     1
102
RTVSPost2010Prop57
140
1.0
102
RTVSPost2010PropOp57
 70
     1
  0
XRECORD
  5
106ACA4
102
{ACAD_REACTORS
330
106ACA3
102
}
330
106ACA3
100
AcDbXrecord
280
     1
102
RTVSPropertyOp0
 70
     0
102
RTVSPropertyOp1
 70
     0
102
RTVSPropertyOp2
 70
     0
102
RTVSPropertyOp3
 70
     0
102
RTVSPropertyOp4
 70
     0
102
RTVSPropertyOp5
 70
     0
102
RTVSPropertyOp6
 70
     0
102
RTVSPropertyOp7
 70
     0
102
RTVSPropertyOp8
 70
     0
102
RTVSPropertyOp9
 70
     0
102
RTVSPropertyOp10
 70
     0
102
RTVSPropertyOp11
 70
     0
102
RTVSPropertyOp12
 70
     0
102
RTVSPropertyOp13
 70
     0
102
RTVSPropertyOp14
 70
     2
102
RTVSPropertyOp15
 70
     0
102
RTVSPropertyOp16
 70
     0
102
RTVSPropertyOp17
 70
     0
102
RTVSPropertyOp18
 70
     0
102
RTVSPropertyOp19
 70
     0
102
RTVSPropertyOp20
 70
     0
102
RTVSPropertyOp21
 70
     0
102
RTVSPropertyOp22
 70
     0
102
RTVSPropertyOp23
 70
     0
102
RTVSPropertyOp24
 70
     0
102
RTVSPropertyOp25
 70
     0
102
RTVSPropertyOp26
 70
     0
102
RTVSPropertyOp27
 70
     0
102
RTVSPropertyOp28
 70
     0
102
RTVSPropertyOp29
 70
     0
102
RTVSPropertyOp30
 70
     0
102
RTVSPropertyOp31
 70
     0
102
RTVSPropertyOp32
 70
     0
102
RTVSPropertyOp33
 70
     0
102
RTVSPropertyOp34
 70
     0
102
RTVSPropertyOp35
 70
     0
102
RTVSPropertyOp36
 70
     0
102
RTVSPropertyOp37
 70
     0
102
RTVSPropertyOp38
 70
     0
102
RTVSPropertyOp39
 70
     0
102
RTVSPropertyOp40
 70
     0
102
RTVSPropertyOp41
 70
     0
102
RTVSPropertyOp42
 70
     0
102
RTVSPropertyOp43
 70
     0
102
RTVSPropertyOp44
 70
     0
102
RTVSPropertyOp45
 70
     0
102
RTVSPropertyOp46
 70
     0
102
RTVSPropertyOp47
 70
     0
102
RTVSPropertyOp48
 70
     0
102
RTVSPropertyOp49
 70
     0
102
RTVSPropertyOp50
 70
     0
102
RTVSPropertyOp51
 70
     0
102
RTVSPropertyOp52
 70
     0
102
RTVSPropertyOp53
 70
     0
102
RTVSPropertyOp54
 70
     0
102
RTVSPropertyOp55
 70
     0
102
RTVSPropertyOp56
 70
     0
102
RTVSPropertyOp57
 70
     0
102
RTVSPost2010Prop28
280
     0
102
RTVSPost2010PropOp28
 70
     0
102
RTVSPost2010Prop29
280
     1
102
RTVSPost2010PropOp29
 70
     0
102
RTVSPost2010Prop30
280
     1
102
RTVSPost2010PropOp30
 70
     0
102
RTVSPost2010Prop31
280
     0
102
RTVSPost2010PropOp31
 70
     0
102
RTVSPost2010Prop32
280
     0
102
RTVSPost2010PropOp32
 70
     0
102
RTVSPost2010Prop33
280
     0
102
RTVSPost2010PropOp33
 70
     0
102
RTVSPost2010Prop34
280
     0
102
RTVSPost2010PropOp34
 70
     0
102
RTVSPost2010Prop35
280
     0
102
RTVSPost2010PropOp35
 70
     0
102
RTVSPost2010Prop36
280
     0
102
RTVSPost2010PropOp36
 70
     0
102
RTVSPost2010Prop37
 90
       50
102
RTVSPost2010PropOp37
 70
     0
102
RTVSPost2010Prop38
140
0.0
102
RTVSPost2010PropOp38
 70
     0
102
RTVSPost2010Prop39
140
1.0
102
RTVSPost2010PropOp39
 70
     0
102
RTVSPost2010Prop40
 90
        0
102
RTVSPost2010PropOp40
 70
     0
102
RTVSPost2010Prop41ColorIndex
 90
       18
102
RTVSPost2010Prop41ColorRGB
 90
        0
102
RTVSPost2010PropOp41
 70
     0
102
RTVSPost2010Prop42
 90
       50
102
RTVSPost2010PropOp42
 70
     0
102
RTVSPost2010Prop43
 90
        3
102
RTVSPost2010PropOp43
 70
     0
102
RTVSPost2010Prop44ColorIndex
 90
        5
102
RTVSPost2010Prop44ColorRGB
 90
      255
102
RTVSPost2010PropOp44
 70
     0
102
RTVSPost2010Prop45
280
     0
102
RTVSPost2010PropOp45
 70
     0
102
RTVSPost2010Prop46
 90
       50
102
RTVSPost2010PropOp46
 70
     0
102
RTVSPost2010Prop47
 90
       50
102
RTVSPost2010PropOp47
 70
     0
102
RTVSPost2010Prop48
 90
       50
102
RTVSPost2010PropOp48
 70
     0
102
RTVSPost2010Prop49
280
     0
102
RTVSPost2010PropOp49
 70
     0
102
RTVSPost2010Prop50
 90
       50
102
RTVSPost2010PropOp50
 70
     0
102
RTVSPost2010Prop51ColorIndex
 90
      256
102
RTVSPost2010Prop51ColorRGB
 90
-16777216
102
RTVSPost2010PropOp51
 70
     0
102
RTVSPost2010Prop52
140
1.0
102
RTVSPost2010PropOp52
 70
     0
102
RTVSPost2010Prop53
 90
        2
102
RTVSPost2010PropOp53
 70
     0
102
RTVSPost2010Prop54
  1
strokes_ogs.tif
102
RTVSPost2010PropOp54
 70
     0
102
RTVSPost2010Prop55
280
     0
102
RTVSPost2010PropOp55
 70
     0
102
RTVSPost2010Prop56
140
1.0
102
RTVSPost2010PropOp56
 70
     0
102
RTVSPost2010Prop57
140
1.0
102
RTVSPost2010PropOp57
 70
     0
  0
XRECORD
  5
106ACA6
102
{ACAD_REACTORS
330
106ACA5
102
}
330
106ACA5
100
AcDbXrecord
280
     1
102
RTVSPropertyOp0
 70
     1
102
RTVSPropertyOp1
 70
     1
102
RTVSPropertyOp2
 70
     1
102
RTVSPropertyOp3
 70
     1
102
RTVSPropertyOp4
 70
     1
102
RTVSPropertyOp5
 70
     1
102
RTVSPropertyOp6
 70
     1
102
RTVSPropertyOp7
 70
     1
102
RTVSPropertyOp8
 70
     1
102
RTVSPropertyOp9
 70
     1
102
RTVSPropertyOp10
 70
     1
102
RTVSPropertyOp11
 70
     1
102
RTVSPropertyOp12
 70
     1
102
RTVSPropertyOp13
 70
     1
102
RTVSPropertyOp14
 70
     1
102
RTVSPropertyOp15
 70
     1
102
RTVSPropertyOp16
 70
     1
102
RTVSPropertyOp17
 70
     1
102
RTVSPropertyOp18
 70
     1
102
RTVSPropertyOp19
 70
     1
102
RTVSPropertyOp20
 70
     1
102
RTVSPropertyOp21
 70
     1
102
RTVSPropertyOp22
 70
     1
102
RTVSPropertyOp23
 70
     1
102
RTVSPropertyOp24
 70
     1
102
RTVSPropertyOp25
 70
     1
102
RTVSPropertyOp26
 70
     1
102
RTVSPropertyOp27
 70
     1
102
RTVSPropertyOp28
 70
     1
102
RTVSPropertyOp29
 70
     1
102
RTVSPropertyOp30
 70
     1
102
RTVSPropertyOp31
 70
     1
102
RTVSPropertyOp32
 70
     1
102
RTVSPropertyOp33
 70
     1
102
RTVSPropertyOp34
 70
     1
102
RTVSPropertyOp35
 70
     1
102
RTVSPropertyOp36
 70
     1
102
RTVSPropertyOp37
 70
     1
102
RTVSPropertyOp38
 70
     1
102
RTVSPropertyOp39
 70
     1
102
RTVSPropertyOp40
 70
     1
102
RTVSPropertyOp41
 70
     1
102
RTVSPropertyOp42
 70
     1
102
RTVSPropertyOp43
 70
     1
102
RTVSPropertyOp44
 70
     1
102
RTVSPropertyOp45
 70
     1
102
RTVSPropertyOp46
 70
     1
102
RTVSPropertyOp47
 70
     1
102
RTVSPropertyOp48
 70
     1
102
RTVSPropertyOp49
 70
     1
102
RTVSPropertyOp50
 70
     1
102
RTVSPropertyOp51
 70
     0
102
RTVSPropertyOp52
 70
     0
102
RTVSPropertyOp53
 70
     1
102
RTVSPropertyOp54
 70
     1
102
RTVSPropertyOp55
 70
     1
102
RTVSPropertyOp56
 70
     1
102
RTVSPropertyOp57
 70
     1
102
RTVSPost2010Prop28
280
     0
102
RTVSPost2010PropOp28
 70
     1
102
RTVSPost2010Prop29
280
     1
102
RTVSPost2010PropOp29
 70
     1
102
RTVSPost2010Prop30
280
     1
102
RTVSPost2010PropOp30
 70
     1
102
RTVSPost2010Prop31
280
     0
102
RTVSPost2010PropOp31
 70
     1
102
RTVSPost2010Prop32
280
     0
102
RTVSPost2010PropOp32
 70
     1
102
RTVSPost2010Prop33
280
     0
102
RTVSPost2010PropOp33
 70
     1
102
RTVSPost2010Prop34
280
     0
102
RTVSPost2010PropOp34
 70
     1
102
RTVSPost2010Prop35
280
     0
102
RTVSPost2010PropOp35
 70
     1
102
RTVSPost2010Prop36
280
     0
102
RTVSPost2010PropOp36
 70
     1
102
RTVSPost2010Prop37
 90
       50
102
RTVSPost2010PropOp37
 70
     1
102
RTVSPost2010Prop38
140
0.0
102
RTVSPost2010PropOp38
 70
     1
102
RTVSPost2010Prop39
140
1.0
102
RTVSPost2010PropOp39
 70
     1
102
RTVSPost2010Prop40
 90
        0
102
RTVSPost2010PropOp40
 70
     1
102
RTVSPost2010Prop41ColorIndex
 90
       18
102
RTVSPost2010Prop41ColorRGB
 90
        0
102
RTVSPost2010PropOp41
 70
     1
102
RTVSPost2010Prop42
 90
       50
102
RTVSPost2010PropOp42
 70
     1
102
RTVSPost2010Prop43
 90
        3
102
RTVSPost2010PropOp43
 70
     1
102
RTVSPost2010Prop44ColorIndex
 90
        5
102
RTVSPost2010Prop44ColorRGB
 90
      255
102
RTVSPost2010PropOp44
 70
     1
102
RTVSPost2010Prop45
280
     0
102
RTVSPost2010PropOp45
 70
     1
102
RTVSPost2010Prop46
 90
       50
102
RTVSPost2010PropOp46
 70
     1
102
RTVSPost2010Prop47
 90
       50
102
RTVSPost2010PropOp47
 70
     1
102
RTVSPost2010Prop48
 90
       50
102
RTVSPost2010PropOp48
 70
     1
102
RTVSPost2010Prop49
280
     0
102
RTVSPost2010PropOp49
 70
     1
102
RTVSPost2010Prop50
 90
       50
102
RTVSPost2010PropOp50
 70
     1
102
RTVSPost2010Prop51ColorIndex
 90
      256
102
RTVSPost2010Prop51ColorRGB
 90
-16777216
102
RTVSPost2010PropOp51
 70
     0
102
RTVSPost2010Prop52
140
1.0
102
RTVSPost2010PropOp52
 70
     0
102
RTVSPost2010Prop53
 90
        2
102
RTVSPost2010PropOp53
 70
     1
102
RTVSPost2010Prop54
  1
strokes_ogs.tif
102
RTVSPost2010PropOp54
 70
     1
102
RTVSPost2010Prop55
280
     0
102
RTVSPost2010PropOp55
 70
     1
102
RTVSPost2010Prop56
140
1.0
102
RTVSPost2010PropOp56
 70
     1
102
RTVSPost2010Prop57
140
1.0
102
RTVSPost2010PropOp57
 70
     1
  0
XRECORD
  5
106ACA8
102
{ACAD_REACTORS
330
106ACA7
102
}
330
106ACA7
100
AcDbXrecord
280
     1
102
RTVSPropertyOp0
 70
     0
102
RTVSPropertyOp1
 70
     0
102
RTVSPropertyOp2
 70
     0
102
RTVSPropertyOp3
 70
     0
102
RTVSPropertyOp4
 70
     0
102
RTVSPropertyOp5
 70
     0
102
RTVSPropertyOp6
 70
     0
102
RTVSPropertyOp7
 70
     0
102
RTVSPropertyOp8
 70
     0
102
RTVSPropertyOp9
 70
     0
102
RTVSPropertyOp10
 70
     0
102
RTVSPropertyOp11
 70
     0
102
RTVSPropertyOp12
 70
     0
102
RTVSPropertyOp13
 70
     0
102
RTVSPropertyOp14
 70
     2
102
RTVSPropertyOp15
 70
     0
102
RTVSPropertyOp16
 70
     0
102
RTVSPropertyOp17
 70
     0
102
RTVSPropertyOp18
 70
     0
102
RTVSPropertyOp19
 70
     0
102
RTVSPropertyOp20
 70
     0
102
RTVSPropertyOp21
 70
     0
102
RTVSPropertyOp22
 70
     0
102
RTVSPropertyOp23
 70
     0
102
RTVSPropertyOp24
 70
     0
102
RTVSPropertyOp25
 70
     0
102
RTVSPropertyOp26
 70
     0
102
RTVSPropertyOp27
 70
     0
102
RTVSPropertyOp28
 70
     0
102
RTVSPropertyOp29
 70
     0
102
RTVSPropertyOp30
 70
     0
102
RTVSPropertyOp31
 70
     0
102
RTVSPropertyOp32
 70
     0
102
RTVSPropertyOp33
 70
     0
102
RTVSPropertyOp34
 70
     0
102
RTVSPropertyOp35
 70
     0
102
RTVSPropertyOp36
 70
     0
102
RTVSPropertyOp37
 70
     0
102
RTVSPropertyOp38
 70
     0
102
RTVSPropertyOp39
 70
     0
102
RTVSPropertyOp40
 70
     0
102
RTVSPropertyOp41
 70
     0
102
RTVSPropertyOp42
 70
     0
102
RTVSPropertyOp43
 70
     0
102
RTVSPropertyOp44
 70
     0
102
RTVSPropertyOp45
 70
     0
102
RTVSPropertyOp46
 70
     0
102
RTVSPropertyOp47
 70
     0
102
RTVSPropertyOp48
 70
     0
102
RTVSPropertyOp49
 70
     0
102
RTVSPropertyOp50
 70
     0
102
RTVSPropertyOp51
 70
     0
102
RTVSPropertyOp52
 70
     0
102
RTVSPropertyOp53
 70
     0
102
RTVSPropertyOp54
 70
     0
102
RTVSPropertyOp55
 70
     0
102
RTVSPropertyOp56
 70
     0
102
RTVSPropertyOp57
 70
     0
102
RTVSPost2010Prop28
280
     0
102
RTVSPost2010PropOp28
 70
     0
102
RTVSPost2010Prop29
280
     1
102
RTVSPost2010PropOp29
 70
     0
102
RTVSPost2010Prop30
280
     1
102
RTVSPost2010PropOp30
 70
     0
102
RTVSPost2010Prop31
280
     0
102
RTVSPost2010PropOp31
 70
     0
102
RTVSPost2010Prop32
280
     0
102
RTVSPost2010PropOp32
 70
     0
102
RTVSPost2010Prop33
280
     0
102
RTVSPost2010PropOp33
 70
     0
102
RTVSPost2010Prop34
280
     0
102
RTVSPost2010PropOp34
 70
     0
102
RTVSPost2010Prop35
280
     0
102
RTVSPost2010PropOp35
 70
     0
102
RTVSPost2010Prop36
280
     0
102
RTVSPost2010PropOp36
 70
     0
102
RTVSPost2010Prop37
 90
       50
102
RTVSPost2010PropOp37
 70
     0
102
RTVSPost2010Prop38
140
0.0
102
RTVSPost2010PropOp38
 70
     0
102
RTVSPost2010Prop39
140
1.0
102
RTVSPost2010PropOp39
 70
     0
102
RTVSPost2010Prop40
 90
        0
102
RTVSPost2010PropOp40
 70
     0
102
RTVSPost2010Prop41ColorIndex
 90
       18
102
RTVSPost2010Prop41ColorRGB
 90
        0
102
RTVSPost2010PropOp41
 70
     0
102
RTVSPost2010Prop42
 90
       50
102
RTVSPost2010PropOp42
 70
     0
102
RTVSPost2010Prop43
 90
        3
102
RTVSPost2010PropOp43
 70
     0
102
RTVSPost2010Prop44ColorIndex
 90
        5
102
RTVSPost2010Prop44ColorRGB
 90
      255
102
RTVSPost2010PropOp44
 70
     0
102
RTVSPost2010Prop45
280
     0
102
RTVSPost2010PropOp45
 70
     0
102
RTVSPost2010Prop46
 90
       50
102
RTVSPost2010PropOp46
 70
     0
102
RTVSPost2010Prop47
 90
       50
102
RTVSPost2010PropOp47
 70
     0
102
RTVSPost2010Prop48
 90
       50
102
RTVSPost2010PropOp48
 70
     0
102
RTVSPost2010Prop49
280
     0
102
RTVSPost2010PropOp49
 70
     0
102
RTVSPost2010Prop50
 90
       50
102
RTVSPost2010PropOp50
 70
     0
102
RTVSPost2010Prop51ColorIndex
 90
      256
102
RTVSPost2010Prop51ColorRGB
 90
-16777216
102
RTVSPost2010PropOp51
 70
     0
102
RTVSPost2010Prop52
140
1.0
102
RTVSPost2010PropOp52
 70
     0
102
RTVSPost2010Prop53
 90
        2
102
RTVSPost2010PropOp53
 70
     0
102
RTVSPost2010Prop54
  1
strokes_ogs.tif
102
RTVSPost2010PropOp54
 70
     0
102
RTVSPost2010Prop55
280
     0
102
RTVSPost2010PropOp55
 70
     0
102
RTVSPost2010Prop56
140
1.0
102
RTVSPost2010PropOp56
 70
     0
102
RTVSPost2010Prop57
140
1.0
102
RTVSPost2010PropOp57
 70
     0
  0
XRECORD
  5
106ACAA
102
{ACAD_REACTORS
330
106ACA9
102
}
330
106ACA9
100
AcDbXrecord
280
     1
102
RTVSPropertyOp0
 70
     1
102
RTVSPropertyOp1
 70
     1
102
RTVSPropertyOp2
 70
     1
102
RTVSPropertyOp3
 70
     1
102
RTVSPropertyOp4
 70
     1
102
RTVSPropertyOp5
 70
     1
102
RTVSPropertyOp6
 70
     1
102
RTVSPropertyOp7
 70
     1
102
RTVSPropertyOp8
 70
     1
102
RTVSPropertyOp9
 70
     1
102
RTVSPropertyOp10
 70
     1
102
RTVSPropertyOp11
 70
     1
102
RTVSPropertyOp12
 70
     1
102
RTVSPropertyOp13
 70
     1
102
RTVSPropertyOp14
 70
     1
102
RTVSPropertyOp15
 70
     1
102
RTVSPropertyOp16
 70
     1
102
RTVSPropertyOp17
 70
     1
102
RTVSPropertyOp18
 70
     1
102
RTVSPropertyOp19
 70
     1
102
RTVSPropertyOp20
 70
     1
102
RTVSPropertyOp21
 70
     1
102
RTVSPropertyOp22
 70
     1
102
RTVSPropertyOp23
 70
     1
102
RTVSPropertyOp24
 70
     1
102
RTVSPropertyOp25
 70
     1
102
RTVSPropertyOp26
 70
     1
102
RTVSPropertyOp27
 70
     1
102
RTVSPropertyOp28
 70
     1
102
RTVSPropertyOp29
 70
     1
102
RTVSPropertyOp30
 70
     1
102
RTVSPropertyOp31
 70
     1
102
RTVSPropertyOp32
 70
     1
102
RTVSPropertyOp33
 70
     1
102
RTVSPropertyOp34
 70
     1
102
RTVSPropertyOp35
 70
     1
102
RTVSPropertyOp36
 70
     1
102
RTVSPropertyOp37
 70
     1
102
RTVSPropertyOp38
 70
     1
102
RTVSPropertyOp39
 70
     1
102
RTVSPropertyOp40
 70
     1
102
RTVSPropertyOp41
 70
     1
102
RTVSPropertyOp42
 70
     1
102
RTVSPropertyOp43
 70
     1
102
RTVSPropertyOp44
 70
     1
102
RTVSPropertyOp45
 70
     1
102
RTVSPropertyOp46
 70
     1
102
RTVSPropertyOp47
 70
     1
102
RTVSPropertyOp48
 70
     1
102
RTVSPropertyOp49
 70
     1
102
RTVSPropertyOp50
 70
     1
102
RTVSPropertyOp51
 70
     0
102
RTVSPropertyOp52
 70
     0
102
RTVSPropertyOp53
 70
     1
102
RTVSPropertyOp54
 70
     1
102
RTVSPropertyOp55
 70
     1
102
RTVSPropertyOp56
 70
     1
102
RTVSPropertyOp57
 70
     1
102
RTVSPost2010Prop28
280
     0
102
RTVSPost2010PropOp28
 70
     1
102
RTVSPost2010Prop29
280
     1
102
RTVSPost2010PropOp29
 70
     1
102
RTVSPost2010Prop30
280
     1
102
RTVSPost2010PropOp30
 70
     1
102
RTVSPost2010Prop31
280
     0
102
RTVSPost2010PropOp31
 70
     1
102
RTVSPost2010Prop32
280
     0
102
RTVSPost2010PropOp32
 70
     1
102
RTVSPost2010Prop33
280
     0
102
RTVSPost2010PropOp33
 70
     1
102
RTVSPost2010Prop34
280
     0
102
RTVSPost2010PropOp34
 70
     1
102
RTVSPost2010Prop35
280
     0
102
RTVSPost2010PropOp35
 70
     1
102
RTVSPost2010Prop36
280
     0
102
RTVSPost2010PropOp36
 70
     1
102
RTVSPost2010Prop37
 90
       50
102
RTVSPost2010PropOp37
 70
     1
102
RTVSPost2010Prop38
140
0.0
102
RTVSPost2010PropOp38
 70
     1
102
RTVSPost2010Prop39
140
1.0
102
RTVSPost2010PropOp39
 70
     1
102
RTVSPost2010Prop40
 90
        0
102
RTVSPost2010PropOp40
 70
     1
102
RTVSPost2010Prop41ColorIndex
 90
       18
102
RTVSPost2010Prop41ColorRGB
 90
        0
102
RTVSPost2010PropOp41
 70
     1
102
RTVSPost2010Prop42
 90
       50
102
RTVSPost2010PropOp42
 70
     1
102
RTVSPost2010Prop43
 90
        3
102
RTVSPost2010PropOp43
 70
     1
102
RTVSPost2010Prop44ColorIndex
 90
        5
102
RTVSPost2010Prop44ColorRGB
 90
      255
102
RTVSPost2010PropOp44
 70
     1
102
RTVSPost2010Prop45
280
     0
102
RTVSPost2010PropOp45
 70
     1
102
RTVSPost2010Prop46
 90
       50
102
RTVSPost2010PropOp46
 70
     1
102
RTVSPost2010Prop47
 90
       50
102
RTVSPost2010PropOp47
 70
     1
102
RTVSPost2010Prop48
 90
       50
102
RTVSPost2010PropOp48
 70
     1
102
RTVSPost2010Prop49
280
     0
102
RTVSPost2010PropOp49
 70
     1
102
RTVSPost2010Prop50
 90
       50
102
RTVSPost2010PropOp50
 70
     1
102
RTVSPost2010Prop51ColorIndex
 90
      256
102
RTVSPost2010Prop51ColorRGB
 90
-16777216
102
RTVSPost2010PropOp51
 70
     0
102
RTVSPost2010Prop52
140
1.0
102
RTVSPost2010PropOp52
 70
     0
102
RTVSPost2010Prop53
 90
        2
102
RTVSPost2010PropOp53
 70
     1
102
RTVSPost2010Prop54
  1
strokes_ogs.tif
102
RTVSPost2010PropOp54
 70
     1
102
RTVSPost2010Prop55
280
     0
102
RTVSPost2010PropOp55
 70
     1
102
RTVSPost2010Prop56
140
1.0
102
RTVSPost2010PropOp56
 70
     1
102
RTVSPost2010Prop57
140
1.0
102
RTVSPost2010PropOp57
 70
     1
  0
XRECORD
  5
106ACAC
102
{ACAD_REACTORS
330
106ACAB
102
}
330
106ACAB
100
AcDbXrecord
280
     1
102
RTVSPropertyOp0
 70
     1
102
RTVSPropertyOp1
 70
     1
102
RTVSPropertyOp2
 70
     1
102
RTVSPropertyOp3
 70
     1
102
RTVSPropertyOp4
 70
     1
102
RTVSPropertyOp5
 70
     1
102
RTVSPropertyOp6
 70
     1
102
RTVSPropertyOp7
 70
     1
102
RTVSPropertyOp8
 70
     1
102
RTVSPropertyOp9
 70
     1
102
RTVSPropertyOp10
 70
     1
102
RTVSPropertyOp11
 70
     1
102
RTVSPropertyOp12
 70
     1
102
RTVSPropertyOp13
 70
     1
102
RTVSPropertyOp14
 70
     1
102
RTVSPropertyOp15
 70
     1
102
RTVSPropertyOp16
 70
     1
102
RTVSPropertyOp17
 70
     1
102
RTVSPropertyOp18
 70
     1
102
RTVSPropertyOp19
 70
     1
102
RTVSPropertyOp20
 70
     1
102
RTVSPropertyOp21
 70
     1
102
RTVSPropertyOp22
 70
     1
102
RTVSPropertyOp23
 70
     1
102
RTVSPropertyOp24
 70
     1
102
RTVSPropertyOp25
 70
     1
102
RTVSPropertyOp26
 70
     1
102
RTVSPropertyOp27
 70
     1
102
RTVSPropertyOp28
 70
     1
102
RTVSPropertyOp29
 70
     1
102
RTVSPropertyOp30
 70
     1
102
RTVSPropertyOp31
 70
     1
102
RTVSPropertyOp32
 70
     1
102
RTVSPropertyOp33
 70
     1
102
RTVSPropertyOp34
 70
     1
102
RTVSPropertyOp35
 70
     1
102
RTVSPropertyOp36
 70
     1
102
RTVSPropertyOp37
 70
     1
102
RTVSPropertyOp38
 70
     1
102
RTVSPropertyOp39
 70
     1
102
RTVSPropertyOp40
 70
     1
102
RTVSPropertyOp41
 70
     1
102
RTVSPropertyOp42
 70
     1
102
RTVSPropertyOp43
 70
     1
102
RTVSPropertyOp44
 70
     1
102
RTVSPropertyOp45
 70
     1
102
RTVSPropertyOp46
 70
     1
102
RTVSPropertyOp47
 70
     1
102
RTVSPropertyOp48
 70
     1
102
RTVSPropertyOp49
 70
     1
102
RTVSPropertyOp50
 70
     1
102
RTVSPropertyOp51
 70
     0
102
RTVSPropertyOp52
 70
     0
102
RTVSPropertyOp53
 70
     1
102
RTVSPropertyOp54
 70
     1
102
RTVSPropertyOp55
 70
     1
102
RTVSPropertyOp56
 70
     1
102
RTVSPropertyOp57
 70
     1
102
RTVSPost2010Prop28
280
     0
102
RTVSPost2010PropOp28
 70
     1
102
RTVSPost2010Prop29
280
     1
102
RTVSPost2010PropOp29
 70
     1
102
RTVSPost2010Prop30
280
     1
102
RTVSPost2010PropOp30
 70
     1
102
RTVSPost2010Prop31
280
     0
102
RTVSPost2010PropOp31
 70
     1
102
RTVSPost2010Prop32
280
     0
102
RTVSPost2010PropOp32
 70
     1
102
RTVSPost2010Prop33
280
     0
102
RTVSPost2010PropOp33
 70
     1
102
RTVSPost2010Prop34
280
     0
102
RTVSPost2010PropOp34
 70
     1
102
RTVSPost2010Prop35
280
     0
102
RTVSPost2010PropOp35
 70
     1
102
RTVSPost2010Prop36
280
     0
102
RTVSPost2010PropOp36
 70
     1
102
RTVSPost2010Prop37
 90
       50
102
RTVSPost2010PropOp37
 70
     1
102
RTVSPost2010Prop38
140
0.0
102
RTVSPost2010PropOp38
 70
     1
102
RTVSPost2010Prop39
140
1.0
102
RTVSPost2010PropOp39
 70
     1
102
RTVSPost2010Prop40
 90
        0
102
RTVSPost2010PropOp40
 70
     1
102
RTVSPost2010Prop41ColorIndex
 90
       18
102
RTVSPost2010Prop41ColorRGB
 90
        0
102
RTVSPost2010PropOp41
 70
     1
102
RTVSPost2010Prop42
 90
       50
102
RTVSPost2010PropOp42
 70
     1
102
RTVSPost2010Prop43
 90
        3
102
RTVSPost2010PropOp43
 70
     1
102
RTVSPost2010Prop44ColorIndex
 90
        5
102
RTVSPost2010Prop44ColorRGB
 90
      255
102
RTVSPost2010PropOp44
 70
     1
102
RTVSPost2010Prop45
280
     0
102
RTVSPost2010PropOp45
 70
     1
102
RTVSPost2010Prop46
 90
       50
102
RTVSPost2010PropOp46
 70
     1
102
RTVSPost2010Prop47
 90
       50
102
RTVSPost2010PropOp47
 70
     1
102
RTVSPost2010Prop48
 90
       50
102
RTVSPost2010PropOp48
 70
     1
102
RTVSPost2010Prop49
280
     0
102
RTVSPost2010PropOp49
 70
     1
102
RTVSPost2010Prop50
 90
       50
102
RTVSPost2010PropOp50
 70
     1
102
RTVSPost2010Prop51ColorIndex
 90
      256
102
RTVSPost2010Prop51ColorRGB
 90
-16777216
102
RTVSPost2010PropOp51
 70
     0
102
RTVSPost2010Prop52
140
1.0
102
RTVSPost2010PropOp52
 70
     0
102
RTVSPost2010Prop53
 90
        2
102
RTVSPost2010PropOp53
 70
     1
102
RTVSPost2010Prop54
  1
strokes_ogs.tif
102
RTVSPost2010PropOp54
 70
     1
102
RTVSPost2010Prop55
280
     0
102
RTVSPost2010PropOp55
 70
     1
102
RTVSPost2010Prop56
140
1.0
102
RTVSPost2010PropOp56
 70
     1
102
RTVSPost2010Prop57
140
1.0
102
RTVSPost2010PropOp57
 70
     1
  0
XRECORD
  5
106ACAE
102
{ACAD_REACTORS
330
106ACAD
102
}
330
106ACAD
100
AcDbXrecord
280
     1
102
RTVSPropertyOp0
 70
     1
102
RTVSPropertyOp1
 70
     1
102
RTVSPropertyOp2
 70
     1
102
RTVSPropertyOp3
 70
     1
102
RTVSPropertyOp4
 70
     1
102
RTVSPropertyOp5
 70
     1
102
RTVSPropertyOp6
 70
     1
102
RTVSPropertyOp7
 70
     1
102
RTVSPropertyOp8
 70
     1
102
RTVSPropertyOp9
 70
     1
102
RTVSPropertyOp10
 70
     1
102
RTVSPropertyOp11
 70
     1
102
RTVSPropertyOp12
 70
     1
102
RTVSPropertyOp13
 70
     1
102
RTVSPropertyOp14
 70
     1
102
RTVSPropertyOp15
 70
     1
102
RTVSPropertyOp16
 70
     1
102
RTVSPropertyOp17
 70
     1
102
RTVSPropertyOp18
 70
     1
102
RTVSPropertyOp19
 70
     1
102
RTVSPropertyOp20
 70
     1
102
RTVSPropertyOp21
 70
     1
102
RTVSPropertyOp22
 70
     1
102
RTVSPropertyOp23
 70
     1
102
RTVSPropertyOp24
 70
     1
102
RTVSPropertyOp25
 70
     1
102
RTVSPropertyOp26
 70
     1
102
RTVSPropertyOp27
 70
     1
102
RTVSPropertyOp28
 70
     1
102
RTVSPropertyOp29
 70
     1
102
RTVSPropertyOp30
 70
     1
102
RTVSPropertyOp31
 70
     1
102
RTVSPropertyOp32
 70
     1
102
RTVSPropertyOp33
 70
     1
102
RTVSPropertyOp34
 70
     1
102
RTVSPropertyOp35
 70
     1
102
RTVSPropertyOp36
 70
     1
102
RTVSPropertyOp37
 70
     1
102
RTVSPropertyOp38
 70
     1
102
RTVSPropertyOp39
 70
     1
102
RTVSPropertyOp40
 70
     1
102
RTVSPropertyOp41
 70
     1
102
RTVSPropertyOp42
 70
     1
102
RTVSPropertyOp43
 70
     1
102
RTVSPropertyOp44
 70
     1
102
RTVSPropertyOp45
 70
     1
102
RTVSPropertyOp46
 70
     1
102
RTVSPropertyOp47
 70
     1
102
RTVSPropertyOp48
 70
     1
102
RTVSPropertyOp49
 70
     1
102
RTVSPropertyOp50
 70
     1
102
RTVSPropertyOp51
 70
     0
102
RTVSPropertyOp52
 70
     0
102
RTVSPropertyOp53
 70
     1
102
RTVSPropertyOp54
 70
     1
102
RTVSPropertyOp55
 70
     1
102
RTVSPropertyOp56
 70
     1
102
RTVSPropertyOp57
 70
     1
102
RTVSPost2010Prop28
280
     0
102
RTVSPost2010PropOp28
 70
     1
102
RTVSPost2010Prop29
280
     1
102
RTVSPost2010PropOp29
 70
     1
102
RTVSPost2010Prop30
280
     1
102
RTVSPost2010PropOp30
 70
     1
102
RTVSPost2010Prop31
280
     0
102
RTVSPost2010PropOp31
 70
     1
102
RTVSPost2010Prop32
280
     0
102
RTVSPost2010PropOp32
 70
     1
102
RTVSPost2010Prop33
280
     0
102
RTVSPost2010PropOp33
 70
     1
102
RTVSPost2010Prop34
280
     0
102
RTVSPost2010PropOp34
 70
     1
102
RTVSPost2010Prop35
280
     0
102
RTVSPost2010PropOp35
 70
     1
102
RTVSPost2010Prop36
280
     0
102
RTVSPost2010PropOp36
 70
     1
102
RTVSPost2010Prop37
 90
       50
102
RTVSPost2010PropOp37
 70
     1
102
RTVSPost2010Prop38
140
0.0
102
RTVSPost2010PropOp38
 70
     1
102
RTVSPost2010Prop39
140
1.0
102
RTVSPost2010PropOp39
 70
     1
102
RTVSPost2010Prop40
 90
        0
102
RTVSPost2010PropOp40
 70
     1
102
RTVSPost2010Prop41ColorIndex
 90
       18
102
RTVSPost2010Prop41ColorRGB
 90
        0
102
RTVSPost2010PropOp41
 70
     1
102
RTVSPost2010Prop42
 90
       50
102
RTVSPost2010PropOp42
 70
     1
102
RTVSPost2010Prop43
 90
        3
102
RTVSPost2010PropOp43
 70
     1
102
RTVSPost2010Prop44ColorIndex
 90
        5
102
RTVSPost2010Prop44ColorRGB
 90
      255
102
RTVSPost2010PropOp44
 70
     1
102
RTVSPost2010Prop45
280
     0
102
RTVSPost2010PropOp45
 70
     1
102
RTVSPost2010Prop46
 90
       50
102
RTVSPost2010PropOp46
 70
     1
102
RTVSPost2010Prop47
 90
       50
102
RTVSPost2010PropOp47
 70
     1
102
RTVSPost2010Prop48
 90
       50
102
RTVSPost2010PropOp48
 70
     1
102
RTVSPost2010Prop49
280
     0
102
RTVSPost2010PropOp49
 70
     1
102
RTVSPost2010Prop50
 90
       50
102
RTVSPost2010PropOp50
 70
     1
102
RTVSPost2010Prop51ColorIndex
 90
      256
102
RTVSPost2010Prop51ColorRGB
 90
-16777216
102
RTVSPost2010PropOp51
 70
     0
102
RTVSPost2010Prop52
140
1.0
102
RTVSPost2010PropOp52
 70
     0
102
RTVSPost2010Prop53
 90
        2
102
RTVSPost2010PropOp53
 70
     1
102
RTVSPost2010Prop54
  1
strokes_ogs.tif
102
RTVSPost2010PropOp54
 70
     1
102
RTVSPost2010Prop55
280
     0
102
RTVSPost2010PropOp55
 70
     1
102
RTVSPost2010Prop56
140
1.0
102
RTVSPost2010PropOp56
 70
     1
102
RTVSPost2010Prop57
140
1.0
102
RTVSPost2010PropOp57
 70
     1
  0
XRECORD
  5
106ACB0
102
{ACAD_REACTORS
330
106ACAF
102
}
330
106ACAF
100
AcDbXrecord
280
     1
102
RTVSPropertyOp0
 70
     1
102
RTVSPropertyOp1
 70
     1
102
RTVSPropertyOp2
 70
     1
102
RTVSPropertyOp3
 70
     1
102
RTVSPropertyOp4
 70
     1
102
RTVSPropertyOp5
 70
     1
102
RTVSPropertyOp6
 70
     1
102
RTVSPropertyOp7
 70
     1
102
RTVSPropertyOp8
 70
     1
102
RTVSPropertyOp9
 70
     1
102
RTVSPropertyOp10
 70
     1
102
RTVSPropertyOp11
 70
     1
102
RTVSPropertyOp12
 70
     1
102
RTVSPropertyOp13
 70
     1
102
RTVSPropertyOp14
 70
     1
102
RTVSPropertyOp15
 70
     1
102
RTVSPropertyOp16
 70
     1
102
RTVSPropertyOp17
 70
     1
102
RTVSPropertyOp18
 70
     1
102
RTVSPropertyOp19
 70
     1
102
RTVSPropertyOp20
 70
     1
102
RTVSPropertyOp21
 70
     1
102
RTVSPropertyOp22
 70
     1
102
RTVSPropertyOp23
 70
     1
102
RTVSPropertyOp24
 70
     1
102
RTVSPropertyOp25
 70
     1
102
RTVSPropertyOp26
 70
     1
102
RTVSPropertyOp27
 70
     1
102
RTVSPropertyOp28
 70
     1
102
RTVSPropertyOp29
 70
     1
102
RTVSPropertyOp30
 70
     1
102
RTVSPropertyOp31
 70
     1
102
RTVSPropertyOp32
 70
     1
102
RTVSPropertyOp33
 70
     1
102
RTVSPropertyOp34
 70
     1
102
RTVSPropertyOp35
 70
     1
102
RTVSPropertyOp36
 70
     1
102
RTVSPropertyOp37
 70
     1
102
RTVSPropertyOp38
 70
     1
102
RTVSPropertyOp39
 70
     1
102
RTVSPropertyOp40
 70
     1
102
RTVSPropertyOp41
 70
     1
102
RTVSPropertyOp42
 70
     1
102
RTVSPropertyOp43
 70
     1
102
RTVSPropertyOp44
 70
     1
102
RTVSPropertyOp45
 70
     1
102
RTVSPropertyOp46
 70
     1
102
RTVSPropertyOp47
 70
     1
102
RTVSPropertyOp48
 70
     1
102
RTVSPropertyOp49
 70
     1
102
RTVSPropertyOp50
 70
     1
102
RTVSPropertyOp51
 70
     0
102
RTVSPropertyOp52
 70
     0
102
RTVSPropertyOp53
 70
     1
102
RTVSPropertyOp54
 70
     1
102
RTVSPropertyOp55
 70
     1
102
RTVSPropertyOp56
 70
     1
102
RTVSPropertyOp57
 70
     1
102
RTVSPost2010Prop28
280
     0
102
RTVSPost2010PropOp28
 70
     1
102
RTVSPost2010Prop29
280
     1
102
RTVSPost2010PropOp29
 70
     1
102
RTVSPost2010Prop30
280
     1
102
RTVSPost2010PropOp30
 70
     1
102
RTVSPost2010Prop31
280
     0
102
RTVSPost2010PropOp31
 70
     1
102
RTVSPost2010Prop32
280
     0
102
RTVSPost2010PropOp32
 70
     1
102
RTVSPost2010Prop33
280
     0
102
RTVSPost2010PropOp33
 70
     1
102
RTVSPost2010Prop34
280
     0
102
RTVSPost2010PropOp34
 70
     1
102
RTVSPost2010Prop35
280
     0
102
RTVSPost2010PropOp35
 70
     1
102
RTVSPost2010Prop36
280
     0
102
RTVSPost2010PropOp36
 70
     1
102
RTVSPost2010Prop37
 90
       50
102
RTVSPost2010PropOp37
 70
     1
102
RTVSPost2010Prop38
140
0.0
102
RTVSPost2010PropOp38
 70
     1
102
RTVSPost2010Prop39
140
1.0
102
RTVSPost2010PropOp39
 70
     1
102
RTVSPost2010Prop40
 90
        0
102
RTVSPost2010PropOp40
 70
     1
102
RTVSPost2010Prop41ColorIndex
 90
       18
102
RTVSPost2010Prop41ColorRGB
 90
        0
102
RTVSPost2010PropOp41
 70
     1
102
RTVSPost2010Prop42
 90
       50
102
RTVSPost2010PropOp42
 70
     1
102
RTVSPost2010Prop43
 90
        3
102
RTVSPost2010PropOp43
 70
     1
102
RTVSPost2010Prop44ColorIndex
 90
        5
102
RTVSPost2010Prop44ColorRGB
 90
      255
102
RTVSPost2010PropOp44
 70
     1
102
RTVSPost2010Prop45
280
     0
102
RTVSPost2010PropOp45
 70
     1
102
RTVSPost2010Prop46
 90
       50
102
RTVSPost2010PropOp46
 70
     1
102
RTVSPost2010Prop47
 90
       50
102
RTVSPost2010PropOp47
 70
     1
102
RTVSPost2010Prop48
 90
       50
102
RTVSPost2010PropOp48
 70
     1
102
RTVSPost2010Prop49
280
     0
102
RTVSPost2010PropOp49
 70
     1
102
RTVSPost2010Prop50
 90
       50
102
RTVSPost2010PropOp50
 70
     1
102
RTVSPost2010Prop51ColorIndex
 90
      256
102
RTVSPost2010Prop51ColorRGB
 90
-16777216
102
RTVSPost2010PropOp51
 70
     0
102
RTVSPost2010Prop52
140
1.0
102
RTVSPost2010PropOp52
 70
     0
102
RTVSPost2010Prop53
 90
        2
102
RTVSPost2010PropOp53
 70
     1
102
RTVSPost2010Prop54
  1
strokes_ogs.tif
102
RTVSPost2010PropOp54
 70
     1
102
RTVSPost2010Prop55
280
     0
102
RTVSPost2010PropOp55
 70
     1
102
RTVSPost2010Prop56
140
1.0
102
RTVSPost2010PropOp56
 70
     1
102
RTVSPost2010Prop57
140
1.0
102
RTVSPost2010PropOp57
 70
     1
  0
XRECORD
  5
106ACB2
102
{ACAD_REACTORS
330
106ACB1
102
}
330
106ACB1
100
AcDbXrecord
280
     1
102
RTVSPropertyOp0
 70
     1
102
RTVSPropertyOp1
 70
     1
102
RTVSPropertyOp2
 70
     1
102
RTVSPropertyOp3
 70
     1
102
RTVSPropertyOp4
 70
     1
102
RTVSPropertyOp5
 70
     1
102
RTVSPropertyOp6
 70
     1
102
RTVSPropertyOp7
 70
     1
102
RTVSPropertyOp8
 70
     1
102
RTVSPropertyOp9
 70
     1
102
RTVSPropertyOp10
 70
     1
102
RTVSPropertyOp11
 70
     1
102
RTVSPropertyOp12
 70
     1
102
RTVSPropertyOp13
 70
     1
102
RTVSPropertyOp14
 70
     1
102
RTVSPropertyOp15
 70
     1
102
RTVSPropertyOp16
 70
     1
102
RTVSPropertyOp17
 70
     1
102
RTVSPropertyOp18
 70
     1
102
RTVSPropertyOp19
 70
     1
102
RTVSPropertyOp20
 70
     1
102
RTVSPropertyOp21
 70
     1
102
RTVSPropertyOp22
 70
     1
102
RTVSPropertyOp23
 70
     1
102
RTVSPropertyOp24
 70
     1
102
RTVSPropertyOp25
 70
     1
102
RTVSPropertyOp26
 70
     1
102
RTVSPropertyOp27
 70
     1
102
RTVSPropertyOp28
 70
     1
102
RTVSPropertyOp29
 70
     1
102
RTVSPropertyOp30
 70
     1
102
RTVSPropertyOp31
 70
     1
102
RTVSPropertyOp32
 70
     1
102
RTVSPropertyOp33
 70
     1
102
RTVSPropertyOp34
 70
     1
102
RTVSPropertyOp35
 70
     1
102
RTVSPropertyOp36
 70
     1
102
RTVSPropertyOp37
 70
     1
102
RTVSPropertyOp38
 70
     1
102
RTVSPropertyOp39
 70
     1
102
RTVSPropertyOp40
 70
     1
102
RTVSPropertyOp41
 70
     1
102
RTVSPropertyOp42
 70
     1
102
RTVSPropertyOp43
 70
     1
102
RTVSPropertyOp44
 70
     1
102
RTVSPropertyOp45
 70
     1
102
RTVSPropertyOp46
 70
     1
102
RTVSPropertyOp47
 70
     1
102
RTVSPropertyOp48
 70
     1
102
RTVSPropertyOp49
 70
     1
102
RTVSPropertyOp50
 70
     1
102
RTVSPropertyOp51
 70
     0
102
RTVSPropertyOp52
 70
     0
102
RTVSPropertyOp53
 70
     1
102
RTVSPropertyOp54
 70
     1
102
RTVSPropertyOp55
 70
     1
102
RTVSPropertyOp56
 70
     1
102
RTVSPropertyOp57
 70
     1
102
RTVSPost2010Prop28
280
     0
102
RTVSPost2010PropOp28
 70
     1
102
RTVSPost2010Prop29
280
     1
102
RTVSPost2010PropOp29
 70
     1
102
RTVSPost2010Prop30
280
     1
102
RTVSPost2010PropOp30
 70
     1
102
RTVSPost2010Prop31
280
     0
102
RTVSPost2010PropOp31
 70
     1
102
RTVSPost2010Prop32
280
     0
102
RTVSPost2010PropOp32
 70
     1
102
RTVSPost2010Prop33
280
     0
102
RTVSPost2010PropOp33
 70
     1
102
RTVSPost2010Prop34
280
     0
102
RTVSPost2010PropOp34
 70
     1
102
RTVSPost2010Prop35
280
     0
102
RTVSPost2010PropOp35
 70
     1
102
RTVSPost2010Prop36
280
     0
102
RTVSPost2010PropOp36
 70
     1
102
RTVSPost2010Prop37
 90
       50
102
RTVSPost2010PropOp37
 70
     1
102
RTVSPost2010Prop38
140
0.0
102
RTVSPost2010PropOp38
 70
     1
102
RTVSPost2010Prop39
140
1.0
102
RTVSPost2010PropOp39
 70
     1
102
RTVSPost2010Prop40
 90
        0
102
RTVSPost2010PropOp40
 70
     1
102
RTVSPost2010Prop41ColorIndex
 90
       18
102
RTVSPost2010Prop41ColorRGB
 90
        0
102
RTVSPost2010PropOp41
 70
     1
102
RTVSPost2010Prop42
 90
       50
102
RTVSPost2010PropOp42
 70
     1
102
RTVSPost2010Prop43
 90
        3
102
RTVSPost2010PropOp43
 70
     1
102
RTVSPost2010Prop44ColorIndex
 90
        5
102
RTVSPost2010Prop44ColorRGB
 90
      255
102
RTVSPost2010PropOp44
 70
     1
102
RTVSPost2010Prop45
280
     0
102
RTVSPost2010PropOp45
 70
     1
102
RTVSPost2010Prop46
 90
       50
102
RTVSPost2010PropOp46
 70
     1
102
RTVSPost2010Prop47
 90
       50
102
RTVSPost2010PropOp47
 70
     1
102
RTVSPost2010Prop48
 90
       50
102
RTVSPost2010PropOp48
 70
     1
102
RTVSPost2010Prop49
280
     0
102
RTVSPost2010PropOp49
 70
     1
102
RTVSPost2010Prop50
 90
       50
102
RTVSPost2010PropOp50
 70
     1
102
RTVSPost2010Prop51ColorIndex
 90
      256
102
RTVSPost2010Prop51ColorRGB
 90
-16777216
102
RTVSPost2010PropOp51
 70
     0
102
RTVSPost2010Prop52
140
1.0
102
RTVSPost2010PropOp52
 70
     0
102
RTVSPost2010Prop53
 90
        2
102
RTVSPost2010PropOp53
 70
     1
102
RTVSPost2010Prop54
  1
strokes_ogs.tif
102
RTVSPost2010PropOp54
 70
     1
102
RTVSPost2010Prop55
280
     0
102
RTVSPost2010PropOp55
 70
     1
102
RTVSPost2010Prop56
140
1.0
102
RTVSPost2010PropOp56
 70
     1
102
RTVSPost2010Prop57
140
1.0
102
RTVSPost2010PropOp57
 70
     1
  0
XRECORD
  5
106ACB4
102
{ACAD_REACTORS
330
106ACB3
102
}
330
106ACB3
100
AcDbXrecord
280
     1
102
RTVSPropertyOp0
 70
     1
102
RTVSPropertyOp1
 70
     1
102
RTVSPropertyOp2
 70
     1
102
RTVSPropertyOp3
 70
     1
102
RTVSPropertyOp4
 70
     1
102
RTVSPropertyOp5
 70
     1
102
RTVSPropertyOp6
 70
     1
102
RTVSPropertyOp7
 70
     1
102
RTVSPropertyOp8
 70
     1
102
RTVSPropertyOp9
 70
     1
102
RTVSPropertyOp10
 70
     1
102
RTVSPropertyOp11
 70
     1
102
RTVSPropertyOp12
 70
     1
102
RTVSPropertyOp13
 70
     1
102
RTVSPropertyOp14
 70
     1
102
RTVSPropertyOp15
 70
     1
102
RTVSPropertyOp16
 70
     1
102
RTVSPropertyOp17
 70
     1
102
RTVSPropertyOp18
 70
     1
102
RTVSPropertyOp19
 70
     1
102
RTVSPropertyOp20
 70
     1
102
RTVSPropertyOp21
 70
     1
102
RTVSPropertyOp22
 70
     1
102
RTVSPropertyOp23
 70
     1
102
RTVSPropertyOp24
 70
     1
102
RTVSPropertyOp25
 70
     1
102
RTVSPropertyOp26
 70
     1
102
RTVSPropertyOp27
 70
     1
102
RTVSPropertyOp28
 70
     1
102
RTVSPropertyOp29
 70
     1
102
RTVSPropertyOp30
 70
     1
102
RTVSPropertyOp31
 70
     1
102
RTVSPropertyOp32
 70
     1
102
RTVSPropertyOp33
 70
     1
102
RTVSPropertyOp34
 70
     1
102
RTVSPropertyOp35
 70
     1
102
RTVSPropertyOp36
 70
     1
102
RTVSPropertyOp37
 70
     1
102
RTVSPropertyOp38
 70
     1
102
RTVSPropertyOp39
 70
     1
102
RTVSPropertyOp40
 70
     1
102
RTVSPropertyOp41
 70
     1
102
RTVSPropertyOp42
 70
     1
102
RTVSPropertyOp43
 70
     1
102
RTVSPropertyOp44
 70
     1
102
RTVSPropertyOp45
 70
     1
102
RTVSPropertyOp46
 70
     1
102
RTVSPropertyOp47
 70
     1
102
RTVSPropertyOp48
 70
     1
102
RTVSPropertyOp49
 70
     1
102
RTVSPropertyOp50
 70
     1
102
RTVSPropertyOp51
 70
     0
102
RTVSPropertyOp52
 70
     0
102
RTVSPropertyOp53
 70
     1
102
RTVSPropertyOp54
 70
     1
102
RTVSPropertyOp55
 70
     1
102
RTVSPropertyOp56
 70
     1
102
RTVSPropertyOp57
 70
     1
102
RTVSPost2010Prop28
280
     0
102
RTVSPost2010PropOp28
 70
     1
102
RTVSPost2010Prop29
280
     1
102
RTVSPost2010PropOp29
 70
     1
102
RTVSPost2010Prop30
280
     1
102
RTVSPost2010PropOp30
 70
     1
102
RTVSPost2010Prop31
280
     0
102
RTVSPost2010PropOp31
 70
     1
102
RTVSPost2010Prop32
280
     0
102
RTVSPost2010PropOp32
 70
     1
102
RTVSPost2010Prop33
280
     0
102
RTVSPost2010PropOp33
 70
     1
102
RTVSPost2010Prop34
280
     0
102
RTVSPost2010PropOp34
 70
     1
102
RTVSPost2010Prop35
280
     0
102
RTVSPost2010PropOp35
 70
     1
102
RTVSPost2010Prop36
280
     0
102
RTVSPost2010PropOp36
 70
     1
102
RTVSPost2010Prop37
 90
       50
102
RTVSPost2010PropOp37
 70
     1
102
RTVSPost2010Prop38
140
0.0
102
RTVSPost2010PropOp38
 70
     1
102
RTVSPost2010Prop39
140
1.0
102
RTVSPost2010PropOp39
 70
     1
102
RTVSPost2010Prop40
 90
        0
102
RTVSPost2010PropOp40
 70
     1
102
RTVSPost2010Prop41ColorIndex
 90
       18
102
RTVSPost2010Prop41ColorRGB
 90
        0
102
RTVSPost2010PropOp41
 70
     1
102
RTVSPost2010Prop42
 90
       50
102
RTVSPost2010PropOp42
 70
     1
102
RTVSPost2010Prop43
 90
        3
102
RTVSPost2010PropOp43
 70
     1
102
RTVSPost2010Prop44ColorIndex
 90
        5
102
RTVSPost2010Prop44ColorRGB
 90
      255
102
RTVSPost2010PropOp44
 70
     1
102
RTVSPost2010Prop45
280
     0
102
RTVSPost2010PropOp45
 70
     1
102
RTVSPost2010Prop46
 90
       50
102
RTVSPost2010PropOp46
 70
     1
102
RTVSPost2010Prop47
 90
       50
102
RTVSPost2010PropOp47
 70
     1
102
RTVSPost2010Prop48
 90
       50
102
RTVSPost2010PropOp48
 70
     1
102
RTVSPost2010Prop49
280
     0
102
RTVSPost2010PropOp49
 70
     1
102
RTVSPost2010Prop50
 90
       50
102
RTVSPost2010PropOp50
 70
     1
102
RTVSPost2010Prop51ColorIndex
 90
      256
102
RTVSPost2010Prop51ColorRGB
 90
-16777216
102
RTVSPost2010PropOp51
 70
     0
102
RTVSPost2010Prop52
140
1.0
102
RTVSPost2010PropOp52
 70
     0
102
RTVSPost2010Prop53
 90
        2
102
RTVSPost2010PropOp53
 70
     1
102
RTVSPost2010Prop54
  1
strokes_ogs.tif
102
RTVSPost2010PropOp54
 70
     1
102
RTVSPost2010Prop55
280
     0
102
RTVSPost2010PropOp55
 70
     1
102
RTVSPost2010Prop56
140
1.0
102
RTVSPost2010PropOp56
 70
     1
102
RTVSPost2010Prop57
140
1.0
102
RTVSPost2010PropOp57
 70
     1
  0
XRECORD
  5
106ACB6
102
{ACAD_REACTORS
330
106ACB5
102
}
330
106ACB5
100
AcDbXrecord
280
     1
102
RTVSPropertyOp0
 70
     1
102
RTVSPropertyOp1
 70
     1
102
RTVSPropertyOp2
 70
     1
102
RTVSPropertyOp3
 70
     1
102
RTVSPropertyOp4
 70
     1
102
RTVSPropertyOp5
 70
     1
102
RTVSPropertyOp6
 70
     1
102
RTVSPropertyOp7
 70
     1
102
RTVSPropertyOp8
 70
     1
102
RTVSPropertyOp9
 70
     1
102
RTVSPropertyOp10
 70
     1
102
RTVSPropertyOp11
 70
     1
102
RTVSPropertyOp12
 70
     1
102
RTVSPropertyOp13
 70
     1
102
RTVSPropertyOp14
 70
     1
102
RTVSPropertyOp15
 70
     1
102
RTVSPropertyOp16
 70
     1
102
RTVSPropertyOp17
 70
     1
102
RTVSPropertyOp18
 70
     1
102
RTVSPropertyOp19
 70
     1
102
RTVSPropertyOp20
 70
     1
102
RTVSPropertyOp21
 70
     1
102
RTVSPropertyOp22
 70
     1
102
RTVSPropertyOp23
 70
     1
102
RTVSPropertyOp24
 70
     1
102
RTVSPropertyOp25
 70
     1
102
RTVSPropertyOp26
 70
     1
102
RTVSPropertyOp27
 70
     1
102
RTVSPropertyOp28
 70
     1
102
RTVSPropertyOp29
 70
     1
102
RTVSPropertyOp30
 70
     1
102
RTVSPropertyOp31
 70
     1
102
RTVSPropertyOp32
 70
     1
102
RTVSPropertyOp33
 70
     1
102
RTVSPropertyOp34
 70
     1
102
RTVSPropertyOp35
 70
     1
102
RTVSPropertyOp36
 70
     1
102
RTVSPropertyOp37
 70
     1
102
RTVSPropertyOp38
 70
     1
102
RTVSPropertyOp39
 70
     1
102
RTVSPropertyOp40
 70
     1
102
RTVSPropertyOp41
 70
     1
102
RTVSPropertyOp42
 70
     1
102
RTVSPropertyOp43
 70
     1
102
RTVSPropertyOp44
 70
     1
102
RTVSPropertyOp45
 70
     1
102
RTVSPropertyOp46
 70
     1
102
RTVSPropertyOp47
 70
     1
102
RTVSPropertyOp48
 70
     1
102
RTVSPropertyOp49
 70
     1
102
RTVSPropertyOp50
 70
     1
102
RTVSPropertyOp51
 70
     0
102
RTVSPropertyOp52
 70
     0
102
RTVSPropertyOp53
 70
     1
102
RTVSPropertyOp54
 70
     1
102
RTVSPropertyOp55
 70
     1
102
RTVSPropertyOp56
 70
     1
102
RTVSPropertyOp57
 70
     1
102
RTVSPost2010Prop28
280
     0
102
RTVSPost2010PropOp28
 70
     1
102
RTVSPost2010Prop29
280
     1
102
RTVSPost2010PropOp29
 70
     1
102
RTVSPost2010Prop30
280
     1
102
RTVSPost2010PropOp30
 70
     1
102
RTVSPost2010Prop31
280
     0
102
RTVSPost2010PropOp31
 70
     1
102
RTVSPost2010Prop32
280
     0
102
RTVSPost2010PropOp32
 70
     1
102
RTVSPost2010Prop33
280
     0
102
RTVSPost2010PropOp33
 70
     1
102
RTVSPost2010Prop34
280
     0
102
RTVSPost2010PropOp34
 70
     1
102
RTVSPost2010Prop35
280
     0
102
RTVSPost2010PropOp35
 70
     1
102
RTVSPost2010Prop36
280
     0
102
RTVSPost2010PropOp36
 70
     1
102
RTVSPost2010Prop37
 90
       50
102
RTVSPost2010PropOp37
 70
     1
102
RTVSPost2010Prop38
140
0.0
102
RTVSPost2010PropOp38
 70
     1
102
RTVSPost2010Prop39
140
1.0
102
RTVSPost2010PropOp39
 70
     1
102
RTVSPost2010Prop40
 90
        0
102
RTVSPost2010PropOp40
 70
     1
102
RTVSPost2010Prop41ColorIndex
 90
       18
102
RTVSPost2010Prop41ColorRGB
 90
        0
102
RTVSPost2010PropOp41
 70
     1
102
RTVSPost2010Prop42
 90
       50
102
RTVSPost2010PropOp42
 70
     1
102
RTVSPost2010Prop43
 90
        3
102
RTVSPost2010PropOp43
 70
     1
102
RTVSPost2010Prop44ColorIndex
 90
        5
102
RTVSPost2010Prop44ColorRGB
 90
      255
102
RTVSPost2010PropOp44
 70
     1
102
RTVSPost2010Prop45
280
     0
102
RTVSPost2010PropOp45
 70
     1
102
RTVSPost2010Prop46
 90
       50
102
RTVSPost2010PropOp46
 70
     1
102
RTVSPost2010Prop47
 90
       50
102
RTVSPost2010PropOp47
 70
     1
102
RTVSPost2010Prop48
 90
       50
102
RTVSPost2010PropOp48
 70
     1
102
RTVSPost2010Prop49
280
     0
102
RTVSPost2010PropOp49
 70
     1
102
RTVSPost2010Prop50
 90
       50
102
RTVSPost2010PropOp50
 70
     1
102
RTVSPost2010Prop51ColorIndex
 90
      256
102
RTVSPost2010Prop51ColorRGB
 90
-16777216
102
RTVSPost2010PropOp51
 70
     0
102
RTVSPost2010Prop52
140
1.0
102
RTVSPost2010PropOp52
 70
     0
102
RTVSPost2010Prop53
 90
        2
102
RTVSPost2010PropOp53
 70
     1
102
RTVSPost2010Prop54
  1
strokes_ogs.tif
102
RTVSPost2010PropOp54
 70
     1
102
RTVSPost2010Prop55
280
     0
102
RTVSPost2010PropOp55
 70
     1
102
RTVSPost2010Prop56
140
1.0
102
RTVSPost2010PropOp56
 70
     1
102
RTVSPost2010Prop57
140
1.0
102
RTVSPost2010PropOp57
 70
     1
  0
XRECORD
  5
106ACB8
102
{ACAD_REACTORS
330
106ACB7
102
}
330
106ACB7
100
AcDbXrecord
280
     1
102
RTVSPropertyOp0
 70
     1
102
RTVSPropertyOp1
 70
     1
102
RTVSPropertyOp2
 70
     1
102
RTVSPropertyOp3
 70
     1
102
RTVSPropertyOp4
 70
     1
102
RTVSPropertyOp5
 70
     1
102
RTVSPropertyOp6
 70
     1
102
RTVSPropertyOp7
 70
     1
102
RTVSPropertyOp8
 70
     1
102
RTVSPropertyOp9
 70
     1
102
RTVSPropertyOp10
 70
     1
102
RTVSPropertyOp11
 70
     1
102
RTVSPropertyOp12
 70
     1
102
RTVSPropertyOp13
 70
     1
102
RTVSPropertyOp14
 70
     1
102
RTVSPropertyOp15
 70
     1
102
RTVSPropertyOp16
 70
     1
102
RTVSPropertyOp17
 70
     1
102
RTVSPropertyOp18
 70
     1
102
RTVSPropertyOp19
 70
     1
102
RTVSPropertyOp20
 70
     1
102
RTVSPropertyOp21
 70
     1
102
RTVSPropertyOp22
 70
     1
102
RTVSPropertyOp23
 70
     1
102
RTVSPropertyOp24
 70
     1
102
RTVSPropertyOp25
 70
     1
102
RTVSPropertyOp26
 70
     1
102
RTVSPropertyOp27
 70
     1
102
RTVSPropertyOp28
 70
     1
102
RTVSPropertyOp29
 70
     1
102
RTVSPropertyOp30
 70
     1
102
RTVSPropertyOp31
 70
     1
102
RTVSPropertyOp32
 70
     1
102
RTVSPropertyOp33
 70
     1
102
RTVSPropertyOp34
 70
     1
102
RTVSPropertyOp35
 70
     1
102
RTVSPropertyOp36
 70
     1
102
RTVSPropertyOp37
 70
     1
102
RTVSPropertyOp38
 70
     1
102
RTVSPropertyOp39
 70
     1
102
RTVSPropertyOp40
 70
     1
102
RTVSPropertyOp41
 70
     1
102
RTVSPropertyOp42
 70
     1
102
RTVSPropertyOp43
 70
     1
102
RTVSPropertyOp44
 70
     1
102
RTVSPropertyOp45
 70
     1
102
RTVSPropertyOp46
 70
     1
102
RTVSPropertyOp47
 70
     1
102
RTVSPropertyOp48
 70
     1
102
RTVSPropertyOp49
 70
     1
102
RTVSPropertyOp50
 70
     1
102
RTVSPropertyOp51
 70
     0
102
RTVSPropertyOp52
 70
     0
102
RTVSPropertyOp53
 70
     1
102
RTVSPropertyOp54
 70
     1
102
RTVSPropertyOp55
 70
     1
102
RTVSPropertyOp56
 70
     1
102
RTVSPropertyOp57
 70
     1
102
RTVSPost2010Prop28
280
     0
102
RTVSPost2010PropOp28
 70
     1
102
RTVSPost2010Prop29
280
     1
102
RTVSPost2010PropOp29
 70
     1
102
RTVSPost2010Prop30
280
     1
102
RTVSPost2010PropOp30
 70
     1
102
RTVSPost2010Prop31
280
     0
102
RTVSPost2010PropOp31
 70
     1
102
RTVSPost2010Prop32
280
     0
102
RTVSPost2010PropOp32
 70
     1
102
RTVSPost2010Prop33
280
     0
102
RTVSPost2010PropOp33
 70
     1
102
RTVSPost2010Prop34
280
     0
102
RTVSPost2010PropOp34
 70
     1
102
RTVSPost2010Prop35
280
     0
102
RTVSPost2010PropOp35
 70
     1
102
RTVSPost2010Prop36
280
     0
102
RTVSPost2010PropOp36
 70
     1
102
RTVSPost2010Prop37
 90
       50
102
RTVSPost2010PropOp37
 70
     1
102
RTVSPost2010Prop38
140
0.0
102
RTVSPost2010PropOp38
 70
     1
102
RTVSPost2010Prop39
140
1.0
102
RTVSPost2010PropOp39
 70
     1
102
RTVSPost2010Prop40
 90
        0
102
RTVSPost2010PropOp40
 70
     1
102
RTVSPost2010Prop41ColorIndex
 90
       18
102
RTVSPost2010Prop41ColorRGB
 90
        0
102
RTVSPost2010PropOp41
 70
     1
102
RTVSPost2010Prop42
 90
       50
102
RTVSPost2010PropOp42
 70
     1
102
RTVSPost2010Prop43
 90
        3
102
RTVSPost2010PropOp43
 70
     1
102
RTVSPost2010Prop44ColorIndex
 90
        5
102
RTVSPost2010Prop44ColorRGB
 90
      255
102
RTVSPost2010PropOp44
 70
     1
102
RTVSPost2010Prop45
280
     0
102
RTVSPost2010PropOp45
 70
     1
102
RTVSPost2010Prop46
 90
       50
102
RTVSPost2010PropOp46
 70
     1
102
RTVSPost2010Prop47
 90
       50
102
RTVSPost2010PropOp47
 70
     1
102
RTVSPost2010Prop48
 90
       50
102
RTVSPost2010PropOp48
 70
     1
102
RTVSPost2010Prop49
280
     0
102
RTVSPost2010PropOp49
 70
     1
102
RTVSPost2010Prop50
 90
       50
102
RTVSPost2010PropOp50
 70
     1
102
RTVSPost2010Prop51ColorIndex
 90
      256
102
RTVSPost2010Prop51ColorRGB
 90
-16777216
102
RTVSPost2010PropOp51
 70
     0
102
RTVSPost2010Prop52
140
1.0
102
RTVSPost2010PropOp52
 70
     0
102
RTVSPost2010Prop53
 90
        2
102
RTVSPost2010PropOp53
 70
     1
102
RTVSPost2010Prop54
  1
strokes_ogs.tif
102
RTVSPost2010PropOp54
 70
     1
102
RTVSPost2010Prop55
280
     0
102
RTVSPost2010PropOp55
 70
     1
102
RTVSPost2010Prop56
140
1.0
102
RTVSPost2010PropOp56
 70
     1
102
RTVSPost2010Prop57
140
1.0
102
RTVSPost2010PropOp57
 70
     1
  0
ENDSEC
  0
EOF
